  0
SECTION
  2
HEADER
  9
$ACADVER
  1
AC1015
  9
$ACADMAINTVER
 70
     6
  9
$DWGCODEPAGE
  3
ANSI_1252
  9
$INSBASE
 10
0.0
 20
0.0
 30
0.0
  9
$EXTMIN
 10
0.0
 20
0.0
 30
0.0
  9
$EXTMAX
 10
297.0
 20
210.0
 30
0.0
  9
$LIMMIN
 10
0.0
 20
0.0
  9
$LIMMAX
 10
297.0
 20
210.0
  9
$ORTHOMODE
 70
     0
  9
$REGENMODE
 70
     1
  9
$FILLMODE
 70
     1
  9
$QTEXTMODE
 70
     0
  9
$MIRRTEXT
 70
     1
  9
$LTSCALE
 40
1.0
  9
$ATTMODE
 70
     1
  9
$TEXTSIZE
 40
2.5
  9
$TRACEWID
 40
1.0
  9
$TEXTSTYLE
  7
Standard
  9
$CLAYER
  8
0
  9
$CELTYPE
  6
ByLayer
  9
$CECOLOR
 62
   256
  9
$CELTSCALE
 40
1.0
  9
$DISPSILH
 70
     0
  9
$DIMSCALE
 40
1.0
  9
$DIMASZ
 40
2.5
  9
$DIMEXO
 40
0.625
  9
$DIMDLI
 40
3.75
  9
$DIMRND
 40
0.0
  9
$DIMDLE
 40
0.0
  9
$DIMEXE
 40
1.25
  9
$DIMTP
 40
0.0
  9
$DIMTM
 40
0.0
  9
$DIMTXT
 40
2.5
  9
$DIMCEN
 40
2.5
  9
$DIMTSZ
 40
0.0
  9
$DIMTOL
 70
     0
  9
$DIMLIM
 70
     0
  9
$DIMTIH
 70
     0
  9
$DIMTOH
 70
     0
  9
$DIMSE1
 70
     0
  9
$DIMSE2
 70
     0
  9
$DIMTAD
 70
     1
  9
$DIMZIN
 70
     8
  9
$DIMBLK
  1

  9
$DIMASO
 70
     1
  9
$DIMSHO
 70
     1
  9
$DIMPOST
  1

  9
$DIMAPOST
  1

  9
$DIMALT
 70
     0
  9
$DIMALTD
 70
     3
  9
$DIMALTF
 40
0.0393700787
  9
$DIMLFAC
 40
1.0
  9
$DIMTOFL
 70
     1
  9
$DIMTVP
 40
0.0
  9
$DIMTIX
 70
     0
  9
$DIMSOXD
 70
     0
  9
$DIMSAH
 70
     0
  9
$DIMBLK1
  1

  9
$DIMBLK2
  1

  9
$DIMSTYLE
  2
ISO-25
  9
$DIMCLRD
 70
     0
  9
$DIMCLRE
 70
     0
  9
$DIMCLRT
 70
     0
  9
$DIMTFAC
 40
1.0
  9
$DIMGAP
 40
0.625
  9
$DIMJUST
 70
     0
  9
$DIMSD1
 70
     0
  9
$DIMSD2
 70
     0
  9
$DIMTOLJ
 70
     0
  9
$DIMTZIN
 70
     8
  9
$DIMALTZ
 70
     0
  9
$DIMALTTZ
 70
     0
  9
$DIMUPT
 70
     0
  9
$DIMDEC
 70
     2
  9
$DIMTDEC
 70
     2
  9
$DIMALTU
 70
     2
  9
$DIMALTTD
 70
     3
  9
$DIMTXSTY
  7
Standard
  9
$DIMAUNIT
 70
     0
  9
$DIMADEC
 70
     0
  9
$DIMALTRND
 40
0.0
  9
$DIMAZIN
 70
     0
  9
$DIMDSEP
 70
    44
  9
$DIMATFIT
 70
     3
  9
$DIMFRAC
 70
     0
  9
$DIMLDRBLK
  1

  9
$DIMLUNIT
 70
     2
  9
$DIMLWD
 70
    -2
  9
$DIMLWE
 70
    -2
  9
$DIMTMOVE
 70
     0
  9
$LUNITS
 70
     2
  9
$LUPREC
 70
     4
  9
$SKETCHINC
 40
1.0
  9
$FILLETRAD
 40
10.0
  9
$AUNITS
 70
     0
  9
$AUPREC
 70
     0
  9
$MENU
  1
.
  9
$ELEVATION
 40
0.0
  9
$PELEVATION
 40
0.0
  9
$THICKNESS
 40
0.0
  9
$LIMCHECK
 70
     0
  9
$CHAMFERA
 40
10.0
  9
$CHAMFERB
 40
10.0
  9
$CHAMFERC
 40
20.0
  9
$CHAMFERD
 40
0.0
  9
$SKPOLY
 70
     0
  9
$TDCREATE
 40
2457484.309367442
  9
$TDUCREATE
 40
2457484.226034109
  9
$TDUPDATE
 40
2457484.309369664
  9
$TDUUPDATE
 40
2457484.226036331
  9
$TDINDWG
 40
0.0000000116
  9
$TDUSRTIMER
 40
0.0000000116
  9
$USRTIMER
 70
     1
  9
$ANGBASE
 50
0.0
  9
$ANGDIR
 70
     0
  9
$PDMODE
 70
     0
  9
$PDSIZE
 40
0.0
  9
$PLINEWID
 40
0.0
  9
$SPLFRAME
 70
     0
  9
$SPLINETYPE
 70
     6
  9
$SPLINESEGS
 70
     8
  9
$HANDSEED
  5
272
  9
$SURFTAB1
 70
     6
  9
$SURFTAB2
 70
     6
  9
$SURFTYPE
 70
     6
  9
$SURFU
 70
     6
  9
$SURFV
 70
     6
  9
$UCSBASE
  2

  9
$UCSNAME
  2

  9
$UCSORG
 10
0.0
 20
0.0
 30
0.0
  9
$UCSXDIR
 10
1.0
 20
0.0
 30
0.0
  9
$UCSYDIR
 10
0.0
 20
1.0
 30
0.0
  9
$UCSORTHOREF
  2

  9
$UCSORTHOVIEW
 70
     0
  9
$UCSORGTOP
 10
0.0
 20
0.0
 30
0.0
  9
$UCSORGBOTTOM
 10
0.0
 20
0.0
 30
0.0
  9
$UCSORGLEFT
 10
0.0
 20
0.0
 30
0.0
  9
$UCSORGRIGHT
 10
0.0
 20
0.0
 30
0.0
  9
$UCSORGFRONT
 10
0.0
 20
0.0
 30
0.0
  9
$UCSORGBACK
 10
0.0
 20
0.0
 30
0.0
  9
$PUCSBASE
  2

  9
$PUCSNAME
  2

  9
$PUCSORG
 10
0.0
 20
0.0
 30
0.0
  9
$PUCSXDIR
 10
1.0
 20
0.0
 30
0.0
  9
$PUCSYDIR
 10
0.0
 20
1.0
 30
0.0
  9
$PUCSORTHOREF
  2

  9
$PUCSORTHOVIEW
 70
     0
  9
$PUCSORGTOP
 10
0.0
 20
0.0
 30
0.0
  9
$PUCSORGBOTTOM
 10
0.0
 20
0.0
 30
0.0
  9
$PUCSORGLEFT
 10
0.0
 20
0.0
 30
0.0
  9
$PUCSORGRIGHT
 10
0.0
 20
0.0
 30
0.0
  9
$PUCSORGFRONT
 10
0.0
 20
0.0
 30
0.0
  9
$PUCSORGBACK
 10
0.0
 20
0.0
 30
0.0
  9
$USERI1
 70
     0
  9
$USERI2
 70
     0
  9
$USERI3
 70
     0
  9
$USERI4
 70
     0
  9
$USERI5
 70
     0
  9
$USERR1
 40
0.0
  9
$USERR2
 40
0.0
  9
$USERR3
 40
0.0
  9
$USERR4
 40
0.0
  9
$USERR5
 40
0.0
  9
$WORLDVIEW
 70
     1
  9
$SHADEDGE
 70
     3
  9
$SHADEDIF
 70
    70
  9
$TILEMODE
 70
     1
  9
$MAXACTVP
 70
    64
  9
$PINSBASE
 10
0.0
 20
0.0
 30
0.0
  9
$PLIMCHECK
 70
     0
  9
$PEXTMIN
 10
0.0
 20
0.0
 30
0.0
  9
$PEXTMAX
 10
297.0
 20
210.0
 30
0.0
  9
$PLIMMIN
 10
0.0
 20
0.0
  9
$PLIMMAX
 10
297.0
 20
210.0
  9
$UNITMODE
 70
     0
  9
$VISRETAIN
 70
     1
  9
$PLINEGEN
 70
     0
  9
$PSLTSCALE
 70
     1
  9
$TREEDEPTH
 70
  3020
  9
$CMLSTYLE
  2
Standard
  9
$CMLJUST
 70
     0
  9
$CMLSCALE
 40
20.0
  9
$PROXYGRAPHICS
 70
     1
  9
$MEASUREMENT
 70
     1
  9
$CELWEIGHT
370
    -1
  9
$ENDCAPS
280
     0
  9
$JOINSTYLE
280
     0
  9
$LWDISPLAY
290
     0
  9
$INSUNITS
 70
     4
  9
$HYPERLINKBASE
  1

  9
$STYLESHEET
  1

  9
$XEDIT
290
     1
  9
$CEPSNTYPE
380
     0
  9
$PSTYLEMODE
290
     1
  9
$FINGERPRINTGUID
  2
{866F1ABC-ED52-4903-A375-AEB9E62ADB31}
  9
$VERSIONGUID
  2
{FAEB1C32-E019-11D5-929B-00C0DF256EC4}
  9
$EXTNAMES
290
     1
  9
$PSVPSCALE
 40
0.0
  9
$OLESTARTUP
290
     0
  0
ENDSEC
  0
SECTION
  2
CLASSES
  0
CLASS
  1
ACDBDICTIONARYWDFLT
  2
AcDbDictionaryWithDefault
  3
ObjectDBX Classes
 90
        0
280
     0
281
     0
  0
CLASS
  1
VISUALSTYLE
  2
AcDbVisualStyle
  3
ObjectDBX Classes
 90
     4095
280
     0
281
     0
  0
CLASS
  1
MATERIAL
  2
AcDbMaterial
  3
ObjectDBX Classes
 90
     1153
280
     0
281
     0
  0
CLASS
  1
DICTIONARYVAR
  2
AcDbDictionaryVar
  3
ObjectDBX Classes
 90
        0
280
     0
281
     0
  0
CLASS
  1
ACDBPLACEHOLDER
  2
AcDbPlaceHolder
  3
ObjectDBX Classes
 90
        0
280
     0
281
     0
  0
CLASS
  1
LAYOUT
  2
AcDbLayout
  3
ObjectDBX Classes
 90
        0
280
     0
281
     0
  0
ENDSEC
  0
SECTION
  2
TABLES
  0
TABLE
  2
VPORT
  5
8
330
0
100
AcDbSymbolTable
 70
     1
  0
VPORT
  5
29
330
8
100
AcDbSymbolTableRecord
100
AcDbViewportTableRecord
  2
*Active
 70
     0
 10
0.0
 20
0.0
 11
1.0
 21
1.0
 12
344.1869158879
 22
148.5
 13
0.0
 23
0.0
 14
10.0
 24
10.0
 15
10.0
 25
10.0
 16
0.0
 26
0.0
 36
1.0
 17
0.0
 27
0.0
 37
0.0
 40
297.0
 41
1.9729729729
 42
50.0
 43
0.0
 44
0.0
 50
0.0
 51
0.0
 71
     0
 72
   100
 73
     1
 74
     3
 75
     0
 76
     0
 77
     0
 78
     0
281
     0
 65
     1
110
0.0
120
0.0
130
0.0
111
1.0
121
0.0
131
0.0
112
0.0
122
1.0
132
0.0
 79
     0
146
0.0
  0
ENDTAB
  0
TABLE
  2
LTYPE
  5
5
330
0
100
AcDbSymbolTable
 70
     3
  0
LTYPE
  5
14
330
5
100
AcDbSymbolTableRecord
100
AcDbLinetypeTableRecord
  2
ByBlock
 70
     0
  3

 72
    65
 73
     0
 40
0.0
  0
LTYPE
  5
15
330
5
100
AcDbSymbolTableRecord
100
AcDbLinetypeTableRecord
  2
ByLayer
 70
     0
  3

 72
    65
 73
     0
 40
0.0
  0
LTYPE
  5
16
330
5
100
AcDbSymbolTableRecord
100
AcDbLinetypeTableRecord
  2
Continuous
 70
     0
  3
Solid line
 72
    65
 73
     0
 40
0.0
  0
LTYPE
  5
151
330
5
100
AcDbSymbolTableRecord
100
AcDbLinetypeTableRecord
  2
PHANTOM2
 70
     0
  3
Phantom (.5x) ___ _ _ ___ _ _ ___ _ _ ___ _ _
 72
    65
 73
     6
 40
31.75
 49
15.875
 74
     4
 75
     0
340
0
 46
0.0
 50
0.0
 44
0.0
 45
0.0
 49
-3.175
 74
     4
 75
     0
340
0
 46
0.0
 50
0.0
 44
0.0
 45
0.0
 49
3.175
 74
     4
 75
     0
340
0
 46
0.0
 50
0.0
 44
0.0
 45
0.0
 49
-3.175
 74
     4
 75
     0
340
0
 46
0.0
 50
0.0
 44
0.0
 45
0.0
 49
3.175
 74
     4
 75
     0
340
0
 46
0.0
 50
0.0
 44
0.0
 45
0.0
 49
-3.175
 74
     4
 75
     0
340
0
 46
0.0
 50
0.0
 44
0.0
 45
0.0
  0
LTYPE
  5
172
330
5
100
AcDbSymbolTableRecord
100
AcDbLinetypeTableRecord
  2
CENTER2
 70
     0
  3
Center (.5x) ___ _ ___ _ ___ _ ___ _ ___ _ ___
 72
    65
 73
     4
 40
28.575
 49
19.05
 74
     4
 75
     0
340
0
 46
0.0
 50
0.0
 44
0.0
 45
0.0
 49
-3.175
 74
     4
 75
     0
340
0
 46
0.0
 50
0.0
 44
0.0
 45
0.0
 49
3.175
 74
     4
 75
     0
340
0
 46
0.0
 50
0.0
 44
0.0
 45
0.0
 49
-3.175
 74
     4
 75
     0
340
0
 46
0.0
 50
0.0
 44
0.0
 45
0.0
  0
ENDTAB
  0
TABLE
  2
LAYER
  5
2
330
0
100
AcDbSymbolTable
 70
     5
  0
LAYER
  5
10
330
2
100
AcDbSymbolTableRecord
100
AcDbLayerTableRecord
  2
0
 70
     0
 62
     7
  6
Continuous
370
    -3
390
F
  0
LAYER
  5
3F
330
2
100
AcDbSymbolTableRecord
100
AcDbLayerTableRecord
  2
Default
 70
     0
 62
     7
  6
Continuous
370
    -3
390
F
  0
LAYER
  5
42
330
2
100
AcDbSymbolTableRecord
100
AcDbLayerTableRecord
  2
0011929
 70
     0
 62
     7
  6
Continuous
370
    -3
390
F
  0
LAYER
  5
150
330
2
100
AcDbSymbolTableRecord
100
AcDbLayerTableRecord
  2
DV1_Default
 70
     0
 62
     7
  6
Continuous
370
    -3
390
F
  0
LAYER
  5
153
330
2
100
AcDbSymbolTableRecord
100
AcDbLayerTableRecord
  2
DV1_Hilfe
 70
     1
 62
    -7
  6
Continuous
370
    -3
390
F
  0
ENDTAB
  0
TABLE
  2
STYLE
  5
3
330
0
100
AcDbSymbolTable
 70
     5
  0
STYLE
  5
11
330
3
100
AcDbSymbolTableRecord
100
AcDbTextStyleTableRecord
  2
Standard
 70
     0
 40
0.0
 41
1.0
 50
0.0
 71
     0
 42
2.5
  3
txt
  4

  0
STYLE
  5
166
330
3
100
AcDbSymbolTableRecord
100
AcDbTextStyleTableRecord
  2
SEACAD_Solid_Edge_ISO
 70
     0
 40
0.0
 41
1.0
 50
0.0
 71
     0
 42
0.2
  3
seiso.ttf
  4

1001
ACAD
1000
Solid Edge ISO
1071
        0
  0
STYLE
  5
188
330
3
100
AcDbSymbolTableRecord
100
AcDbTextStyleTableRecord
  2
SEACAD_Solid_Edge_ISO1_Symbols
 70
     0
 40
0.0
 41
1.0
 50
0.0
 71
     0
 42
0.2
  3
semeci1.ttf
  4

1001
ACAD
1000
Solid Edge ISO1 Symbols
1071
        0
  0
STYLE
  5
1DE
330
3
100
AcDbSymbolTableRecord
100
AcDbTextStyleTableRecord
  2
SEACAD_Solid_Edge_ANSIB
 70
     0
 40
0.0
 41
1.0
 50
0.0
 71
     0
 42
0.2
  3
seansbd.ttf
  4

1001
ACAD
1000
Solid Edge ANSI
1071
 33554432
  0
STYLE
  5
1E3
330
3
100
AcDbSymbolTableRecord
100
AcDbTextStyleTableRecord
  2
SEACAD_Solid_Edge_ANSI
 70
     0
 40
0.0
 41
1.0
 50
0.0
 71
     0
 42
0.2
  3
seans.ttf
  4

1001
ACAD
1000
Solid Edge ANSI
1071
        0
  0
ENDTAB
  0
TABLE
  2
VIEW
  5
6
330
0
100
AcDbSymbolTable
 70
     0
  0
ENDTAB
  0
TABLE
  2
UCS
  5
7
330
0
100
AcDbSymbolTable
 70
     0
  0
ENDTAB
  0
TABLE
  2
APPID
  5
9
330
0
100
AcDbSymbolTable
 70
     1
  0
APPID
  5
12
330
9
100
AcDbSymbolTableRecord
100
AcDbRegAppTableRecord
  2
ACAD
 70
     0
  0
ENDTAB
  0
TABLE
  2
DIMSTYLE
  5
A
330
0
100
AcDbSymbolTable
 70
     3
100
AcDbDimStyleTable
  0
DIMSTYLE
105
27
330
A
100
AcDbSymbolTableRecord
100
AcDbDimStyleTableRecord
  2
ISO-25
 70
     0
 41
2.5
 42
0.625
 43
3.75
 44
1.25
 73
     0
 74
     0
 77
     1
 78
     8
140
2.5
141
2.5
143
0.0393700787
147
0.625
171
     3
172
     1
178
     0
271
     2
272
     2
274
     3
278
    44
283
     0
284
     8
340
11
  0
DIMSTYLE
105
154
330
A
100
AcDbSymbolTableRecord
100
AcDbDimStyleTableRecord
  2
Standard
 70
     0
178
     0
340
11
  0
DIMSTYLE
105
167
102
{ACAD_REACTORS
330
168
330
177
330
1A0
330
1AA
330
1B4
330
1C9
330
1D3
102
}
330
A
100
AcDbSymbolTableRecord
100
AcDbDimStyleTableRecord
  2
DIN
 70
     0
 41
3.5
 42
0.0
 44
1.75
 73
     0
 74
     0
 77
     1
 78
     8
140
3.5
141
1.75
147
1.75
172
     1
173
     1
178
     0
179
     3
271
     3
272
     3
278
    44
284
     8
340
166
343
161
344
161
  0
ENDTAB
  0
TABLE
  2
BLOCK_RECORD
  5
1
330
0
100
AcDbSymbolTable
 70
    21
  0
BLOCK_RECORD
  5
1F
330
1
100
AcDbSymbolTableRecord
100
AcDbBlockTableRecord
  2
*Model_Space
340
22
  0
BLOCK_RECORD
  5
1B
330
1
100
AcDbSymbolTableRecord
100
AcDbBlockTableRecord
  2
*Paper_Space
340
1E
  0
BLOCK_RECORD
  5
40
330
1
100
AcDbSymbolTableRecord
100
AcDbBlockTableRecord
  2
SE
340
0
102
{BLKREFS
331
41
102
}
  0
BLOCK_RECORD
  5
155
330
1
100
AcDbSymbolTableRecord
100
AcDbBlockTableRecord
  2
_OBLIQUE
340
0
  0
BLOCK_RECORD
  5
159
330
1
100
AcDbSymbolTableRecord
100
AcDbBlockTableRecord
  2
_DOT
340
0
  0
BLOCK_RECORD
  5
161
330
1
100
AcDbSymbolTableRecord
100
AcDbBlockTableRecord
  2
_SE_FILLED
340
0
  0
BLOCK_RECORD
  5
169
330
1
100
AcDbSymbolTableRecord
100
AcDbBlockTableRecord
  2
DMBLK1
340
0
  0
BLOCK_RECORD
  5
178
330
1
100
AcDbSymbolTableRecord
100
AcDbBlockTableRecord
  2
DMBLK2
340
0
  0
BLOCK_RECORD
  5
181
330
1
100
AcDbSymbolTableRecord
100
AcDbBlockTableRecord
  2
GDimGGroup
340
0
102
{BLKREFS
331
182
102
}
  0
BLOCK_RECORD
  5
18D
330
1
100
AcDbSymbolTableRecord
100
AcDbBlockTableRecord
  2
GDimGGroup1
340
0
102
{BLKREFS
331
18E
102
}
  0
BLOCK_RECORD
  5
196
330
1
100
AcDbSymbolTableRecord
100
AcDbBlockTableRecord
  2
GDimGGroup2
340
0
102
{BLKREFS
331
197
102
}
  0
BLOCK_RECORD
  5
1A1
330
1
100
AcDbSymbolTableRecord
100
AcDbBlockTableRecord
  2
DMBLK3
340
0
  0
BLOCK_RECORD
  5
1AB
330
1
100
AcDbSymbolTableRecord
100
AcDbBlockTableRecord
  2
DMBLK4
340
0
  0
BLOCK_RECORD
  5
1B5
330
1
100
AcDbSymbolTableRecord
100
AcDbBlockTableRecord
  2
DMBLK5
340
0
  0
BLOCK_RECORD
  5
1BE
330
1
100
AcDbSymbolTableRecord
100
AcDbBlockTableRecord
  2
GDimGGroup3
340
0
102
{BLKREFS
331
1BF
102
}
  0
BLOCK_RECORD
  5
1CA
330
1
100
AcDbSymbolTableRecord
100
AcDbBlockTableRecord
  2
DMBLK6
340
0
  0
BLOCK_RECORD
  5
1D4
330
1
100
AcDbSymbolTableRecord
100
AcDbBlockTableRecord
  2
DMBLK7
340
0
  0
BLOCK_RECORD
  5
1DD
330
1
100
AcDbSymbolTableRecord
100
AcDbBlockTableRecord
  2
SEANNOT_GROUP
340
0
102
{BLKREFS
331
1F2
102
}
  0
BLOCK_RECORD
  5
1E2
330
1
100
AcDbSymbolTableRecord
100
AcDbBlockTableRecord
  2
SEANNOT_GROUP1
340
0
102
{BLKREFS
331
1F3
102
}
  0
BLOCK_RECORD
  5
1E7
330
1
100
AcDbSymbolTableRecord
100
AcDbBlockTableRecord
  2
SEANNOT_GROUP2
340
0
102
{BLKREFS
331
1F5
102
}
  0
BLOCK_RECORD
  5
1EB
330
1
100
AcDbSymbolTableRecord
100
AcDbBlockTableRecord
  2
SEANNOT_GROUP3
340
0
102
{BLKREFS
331
1F6
102
}
  0
BLOCK_RECORD
  5
1EF
330
1
100
AcDbSymbolTableRecord
100
AcDbBlockTableRecord
  2
RF-Massblatt_2016
340
0
102
{BLKREFS
331
23E
102
}
  0
ENDTAB
  0
ENDSEC
  0
SECTION
  2
BLOCKS
  0
BLOCK
  5
20
330
1F
100
AcDbEntity
  8
0
100
AcDbBlockBegin
  2
*Model_Space
 70
     0
 10
0.0
 20
0.0
 30
0.0
  3
*Model_Space
  1

  0
ENDBLK
  5
21
330
1F
100
AcDbEntity
  8
0
100
AcDbBlockEnd
  0
BLOCK
  5
1C
330
1B
100
AcDbEntity
 67
     1
  8
0
100
AcDbBlockBegin
  2
*Paper_Space
 70
     0
 10
0.0
 20
0.0
 30
0.0
  3
*Paper_Space
  1

  0
ENDBLK
  5
1D
330
1B
100
AcDbEntity
 67
     1
  8
0
100
AcDbBlockEnd
  0
BLOCK
  5
175
330
40
100
AcDbEntity
  8
0
100
AcDbBlockBegin
  2
SE
 70
     0
 10
0.0
 20
0.0
 30
0.0
  3
SE
  1

  0
LINE
  5
43
330
40
100
AcDbEntity
  8
0011929
  6
Continuous
 62
     7
100
AcDbLine
 10
135.0951582538
 20
103.2872169524
 30
0.0
 11
135.4951582538
 21
103.2872169524
 31
0.0
  0
LINE
  5
44
330
40
100
AcDbEntity
  8
0011929
  6
Continuous
 62
     7
100
AcDbLine
 10
135.4951582538
 20
87.1872169524
 30
0.0
 11
135.0951582538
 21
87.1872169524
 31
0.0
  0
LINE
  5
45
330
40
100
AcDbEntity
  8
0011929
  6
Continuous
 62
     7
100
AcDbLine
 10
132.1451582538
 20
87.1872169524
 30
0.0
 11
131.7451582538
 21
87.1872169524
 31
0.0
  0
LINE
  5
46
330
40
100
AcDbEntity
  8
0011929
  6
Continuous
 62
     7
100
AcDbLine
 10
131.7451582538
 20
103.2872169524
 30
0.0
 11
132.1451582538
 21
103.2872169524
 31
0.0
  0
LINE
  5
47
330
40
100
AcDbEntity
  8
0011929
  6
Continuous
 62
     7
100
AcDbLine
 10
132.1451582538
 20
87.1872169524
 30
0.0
 11
135.0951582538
 21
87.1872169524
 31
0.0
  0
LINE
  5
48
330
40
100
AcDbEntity
  8
0011929
  6
Continuous
 62
     7
100
AcDbLine
 10
135.0951582538
 20
103.2872169524
 30
0.0
 11
132.1451582538
 21
103.2872169524
 31
0.0
  0
SPLINE
  5
49
330
40
100
AcDbEntity
  8
0011929
  6
Continuous
 62
     7
100
AcDbSpline
210
0.0
220
0.0
230
1.0
 70
     8
 71
     3
 72
    12
 73
     8
 74
     0
 42
0.0000000134610986
 43
0.0000000001
 12
1.0
 22
0.0
 32
0.0
 13
1.0
 23
0.0
 33
0.0
 40
0.0
 40
0.0
 40
0.0
 40
0.0
 40
0.5000000000000019
 40
0.5000000000000019
 40
0.7500000000000009
 40
0.7500000000000009
 40
1.0
 40
1.0
 40
1.0
 40
1.0
 10
135.4951582537906
 20
73.68936323098404
 30
0.0
 10
135.4951582537906
 20
73.81108840036846
 30
0.0
 10
135.4641758310213
 20
73.9340845648626
 30
0.0
 10
135.3631925424334
 20
74.08803972232353
 30
0.0
 10
135.3201389076993
 20
74.13367289589613
 30
0.0
 10
135.2172359326066
 20
74.19960727447938
 30
0.0
 10
135.1572180622126
 20
74.21936739542699
 30
0.0
 10
135.0951582537907
 20
74.21936739542699
 30
0.0
  0
LINE
  5
4A
330
40
100
AcDbEntity
  8
0011929
  6
Continuous
 62
     7
100
AcDbLine
 10
135.0951582538
 20
76.7372169524
 30
0.0
 11
135.4951582538
 21
76.7372169524
 31
0.0
  0
LINE
  5
4B
330
40
100
AcDbEntity
  8
0011929
  6
Continuous
 62
     7
100
AcDbLine
 10
131.7451582538
 20
76.7372169524
 30
0.0
 11
132.1451582538
 21
76.7372169524
 31
0.0
  0
SPLINE
  5
4C
330
40
100
AcDbEntity
  8
0011929
  6
Continuous
 62
     7
100
AcDbSpline
210
0.0
220
0.0
230
1.0
 70
     8
 71
     3
 72
    12
 73
     8
 74
     0
 42
0.0000000134613535
 43
0.0000000001
 12
1.0
 22
0.0
 32
0.0
 13
1.0
 23
0.0
 33
0.0
 40
0.0
 40
0.0
 40
0.0
 40
0.0
 40
0.25
 40
0.25
 40
0.5
 40
0.5
 40
1.0
 40
1.0
 40
1.0
 40
1.0
 10
132.1451582537906
 20
74.21936739542699
 30
0.0
 10
132.083874032117
 20
74.219367395427
 30
0.0
 10
132.0229465336434
 20
74.19956589018852
 30
0.0
 10
131.9199304711513
 20
74.13346988312779
 30
0.0
 10
131.8771952745584
 20
74.08813550958023
 30
0.0
 10
131.7760966187831
 20
73.93404323375013
 30
0.0
 10
131.7451582537906
 20
73.81143255721285
 30
0.0
 10
131.7451582537906
 20
73.68936323098404
 30
0.0
  0
LINE
  5
4D
330
40
100
AcDbEntity
  8
0011929
  6
Continuous
 62
     7
100
AcDbLine
 10
135.0951582538
 20
76.7372169524
 30
0.0
 11
132.1451582538
 21
76.7372169524
 31
0.0
  0
LINE
  5
4E
330
40
100
AcDbEntity
  8
0011929
  6
Continuous
 62
     7
100
AcDbLine
 10
131.7451582538
 20
73.037644613
 30
0.0
 11
131.7451582538
 21
73.689363231
 31
0.0
  0
LINE
  5
4F
330
40
100
AcDbEntity
  8
0011929
  6
Continuous
 62
     7
100
AcDbLine
 10
132.1451582538
 20
74.2193673954
 30
0.0
 11
135.0951582538
 21
74.2193673954
 31
0.0
  0
LINE
  5
50
330
40
100
AcDbEntity
  8
0011929
  6
Continuous
 62
     7
100
AcDbLine
 10
135.4951582538
 20
73.689363231
 30
0.0
 11
135.4951582538
 21
73.037644613
 31
0.0
  0
LINE
  5
51
330
40
100
AcDbEntity
  8
0011929
  6
Continuous
 62
     7
100
AcDbLine
 10
141.5701582538
 20
77.5372169524
 30
0.0
 11
141.5701582538
 21
69.8175272415
 31
0.0
  0
LINE
  5
52
330
40
100
AcDbEntity
  8
0011929
  6
Continuous
 62
     7
100
AcDbLine
 10
125.7201582538
 20
69.8175272415
 30
0.0
 11
125.7201582538
 21
77.5372169524
 31
0.0
  0
LINE
  5
53
330
40
100
AcDbEntity
  8
0011929
  6
Continuous
 62
     7
100
AcDbLine
 10
140.7701582538
 20
69.4031188455
 30
0.0
 11
140.7701582538
 21
76.2372169524
 31
0.0
  0
LINE
  5
54
330
40
100
AcDbEntity
  8
0011929
  6
Continuous
 62
     7
100
AcDbLine
 10
140.7701582538
 20
103.2872169524
 30
0.0
 11
136.6756025137
 21
103.2872169524
 31
0.0
  0
LINE
  5
55
330
40
100
AcDbEntity
  8
0011929
  6
Continuous
 62
     7
100
AcDbLine
 10
130.5647139939
 20
103.2872169524
 30
0.0
 11
126.5201582538
 21
103.2872169524
 31
0.0
  0
LINE
  5
56
330
40
100
AcDbEntity
  8
0011929
  6
Continuous
 62
     7
100
AcDbLine
 10
126.5201582538
 20
103.2872169524
 30
0.0
 11
126.1007702871
 21
103.7066049191
 31
0.0
  0
LINE
  5
57
330
40
100
AcDbEntity
  8
0011929
  6
Continuous
 62
     7
100
AcDbLine
 10
141.1895462205
 20
103.7066049191
 30
0.0
 11
140.7701582538
 21
103.2872169524
 31
0.0
  0
LINE
  5
58
330
40
100
AcDbEntity
  8
0011929
  6
Continuous
 62
     7
100
AcDbLine
 10
126.5201582538
 20
87.1872169524
 30
0.0
 11
130.5647139939
 21
87.1872169524
 31
0.0
  0
LINE
  5
59
330
40
100
AcDbEntity
  8
0011929
  6
Continuous
 62
     7
100
AcDbLine
 10
136.6756025137
 20
87.1872169524
 30
0.0
 11
140.7701582538
 21
87.1872169524
 31
0.0
  0
LINE
  5
5A
330
40
100
AcDbEntity
  8
0011929
  6
Continuous
 62
     7
100
AcDbLine
 10
140.7701582538
 20
87.1872169524
 30
0.0
 11
141.1895462205
 21
86.7678289857
 31
0.0
  0
LINE
  5
5B
330
40
100
AcDbEntity
  8
0011929
  6
Continuous
 62
     7
100
AcDbLine
 10
126.1007702871
 20
86.7678289857
 30
0.0
 11
126.5201582538
 21
87.1872169524
 31
0.0
  0
LINE
  5
5C
330
40
100
AcDbEntity
  8
0011929
  6
Continuous
 62
     7
100
AcDbLine
 10
126.5201582538
 20
76.2372169524
 30
0.0
 11
126.5201582538
 21
69.4031188455
 31
0.0
  0
ARC
  5
5D
330
40
100
AcDbEntity
  8
0011929
  6
Continuous
 62
     7
100
AcDbCircle
 10
127.0201582538
 20
76.2372169524
 30
0.0
 40
0.4999999999999952
100
AcDbArc
 50
135.0
 51
180.0
  0
LINE
  5
5E
330
40
100
AcDbEntity
  8
0011929
  6
Continuous
 62
     7
100
AcDbLine
 10
126.6666048632
 20
76.590770343
 30
0.0
 11
126.5201582538
 21
76.7372169524
 31
0.0
  0
LINE
  5
5F
330
40
100
AcDbEntity
  8
0011929
  6
Continuous
 62
     7
100
AcDbLine
 10
140.7701582538
 20
76.7372169524
 30
0.0
 11
140.6237116444
 21
76.590770343
 31
0.0
  0
ARC
  5
60
330
40
100
AcDbEntity
  8
0011929
  6
Continuous
 62
     7
100
AcDbCircle
 10
140.2701582538
 20
76.2372169524
 30
0.0
 40
0.500000000000008
100
AcDbArc
 50
0.0
 51
45.0
  0
LINE
  5
61
330
40
100
AcDbEntity
  8
0011929
  6
Continuous
 62
     7
100
AcDbLine
 10
125.7201582538
 20
103.3801101712
 30
0.0
 11
125.7201582538
 21
87.0943237336
 31
0.0
  0
LINE
  5
62
330
40
100
AcDbEntity
  8
0011929
  6
Continuous
 62
     7
100
AcDbLine
 10
125.7201582538
 20
103.3801101712
 30
0.0
 11
125.7201582538
 21
104.0872169524
 31
0.0
  0
LINE
  5
63
330
40
100
AcDbEntity
  8
0011929
  6
Continuous
 62
     7
100
AcDbLine
 10
141.5701582538
 20
104.0872169524
 30
0.0
 11
141.5701582538
 21
103.3801101712
 31
0.0
  0
LINE
  5
64
330
40
100
AcDbEntity
  8
0011929
  6
Continuous
 62
     7
100
AcDbLine
 10
140.977265035
 20
102.7872169524
 30
0.0
 11
140.7701582538
 21
103.2872169524
 31
0.0
  0
LINE
  5
65
330
40
100
AcDbEntity
  8
0011929
  6
Continuous
 62
     7
100
AcDbLine
 10
126.3130514726
 20
102.7872169524
 30
0.0
 11
126.5201582538
 21
103.2872169524
 31
0.0
  0
LINE
  5
66
330
40
100
AcDbEntity
  8
0011929
  6
Continuous
 62
     7
100
AcDbLine
 10
141.5701582538
 20
87.0943237336
 30
0.0
 11
141.5701582538
 21
103.3801101712
 31
0.0
  0
LINE
  5
67
330
40
100
AcDbEntity
  8
0011929
  6
Continuous
 62
     7
100
AcDbLine
 10
141.5701582538
 20
87.0943237336
 30
0.0
 11
141.5701582538
 21
86.3872169524
 31
0.0
  0
LINE
  5
68
330
40
100
AcDbEntity
  8
0011929
  6
Continuous
 62
     7
100
AcDbLine
 10
125.7201582538
 20
86.3872169524
 30
0.0
 11
125.7201582538
 21
87.0943237336
 31
0.0
  0
LINE
  5
69
330
40
100
AcDbEntity
  8
0011929
  6
Continuous
 62
     7
100
AcDbLine
 10
126.3130514726
 20
87.6872169524
 30
0.0
 11
126.5201582538
 21
87.1872169524
 31
0.0
  0
LINE
  5
6A
330
40
100
AcDbEntity
  8
0011929
  6
Continuous
 62
     7
100
AcDbLine
 10
140.977265035
 20
87.6872169524
 30
0.0
 11
140.7701582538
 21
87.1872169524
 31
0.0
  0
CIRCLE
  5
6B
330
40
100
AcDbEntity
  8
0011929
  6
Continuous
 62
     7
100
AcDbCircle
 10
133.6201582538
 20
95.2372169524
 30
0.0
 40
5.2
  0
CIRCLE
  5
6C
330
40
100
AcDbEntity
  8
0011929
  6
Continuous
 62
     7
100
AcDbCircle
 10
133.6201582538
 20
95.2372169524
 30
0.0
 40
5.0
  0
CIRCLE
  5
6D
330
40
100
AcDbEntity
  8
0011929
  6
Continuous
 62
     7
100
AcDbCircle
 10
133.6201582538
 20
95.2372169524
 30
0.0
 40
3.2
  0
CIRCLE
  5
6E
330
40
100
AcDbEntity
  8
0011929
  6
Continuous
 62
     7
100
AcDbCircle
 10
133.6201582538
 20
95.2372169524
 30
0.0
 40
4.800000000000001
  0
CIRCLE
  5
6F
330
40
100
AcDbEntity
  8
0011929
  6
Continuous
 62
     7
100
AcDbCircle
 10
133.6201582538
 20
95.2372169524
 30
0.0
 40
3.0
  0
LINE
  5
70
330
40
100
AcDbEntity
  8
0011929
  6
Continuous
 62
     7
100
AcDbLine
 10
131.7451582538
 20
76.7372169524
 30
0.0
 11
131.7451582538
 21
87.1872169524
 31
0.0
  0
LINE
  5
71
330
40
100
AcDbEntity
  8
0011929
  6
Continuous
 62
     7
100
AcDbLine
 10
131.7451582538
 20
103.2872169524
 30
0.0
 11
131.7451582538
 21
124.1348122166
 31
0.0
  0
LINE
  5
72
330
40
100
AcDbEntity
  8
0011929
  6
Continuous
 62
     7
100
AcDbLine
 10
131.7451582538
 20
73.037644613
 30
0.0
 11
131.7451582538
 21
66.3396216882
 31
0.0
  0
LINE
  5
73
330
40
100
AcDbEntity
  8
0011929
  6
Continuous
 62
     7
100
AcDbLine
 10
126.5201582538
 20
76.7372169524
 30
0.0
 11
125.7201582538
 21
77.5372169524
 31
0.0
  0
LINE
  5
74
330
40
100
AcDbEntity
  8
0011929
  6
Continuous
 62
     7
100
AcDbLine
 10
125.7201582538
 20
77.5372169524
 30
0.0
 11
125.7201582538
 21
86.3872169524
 31
0.0
  0
LINE
  5
75
330
40
100
AcDbEntity
  8
0011929
  6
Continuous
 62
     7
100
AcDbLine
 10
125.7201582538
 20
86.3872169524
 30
0.0
 11
126.1007702871
 21
86.7678289857
 31
0.0
  0
LINE
  5
76
330
40
100
AcDbEntity
  8
0011929
  6
Continuous
 62
     7
100
AcDbLine
 10
126.1007702871
 20
86.7678289857
 30
0.0
 11
126.5201582538
 21
86.3457217579
 31
0.0
  0
LINE
  5
77
330
40
100
AcDbEntity
  8
0011929
  6
Continuous
 62
     7
100
AcDbLine
 10
126.5201582538
 20
104.1287121469
 30
0.0
 11
126.1007702871
 21
103.7066049191
 31
0.0
  0
LINE
  5
78
330
40
100
AcDbEntity
  8
0011929
  6
Continuous
 62
     7
100
AcDbLine
 10
126.1007702871
 20
103.7066049191
 30
0.0
 11
125.7201582538
 21
104.0872169524
 31
0.0
  0
LINE
  5
79
330
40
100
AcDbEntity
  8
0011929
  6
Continuous
 62
     7
100
AcDbLine
 10
125.7201582538
 20
104.0872169524
 30
0.0
 11
125.7201582538
 21
126.2122169524
 31
0.0
  0
LINE
  5
7A
330
40
100
AcDbEntity
  8
0011929
  6
Continuous
 62
     7
100
AcDbLine
 10
125.7201582538
 20
69.8175272415
 30
0.0
 11
125.7201582538
 21
64.2622169524
 31
0.0
  0
LINE
  5
7B
330
40
100
AcDbEntity
  8
0011929
  6
Continuous
 62
     7
100
AcDbLine
 10
125.7201582538
 20
69.8175272415
 30
0.0
 11
126.5201582538
 21
69.4031188455
 31
0.0
  0
LINE
  5
7C
330
40
100
AcDbEntity
  8
0011929
  6
Continuous
 62
     7
100
AcDbLine
 10
126.5201582538
 20
76.7372169524
 30
0.0
 11
126.5201582538
 21
86.3457217579
 31
0.0
  0
LINE
  5
7D
330
40
100
AcDbEntity
  8
0011929
  6
Continuous
 62
     7
100
AcDbLine
 10
126.5201582538
 20
86.3457217579
 30
0.0
 11
130.083887855
 21
86.3457217579
 31
0.0
  0
LINE
  5
7E
330
40
100
AcDbEntity
  8
0011929
  6
Continuous
 62
     7
100
AcDbLine
 10
126.5201582538
 20
69.4031188455
 30
0.0
 11
126.5201582538
 21
63.4622169524
 31
0.0
  0
LINE
  5
7F
330
40
100
AcDbEntity
  8
0011929
  6
Continuous
 62
     7
100
AcDbLine
 10
130.083887855
 20
104.1287121469
 30
0.0
 11
126.5201582538
 21
104.1287121469
 31
0.0
  0
LINE
  5
80
330
40
100
AcDbEntity
  8
0011929
  6
Continuous
 62
     7
100
AcDbLine
 10
126.5201582538
 20
104.1287121469
 30
0.0
 11
126.5201582538
 21
127.0122169524
 31
0.0
  0
LINE
  5
81
330
40
100
AcDbEntity
  8
0011929
  6
Continuous
 62
     7
100
AcDbLine
 10
126.5201582538
 20
76.7372169524
 30
0.0
 11
130.083887855
 21
76.7372169524
 31
0.0
  0
LINE
  5
82
330
40
100
AcDbEntity
  8
0011929
  6
Continuous
 62
     7
100
AcDbLine
 10
130.083887855
 20
69.4031188455
 30
0.0
 11
126.5201582538
 21
69.4031188455
 31
0.0
  0
LINE
  5
83
330
40
100
AcDbEntity
  8
0011929
  6
Continuous
 62
     7
100
AcDbLine
 10
130.083887855
 20
76.7372169524
 30
0.0
 11
130.083887855
 21
86.3457217579
 31
0.0
  0
LINE
  5
84
330
40
100
AcDbEntity
  8
0011929
  6
Continuous
 62
     7
100
AcDbLine
 10
130.083887855
 20
86.3457217579
 30
0.0
 11
130.5647139939
 21
87.1872169524
 31
0.0
  0
LINE
  5
85
330
40
100
AcDbEntity
  8
0011929
  6
Continuous
 62
     7
100
AcDbLine
 10
130.083887855
 20
69.4031188455
 30
0.0
 11
130.083887855
 21
63.4622169524
 31
0.0
  0
LINE
  5
86
330
40
100
AcDbEntity
  8
0011929
  6
Continuous
 62
     7
100
AcDbLine
 10
130.5647139939
 20
103.2872169524
 30
0.0
 11
130.083887855
 21
104.1287121469
 31
0.0
  0
LINE
  5
87
330
40
100
AcDbEntity
  8
0011929
  6
Continuous
 62
     7
100
AcDbLine
 10
130.083887855
 20
127.0122169524
 30
0.0
 11
130.083887855
 21
104.1287121469
 31
0.0
  0
LINE
  5
88
330
40
100
AcDbEntity
  8
0011929
  6
Continuous
 62
     7
100
AcDbLine
 10
130.083887855
 20
76.7372169524
 30
0.0
 11
131.7451582538
 21
76.7372169524
 31
0.0
  0
SPLINE
  5
89
330
40
100
AcDbEntity
  8
0011929
  6
Continuous
 62
     7
100
AcDbSpline
210
0.0
220
0.0
230
1.0
 70
     8
 71
     3
 72
     8
 73
     4
 74
     0
 42
0.0000000025022823
 43
0.0000000001
 12
1.0
 22
0.0
 32
0.0
 13
1.0
 23
0.0
 33
0.0
 40
0.0
 40
0.0
 40
0.0
 40
0.0
 40
1.0
 40
1.0
 40
1.0
 40
1.0
 10
131.7451582537906
 20
73.03764461299316
 30
0.0
 10
131.2053011174638
 20
71.82045967378853
 30
0.0
 10
130.6500227376481
 20
70.60918962899437
 30
0.0
 10
130.0838878550042
 20
69.40311884545135
 30
0.0
  0
LINE
  5
8A
330
40
100
AcDbEntity
  8
0011929
  6
Continuous
 62
     7
100
AcDbLine
 10
130.5647139939
 20
103.2872169524
 30
0.0
 11
131.7451582538
 21
103.2872169524
 31
0.0
  0
LINE
  5
8B
330
40
100
AcDbEntity
  8
0011929
  6
Continuous
 62
     7
100
AcDbLine
 10
131.7451582538
 20
87.1872169524
 30
0.0
 11
130.5647139939
 21
87.1872169524
 31
0.0
  0
LINE
  5
8C
330
40
100
AcDbEntity
  8
0011929
  6
Continuous
 62
     7
100
AcDbLine
 10
141.5701582538
 20
104.0872169524
 30
0.0
 11
141.5701582538
 21
126.2122169524
 31
0.0
  0
LINE
  5
8D
330
40
100
AcDbEntity
  8
0011929
  6
Continuous
 62
     7
100
AcDbLine
 10
141.5701582538
 20
77.5372169524
 30
0.0
 11
141.5701582538
 21
86.3872169524
 31
0.0
  0
LINE
  5
8E
330
40
100
AcDbEntity
  8
0011929
  6
Continuous
 62
     7
100
AcDbLine
 10
140.7701582538
 20
76.7372169524
 30
0.0
 11
141.5701582538
 21
77.5372169524
 31
0.0
  0
LINE
  5
8F
330
40
100
AcDbEntity
  8
0011929
  6
Continuous
 62
     7
100
AcDbLine
 10
141.5701582538
 20
69.8175272415
 30
0.0
 11
140.7701582538
 21
69.4031188455
 31
0.0
  0
LINE
  5
90
330
40
100
AcDbEntity
  8
0011929
  6
Continuous
 62
     7
100
AcDbLine
 10
140.7701582538
 20
76.7372169524
 30
0.0
 11
140.7701582538
 21
86.3457217579
 31
0.0
  0
LINE
  5
91
330
40
100
AcDbEntity
  8
0011929
  6
Continuous
 62
     7
100
AcDbLine
 10
140.7701582538
 20
104.1287121469
 30
0.0
 11
141.1895462205
 21
103.7066049191
 31
0.0
  0
LINE
  5
92
330
40
100
AcDbEntity
  8
0011929
  6
Continuous
 62
     7
100
AcDbLine
 10
141.1895462205
 20
103.7066049191
 30
0.0
 11
141.5701582538
 21
104.0872169524
 31
0.0
  0
LINE
  5
93
330
40
100
AcDbEntity
  8
0011929
  6
Continuous
 62
     7
100
AcDbLine
 10
141.5701582538
 20
86.3872169524
 30
0.0
 11
141.1895462205
 21
86.7678289857
 31
0.0
  0
LINE
  5
94
330
40
100
AcDbEntity
  8
0011929
  6
Continuous
 62
     7
100
AcDbLine
 10
141.1895462205
 20
86.7678289857
 30
0.0
 11
140.7701582538
 21
86.3457217579
 31
0.0
  0
LINE
  5
95
330
40
100
AcDbEntity
  8
0011929
  6
Continuous
 62
     7
100
AcDbLine
 10
140.7701582538
 20
104.1287121469
 30
0.0
 11
140.7701582538
 21
127.0122169524
 31
0.0
  0
LINE
  5
96
330
40
100
AcDbEntity
  8
0011929
  6
Continuous
 62
     7
100
AcDbLine
 10
140.7701582538
 20
69.4031188455
 30
0.0
 11
140.7701582538
 21
63.4622169524
 31
0.0
  0
LINE
  5
97
330
40
100
AcDbEntity
  8
0011929
  6
Continuous
 62
     7
100
AcDbLine
 10
140.7701582538
 20
76.7372169524
 30
0.0
 11
137.1564286526
 21
76.7372169524
 31
0.0
  0
LINE
  5
98
330
40
100
AcDbEntity
  8
0011929
  6
Continuous
 62
     7
100
AcDbLine
 10
137.1564286526
 20
76.7372169524
 30
0.0
 11
137.1564286526
 21
86.3457217579
 31
0.0
  0
LINE
  5
99
330
40
100
AcDbEntity
  8
0011929
  6
Continuous
 62
     7
100
AcDbLine
 10
137.1564286526
 20
69.4031188455
 30
0.0
 11
137.1564286526
 21
63.4622169524
 31
0.0
  0
LINE
  5
9A
330
40
100
AcDbEntity
  8
0011929
  6
Continuous
 62
     7
100
AcDbLine
 10
137.1564286526
 20
69.4031188455
 30
0.0
 11
140.7701582538
 21
69.4031188455
 31
0.0
  0
LINE
  5
9B
330
40
100
AcDbEntity
  8
0011929
  6
Continuous
 62
     7
100
AcDbLine
 10
137.1564286526
 20
104.1287121469
 30
0.0
 11
140.7701582538
 21
104.1287121469
 31
0.0
  0
LINE
  5
9C
330
40
100
AcDbEntity
  8
0011929
  6
Continuous
 62
     7
100
AcDbLine
 10
140.7701582538
 20
86.3457217579
 30
0.0
 11
137.1564286526
 21
86.3457217579
 31
0.0
  0
LINE
  5
9D
330
40
100
AcDbEntity
  8
0011929
  6
Continuous
 62
     7
100
AcDbLine
 10
137.1564286526
 20
127.0122169524
 30
0.0
 11
137.1564286526
 21
104.1287121469
 31
0.0
  0
LINE
  5
9E
330
40
100
AcDbEntity
  8
0011929
  6
Continuous
 62
     7
100
AcDbLine
 10
137.1564286526
 20
76.7372169524
 30
0.0
 11
135.4951582538
 21
76.7372169524
 31
0.0
  0
LINE
  5
9F
330
40
100
AcDbEntity
  8
0011929
  6
Continuous
 62
     7
100
AcDbLine
 10
135.4951582538
 20
76.7372169524
 30
0.0
 11
135.4951582538
 21
87.1872169524
 31
0.0
  0
LINE
  5
A0
330
40
100
AcDbEntity
  8
0011929
  6
Continuous
 62
     7
100
AcDbLine
 10
135.4951582538
 20
87.1872169524
 30
0.0
 11
136.6756025137
 21
87.1872169524
 31
0.0
  0
LINE
  5
A1
330
40
100
AcDbEntity
  8
0011929
  6
Continuous
 62
     7
100
AcDbLine
 10
135.4951582538
 20
73.037644613
 30
0.0
 11
135.4951582538
 21
66.3396216882
 31
0.0
  0
SPLINE
  5
A2
330
40
100
AcDbEntity
  8
0011929
  6
Continuous
 62
     7
100
AcDbSpline
210
0.0
220
0.0
230
1.0
 70
     8
 71
     3
 72
     8
 73
     4
 74
     0
 42
0.0000000025022823
 43
0.0000000001
 12
1.0
 22
0.0
 32
0.0
 13
1.0
 23
0.0
 33
0.0
 40
0.0
 40
0.0
 40
0.0
 40
0.0
 40
1.0
 40
1.0
 40
1.0
 40
1.0
 10
135.4951582537906
 20
73.03764461299316
 30
0.0
 10
136.0350153901175
 20
71.82045967378853
 30
0.0
 10
136.5902937699332
 20
70.60918962899437
 30
0.0
 10
137.1564286525771
 20
69.40311884545135
 30
0.0
  0
LINE
  5
A3
330
40
100
AcDbEntity
  8
0011929
  6
Continuous
 62
     7
100
AcDbLine
 10
136.6756025137
 20
103.2872169524
 30
0.0
 11
135.4951582538
 21
103.2872169524
 31
0.0
  0
LINE
  5
A4
330
40
100
AcDbEntity
  8
0011929
  6
Continuous
 62
     7
100
AcDbLine
 10
135.4951582538
 20
124.1348122166
 30
0.0
 11
135.4951582538
 21
103.2872169524
 31
0.0
  0
LINE
  5
A5
330
40
100
AcDbEntity
  8
0011929
  6
Continuous
 62
     7
100
AcDbLine
 10
136.6756025137
 20
103.2872169524
 30
0.0
 11
137.1564286526
 21
104.1287121469
 31
0.0
  0
LINE
  5
A6
330
40
100
AcDbEntity
  8
0011929
  6
Continuous
 62
     7
100
AcDbLine
 10
137.1564286526
 20
86.3457217579
 30
0.0
 11
136.6756025137
 21
87.1872169524
 31
0.0
  0
LINE
  5
A7
330
40
100
AcDbEntity
  8
0011929
  6
Continuous
 62
     7
100
AcDbLine
 10
141.5701582538
 20
69.8175272415
 30
0.0
 11
141.5701582538
 21
64.2622169524
 31
0.0
  0
LINE
  5
A8
330
40
100
AcDbEntity
  8
0011929
  6
Continuous
 62
     7
100
AcDbLine
 10
123.6826682228
 20
72.8426851804
 30
0.0
 11
123.6826682228
 21
117.6317487244
 31
0.0
  0
LINE
  5
A9
330
40
100
AcDbEntity
  8
0011929
  6
Continuous
 62
     7
100
AcDbLine
 10
54.2701582538
 20
83.8300323345
 30
0.0
 11
54.2701582538
 21
106.6444015703
 31
0.0
  0
LINE
  5
AA
330
40
100
AcDbEntity
  8
0011929
  6
Continuous
 62
     7
100
AcDbLine
 10
205.8701582538
 20
79.2372169524
 30
0.0
 11
205.8701582538
 21
111.2372169524
 31
0.0
  0
ARC
  5
AB
330
40
100
AcDbEntity
  8
0011929
  6
Continuous
 62
     7
100
AcDbCircle
 10
161.519985796
 20
95.2506561831
 30
0.0
 40
6.986560771476221
100
AcDbArc
 50
89.9985856984
 51
115.0444315421
  0
LINE
  5
AC
330
40
100
AcDbEntity
  8
0011929
  6
Continuous
 62
     7
100
AcDbLine
 10
161.5201582538
 20
88.2372169524
 30
0.0
 11
167.9201582538
 21
88.2372169524
 31
0.0
  0
LINE
  5
AD
330
40
100
AcDbEntity
  8
0011929
  6
Continuous
 62
     7
100
AcDbLine
 10
167.9201582538
 20
102.2372169524
 30
0.0
 11
161.5201582538
 21
102.2372169524
 31
0.0
  0
LINE
  5
AE
330
40
100
AcDbEntity
  8
0011929
  6
Continuous
 62
     7
100
AcDbLine
 10
167.9201582538
 20
66.2372169524
 30
0.0
 11
167.9201582538
 21
87.4437613007
 31
0.0
  0
LINE
  5
AF
330
40
100
AcDbEntity
  8
0011929
  6
Continuous
 62
     7
100
AcDbLine
 10
167.9201582538
 20
87.4437613007
 30
0.0
 11
161.5201582538
 21
87.4437613007
 31
0.0
  0
ARC
  5
B0
330
40
100
AcDbEntity
  8
0011929
  6
Continuous
 62
     7
100
AcDbCircle
 10
161.4887938975
 20
94.6464320539
 30
0.0
 40
7.20273904167695
100
AcDbArc
 50
252.4762168904
 51
270.2494954925
  0
LINE
  5
B1
330
40
100
AcDbEntity
  8
0011929
  6
Continuous
 62
     7
100
AcDbLine
 10
161.5201582538
 20
103.0306726041
 30
0.0
 11
167.9201582538
 21
103.0306726041
 31
0.0
  0
LINE
  5
B2
330
40
100
AcDbEntity
  8
0011929
  6
Continuous
 62
     7
100
AcDbLine
 10
167.9201582538
 20
103.0306726041
 30
0.0
 11
167.9201582538
 21
124.2372169524
 31
0.0
  0
LINE
  5
B3
330
40
100
AcDbEntity
  8
0011929
  6
Continuous
 62
     7
100
AcDbLine
 10
206.5201582538
 20
110.5872169524
 30
0.0
 11
206.5201582538
 21
79.8872169524
 31
0.0
  0
SPLINE
  5
B4
330
40
100
AcDbEntity
  8
0011929
  6
Continuous
 62
     7
100
AcDbSpline
210
0.0
220
0.0
230
1.0
 70
     8
 71
     3
 72
     8
 73
     4
 74
     0
 42
0.0000000006617426
 43
0.0000000001
 12
1.0
 22
0.0
 32
0.0
 13
1.0
 23
0.0
 33
0.0
 40
0.0
 40
0.0
 40
0.0
 40
0.0
 40
0.0366784091476949
 40
0.0366784091476949
 40
0.0366784091476949
 40
0.0366784091476949
 10
168.4738180457978
 20
102.7908767444178
 30
0.0
 10
168.463027530716
 20
102.6064248076168
 30
0.0
 10
168.4525752249674
 20
102.42196416715
 30
0.0
 10
168.4424695331861
 20
102.2374946067278
 30
0.0
  0
SPLINE
  5
B5
330
40
100
AcDbEntity
  8
0011929
  6
Continuous
 62
     7
100
AcDbSpline
210
0.0
220
0.0
230
1.0
 70
     8
 71
     3
 72
     8
 73
     4
 74
     0
 42
0.0000000006608596
 43
0.0000000001
 12
1.0
 22
0.0
 32
0.0
 13
1.0
 23
0.0
 33
0.0
 40
0.9633639402854719
 40
0.9633639402854719
 40
0.9633639402854719
 40
0.9633639402854719
 40
1.0
 40
1.0
 40
1.0
 40
1.0
 10
168.4424669823077
 20
88.23703909822959
 30
0.0
 10
168.4525734765337
 20
88.05251968303283
 30
0.0
 10
168.4630266341118
 20
87.86802442366319
 30
0.0
 10
168.4738180457978
 20
87.68355716040352
 30
0.0
  0
LINE
  5
B6
330
40
100
AcDbEntity
  8
0011929
  6
Continuous
 62
     7
100
AcDbLine
 10
161.5201582538
 20
87.4437613007
 30
0.0
 11
161.5201582538
 21
88.2372169524
 31
0.0
  0
LINE
  5
B7
330
40
100
AcDbEntity
  8
0011929
  6
Continuous
 62
     7
100
AcDbLine
 10
167.9201582538
 20
88.2372169524
 30
0.0
 11
167.9201582538
 21
87.4437613007
 31
0.0
  0
LINE
  5
B8
330
40
100
AcDbEntity
  8
0011929
  6
Continuous
 62
     7
100
AcDbLine
 10
168.5201582538
 20
87.6372169524
 30
0.0
 11
167.9201582538
 21
88.2372169524
 31
0.0
  0
LINE
  5
B9
330
40
100
AcDbEntity
  8
0011929
  6
Continuous
 62
     7
100
AcDbLine
 10
161.5201582538
 20
103.0306726041
 30
0.0
 11
161.5201582538
 21
102.2372169524
 31
0.0
  0
LINE
  5
BA
330
40
100
AcDbEntity
  8
0011929
  6
Continuous
 62
     7
100
AcDbLine
 10
168.5201582538
 20
87.4386738748
 30
0.0
 11
167.9201582538
 21
87.4437613007
 31
0.0
  0
LINE
  5
BB
330
40
100
AcDbEntity
  8
0011929
  6
Continuous
 62
     7
100
AcDbLine
 10
167.9201582538
 20
102.2372169524
 30
0.0
 11
168.5201582538
 21
102.8372169524
 31
0.0
  0
LINE
  5
BC
330
40
100
AcDbEntity
  8
0011929
  6
Continuous
 62
     7
100
AcDbLine
 10
167.9201582538
 20
103.0306726041
 30
0.0
 11
167.9201582538
 21
102.2372169524
 31
0.0
  0
LINE
  5
BD
330
40
100
AcDbEntity
  8
0011929
  6
Continuous
 62
     7
100
AcDbLine
 10
167.9201582538
 20
103.0306726041
 30
0.0
 11
168.5201582538
 21
103.03576003
 31
0.0
  0
ARC
  5
BE
330
40
100
AcDbEntity
  8
0011929
  6
Continuous
 62
     7
100
AcDbCircle
 10
199.5281501017
 20
64.626937214
 30
0.0
 40
15.21364211106009
100
AcDbArc
 50
73.8096599387
 51
96.4087253926
  0
LINE
  5
BF
330
40
100
AcDbEntity
  8
0011929
  6
Continuous
 62
     7
100
AcDbLine
 10
197.8311738193
 20
79.7452835676
 30
0.0
 11
189.1521173836
 21
79.7452835676
 31
0.0
  0
LINE
  5
C0
330
40
100
AcDbEntity
  8
0011929
  6
Continuous
 62
     7
100
AcDbLine
 10
168.5201582538
 20
87.6372169524
 30
0.0
 11
168.5201582538
 21
87.4386738748
 31
0.0
  0
LINE
  5
C1
330
40
100
AcDbEntity
  8
0011929
  6
Continuous
 62
     7
100
AcDbLine
 10
168.5201582538
 20
66.8372169524
 30
0.0
 11
168.5201582538
 21
87.4386738748
 31
0.0
  0
LINE
  5
C2
330
40
100
AcDbEntity
  8
0011929
  6
Continuous
 62
     7
100
AcDbLine
 10
168.5201582538
 20
103.03576003
 30
0.0
 11
168.5201582538
 21
102.8372169524
 31
0.0
  0
LINE
  5
C3
330
40
100
AcDbEntity
  8
0011929
  6
Continuous
 62
     7
100
AcDbLine
 10
168.5201582538
 20
103.03576003
 30
0.0
 11
168.5201582538
 21
123.6372169524
 31
0.0
  0
ARC
  5
C4
330
40
100
AcDbEntity
  8
0011929
  6
Continuous
 62
     7
100
AcDbCircle
 10
161.5196358434
 20
95.2108119645
 30
0.0
 40
6.973595031622289
100
AcDbArc
 50
244.7182682217
 51
270.0042921781
  0
ARC
  5
C5
330
40
100
AcDbEntity
  8
0011929
  6
Continuous
 62
     7
100
AcDbCircle
 10
161.5201582538
 20
95.2372169525
 30
0.0
 40
7.000000000047223
100
AcDbArc
 50
237.1216504356
 51
244.6230664748
  0
ARC
  5
C6
330
40
100
AcDbEntity
  8
0011929
  6
Continuous
 62
     7
100
AcDbCircle
 10
161.5201582538
 20
95.2372169524
 30
0.0
 40
6.999999999999995
100
AcDbArc
 50
122.8783495644
 51
237.1216504356
  0
ARC
  5
C7
330
40
100
AcDbEntity
  8
0011929
  6
Continuous
 62
     7
100
AcDbCircle
 10
161.5201582538
 20
95.2372169524
 30
0.0
 40
6.999999999980915
100
AcDbArc
 50
115.3769335251
 51
122.8783495644
  0
LINE
  5
C8
330
40
100
AcDbEntity
  8
0011929
  6
Continuous
 62
     7
100
AcDbLine
 10
158.5201582538
 20
67.0372169712
 30
0.0
 11
158.5201582538
 21
88.914667199
 31
0.0
  0
LINE
  5
C9
330
40
100
AcDbEntity
  8
0011929
  6
Continuous
 62
     7
100
AcDbLine
 10
158.5617579978
 20
101.5813376894
 30
0.0
 11
158.5201582538
 21
101.5617722727
 31
0.0
  0
ARC
  5
CA
330
40
100
AcDbEntity
  8
0011929
  6
Continuous
 62
     7
100
AcDbCircle
 10
183.9957795599
 20
105.6552155193
 30
0.0
 40
30.47111118849922
100
AcDbArc
 50
213.3466349464
 51
215.9228466523
  0
LINE
  5
CB
330
40
100
AcDbEntity
  8
0011929
  6
Continuous
 62
     7
100
AcDbLine
 10
159.3201582538
 20
87.7773745061
 30
0.0
 11
159.3201582538
 21
66.2372169703
 31
0.0
  0
LINE
  5
CC
330
40
100
AcDbEntity
  8
0011929
  6
Continuous
 62
     7
100
AcDbLine
 10
158.5201582538
 20
123.4372169336
 30
0.0
 11
158.5201582538
 21
101.5617722727
 31
0.0
  0
ARC
  5
CD
330
40
100
AcDbEntity
  8
0011929
  6
Continuous
 62
     7
100
AcDbCircle
 10
161.4894282004
 20
95.7822484949
 30
0.0
 40
7.248489249687786
100
AcDbArc
 50
89.7570931576
 51
107.4140088219
  0
LINE
  5
CE
330
40
100
AcDbEntity
  8
0011929
  6
Continuous
 62
     7
100
AcDbLine
 10
159.3201582538
 20
102.6990289563
 30
0.0
 11
159.3201582538
 21
124.2372169345
 31
0.0
  0
ARC
  5
CF
330
40
100
AcDbEntity
  8
0011929
  6
Continuous
 62
     7
100
AcDbCircle
 10
173.2529191492
 20
92.4414040898
 30
0.0
 40
17.30117496443181
100
AcDbArc
 50
143.6400188759
 51
148.114311612
  0
ARC
  5
D0
330
40
100
AcDbEntity
  8
0011929
  6
Continuous
 62
     7
100
AcDbCircle
 10
124.9201582538
 20
72.3460486906
 30
0.0
 40
0.8000000000000005
100
AcDbArc
 50
0.0
 51
105.0
  0
ARC
  5
D1
330
40
100
AcDbEntity
  8
0011929
  6
Continuous
 62
     7
100
AcDbCircle
 10
124.9201582538
 20
118.1283852143
 30
0.0
 40
0.7999999999999995
100
AcDbArc
 50
255.0
 51
0.0
  0
LINE
  5
D2
330
40
100
AcDbEntity
  8
0011929
  6
Continuous
 62
     7
100
AcDbLine
 10
123.6826682228
 20
72.8426851804
 30
0.0
 11
124.7131030177
 21
73.1187893516
 31
0.0
  0
LINE
  5
D3
330
40
100
AcDbEntity
  8
0011929
  6
Continuous
 62
     7
100
AcDbLine
 10
124.7131030177
 20
117.3556445532
 30
0.0
 11
123.6826682228
 21
117.6317487244
 31
0.0
  0
LINE
  5
D4
330
40
100
AcDbEntity
  8
0011929
  6
Continuous
 62
     7
100
AcDbLine
 10
135.0951582538
 20
123.2372169524
 30
0.0
 11
132.1451582538
 21
123.2372169524
 31
0.0
  0
ARC
  5
D5
330
40
100
AcDbEntity
  8
0011929
  6
Continuous
 62
     7
100
AcDbCircle
 10
132.1451582538
 20
123.6372169524
 30
0.0
 40
0.400000000000001
100
AcDbArc
 50
180.0
 51
270.0
  0
ARC
  5
D6
330
40
100
AcDbEntity
  8
0011929
  6
Continuous
 62
     7
100
AcDbCircle
 10
135.0951582538
 20
123.6372169524
 30
0.0
 40
0.3999999999999993
100
AcDbArc
 50
270.0
 51
0.0
  0
ARC
  5
D7
330
40
100
AcDbEntity
  8
0011929
  6
Continuous
 62
     7
100
AcDbCircle
 10
135.0951582538
 20
66.8372169524
 30
0.0
 40
0.400000000000001
100
AcDbArc
 50
0.0
 51
90.0
  0
ARC
  5
D8
330
40
100
AcDbEntity
  8
0011929
  6
Continuous
 62
     7
100
AcDbCircle
 10
132.1451582538
 20
66.8372169524
 30
0.0
 40
0.3999999999999993
100
AcDbArc
 50
90.0
 51
180.0
  0
LINE
  5
D9
330
40
100
AcDbEntity
  8
0011929
  6
Continuous
 62
     7
100
AcDbLine
 10
132.1451582538
 20
67.2372169524
 30
0.0
 11
135.0951582538
 21
67.2372169524
 31
0.0
  0
LINE
  5
DA
330
40
100
AcDbEntity
  8
0011929
  6
Continuous
 62
     7
100
AcDbLine
 10
126.5201582538
 20
127.0122169524
 30
0.0
 11
125.7201582538
 21
126.2122169524
 31
0.0
  0
LINE
  5
DB
330
40
100
AcDbEntity
  8
0011929
  6
Continuous
 62
     7
100
AcDbLine
 10
125.7201582538
 20
64.2622169524
 30
0.0
 11
126.5201582538
 21
63.4622169524
 31
0.0
  0
LINE
  5
DC
330
40
100
AcDbEntity
  8
0011929
  6
Continuous
 62
     7
100
AcDbLine
 10
126.5201582538
 20
63.4622169524
 30
0.0
 11
130.083887855
 21
63.4622169524
 31
0.0
  0
LINE
  5
DD
330
40
100
AcDbEntity
  8
0011929
  6
Continuous
 62
     7
100
AcDbLine
 10
130.083887855
 20
127.0122169524
 30
0.0
 11
126.5201582538
 21
127.0122169524
 31
0.0
  0
LINE
  5
DE
330
40
100
AcDbEntity
  8
0011929
  6
Continuous
 62
     7
100
AcDbLine
 10
130.083887855
 20
63.4622169524
 30
0.0
 11
131.7451582538
 21
66.3396216882
 31
0.0
  0
LINE
  5
DF
330
40
100
AcDbEntity
  8
0011929
  6
Continuous
 62
     7
100
AcDbLine
 10
131.7451582538
 20
124.1348122166
 30
0.0
 11
130.083887855
 21
127.0122169524
 31
0.0
  0
LINE
  5
E0
330
40
100
AcDbEntity
  8
0011929
  6
Continuous
 62
     7
100
AcDbLine
 10
141.5701582538
 20
126.2122169524
 30
0.0
 11
140.7701582538
 21
127.0122169524
 31
0.0
  0
LINE
  5
E1
330
40
100
AcDbEntity
  8
0011929
  6
Continuous
 62
     7
100
AcDbLine
 10
140.7701582538
 20
63.4622169524
 30
0.0
 11
141.5701582538
 21
64.2622169524
 31
0.0
  0
LINE
  5
E2
330
40
100
AcDbEntity
  8
0011929
  6
Continuous
 62
     7
100
AcDbLine
 10
137.1564286526
 20
63.4622169524
 30
0.0
 11
140.7701582538
 21
63.4622169524
 31
0.0
  0
LINE
  5
E3
330
40
100
AcDbEntity
  8
0011929
  6
Continuous
 62
     7
100
AcDbLine
 10
140.7701582538
 20
127.0122169524
 30
0.0
 11
137.1564286526
 21
127.0122169524
 31
0.0
  0
LINE
  5
E4
330
40
100
AcDbEntity
  8
0011929
  6
Continuous
 62
     7
100
AcDbLine
 10
135.4951582538
 20
66.3396216882
 30
0.0
 11
137.1564286526
 21
63.4622169524
 31
0.0
  0
LINE
  5
E5
330
40
100
AcDbEntity
  8
0011929
  6
Continuous
 62
     7
100
AcDbLine
 10
137.1564286526
 20
127.0122169524
 30
0.0
 11
135.4951582538
 21
124.1348122166
 31
0.0
  0
LINE
  5
E6
330
40
100
AcDbEntity
  8
0011929
  6
Continuous
 62
     7
100
AcDbLine
 10
123.6826682228
 20
117.6317487244
 30
0.0
 11
55.1258521374
 21
107.6339346646
 31
0.0
  0
LINE
  5
E7
330
40
100
AcDbEntity
  8
0011929
  6
Continuous
 62
     7
100
AcDbLine
 10
55.1258521374
 20
82.8404992402
 30
0.0
 11
123.6826682228
 21
72.8426851804
 31
0.0
  0
ARC
  5
E8
330
40
100
AcDbEntity
  8
0011929
  6
Continuous
 62
     7
100
AcDbCircle
 10
55.2701582538
 20
83.8300323345
 30
0.0
 40
1.000000000000001
100
AcDbArc
 50
180.0
 51
261.7029
  0
ARC
  5
E9
330
40
100
AcDbEntity
  8
0011929
  6
Continuous
 62
     7
100
AcDbCircle
 10
55.2701582538
 20
106.6444015703
 30
0.0
 40
0.9999999999999991
100
AcDbArc
 50
98.2971
 51
180.0
  0
LINE
  5
EA
330
40
100
AcDbEntity
  8
0011929
  6
Continuous
 62
     7
100
AcDbLine
 10
142.3701582538
 20
72.9872169524
 30
0.0
 11
157.7201582538
 21
72.9872169524
 31
0.0
  0
LINE
  5
EB
330
40
100
AcDbEntity
  8
0011929
  6
Continuous
 62
     7
100
AcDbLine
 10
157.7201582538
 20
117.4872169524
 30
0.0
 11
142.3701582538
 21
117.4872169524
 31
0.0
  0
LINE
  5
EC
330
40
100
AcDbEntity
  8
0011929
  6
Continuous
 62
     7
100
AcDbLine
 10
167.9201582538
 20
124.2372169524
 30
0.0
 11
159.3201582538
 21
124.2372169524
 31
0.0
  0
LINE
  5
ED
330
40
100
AcDbEntity
  8
0011929
  6
Continuous
 62
     7
100
AcDbLine
 10
167.9201582538
 20
66.2372169524
 30
0.0
 11
168.5201582538
 21
66.8372169524
 31
0.0
  0
LINE
  5
EE
330
40
100
AcDbEntity
  8
0011929
  6
Continuous
 62
     7
100
AcDbLine
 10
168.5201582538
 20
123.6372169524
 30
0.0
 11
167.9201582538
 21
124.2372169524
 31
0.0
  0
LINE
  5
EF
330
40
100
AcDbEntity
  8
0011929
  6
Continuous
 62
     7
100
AcDbLine
 10
203.767837216
 20
79.2372169524
 30
0.0
 11
205.8701582538
 21
79.2372169524
 31
0.0
  0
LINE
  5
F0
330
40
100
AcDbEntity
  8
0011929
  6
Continuous
 62
     7
100
AcDbLine
 10
205.8701582538
 20
111.2372169524
 30
0.0
 11
189.5201582538
 21
111.2372169524
 31
0.0
  0
LINE
  5
F1
330
40
100
AcDbEntity
  8
0011929
  6
Continuous
 62
     7
100
AcDbLine
 10
205.8701582538
 20
79.2372169524
 30
0.0
 11
206.5201582538
 21
79.8872169524
 31
0.0
  0
LINE
  5
F2
330
40
100
AcDbEntity
  8
0011929
  6
Continuous
 62
     7
100
AcDbLine
 10
206.5201582538
 20
110.5872169524
 30
0.0
 11
205.8701582538
 21
111.2372169524
 31
0.0
  0
LINE
  5
F3
330
40
100
AcDbEntity
  8
0011929
  6
Continuous
 62
     7
100
AcDbLine
 10
159.3201582538
 20
66.2372169524
 30
0.0
 11
167.9201582538
 21
66.2372169524
 31
0.0
  0
ARC
  5
F4
330
40
100
AcDbEntity
  8
0011929
  6
Continuous
 62
     7
100
AcDbCircle
 10
142.3701582538
 20
118.2872169524
 30
0.0
 40
0.7999999999999986
100
AcDbArc
 50
180.0
 51
270.0
  0
ARC
  5
F5
330
40
100
AcDbEntity
  8
0011929
  6
Continuous
 62
     7
100
AcDbCircle
 10
142.3701582538
 20
72.1872169524
 30
0.0
 40
0.7999999999999986
100
AcDbArc
 50
90.0
 51
180.0
  0
ARC
  5
F6
330
40
100
AcDbEntity
  8
0011929
  6
Continuous
 62
     7
100
AcDbCircle
 10
157.7201582538
 20
72.1872169524
 30
0.0
 40
0.7999999999999986
100
AcDbArc
 50
0.0
 51
90.0
  0
ARC
  5
F7
330
40
100
AcDbEntity
  8
0011929
  6
Continuous
 62
     7
100
AcDbCircle
 10
157.7201582538
 20
118.2872169524
 30
0.0
 40
0.800000000000002
100
AcDbArc
 50
270.0
 51
0.0
  0
LINE
  5
F8
330
40
100
AcDbEntity
  8
0011929
  6
Continuous
 62
     7
100
AcDbLine
 10
158.5201582538
 20
67.0372169524
 30
0.0
 11
159.3201582538
 21
66.2372169524
 31
0.0
  0
LINE
  5
F9
330
40
100
AcDbEntity
  8
0011929
  6
Continuous
 62
     7
100
AcDbLine
 10
159.3201582538
 20
124.2372169524
 30
0.0
 11
158.5201582538
 21
123.4372169524
 31
0.0
  0
LINE
  5
FA
330
40
100
AcDbEntity
  8
0011929
  6
Continuous
 62
     7
100
AcDbLine
 10
189.5201582538
 20
122.5868056148
 30
0.0
 11
189.5201582538
 21
111.143190673
 31
0.0
  0
LINE
  5
FB
330
40
100
AcDbEntity
  8
0011929
  6
Continuous
 62
     7
100
AcDbLine
 10
189.5201582538
 20
122.5868056148
 30
0.0
 11
189.5201582538
 21
123.2372169524
 31
0.0
  0
LINE
  5
FC
330
40
100
AcDbEntity
  8
0011929
  6
Continuous
 62
     7
100
AcDbLine
 10
188.5201582538
 20
124.2372169524
 30
0.0
 11
188.5201582538
 21
123.612951603
 31
0.0
  0
LINE
  5
FD
330
40
100
AcDbEntity
  8
0011929
  6
Continuous
 62
     7
100
AcDbLine
 10
188.5201582538
 20
66.8614823018
 30
0.0
 11
188.5201582538
 21
66.2372169524
 31
0.0
  0
LINE
  5
FE
330
40
100
AcDbEntity
  8
0011929
  6
Continuous
 62
     7
100
AcDbLine
 10
181.5201582538
 20
123.612951603
 30
0.0
 11
188.5201582538
 21
123.612951603
 31
0.0
  0
LINE
  5
FF
330
40
100
AcDbEntity
  8
0011929
  6
Continuous
 62
     7
100
AcDbLine
 10
188.5201582538
 20
66.8614823018
 30
0.0
 11
181.5201582538
 21
66.8614823018
 31
0.0
  0
LINE
  5
100
330
40
100
AcDbEntity
  8
0011929
  6
Continuous
 62
     7
100
AcDbLine
 10
181.5201582538
 20
66.8614823018
 30
0.0
 11
181.5201582538
 21
123.612951603
 31
0.0
  0
LINE
  5
101
330
40
100
AcDbEntity
  8
0011929
  6
Continuous
 62
     7
100
AcDbLine
 10
162.5201582538
 20
89.2524293172
 30
0.0
 11
169.5201582538
 21
89.2524293172
 31
0.0
  0
LINE
  5
102
330
40
100
AcDbEntity
  8
0011929
  6
Continuous
 62
     7
100
AcDbLine
 10
169.5201582538
 20
89.2524293172
 30
0.0
 11
169.5201582538
 21
66.2372169524
 31
0.0
  0
LINE
  5
103
330
40
100
AcDbEntity
  8
0011929
  6
Continuous
 62
     7
100
AcDbLine
 10
162.5201582538
 20
101.2220045876
 30
0.0
 11
162.5201582538
 21
89.2524293172
 31
0.0
  0
LINE
  5
104
330
40
100
AcDbEntity
  8
0011929
  6
Continuous
 62
     7
100
AcDbLine
 10
169.5201582538
 20
101.2220045876
 30
0.0
 11
162.5201582538
 21
101.2220045876
 31
0.0
  0
LINE
  5
105
330
40
100
AcDbEntity
  8
0011929
  6
Continuous
 62
     7
100
AcDbLine
 10
169.5201582538
 20
124.2372169524
 30
0.0
 11
169.5201582538
 21
101.2220045876
 31
0.0
  0
LINE
  5
106
330
40
100
AcDbEntity
  8
0011929
  6
Continuous
 62
     7
100
AcDbLine
 10
188.5201582538
 20
110.014445987
 30
0.0
 11
182.5201582538
 21
110.014445987
 31
0.0
  0
LINE
  5
107
330
40
100
AcDbEntity
  8
0011929
  6
Continuous
 62
     7
100
AcDbLine
 10
182.5201582538
 20
80.4599879179
 30
0.0
 11
188.5201582538
 21
80.4599879179
 31
0.0
  0
LINE
  5
108
330
40
100
AcDbEntity
  8
0011929
  6
Continuous
 62
     7
100
AcDbLine
 10
182.5201582538
 20
110.592183222
 30
0.0
 11
188.5201582538
 21
110.592183222
 31
0.0
  0
LINE
  5
109
330
40
100
AcDbEntity
  8
0011929
  6
Continuous
 62
     7
100
AcDbLine
 10
188.5201582538
 20
110.592183222
 30
0.0
 11
188.5201582538
 21
122.3612839572
 31
0.0
  0
LINE
  5
10A
330
40
100
AcDbEntity
  8
0011929
  6
Continuous
 62
     7
100
AcDbLine
 10
188.5201582538
 20
122.3612839572
 30
0.0
 11
182.5073931121
 21
122.3612839572
 31
0.0
  0
LINE
  5
10B
330
40
100
AcDbEntity
  8
0011929
  6
Continuous
 62
     7
100
AcDbLine
 10
188.5201582538
 20
68.1131499476
 30
0.0
 11
188.5201582538
 21
79.8822506828
 31
0.0
  0
LINE
  5
10C
330
40
100
AcDbEntity
  8
0011929
  6
Continuous
 62
     7
100
AcDbLine
 10
188.5201582538
 20
79.8822506828
 30
0.0
 11
182.5201582538
 21
79.8822506828
 31
0.0
  0
LINE
  5
10D
330
40
100
AcDbEntity
  8
0011929
  6
Continuous
 62
     7
100
AcDbLine
 10
182.5073931121
 20
68.1131499476
 30
0.0
 11
188.5201582538
 21
68.1131499476
 31
0.0
  0
LINE
  5
10E
330
40
100
AcDbEntity
  8
0011929
  6
Continuous
 62
     7
100
AcDbLine
 10
182.5201582538
 20
122.3481003759
 30
0.0
 11
182.5201582538
 21
68.126333529
 31
0.0
  0
LINE
  5
10F
330
40
100
AcDbEntity
  8
0011929
  6
Continuous
 62
     7
100
AcDbLine
 10
168.5329233955
 20
88.2372169524
 30
0.0
 11
167.9201582538
 21
88.2372169524
 31
0.0
  0
LINE
  5
110
330
40
100
AcDbEntity
  8
0011929
  6
Continuous
 62
     7
100
AcDbLine
 10
161.5201582538
 20
89.2372169524
 30
0.0
 11
161.5201582538
 21
101.2372169524
 31
0.0
  0
LINE
  5
111
330
40
100
AcDbEntity
  8
0011929
  6
Continuous
 62
     7
100
AcDbLine
 10
168.5201582538
 20
87.6372169524
 30
0.0
 11
168.5201582538
 21
88.2372169524
 31
0.0
  0
LINE
  5
112
330
40
100
AcDbEntity
  8
0011929
  6
Continuous
 62
     7
100
AcDbLine
 10
167.9201582538
 20
102.2372169524
 30
0.0
 11
168.5329233955
 21
102.2372169524
 31
0.0
  0
LINE
  5
113
330
40
100
AcDbEntity
  8
0011929
  6
Continuous
 62
     7
100
AcDbLine
 10
168.5201582538
 20
102.2372169524
 30
0.0
 11
168.5201582538
 21
102.8372169524
 31
0.0
  0
LINE
  5
114
330
40
100
AcDbEntity
  8
0011929
  6
Continuous
 62
     7
100
AcDbLine
 10
189.5201582538
 20
67.2372169524
 30
0.0
 11
189.5201582538
 21
67.8876282901
 31
0.0
  0
LINE
  5
115
330
40
100
AcDbEntity
  8
0011929
  6
Continuous
 62
     7
100
AcDbLine
 10
189.5201582538
 20
79.3312432318
 30
0.0
 11
189.5201582538
 21
67.8876282901
 31
0.0
  0
LINE
  5
116
330
40
100
AcDbEntity
  8
0011929
  6
Continuous
 62
     7
100
AcDbLine
 10
182.5073931121
 20
122.3612839572
 30
0.0
 11
182.5201582538
 21
122.3481003759
 31
0.0
  0
LINE
  5
117
330
40
100
AcDbEntity
  8
0011929
  6
Continuous
 62
     7
100
AcDbLine
 10
182.5201582538
 20
68.126333529
 30
0.0
 11
182.5073931121
 21
68.1131499476
 31
0.0
  0
LINE
  5
118
330
40
100
AcDbEntity
  8
0011929
  6
Continuous
 62
     7
100
AcDbLine
 10
189.5201582538
 20
67.8876282901
 30
0.0
 11
188.5201582538
 21
68.1131499476
 31
0.0
  0
LINE
  5
119
330
40
100
AcDbEntity
  8
0011929
  6
Continuous
 62
     7
100
AcDbLine
 10
188.5201582538
 20
79.8822506828
 30
0.0
 11
189.5201582538
 21
79.3312432318
 31
0.0
  0
LINE
  5
11A
330
40
100
AcDbEntity
  8
0011929
  6
Continuous
 62
     7
100
AcDbLine
 10
188.5201582538
 20
66.8614823018
 30
0.0
 11
188.5201582538
 21
68.1131499476
 31
0.0
  0
LINE
  5
11B
330
40
100
AcDbEntity
  8
0011929
  6
Continuous
 62
     7
100
AcDbLine
 10
189.5201582538
 20
67.8876282901
 30
0.0
 11
188.5201582538
 21
66.8614823018
 31
0.0
  0
ELLIPSE
  5
11C
330
40
100
AcDbEntity
  8
0011929
  6
Continuous
 62
     7
100
AcDbEllipse
 10
445.7351435167
 20
-128.9640752919
 30
0.0
 11
-269.297823993253
 21
228.1135867236973
 31
0.0
210
0.0
220
0.0
230
1.0
 40
0.0534254672
 41
0.349194992431167
 42
0.3613533367391265
  0
LINE
  5
11D
330
40
100
AcDbEntity
  8
0011929
  6
Continuous
 62
     7
100
AcDbLine
 10
188.5201582538
 20
79.8822506828
 30
0.0
 11
188.5201582538
 21
80.4599879179
 31
0.0
  0
LINE
  5
11E
330
40
100
AcDbEntity
  8
0011929
  6
Continuous
 62
     7
100
AcDbLine
 10
181.5201582538
 20
66.8614823018
 30
0.0
 11
182.5073931121
 21
68.1131499476
 31
0.0
  0
LINE
  5
11F
330
40
100
AcDbEntity
  8
0011929
  6
Continuous
 62
     7
100
AcDbLine
 10
181.5201582538
 20
123.612951603
 30
0.0
 11
182.5073931121
 21
122.3612839572
 31
0.0
  0
LINE
  5
120
330
40
100
AcDbEntity
  8
0011929
  6
Continuous
 62
     7
100
AcDbLine
 10
188.5201582538
 20
122.3612839572
 30
0.0
 11
189.5201582538
 21
122.5868056148
 31
0.0
  0
LINE
  5
121
330
40
100
AcDbEntity
  8
0011929
  6
Continuous
 62
     7
100
AcDbLine
 10
188.5201582538
 20
123.612951603
 30
0.0
 11
188.5201582538
 21
122.3612839572
 31
0.0
  0
LINE
  5
122
330
40
100
AcDbEntity
  8
0011929
  6
Continuous
 62
     7
100
AcDbLine
 10
188.5201582538
 20
110.592183222
 30
0.0
 11
188.5201582538
 21
110.014445987
 31
0.0
  0
LINE
  5
123
330
40
100
AcDbEntity
  8
0011929
  6
Continuous
 62
     7
100
AcDbLine
 10
189.5201582538
 20
111.143190673
 30
0.0
 11
188.5201582538
 21
110.592183222
 31
0.0
  0
LINE
  5
124
330
40
100
AcDbEntity
  8
0011929
  6
Continuous
 62
     7
100
AcDbLine
 10
188.5201582538
 20
123.612951603
 30
0.0
 11
189.5201582538
 21
122.5868056148
 31
0.0
  0
ELLIPSE
  5
125
330
40
100
AcDbEntity
  8
0011929
  6
Continuous
 62
     7
100
AcDbEllipse
 10
445.7353691142
 20
319.438692731
 30
0.0
 11
-269.2980498306054
 21
-228.1137709139732
 31
0.0
210
0.0
220
0.0
230
1.0
 40
0.0534254495
 41
-0.3613531899731388
 42
-0.3491948510080194
  0
LINE
  5
126
330
40
100
AcDbEntity
  8
0011929
  6
Continuous
 62
     7
100
AcDbLine
 10
162.5201582538
 20
102.2372169524
 30
0.0
 11
161.5201582538
 21
101.2372169524
 31
0.0
  0
LINE
  5
127
330
40
100
AcDbEntity
  8
0011929
  6
Continuous
 62
     7
100
AcDbLine
 10
162.5201582538
 20
101.2220045876
 30
0.0
 11
161.5201582538
 21
101.2372169524
 31
0.0
  0
LINE
  5
128
330
40
100
AcDbEntity
  8
0011929
  6
Continuous
 62
     7
100
AcDbLine
 10
162.5201582538
 20
102.2372169524
 30
0.0
 11
162.5201582538
 21
101.2220045876
 31
0.0
  0
LINE
  5
129
330
40
100
AcDbEntity
  8
0011929
  6
Continuous
 62
     7
100
AcDbLine
 10
161.5201582538
 20
89.2372169524
 30
0.0
 11
162.5201582538
 21
88.2372169524
 31
0.0
  0
LINE
  5
12A
330
40
100
AcDbEntity
  8
0011929
  6
Continuous
 62
     7
100
AcDbLine
 10
162.5201582538
 20
89.2524293172
 30
0.0
 11
161.5201582538
 21
89.2372169524
 31
0.0
  0
LINE
  5
12B
330
40
100
AcDbEntity
  8
0011929
  6
Continuous
 62
     7
100
AcDbLine
 10
168.5329233955
 20
102.2372169524
 30
0.0
 11
169.5201582538
 21
101.2220045876
 31
0.0
  0
LINE
  5
12C
330
40
100
AcDbEntity
  8
0011929
  6
Continuous
 62
     7
100
AcDbLine
 10
162.5201582538
 20
89.2524293172
 30
0.0
 11
162.5201582538
 21
88.2372169524
 31
0.0
  0
LINE
  5
12D
330
40
100
AcDbEntity
  8
0011929
  6
Continuous
 62
     7
100
AcDbLine
 10
169.5201582538
 20
89.2524293172
 30
0.0
 11
168.5329233955
 21
88.2372169524
 31
0.0
  0
LINE
  5
12E
330
40
100
AcDbEntity
  8
0011929
  6
Continuous
 62
     7
100
AcDbLine
 10
169.5201582538
 20
66.2372169524
 30
0.0
 11
188.5201582538
 21
66.2372169524
 31
0.0
  0
LINE
  5
12F
330
40
100
AcDbEntity
  8
0011929
  6
Continuous
 62
     7
100
AcDbLine
 10
188.5201582538
 20
124.2372169524
 30
0.0
 11
169.5201582538
 21
124.2372169524
 31
0.0
  0
LINE
  5
130
330
40
100
AcDbEntity
  8
0011929
  6
Continuous
 62
     7
100
AcDbLine
 10
188.5201582538
 20
66.2372169524
 30
0.0
 11
189.5201582538
 21
67.2372169524
 31
0.0
  0
LINE
  5
131
330
40
100
AcDbEntity
  8
0011929
  6
Continuous
 62
     7
100
AcDbLine
 10
189.5201582538
 20
123.2372169524
 30
0.0
 11
188.5201582538
 21
124.2372169524
 31
0.0
  0
LINE
  5
132
330
40
100
AcDbEntity
  8
0011929
  6
Continuous
 62
     7
100
AcDbLine
 10
169.5201582538
 20
124.2372169524
 30
0.0
 11
168.5201582538
 21
123.2372169524
 31
0.0
  0
LINE
  5
133
330
40
100
AcDbEntity
  8
0011929
  6
Continuous
 62
     7
100
AcDbLine
 10
168.5201582538
 20
67.2372169524
 30
0.0
 11
169.5201582538
 21
66.2372169524
 31
0.0
  0
LINE
  5
134
330
40
100
AcDbEntity
  8
0011929
  6
Continuous
 62
     7
100
AcDbLine
 10
213.5201582538
 20
114.6537047914
 30
0.0
 11
213.5201582538
 21
116.2372169524
 31
0.0
  0
LINE
  5
135
330
40
100
AcDbEntity
  8
0011929
  6
Continuous
 62
     7
100
AcDbLine
 10
222.5201582538
 20
114.6537047914
 30
0.0
 11
222.5201582538
 21
116.2372169524
 31
0.0
  0
LINE
  5
136
330
40
100
AcDbEntity
  8
0011929
  6
Continuous
 62
     7
100
AcDbLine
 10
222.5201582538
 20
103.2372169524
 30
0.0
 11
213.5201582538
 21
103.2372169524
 31
0.0
  0
LINE
  5
137
330
40
100
AcDbEntity
  8
0011929
  6
Continuous
 62
     7
100
AcDbLine
 10
213.5201582538
 20
114.6537047914
 30
0.0
 11
222.5201582538
 21
114.6537047914
 31
0.0
  0
LINE
  5
138
330
40
100
AcDbEntity
  8
0011929
  6
Continuous
 62
     7
100
AcDbLine
 10
213.5201582538
 20
75.8207291135
 30
0.0
 11
213.5201582538
 21
74.2372169524
 31
0.0
  0
LINE
  5
139
330
40
100
AcDbEntity
  8
0011929
  6
Continuous
 62
     7
100
AcDbLine
 10
222.5201582538
 20
75.8207291135
 30
0.0
 11
222.5201582538
 21
74.2372169524
 31
0.0
  0
LINE
  5
13A
330
40
100
AcDbEntity
  8
0011929
  6
Continuous
 62
     7
100
AcDbLine
 10
213.5201582538
 20
87.2372169524
 30
0.0
 11
213.5201582538
 21
103.2372169524
 31
0.0
  0
LINE
  5
13B
330
40
100
AcDbEntity
  8
0011929
  6
Continuous
 62
     7
100
AcDbLine
 10
213.5201582538
 20
75.8207291135
 30
0.0
 11
213.5201582538
 21
82.2372169524
 31
0.0
  0
LINE
  5
13C
330
40
100
AcDbEntity
  8
0011929
  6
Continuous
 62
     7
100
AcDbLine
 10
222.5201582538
 20
87.2372169524
 30
0.0
 11
222.5201582538
 21
103.2372169524
 31
0.0
  0
LINE
  5
13D
330
40
100
AcDbEntity
  8
0011929
  6
Continuous
 62
     7
100
AcDbLine
 10
222.5201582538
 20
75.8207291135
 30
0.0
 11
213.5201582538
 21
75.8207291135
 31
0.0
  0
LINE
  5
13E
330
40
100
AcDbEntity
  8
0011929
  6
Continuous
 62
     7
100
AcDbLine
 10
213.5201582538
 20
87.2372169524
 30
0.0
 11
222.5201582538
 21
87.2372169524
 31
0.0
  0
LINE
  5
13F
330
40
100
AcDbEntity
  8
0011929
  6
Continuous
 62
     7
100
AcDbLine
 10
222.5201582538
 20
75.8207291135
 30
0.0
 11
222.5201582538
 21
82.2372169524
 31
0.0
  0
LINE
  5
140
330
40
100
AcDbEntity
  8
0011929
  6
Continuous
 62
     7
100
AcDbLine
 10
213.5201582538
 20
108.2372169524
 30
0.0
 11
213.5201582538
 21
114.6537047914
 31
0.0
  0
LINE
  5
141
330
40
100
AcDbEntity
  8
0011929
  6
Continuous
 62
     7
100
AcDbLine
 10
222.5201582538
 20
108.2372169524
 30
0.0
 11
222.5201582538
 21
114.6537047914
 31
0.0
  0
LINE
  5
142
330
40
100
AcDbEntity
  8
0011929
  6
Continuous
 62
     7
100
AcDbLine
 10
222.5201582538
 20
108.2372169524
 30
0.0
 11
222.5201582538
 21
103.2372169524
 31
0.0
  0
LINE
  5
143
330
40
100
AcDbEntity
  8
0011929
  6
Continuous
 62
     7
100
AcDbLine
 10
213.5201582538
 20
103.2372169524
 30
0.0
 11
213.5201582538
 21
108.2372169524
 31
0.0
  0
LINE
  5
144
330
40
100
AcDbEntity
  8
0011929
  6
Continuous
 62
     7
100
AcDbLine
 10
222.5201582538
 20
87.2372169524
 30
0.0
 11
222.5201582538
 21
82.2372169524
 31
0.0
  0
LINE
  5
145
330
40
100
AcDbEntity
  8
0011929
  6
Continuous
 62
     7
100
AcDbLine
 10
213.5201582538
 20
82.2372169524
 30
0.0
 11
213.5201582538
 21
87.2372169524
 31
0.0
  0
LINE
  5
146
330
40
100
AcDbEntity
  8
0011929
  6
Continuous
 62
     7
100
AcDbLine
 10
206.5201582538
 20
87.2372169524
 30
0.0
 11
211.5201582538
 21
87.2372169524
 31
0.0
  0
LINE
  5
147
330
40
100
AcDbEntity
  8
0011929
  6
Continuous
 62
     7
100
AcDbLine
 10
211.5201582538
 20
103.2372169524
 30
0.0
 11
206.5201582538
 21
103.2372169524
 31
0.0
  0
LINE
  5
148
330
40
100
AcDbEntity
  8
0011929
  6
Continuous
 62
     7
100
AcDbLine
 10
222.5201582538
 20
116.2372169524
 30
0.0
 11
213.5201582538
 21
116.2372169524
 31
0.0
  0
LINE
  5
149
330
40
100
AcDbEntity
  8
0011929
  6
Continuous
 62
     7
100
AcDbLine
 10
213.5201582538
 20
74.2372169524
 30
0.0
 11
222.5201582538
 21
74.2372169524
 31
0.0
  0
ARC
  5
14A
330
40
100
AcDbEntity
  8
0011929
  6
Continuous
 62
     7
100
AcDbCircle
 10
211.5201582538
 20
105.2372169524
 30
0.0
 40
1.999999999999988
100
AcDbArc
 50
270.0
 51
0.0
  0
ARC
  5
14B
330
40
100
AcDbEntity
  8
0011929
  6
Continuous
 62
     7
100
AcDbCircle
 10
211.5201582538
 20
85.2372169524
 30
0.0
 40
2.0
100
AcDbArc
 50
0.0
 51
90.0
  0
LINE
  5
14C
330
40
100
AcDbEntity
  8
0011929
  6
Continuous
 62
     7
100
AcDbLine
 10
211.5201582538
 20
103.2372169524
 30
0.0
 11
211.5201582538
 21
102.0102169524
 31
0.0
  0
LINE
  5
14D
330
40
100
AcDbEntity
  8
0011929
  6
Continuous
 62
     7
100
AcDbLine
 10
206.5201582538
 20
102.0102169524
 30
0.0
 11
211.5201582538
 21
102.0102169524
 31
0.0
  0
LINE
  5
14E
330
40
100
AcDbEntity
  8
0011929
  6
Continuous
 62
     7
100
AcDbLine
 10
206.5201582538
 20
88.4642169524
 30
0.0
 11
211.5201582538
 21
88.4642169524
 31
0.0
  0
LINE
  5
14F
330
40
100
AcDbEntity
  8
0011929
  6
Continuous
 62
     7
100
AcDbLine
 10
211.5201582538
 20
87.2372169524
 30
0.0
 11
211.5201582538
 21
88.4642169524
 31
0.0
  0
LINE
  5
152
330
40
100
AcDbEntity
  8
DV1_Default
  6
PHANTOM2
 62
     7
100
AcDbLine
 10
122.5201582538
 20
72.9484157572
 30
0.0
 11
122.5201582538
 21
73.0122169524
 31
0.0
  0
DIMENSION
  5
168
330
40
100
AcDbEntity
  8
DV1_Hilfe
  6
Continuous
 62
     7
100
AcDbDimension
  2
DMBLK1
 10
182.5201582538
 20
132.003431202
 30
0.0
 11
152.5201575832
 21
132.003431202
 31
0.0
 70
   160
  1
\A1;<>
 71
     5
 42
-1.0
  3
DIN
100
AcDbAlignedDimension
 13
122.5201582538
 23
72.9484157572
 33
0.0
 14
182.5201582538
 24
122.3481003759
 34
0.0
100
AcDbRotatedDimension
  0
LINE
  5
173
330
40
100
AcDbEntity
  8
DV1_Default
  6
CENTER2
 62
     7
100
AcDbLine
 10
52.2701582538
 20
95.2372169524
 30
0.0
 11
224.5201582538
 21
95.2372169524
 31
0.0
  0
LINE
  5
174
330
40
100
AcDbEntity
  8
DV1_Default
  6
CENTER2
 62
     7
100
AcDbLine
 10
133.6201582538
 20
102.2372169524
 30
0.0
 11
133.6201582538
 21
88.4372169524
 31
0.0
  0
ENDBLK
  5
176
330
40
100
AcDbEntity
  8
0
100
AcDbBlockEnd
  0
BLOCK
  5
156
330
155
100
AcDbEntity
  8
0
100
AcDbBlockBegin
  2
_OBLIQUE
 70
     0
 10
0.0
 20
0.0
 30
0.0
  3
_OBLIQUE
  1

  0
LINE
  5
158
330
155
100
AcDbEntity
  8
0
  6
ByBlock
 62
     0
370
    -2
100
AcDbLine
 10
-0.5
 20
-0.5
 30
0.0
 11
0.5
 21
0.5
 31
0.0
  0
ENDBLK
  5
157
330
155
100
AcDbEntity
  8
0
100
AcDbBlockEnd
  0
BLOCK
  5
15A
330
159
100
AcDbEntity
  8
0
100
AcDbBlockBegin
  2
_DOT
 70
     0
 10
0.0
 20
0.0
 30
0.0
  3
_DOT
  1

  0
POLYLINE
  5
15C
330
159
100
AcDbEntity
  8
0
  6
ByBlock
 62
     0
100
AcDb2dPolyline
 66
     1
 10
0.0
 20
0.0
 30
0.0
 70
     1
 40
0.5
 41
0.5
  0
VERTEX
  5
15E
330
15C
100
AcDbEntity
  8
0
  6
ByBlock
 62
     0
100
AcDbVertex
100
AcDb2dVertex
 10
-0.25
 20
0.0
 30
0.0
 42
1.0
  0
VERTEX
  5
15F
330
15C
100
AcDbEntity
  8
0
  6
ByBlock
 62
     0
100
AcDbVertex
100
AcDb2dVertex
 10
0.25
 20
0.0
 30
0.0
 42
1.0
  0
SEQEND
  5
160
330
15C
100
AcDbEntity
  8
0
  6
ByBlock
 62
     0
  0
LINE
  5
15D
330
159
100
AcDbEntity
  8
0
  6
ByBlock
 62
     0
370
    -2
100
AcDbLine
 10
-0.5
 20
0.0
 30
0.0
 11
-1.0
 21
0.0
 31
0.0
  0
ENDBLK
  5
15B
330
159
100
AcDbEntity
  8
0
100
AcDbBlockEnd
  0
BLOCK
  5
164
330
161
100
AcDbEntity
  8
0
100
AcDbBlockBegin
  2
_SE_FILLED
 70
     0
 10
0.0
 20
0.0
 30
0.0
  3
_SE_FILLED
  1

  0
SOLID
  5
162
330
161
100
AcDbEntity
  8
0
 62
     0
100
AcDbTrace
 10
0.0
 20
0.0
 30
0.0
 11
-1.0
 21
-0.1665
 31
0.0
 12
-1.0
 22
0.1665
 32
0.0
 13
0.0
 23
0.0
 33
0.0
  0
LINE
  5
163
330
161
100
AcDbEntity
  8
0
 62
     0
100
AcDbLine
 10
0.0
 20
0.0
 30
0.0
 11
-1.0
 21
0.0
 31
0.0
  0
ENDBLK
  5
165
330
161
100
AcDbEntity
  8
0
100
AcDbBlockEnd
  0
BLOCK
  5
170
330
169
100
AcDbEntity
  8
0
100
AcDbBlockBegin
  2
DMBLK1
 70
     0
 10
0.0
 20
0.0
 30
0.0
  3
DMBLK1
  1

  0
HATCH
  5
16A
330
169
100
AcDbEntity
  8
DV1_Hilfe
  6
Continuous
 62
     7
100
AcDbHatch
 10
0.0
 20
0.0
 30
0.0
210
0.0
220
0.0
230
1.0
  2
SOLID
 70
     1
 71
     0
 91
        1
 92
        1
 93
        3
 72
     1
 10
126.0201583618241
 20
132.5867645533322
 11
122.5201582537906
 21
132.0034312019933
 72
     1
 10
122.5201582537906
 20
132.0034312019933
 11
126.0201583618241
 21
131.4200978506544
 72
     1
 10
126.0201583618241
 20
131.4200978506544
 11
126.0201583618241
 21
132.5867645533322
 97
        0
 75
     0
 76
     1
 98
        0
  0
HATCH
  5
16B
330
169
100
AcDbEntity
  8
DV1_Hilfe
  6
Continuous
 62
     7
100
AcDbHatch
 10
0.0
 20
0.0
 30
0.0
210
0.0
220
0.0
230
1.0
  2
SOLID
 70
     1
 71
     0
 91
        1
 92
        1
 93
        3
 72
     1
 10
179.0201568046527
 20
132.5867645533322
 11
179.0201568046527
 21
131.4200978506544
 72
     1
 10
179.0201568046527
 20
131.4200978506544
 11
182.5201569126861
 21
132.0034312019933
 72
     1
 10
182.5201569126861
 20
132.0034312019933
 11
179.0201568046527
 21
132.5867645533322
 97
        0
 75
     0
 76
     1
 98
        0
  0
LINE
  5
16C
330
169
100
AcDbEntity
  8
DV1_Hilfe
  6
Continuous
 62
     7
100
AcDbLine
 10
122.5201582538
 20
73.0122169488
 30
0.0
 11
122.5201582538
 21
133.753431256
 31
0.0
  0
LINE
  5
16D
330
169
100
AcDbEntity
  8
DV1_Hilfe
  6
Continuous
 62
     7
100
AcDbLine
 10
182.5201582538
 20
122.3481003759
 30
0.0
 11
182.5201582538
 21
133.753431256
 31
0.0
  0
LINE
  5
16E
330
169
100
AcDbEntity
  8
DV1_Hilfe
  6
Continuous
 62
     7
100
AcDbLine
 10
122.5201582538
 20
132.003431202
 30
0.0
 11
182.5201569127
 21
132.003431202
 31
0.0
  0
TEXT
  5
16F
330
169
100
AcDbEntity
  8
DV1_Hilfe
  6
Continuous
 62
     7
100
AcDbText
 10
150.4122030378
 20
132.878431202
 30
0.0
 40
3.5
  1
60
  7
SEACAD_Solid_Edge_ISO
 11
150.4122030378
 21
136.378431202
 31
0.0
100
AcDbText
 73
     3
  0
ENDBLK
  5
171
330
169
100
AcDbEntity
  8
0
100
AcDbBlockEnd
  0
BLOCK
  5
17F
330
178
100
AcDbEntity
  8
0
100
AcDbBlockBegin
  2
DMBLK2
 70
     0
 10
0.0
 20
0.0
 30
0.0
  3
DMBLK2
  1

  0
HATCH
  5
179
330
178
100
AcDbEntity
  8
Default
  6
Continuous
 62
     7
100
AcDbHatch
 10
0.0
 20
0.0
 30
0.0
210
0.0
220
0.0
230
1.0
  2
SOLID
 70
     1
 71
     0
 91
        1
 92
        1
 93
        3
 72
     1
 10
126.0201583618241
 20
54.84058669591182
 11
126.0201583618241
 21
56.00725339858962
 72
     1
 10
126.0201583618241
 20
56.00725339858962
 11
122.5201582537906
 21
55.42392004725072
 72
     1
 10
122.5201582537906
 20
55.42392004725072
 11
126.0201583618241
 21
54.84058669591182
 97
        0
 75
     0
 76
     1
 98
        0
  0
HATCH
  5
17A
330
178
100
AcDbEntity
  8
Default
  6
Continuous
 62
     7
100
AcDbHatch
 10
0.0
 20
0.0
 30
0.0
210
0.0
220
0.0
230
1.0
  2
SOLID
 70
     1
 71
     0
 91
        1
 92
        1
 93
        3
 72
     1
 10
179.0201568046527
 20
54.84058669591181
 11
182.5201569126861
 21
55.42392004725071
 72
     1
 10
182.5201569126861
 20
55.42392004725071
 11
179.0201568046527
 21
56.00725339858961
 72
     1
 10
179.0201568046527
 20
56.00725339858961
 11
179.0201568046527
 21
54.84058669591181
 97
        0
 75
     0
 76
     1
 98
        0
  0
LINE
  5
17B
330
178
100
AcDbEntity
  8
Default
  6
Continuous
 62
     7
100
AcDbLine
 10
122.5201582538
 20
72.9484157608
 30
0.0
 11
122.5201582538
 21
53.6739199932
 31
0.0
  0
LINE
  5
17C
330
178
100
AcDbEntity
  8
Default
  6
Continuous
 62
     7
100
AcDbLine
 10
182.5201582538
 20
68.126333529
 30
0.0
 11
182.5201582538
 21
53.6739199932
 31
0.0
  0
LINE
  5
17D
330
178
100
AcDbEntity
  8
Default
  6
Continuous
 62
     7
100
AcDbLine
 10
122.5201582538
 20
55.4239200473
 30
0.0
 11
182.5201569127
 21
55.4239200473
 31
0.0
  0
TEXT
  5
17E
330
178
100
AcDbEntity
  8
Default
  6
Continuous
 62
     7
100
AcDbText
 10
150.4122030378
 20
56.2989200473
 30
0.0
 40
3.5
  1
60
  7
SEACAD_Solid_Edge_ISO
 11
150.4122030378
 21
59.7989200473
 31
0.0
100
AcDbText
 73
     3
  0
ENDBLK
  5
180
330
178
100
AcDbEntity
  8
0
100
AcDbBlockEnd
  0
BLOCK
  5
18B
330
181
100
AcDbEntity
  8
0
100
AcDbBlockBegin
  2
GDimGGroup
 70
     0
 10
0.0
 20
0.0
 30
0.0
  3
GDimGGroup
  1

  0
HATCH
  5
183
330
181
100
AcDbEntity
  8
Default
  6
Continuous
 62
     7
100
AcDbHatch
 10
0.0
 20
0.0
 30
0.0
210
0.0
220
0.0
230
1.0
  2
SOLID
 70
     1
 71
     0
 91
        1
 92
        1
 93
        3
 72
     1
 10
175.4117690394885
 20
120.7372168443773
 11
176.5784357421663
 21
120.7372168443773
 72
     1
 10
176.5784357421663
 20
120.7372168443773
 11
175.9951023908274
 21
124.2372169524107
 72
     1
 10
175.9951023908274
 20
124.2372169524107
 11
175.4117690394885
 21
120.7372168443773
 97
        0
 75
     0
 76
     1
 98
        0
  0
HATCH
  5
184
330
181
100
AcDbEntity
  8
Default
  6
Continuous
 62
     7
100
AcDbHatch
 10
0.0
 20
0.0
 30
0.0
210
0.0
220
0.0
230
1.0
  2
SOLID
 70
     1
 71
     0
 91
        1
 92
        1
 93
        3
 72
     1
 10
175.4117690394885
 20
69.73721872937415
 11
175.9951023908274
 21
66.23721862134073
 72
     1
 10
175.9951023908274
 20
66.23721862134073
 11
176.5784357421663
 21
69.73721872937415
 72
     1
 10
176.5784357421663
 20
69.73721872937415
 11
175.4117690394885
 21
69.73721872937415
 97
        0
 75
     0
 76
     1
 98
        0
  0
LINE
  5
185
330
181
100
AcDbEntity
  8
Default
  6
Continuous
 62
     7
100
AcDbLine
 10
179.0201582538
 20
124.2372169524
 30
0.0
 11
174.2451023368
 21
124.2372169524
 31
0.0
  0
LINE
  5
186
330
181
100
AcDbEntity
  8
Default
  6
Continuous
 62
     7
100
AcDbLine
 10
179.0201582538
 20
66.2372169524
 30
0.0
 11
174.2451023368
 21
66.2372169524
 31
0.0
  0
LINE
  5
187
330
181
100
AcDbEntity
  8
Default
  6
Continuous
 62
     7
100
AcDbLine
 10
175.9951023908
 20
124.2372169524
 30
0.0
 11
175.9951023908
 21
66.2372186213
 31
0.0
  0
TEXT
  5
189
330
181
100
AcDbEntity
  8
Default
  6
Continuous
 62
     7
100
AcDbText
 10
175.1201023908
 20
90.0836492063
 30
0.0
 40
3.5
  1
O
 50
90.0
  7
SEACAD_Solid_Edge_ISO1_Symbols
 11
171.6201023908
 21
90.0836492063
 31
0.0
100
AcDbText
 73
     3
  0
TEXT
  5
18A
330
181
100
AcDbEntity
  8
Default
  6
Continuous
 62
     7
100
AcDbText
 10
175.1201023908
 20
96.1748772765
 30
0.0
 40
3.5
  1
58
 50
90.0
  7
SEACAD_Solid_Edge_ISO
 11
171.6201023908
 21
96.1748772765
 31
0.0
100
AcDbText
 73
     3
  0
ENDBLK
  5
18C
330
181
100
AcDbEntity
  8
0
100
AcDbBlockEnd
  0
BLOCK
  5
194
330
18D
100
AcDbEntity
  8
0
100
AcDbBlockBegin
  2
GDimGGroup1
 70
     0
 10
0.0
 20
0.0
 30
0.0
  3
GDimGGroup1
  1

  0
HATCH
  5
18F
330
18D
100
AcDbEntity
  8
Default
  6
Continuous
 62
     7
100
AcDbHatch
 10
0.0
 20
0.0
 30
0.0
210
0.0
220
0.0
230
1.0
  2
SOLID
 70
     1
 71
     0
 91
        1
 92
        1
 93
        3
 72
     1
 10
200.8034089165525
 20
107.7372168443773
 11
200.2200755652136
 21
111.2372169524107
 72
     1
 10
200.2200755652136
 20
111.2372169524107
 11
199.6367422138747
 21
107.7372168443773
 72
     1
 10
199.6367422138747
 20
107.7372168443773
 11
200.8034089165525
 21
107.7372168443773
 97
        0
 75
     0
 76
     1
 98
        0
  0
LINE
  5
190
330
18D
100
AcDbEntity
  8
Default
  6
Continuous
 62
     7
100
AcDbLine
 10
188.3952544432
 20
111.2372169524
 30
0.0
 11
201.9700756192
 21
111.2372169524
 31
0.0
  0
LINE
  5
191
330
18D
100
AcDbEntity
  8
Default
  6
Continuous
 62
     7
100
AcDbLine
 10
200.2200755652
 20
111.2372169524
 30
0.0
 11
200.2200755652
 21
95.2372161925
 31
0.0
  0
TEXT
  5
192
330
18D
100
AcDbEntity
  8
Default
  6
Continuous
 62
     7
100
AcDbText
 10
199.3450755652
 20
90.2029657937
 30
0.0
 40
3.5
  1
O
 50
90.0
  7
SEACAD_Solid_Edge_ISO1_Symbols
 11
195.8450755652
 21
90.2029657937
 31
0.0
100
AcDbText
 73
     3
  0
TEXT
  5
193
330
18D
100
AcDbEntity
  8
Default
  6
Continuous
 62
     7
100
AcDbText
 10
199.3450755652
 20
96.2941938639
 30
0.0
 40
3.5
  1
32
 50
90.0
  7
SEACAD_Solid_Edge_ISO
 11
195.8450755652
 21
96.2941938639
 31
0.0
100
AcDbText
 73
     3
  0
ENDBLK
  5
195
330
18D
100
AcDbEntity
  8
0
100
AcDbBlockEnd
  0
BLOCK
  5
19E
330
196
100
AcDbEntity
  8
0
100
AcDbBlockBegin
  2
GDimGGroup2
 70
     0
 10
0.0
 20
0.0
 30
0.0
  3
GDimGGroup2
  1

  0
HATCH
  5
198
330
196
100
AcDbEntity
  8
Default
  6
Continuous
 62
     7
100
AcDbHatch
 10
0.0
 20
0.0
 30
0.0
210
0.0
220
0.0
230
1.0
  2
SOLID
 70
     1
 71
     0
 91
        1
 92
        1
 93
        3
 72
     1
 10
234.579687894192
 20
106.7372170604441
 11
233.4130211915142
 21
106.7372170604441
 72
     1
 10
233.4130211915142
 20
106.7372170604441
 11
233.9963545428531
 21
103.2372169524107
 72
     1
 10
233.9963545428531
 20
103.2372169524107
 11
234.579687894192
 21
106.7372170604441
 97
        0
 75
     0
 76
     1
 98
        0
  0
HATCH
  5
199
330
196
100
AcDbEntity
  8
Default
  6
Continuous
 62
     7
100
AcDbHatch
 10
0.0
 20
0.0
 30
0.0
210
0.0
220
0.0
230
1.0
  2
SOLID
 70
     1
 71
     0
 91
        1
 92
        1
 93
        3
 72
     1
 10
234.579687894192
 20
83.73721684437727
 11
233.9963545428531
 21
87.23721695241069
 72
     1
 10
233.9963545428531
 20
87.23721695241069
 11
233.4130211915142
 21
83.73721684437727
 72
     1
 10
233.4130211915142
 20
83.73721684437727
 11
234.579687894192
 21
83.73721684437727
 97
        0
 75
     0
 76
     1
 98
        0
  0
LINE
  5
19A
330
196
100
AcDbEntity
  8
Default
  6
Continuous
 62
     7
100
AcDbLine
 10
211.5201582538
 20
103.2372169524
 30
0.0
 11
235.7463545969
 21
103.2372169524
 31
0.0
  0
LINE
  5
19B
330
196
100
AcDbEntity
  8
Default
  6
Continuous
 62
     7
100
AcDbLine
 10
211.5201582538
 20
87.2372169524
 30
0.0
 11
235.7463545969
 21
87.2372169524
 31
0.0
  0
LINE
  5
19C
330
196
100
AcDbEntity
  8
Default
  6
Continuous
 62
     7
100
AcDbLine
 10
233.9963545429
 20
110.2372171685
 30
0.0
 11
233.9963545429
 21
80.2372169077
 31
0.0
  0
TEXT
  5
19D
330
196
100
AcDbEntity
  8
Default
  6
Continuous
 62
     7
100
AcDbText
 10
233.1213545429
 20
91.5701711179
 30
0.0
 40
3.5
  1
M16
 50
90.0
  7
SEACAD_Solid_Edge_ISO
 11
229.6213545429
 21
91.5701711179
 31
0.0
100
AcDbText
 73
     3
  0
ENDBLK
  5
19F
330
196
100
AcDbEntity
  8
0
100
AcDbBlockEnd
  0
BLOCK
  5
1A8
330
1A1
100
AcDbEntity
  8
0
100
AcDbBlockBegin
  2
DMBLK3
 70
     0
 10
0.0
 20
0.0
 30
0.0
  3
DMBLK3
  1

  0
HATCH
  5
1A2
330
1A1
100
AcDbEntity
  8
Default
  6
Continuous
 62
     7
100
AcDbHatch
 10
0.0
 20
0.0
 30
0.0
210
0.0
220
0.0
230
1.0
  2
SOLID
 70
     1
 71
     0
 91
        1
 92
        1
 93
        3
 72
     1
 10
203.0201581457572
 20
141.1559744349046
 11
203.0201581457572
 21
139.9893077322268
 72
     1
 10
203.0201581457572
 20
139.9893077322268
 11
206.5201582537906
 21
140.5726410835657
 72
     1
 10
206.5201582537906
 20
140.5726410835657
 11
203.0201581457572
 21
141.1559744349046
 97
        0
 75
     0
 76
     1
 98
        0
  0
HATCH
  5
1A3
330
1A1
100
AcDbEntity
  8
Default
  6
Continuous
 62
     7
100
AcDbHatch
 10
0.0
 20
0.0
 30
0.0
210
0.0
220
0.0
230
1.0
  2
SOLID
 70
     1
 71
     0
 91
        1
 92
        1
 93
        3
 72
     1
 10
172.0201595837193
 20
141.1559744349046
 11
168.5201594756859
 21
140.5726410835657
 72
     1
 10
168.5201594756859
 20
140.5726410835657
 11
172.0201595837193
 21
139.9893077322268
 72
     1
 10
172.0201595837193
 20
139.9893077322268
 11
172.0201595837193
 21
141.1559744349046
 97
        0
 75
     0
 76
     1
 98
        0
  0
LINE
  5
1A4
330
1A1
100
AcDbEntity
  8
Default
  6
Continuous
 62
     7
100
AcDbLine
 10
206.5201582538
 20
110.5872169524
 30
0.0
 11
206.5201582538
 21
142.3226411376
 31
0.0
  0
LINE
  5
1A5
330
1A1
100
AcDbEntity
  8
Default
  6
Continuous
 62
     7
100
AcDbLine
 10
168.5201582538
 20
123.6372169524
 30
0.0
 11
168.5201582538
 21
142.3226411376
 31
0.0
  0
LINE
  5
1A6
330
1A1
100
AcDbEntity
  8
Default
  6
Continuous
 62
     7
100
AcDbLine
 10
206.5201582538
 20
140.5726410836
 30
0.0
 11
168.5201594757
 21
140.5726410836
 31
0.0
  0
TEXT
  5
1A7
330
1A1
100
AcDbEntity
  8
Default
  6
Continuous
 62
     7
100
AcDbText
 10
185.4917497738
 20
141.4476410836
 30
0.0
 40
3.5
  1
38
  7
SEACAD_Solid_Edge_ISO
 11
185.4917497738
 21
144.9476410836
 31
0.0
100
AcDbText
 73
     3
  0
ENDBLK
  5
1A9
330
1A1
100
AcDbEntity
  8
0
100
AcDbBlockEnd
  0
BLOCK
  5
1B2
330
1AB
100
AcDbEntity
  8
0
100
AcDbBlockBegin
  2
DMBLK4
 70
     0
 10
0.0
 20
0.0
 30
0.0
  3
DMBLK4
  1

  0
HATCH
  5
1AC
330
1AB
100
AcDbEntity
  8
Default
  6
Continuous
 62
     7
100
AcDbHatch
 10
0.0
 20
0.0
 30
0.0
210
0.0
220
0.0
230
1.0
  2
SOLID
 70
     1
 71
     0
 91
        1
 92
        1
 93
        3
 72
     1
 10
203.0201581457572
 20
157.9559756985231
 11
203.0201581457572
 21
156.7893089958453
 72
     1
 10
203.0201581457572
 20
156.7893089958453
 11
206.5201582537906
 21
157.3726423471842
 72
     1
 10
206.5201582537906
 20
157.3726423471842
 11
203.0201581457572
 21
157.9559756985231
 97
        0
 75
     0
 76
     1
 98
        0
  0
HATCH
  5
1AD
330
1AB
100
AcDbEntity
  8
Default
  6
Continuous
 62
     7
100
AcDbHatch
 10
0.0
 20
0.0
 30
0.0
210
0.0
220
0.0
230
1.0
  2
SOLID
 70
     1
 71
     0
 91
        1
 92
        1
 93
        3
 72
     1
 10
145.0701615923958
 20
157.9559756985231
 11
141.5701614843624
 21
157.3726423471842
 72
     1
 10
141.5701614843624
 20
157.3726423471842
 11
145.0701615923958
 21
156.7893089958453
 72
     1
 10
145.0701615923958
 20
156.7893089958453
 11
145.0701615923958
 21
157.9559756985231
 97
        0
 75
     0
 76
     1
 98
        0
  0
LINE
  5
1AE
330
1AB
100
AcDbEntity
  8
Default
  6
Continuous
 62
     7
100
AcDbLine
 10
206.5201582538
 20
110.5872169524
 30
0.0
 11
206.5201582538
 21
159.1226424012
 31
0.0
  0
LINE
  5
1AF
330
1AB
100
AcDbEntity
  8
Default
  6
Continuous
 62
     7
100
AcDbLine
 10
141.5701582538
 20
126.2122169524
 30
0.0
 11
141.5701582538
 21
159.1226424012
 31
0.0
  0
LINE
  5
1B0
330
1AB
100
AcDbEntity
  8
Default
  6
Continuous
 62
     7
100
AcDbLine
 10
206.5201582538
 20
157.3726423472
 30
0.0
 11
141.5701614844
 21
157.3726423472
 31
0.0
  0
TEXT
  5
1B1
330
1AB
100
AcDbEntity
  8
Default
  6
Continuous
 62
     7
100
AcDbText
 10
169.5508416873
 20
158.2476423472
 30
0.0
 40
3.5
  1
64,95
  7
SEACAD_Solid_Edge_ISO
 11
169.5508416873
 21
161.7476423472
 31
0.0
100
AcDbText
 73
     3
  0
ENDBLK
  5
1B3
330
1AB
100
AcDbEntity
  8
0
100
AcDbBlockEnd
  0
BLOCK
  5
1BC
330
1B5
100
AcDbEntity
  8
0
100
AcDbBlockBegin
  2
DMBLK5
 70
     0
 10
0.0
 20
0.0
 30
0.0
  3
DMBLK5
  1

  0
HATCH
  5
1B6
330
1B5
100
AcDbEntity
  8
Default
  6
Continuous
 62
     7
100
AcDbHatch
 10
0.0
 20
0.0
 30
0.0
210
0.0
220
0.0
230
1.0
  2
SOLID
 70
     1
 71
     0
 91
        1
 92
        1
 93
        3
 72
     1
 10
203.0201581457572
 20
166.3559763303323
 11
203.0201581457572
 21
165.1893096276545
 72
     1
 10
203.0201581457572
 20
165.1893096276545
 11
206.5201582537906
 21
165.7726429789934
 72
     1
 10
206.5201582537906
 20
165.7726429789934
 11
203.0201581457572
 21
166.3559763303323
 97
        0
 75
     0
 76
     1
 98
        0
  0
HATCH
  5
1B7
330
1B5
100
AcDbEntity
  8
Default
  6
Continuous
 62
     7
100
AcDbHatch
 10
0.0
 20
0.0
 30
0.0
210
0.0
220
0.0
230
1.0
  2
SOLID
 70
     1
 71
     0
 91
        1
 92
        1
 93
        3
 72
     1
 10
57.77015156689455
 20
166.3559763303323
 11
54.27015145886113
 21
165.7726429789934
 72
     1
 10
54.27015145886113
 20
165.7726429789934
 11
57.77015156689455
 21
165.1893096276545
 72
     1
 10
57.77015156689455
 20
165.1893096276545
 11
57.77015156689455
 21
166.3559763303323
 97
        0
 75
     0
 76
     1
 98
        0
  0
LINE
  5
1B8
330
1B5
100
AcDbEntity
  8
Default
  6
Continuous
 62
     7
100
AcDbLine
 10
206.5201582538
 20
110.5872169524
 30
0.0
 11
206.5201582538
 21
167.522643033
 31
0.0
  0
LINE
  5
1B9
330
1B5
100
AcDbEntity
  8
Default
  6
Continuous
 62
     7
100
AcDbLine
 10
54.2701582538
 20
106.6444015703
 30
0.0
 11
54.2701582538
 21
167.522643033
 31
0.0
  0
LINE
  5
1BA
330
1B5
100
AcDbEntity
  8
Default
  6
Continuous
 62
     7
100
AcDbLine
 10
206.5201582538
 20
165.772642979
 30
0.0
 11
54.2701514589
 21
165.772642979
 31
0.0
  0
TEXT
  5
1BB
330
1B5
100
AcDbEntity
  8
Default
  6
Continuous
 62
     7
100
AcDbText
 10
125.2247003109
 20
166.647642979
 30
0.0
 40
3.5
  1
152,25
  7
SEACAD_Solid_Edge_ISO
 11
125.2247003109
 21
170.147642979
 31
0.0
100
AcDbText
 73
     3
  0
ENDBLK
  5
1BD
330
1B5
100
AcDbEntity
  8
0
100
AcDbBlockEnd
  0
BLOCK
  5
1C7
330
1BE
100
AcDbEntity
  8
0
100
AcDbBlockBegin
  2
GDimGGroup3
 70
     0
 10
0.0
 20
0.0
 30
0.0
  3
GDimGGroup3
  1

  0
HATCH
  5
1C0
330
1BE
100
AcDbEntity
  8
Default
  6
Continuous
 62
     7
100
AcDbHatch
 10
0.0
 20
0.0
 30
0.0
210
0.0
220
0.0
230
1.0
  2
SOLID
 70
     1
 71
     0
 91
        1
 92
        1
 93
        3
 72
     1
 10
153.0373439409402
 20
113.9872168443773
 11
152.4540105896013
 21
117.4872169524107
 72
     1
 10
152.4540105896013
 20
117.4872169524107
 11
151.8706772382624
 21
113.9872168443773
 72
     1
 10
151.8706772382624
 20
113.9872168443773
 11
153.0373439409402
 21
113.9872168443773
 97
        0
 75
     0
 76
     1
 98
        0
  0
HATCH
  5
1C1
330
1BE
100
AcDbEntity
  8
Default
  6
Continuous
 62
     7
100
AcDbHatch
 10
0.0
 20
0.0
 30
0.0
210
0.0
220
0.0
230
1.0
  2
SOLID
 70
     1
 71
     0
 91
        1
 92
        1
 93
        3
 72
     1
 10
153.0373439409402
 20
76.48721628558371
 11
151.8706772382624
 21
76.48721628558371
 72
     1
 10
151.8706772382624
 20
76.48721628558371
 11
152.4540105896013
 21
72.9872161775503
 72
     1
 10
152.4540105896013
 20
72.9872161775503
 11
153.0373439409402
 21
76.48721628558371
 97
        0
 75
     0
 76
     1
 98
        0
  0
LINE
  5
1C2
330
1BE
100
AcDbEntity
  8
Default
  6
Continuous
 62
     7
100
AcDbLine
 10
142.3701582538
 20
117.4872169524
 30
0.0
 11
154.2040106436
 21
117.4872169524
 31
0.0
  0
LINE
  5
1C3
330
1BE
100
AcDbEntity
  8
Default
  6
Continuous
 62
     7
100
AcDbLine
 10
142.3701582538
 20
72.9872169524
 30
0.0
 11
154.2040106436
 21
72.9872169524
 31
0.0
  0
LINE
  5
1C4
330
1BE
100
AcDbEntity
  8
Default
  6
Continuous
 62
     7
100
AcDbLine
 10
152.4540105896
 20
117.4872169524
 30
0.0
 11
152.4540105896
 21
72.9872161776
 31
0.0
  0
TEXT
  5
1C5
330
1BE
100
AcDbEntity
  8
Default
  6
Continuous
 62
     7
100
AcDbText
 10
151.5790105896
 20
88.8109207117
 30
0.0
 40
3.5
  1
O
 50
90.0
  7
SEACAD_Solid_Edge_ISO1_Symbols
 11
148.0790105896
 21
88.8109207117
 31
0.0
100
AcDbText
 73
     3
  0
TEXT
  5
1C6
330
1BE
100
AcDbEntity
  8
Default
  6
Continuous
 62
     7
100
AcDbText
 10
151.5790105896
 20
94.9021487819
 30
0.0
 40
3.5
  1
44,5
 50
90.0
  7
SEACAD_Solid_Edge_ISO
 11
148.0790105896
 21
94.9021487819
 31
0.0
100
AcDbText
 73
     3
  0
ENDBLK
  5
1C8
330
1BE
100
AcDbEntity
  8
0
100
AcDbBlockEnd
  0
BLOCK
  5
1D1
330
1CA
100
AcDbEntity
  8
0
100
AcDbBlockBegin
  2
DMBLK6
 70
     0
 10
0.0
 20
0.0
 30
0.0
  3
DMBLK6
  1

  0
HATCH
  5
1CB
330
1CA
100
AcDbEntity
  8
Default
  6
Continuous
 62
     7
100
AcDbHatch
 10
0.0
 20
0.0
 30
0.0
210
0.0
220
0.0
230
1.0
  2
SOLID
 70
     1
 71
     0
 91
        1
 92
        1
 93
        3
 72
     1
 10
203.0201581457572
 20
149.5559750667138
 11
203.0201581457572
 21
148.3893083640361
 72
     1
 10
203.0201581457572
 20
148.3893083640361
 11
206.5201582537906
 21
148.9726417153749
 72
     1
 10
206.5201582537906
 20
148.9726417153749
 11
203.0201581457572
 21
149.5559750667138
 97
        0
 75
     0
 76
     1
 98
        0
  0
HATCH
  5
1CC
330
1CA
100
AcDbEntity
  8
Default
  6
Continuous
 62
     7
100
AcDbHatch
 10
0.0
 20
0.0
 30
0.0
210
0.0
220
0.0
230
1.0
  2
SOLID
 70
     1
 71
     0
 91
        1
 92
        1
 93
        3
 72
     1
 10
162.0201579445915
 20
149.5559750667138
 11
158.5201578365581
 21
148.9726417153749
 72
     1
 10
158.5201578365581
 20
148.9726417153749
 11
162.0201579445915
 21
148.3893083640361
 72
     1
 10
162.0201579445915
 20
148.3893083640361
 11
162.0201579445915
 21
149.5559750667138
 97
        0
 75
     0
 76
     1
 98
        0
  0
LINE
  5
1CD
330
1CA
100
AcDbEntity
  8
Default
  6
Continuous
 62
     7
100
AcDbLine
 10
206.5201582538
 20
110.5872169524
 30
0.0
 11
206.5201582538
 21
150.7226417694
 31
0.0
  0
LINE
  5
1CE
330
1CA
100
AcDbEntity
  8
Default
  6
Continuous
 62
     7
100
AcDbLine
 10
158.5201582538
 20
123.4372169336
 30
0.0
 11
158.5201582538
 21
150.7226417694
 31
0.0
  0
LINE
  5
1CF
330
1CA
100
AcDbEntity
  8
Default
  6
Continuous
 62
     7
100
AcDbLine
 10
206.5201582538
 20
148.9726417154
 30
0.0
 11
158.5201578366
 21
148.9726417154
 31
0.0
  0
TEXT
  5
1D0
330
1CA
100
AcDbEntity
  8
Default
  6
Continuous
 62
     7
100
AcDbText
 10
180.3724307724
 20
149.8476417154
 30
0.0
 40
3.5
  1
48
  7
SEACAD_Solid_Edge_ISO
 11
180.3724307724
 21
153.3476417154
 31
0.0
100
AcDbText
 73
     3
  0
ENDBLK
  5
1D2
330
1CA
100
AcDbEntity
  8
0
100
AcDbBlockEnd
  0
BLOCK
  5
1DB
330
1D4
100
AcDbEntity
  8
0
100
AcDbBlockBegin
  2
DMBLK7
 70
     0
 10
0.0
 20
0.0
 30
0.0
  3
DMBLK7
  1

  0
HATCH
  5
1D5
330
1D4
100
AcDbEntity
  8
Default
  6
Continuous
 62
     7
100
AcDbHatch
 10
0.0
 20
0.0
 30
0.0
210
0.0
220
0.0
230
1.0
  2
SOLID
 70
     1
 71
     0
 91
        1
 92
        1
 93
        3
 72
     1
 10
203.0201581457572
 20
132.7559756657405
 11
203.0201581457572
 21
131.5893089630627
 72
     1
 10
203.0201581457572
 20
131.5893089630627
 11
206.5201582537906
 21
132.1726423144016
 72
     1
 10
206.5201582537906
 20
132.1726423144016
 11
203.0201581457572
 21
132.7559756657405
 97
        0
 75
     0
 76
     1
 98
        0
  0
HATCH
  5
1D6
330
1D4
100
AcDbEntity
  8
Default
  6
Continuous
 62
     7
100
AcDbHatch
 10
0.0
 20
0.0
 30
0.0
210
0.0
220
0.0
230
1.0
  2
SOLID
 70
     1
 71
     0
 91
        1
 92
        1
 93
        3
 72
     1
 10
186.0201581532078
 20
132.7559756657405
 11
182.5201580451744
 21
132.1726423144016
 72
     1
 10
182.5201580451744
 20
132.1726423144016
 11
186.0201581532078
 21
131.5893089630627
 72
     1
 10
186.0201581532078
 20
131.5893089630627
 11
186.0201581532078
 21
132.7559756657405
 97
        0
 75
     0
 76
     1
 98
        0
  0
LINE
  5
1D7
330
1D4
100
AcDbEntity
  8
Default
  6
Continuous
 62
     7
100
AcDbLine
 10
206.5201582538
 20
110.5872169524
 30
0.0
 11
206.5201582538
 21
133.9226423684
 31
0.0
  0
LINE
  5
1D8
330
1D4
100
AcDbEntity
  8
Default
  6
Continuous
 62
     7
100
AcDbLine
 10
182.5201582538
 20
122.3481003759
 30
0.0
 11
182.5201582538
 21
133.9226423684
 31
0.0
  0
LINE
  5
1D9
330
1D4
100
AcDbEntity
  8
Default
  6
Continuous
 62
     7
100
AcDbLine
 10
206.5201582538
 20
132.1726423144
 30
0.0
 11
182.5201580452
 21
132.1726423144
 31
0.0
  0
TEXT
  5
1DA
330
1D4
100
AcDbEntity
  8
Default
  6
Continuous
 62
     7
100
AcDbText
 10
192.412203604
 20
133.0476423144
 30
0.0
 40
3.5
  1
24
  7
SEACAD_Solid_Edge_ISO
 11
192.412203604
 21
136.5476423144
 31
0.0
100
AcDbText
 73
     3
  0
ENDBLK
  5
1DC
330
1D4
100
AcDbEntity
  8
0
100
AcDbBlockEnd
  0
BLOCK
  5
1E0
330
1DD
100
AcDbEntity
  8
0
100
AcDbBlockBegin
  2
SEANNOT_GROUP
 70
     0
 10
0.0
 20
0.0
 30
0.0
  3
SEANNOT_GROUP
  1

  0
TEXT
  5
1DF
330
1DD
100
AcDbEntity
  8
Default
  6
Continuous
 62
     7
100
AcDbText
 10
243.1483969886
 20
25.7525109624
 30
0.0
 40
3.5
  1
224043240
  7
SEACAD_Solid_Edge_ANSIB
 11
243.1483969886
 21
29.2525109624
 31
0.0
100
AcDbText
 73
     3
  0
ENDBLK
  5
1E1
330
1DD
100
AcDbEntity
  8
0
100
AcDbBlockEnd
  0
BLOCK
  5
1E5
330
1E2
100
AcDbEntity
  8
0
100
AcDbBlockBegin
  2
SEANNOT_GROUP1
 70
     0
 10
0.0
 20
0.0
 30
0.0
  3
SEANNOT_GROUP1
  1

  0
TEXT
  5
1E4
330
1E2
100
AcDbEntity
  8
Default
  6
Continuous
 62
     7
100
AcDbText
 10
243.1477357349
 20
20.0537100543
 30
0.0
 40
3.5
  1
05.04.2016
  7
SEACAD_Solid_Edge_ANSI
 11
243.1477357349
 21
23.5537100543
 31
0.0
100
AcDbText
 73
     3
  0
ENDBLK
  5
1E6
330
1E2
100
AcDbEntity
  8
0
100
AcDbBlockEnd
  0
BLOCK
  5
1E9
330
1E7
100
AcDbEntity
  8
0
100
AcDbBlockBegin
  2
SEANNOT_GROUP2
 70
     0
 10
0.0
 20
0.0
 30
0.0
  3
SEANNOT_GROUP2
  1

  0
TEXT
  5
1E8
330
1E7
100
AcDbEntity
  8
Default
  6
Continuous
 62
     7
100
AcDbText
 10
243.1795282745
 20
31.5598894014
 30
0.0
 40
3.5
  1
SK40_KFD32x060
  7
SEACAD_Solid_Edge_ANSIB
 11
243.1795282745
 21
35.0598894014
 31
0.0
100
AcDbText
 73
     3
  0
ENDBLK
  5
1EA
330
1E7
100
AcDbEntity
  8
0
100
AcDbBlockEnd
  0
BLOCK
  5
1ED
330
1EB
100
AcDbEntity
  8
0
100
AcDbBlockBegin
  2
SEANNOT_GROUP3
 70
     0
 10
0.0
 20
0.0
 30
0.0
  3
SEANNOT_GROUP3
  1

  0
TEXT
  5
1EC
330
1EB
100
AcDbEntity
  8
Default
  6
Continuous
 62
     7
100
AcDbText
 10
243.2357917511
 20
14.1955389783
 30
0.0
 40
3.5
  1
1:1
  7
SEACAD_Solid_Edge_ANSI
 11
243.2357917511
 21
17.6955389783
 31
0.0
100
AcDbText
 73
     3
  0
ENDBLK
  5
1EE
330
1EB
100
AcDbEntity
  8
0
100
AcDbBlockEnd
  0
BLOCK
  5
23C
330
1EF
100
AcDbEntity
  8
0
100
AcDbBlockBegin
  2
RF-Massblatt_2016
 70
     0
 10
0.0
 20
0.0
 30
0.0
  3
RF-Massblatt_2016
  1

  0
MTEXT
  5
1F0
102
{ACAD_XDICTIONARY
360
246
102
}
330
1EF
100
AcDbEntity
  8
Default
100
AcDbMText
 10
15.2206856049
 20
34.8070876502
 30
0.0
 40
2.5
 41
48.9706096033
 71
     1
 72
     1
  3
{\fVectora Com 45 Light|b1||i0||c0|p34;\C7;\H2.5;\W1.;REGO-FIX AG\P}{\fVectora Com 45 Light|b0||i0||c0|p34;\C7;\H2.5;\W1.;Obermattweg 60\P}{\fVectora Com 45 Light|b0||i0||c0|p34;\C7;\H2.5;\W1.;4456 Tenniken / Switzerland\P}{\fVectora Com 45 Light|b0
  3
||i0||c0|p34;\C7;\H2.5;\W1.;\P}{\fVectora Com 45 Light|b0||i0||c0|p34;\C7;\H2.5;\W1.;P +41 61 976 14 66\P}{\fVectora Com 45 Light|b0||i0||c0|p34;\C7;\H2.5;\W1.;F +41 61 976 14 14\P}{\fVectora Com 45 Light|b1||i0||c0|p34;\C7;\H2.5;\W1.;www.rego-fix.c
  1
om}
 73
     1
 44
1.0
1001
ACAD
1000
ACAD_MTEXT_DEFINED_HEIGHT_BEGIN
1070
    46
1040
31.3191355437
1000
ACAD_MTEXT_DEFINED_HEIGHT_END
  0
MTEXT
  5
1F1
102
{ACAD_XDICTIONARY
360
248
102
}
330
1EF
100
AcDbEntity
  8
Default
100
AcDbMText
 10
90.3836341545
 20
34.4892285804
 30
0.0
 40
2.5
 41
104.0282149141
 71
     1
 72
     1
  3
{\fSolid Edge ISO|b0||i0||c0|p34;\C7;\H2.;\W1.;This is a non-controlled copy. All information given herein is subject to change without notice\P}{\fSolid Edge ISO|b0||i0||c0|p34;\C7;\H2.;\W1.;\P}{\fSolid Edge ISO|b0||i0||c0|p34;\C7;\H2.;\W1.;The inf
  3
ormation given herein has been carefully checked and is believed to be correct. REGO-FIX,\P}{\fSolid Edge ISO|b0||i0||c0|p34;\C7;\H2.;\W1.;however, assumes no responsibility or liability for any errors, inaccuracies or omissions that may appear\P}{\
  3
fSolid Edge ISO|b0||i0||c0|p34;\C7;\H2.;\W1.;in this drawing\P}{\fSolid Edge ISO|b0||i0||c0|p34;\C7;\H2.;\W1.;\P}{\fSolid Edge ISO|b0||i0||c0|p34;\C7;\H2.;\W1.;This document is subject to copyright laws. No part of this document may be reproduced or
  3
 transmitted\P}{\fSolid Edge ISO|b0||i0||c0|p34;\C7;\H2.;\W1.;in any form or any means, electronic or mechanic, for any purpose, without the express written permission\P}{\fSolid Edge ISO|b0||i0||c0|p34;\C7;\H2.;\W1.;of REGO-FIX\P}{\fSolid Edge ISO|
  1
b0||i0||c0|p34;\C7;\H1.5;\W1.;\P}
 73
     1
 44
1.0
1001
ACAD
1000
ACAD_MTEXT_DEFINED_HEIGHT_BEGIN
1070
    46
1040
38.4545554545
1000
ACAD_MTEXT_DEFINED_HEIGHT_END
  0
INSERT
  5
1F2
330
1EF
100
AcDbEntity
  8
Default
100
AcDbBlockReference
  2
SEANNOT_GROUP
 10
0.0
 20
0.0
 30
0.0
  0
INSERT
  5
1F3
330
1EF
100
AcDbEntity
  8
Default
100
AcDbBlockReference
  2
SEANNOT_GROUP1
 10
0.0
 20
0.0
 30
0.0
  0
MTEXT
  5
1F4
102
{ACAD_XDICTIONARY
360
24A
102
}
330
1EF
100
AcDbEntity
  8
Default
100
AcDbMText
 10
219.0323311835
 20
34.8066733186
 30
0.0
 40
2.5
 41
20.1335141444
 71
     1
 72
     1
  3
{\fVectora Com 45 Light|b0||i0||c0|p34;\C7;\H3.5;\W1.;Type :\P}{\fVectora Com 45 Light|b0||i0||c0|p34;\C7;\H3.5;\W1.;Part No. :\P}{\fVectora Com 45 Light|b0||i0||c0|p34;\C7;\H3.5;\W1.;Date : \P}{\fVectora Com 45 Light|b0||i0||c0|p34;\C7;\H3.5;\W1.;S
  1
cale :}
 73
     1
 44
1.0
1001
ACAD
1000
ACAD_MTEXT_DEFINED_HEIGHT_BEGIN
1070
    46
1040
23.6666666667
1000
ACAD_MTEXT_DEFINED_HEIGHT_END
  0
INSERT
  5
1F5
330
1EF
100
AcDbEntity
  8
Default
100
AcDbBlockReference
  2
SEANNOT_GROUP2
 10
0.0
 20
0.0
 30
0.0
  0
INSERT
  5
1F6
330
1EF
100
AcDbEntity
  8
Default
100
AcDbBlockReference
  2
SEANNOT_GROUP3
 10
0.0
 20
0.0
 30
0.0
  0
LINE
  5
1F7
330
1EF
100
AcDbEntity
  8
Default
  6
Continuous
 62
     7
100
AcDbLine
 10
269.3420202893
 20
189.711288453
 30
0.0
 11
267.226096305
 21
186.6436606679
 31
0.0
  0
LINE
  5
1F8
330
1EF
100
AcDbEntity
  8
Default
  6
Continuous
 62
     7
100
AcDbLine
 10
267.226096305
 20
186.6436606679
 30
0.0
 11
268.2886782185
 21
185.1144666968
 31
0.0
  0
LINE
  5
1F9
330
1EF
100
AcDbEntity
  8
Default
  6
Continuous
 62
     7
100
AcDbLine
 10
268.2886782185
 20
185.1144666968
 30
0.0
 11
267.2561257939
 21
183.6453317033
 31
0.0
  0
LINE
  5
1FA
330
1EF
100
AcDbEntity
  8
Default
  6
Continuous
 62
     7
100
AcDbLine
 10
267.2561257939
 20
183.6453317033
 30
0.0
 11
266.2235733692
 21
185.2646141411
 31
0.0
  0
LINE
  5
1FB
330
1EF
100
AcDbEntity
  8
Default
  6
Continuous
 62
     7
100
AcDbLine
 10
266.2235733692
 20
185.2646141411
 30
0.0
 11
264.7036192408
 21
183.1186606679
 31
0.0
  0
LINE
  5
1FC
330
1EF
100
AcDbEntity
  8
Default
  6
Continuous
 62
     7
100
AcDbLine
 10
264.7036192408
 20
183.1186606679
 30
0.0
 11
262.6269645881
 21
183.1186606679
 31
0.0
  0
LINE
  5
1FD
330
1EF
100
AcDbEntity
  8
Default
  6
Continuous
 62
     7
100
AcDbLine
 10
262.6269645881
 20
183.1186606679
 30
0.0
 11
265.20950063
 21
186.6436606679
 31
0.0
  0
LINE
  5
1FE
330
1EF
100
AcDbEntity
  8
Default
  6
Continuous
 62
     7
100
AcDbLine
 10
265.20950063
 20
186.6436606679
 30
0.0
 11
263.1051264492
 21
189.711288453
 31
0.0
  0
LINE
  5
1FF
330
1EF
100
AcDbEntity
  8
Default
  6
Continuous
 62
     7
100
AcDbLine
 10
263.1051264492
 20
189.711288453
 30
0.0
 11
265.20950063
 21
189.711288453
 31
0.0
  0
LINE
  5
200
330
1EF
100
AcDbEntity
  8
Default
  6
Continuous
 62
     7
100
AcDbLine
 10
265.20950063
 20
189.711288453
 30
0.0
 11
266.2235733692
 21
188.0042275094
 31
0.0
  0
LINE
  5
201
330
1EF
100
AcDbEntity
  8
Default
  6
Continuous
 62
     7
100
AcDbLine
 10
266.2235733692
 20
188.0042275094
 30
0.0
 11
267.226096305
 21
189.711288453
 31
0.0
  0
LINE
  5
202
330
1EF
100
AcDbEntity
  8
Default
  6
Continuous
 62
     7
100
AcDbLine
 10
267.226096305
 20
189.711288453
 30
0.0
 11
269.3420202893
 21
189.711288453
 31
0.0
  0
SPLINE
  5
203
330
1EF
100
AcDbEntity
  8
Default
  6
Continuous
 62
     7
100
AcDbSpline
210
0.0
220
0.0
230
1.0
 70
     8
 71
     3
 72
    13
 73
     9
 74
     0
 42
0.0000000012369638
 43
0.0000000001
 12
1.0
 22
0.0
 32
0.0
 13
1.0
 23
0.0
 33
0.0
 40
0.0
 40
0.0
 40
0.0
 40
0.0
 40
0.9091644120227717
 40
0.9091644120227717
 40
0.9091644120227717
 40
0.9554905618911577
 40
0.9554905618911577
 40
1.0
 40
1.0
 40
1.0
 40
1.0
 10
267.8844350992403
 20
183.5460033940301
 30
0.0
 10
269.2912011542862
 20
185.5418094228636
 30
0.0
 10
270.697967209332
 20
187.5376154516972
 30
0.0
 10
272.1047332643779
 20
189.5334214805307
 30
0.0
 10
272.1870447473536
 20
189.6501983627819
 30
0.0
 10
272.2849101975365
 20
189.7112884530078
 30
0.0
 10
272.5159062656886
 20
189.7112884530078
 30
0.0
 10
272.6198544963569
 20
189.6512294752883
 30
0.0
 10
272.7122529236178
 20
189.5334214805307
 30
0.0
  0
SPLINE
  5
204
330
1EF
100
AcDbEntity
  8
Default
  6
Continuous
 62
     7
100
AcDbSpline
210
0.0
220
0.0
230
1.0
 70
     8
 71
     3
 72
    16
 73
    12
 74
     0
 42
0.0000000006014133
 43
0.0000000001
 12
1.0
 22
0.0
 32
0.0
 13
1.0
 23
0.0
 33
0.0
 40
0.0
 40
0.0
 40
0.0
 40
0.0
 40
0.4418652593848311
 40
0.4418652593848311
 40
0.4418652593848311
 40
0.455090010411123
 40
0.455090010411123
 40
0.4811129075918901
 40
0.4811129075918901
 40
0.4811129075918901
 40
1.0
 40
1.0
 40
1.0
 40
1.0
 10
272.7122529236178
 20
189.5334214805307
 30
0.0
 10
274.1190189786636
 20
187.5376154516972
 30
0.0
 10
275.5257850337095
 20
185.5418094228636
 30
0.0
 10
276.9325510887554
 20
183.5460033940301
 30
0.0
 10
276.9849943017649
 20
183.4716012002038
 30
0.0
 10
277.0133997126086
 20
183.4004758710943
 30
0.0
 10
277.0133997126086
 20
183.1879594883945
 30
0.0
 10
276.9140714033032
 20
183.1186606679488
 30
0.0
 10
276.7154147846925
 20
183.1186606679488
 30
0.0
 10
273.8479835920319
 20
183.1186606679488
 30
0.0
 10
270.9805523993713
 20
183.1186606679488
 30
0.0
 10
268.1131212067108
 20
183.1186606679488
 30
0.0
  0
SPLINE
  5
205
330
1EF
100
AcDbEntity
  8
Default
  6
Continuous
 62
     7
100
AcDbSpline
210
0.0
220
0.0
230
1.0
 70
     8
 71
     3
 72
    11
 73
     7
 74
     0
 42
0.0000000141737466
 43
0.0000000001
 12
1.0
 22
0.0
 32
0.0
 13
1.0
 23
0.0
 33
0.0
 40
0.0
 40
0.0
 40
0.0
 40
0.0
 40
0.6560933575639865
 40
0.6560933575639865
 40
0.6560933575639865
 40
1.0
 40
1.0
 40
1.0
 40
1.0
 10
268.1131212067108
 20
183.1186606679488
 30
0.0
 10
267.9075347060556
 20
183.1186606679488
 30
0.0
 10
267.8058964360686
 20
183.1925794097575
 30
0.0
 10
267.8035864753871
 20
183.3381069326933
 30
0.0
 10
267.8027439506852
 20
183.3911859889177
 30
0.0
 10
267.8313060035653
 20
183.4605348488138
 30
0.0
 10
267.8844350992403
 20
183.5460033940301
 30
0.0
  0
LINE
  5
206
330
1EF
100
AcDbEntity
  8
Default
  6
Continuous
 62
     7
100
AcDbLine
 10
262.1857620979
 20
189.7274581778
 30
0.0
 11
262.1857620979
 21
183.1186606679
 31
0.0
  0
SPLINE
  5
207
330
1EF
100
AcDbEntity
  8
Default
  6
Continuous
 62
     7
100
AcDbSpline
210
0.0
220
0.0
230
1.0
 70
     8
 71
     3
 72
    14
 73
    10
 74
     0
 42
0.0000000052950889
 43
0.0000000001
 12
1.0
 22
0.0
 32
0.0
 13
1.0
 23
0.0
 33
0.0
 40
0.0
 40
0.0
 40
0.0
 40
0.0
 40
0.1210177131110554
 40
0.1210177131110554
 40
0.1210177131110554
 40
0.2419901306838391
 40
0.2419901306838391
 40
0.2419901306838391
 40
1.0
 40
1.0
 40
1.0
 40
1.0
 10
260.4740812329231
 20
189.4387130925884
 30
0.0
 10
260.4740812329231
 20
189.5195617164416
 30
0.0
 10
260.5018007611014
 20
189.5865505762057
 30
0.0
 10
260.5595497781394
 20
189.6419896325622
 30
0.0
 10
260.6172507110666
 20
189.6973825281723
 30
0.0
 10
260.68197769426
 20
189.7274581777785
 30
0.0
 10
260.7628263181132
 20
189.7274581777785
 30
0.0
 10
261.2371382447187
 20
189.7274581777785
 30
0.0
 10
261.7114501713242
 20
189.7274581777785
 30
0.0
 10
262.1857620979297
 20
189.7274581777785
 30
0.0
  0
LINE
  5
208
330
1EF
100
AcDbEntity
  8
Default
  6
Continuous
 62
     7
100
AcDbLine
 10
260.4740812329
 20
183.1186606679
 30
0.0
 11
260.4740812329
 21
189.4387130926
 31
0.0
  0
LINE
  5
209
330
1EF
100
AcDbEntity
  8
Default
  6
Continuous
 62
     7
100
AcDbLine
 10
262.1857620979
 20
183.1186606679
 30
0.0
 11
260.4740812329
 21
183.1186606679
 31
0.0
  0
SPLINE
  5
20A
330
1EF
100
AcDbEntity
  8
Default
  6
Continuous
 62
     7
100
AcDbSpline
210
0.0
220
0.0
230
1.0
 70
     8
 71
     3
 72
    16
 73
    12
 74
     0
 42
0.0000000009758823
 43
0.0000000001
 12
1.0
 22
0.0
 32
0.0
 13
1.0
 23
0.0
 33
0.0
 40
0.0
 40
0.0
 40
0.0
 40
0.0
 40
0.6159054655977501
 40
0.6159054655977501
 40
0.6159054655977501
 40
0.6376683166669079
 40
0.6376683166669079
 40
0.6603379531972834
 40
0.6603379531972834
 40
0.6603379531972834
 40
1.0
 40
1.0
 40
1.0
 40
1.0
 10
255.8218204203412
 20
183.1186606679488
 30
0.0
 10
255.8218204203412
 20
185.2199549012385
 30
0.0
 10
255.8218204203412
 20
187.3212491345281
 30
0.0
 10
255.8218204203412
 20
189.4225433678178
 30
0.0
 10
255.8218204203412
 20
189.503391991671
 30
0.0
 10
255.8495399485194
 20
189.5703808514351
 30
0.0
 10
255.962728021914
 20
189.6835689248296
 30
0.0
 10
256.0297168816781
 20
189.7112884530078
 30
0.0
 10
256.1105655055312
 20
189.7112884530078
 30
0.0
 10
257.2693957807606
 20
189.7112884530078
 30
0.0
 10
258.42822605599
 20
189.7112884530078
 30
0.0
 10
259.5870563312193
 20
189.7112884530078
 30
0.0
  0
LINE
  5
20B
330
1EF
100
AcDbEntity
  8
Default
  6
Continuous
 62
     7
100
AcDbLine
 10
257.5404311674
 20
183.1186606679
 30
0.0
 11
255.8218204203
 21
183.1186606679
 31
0.0
  0
LINE
  5
20C
330
1EF
100
AcDbEntity
  8
Default
  6
Continuous
 62
     7
100
AcDbLine
 10
257.5404311674
 20
185.7035066706
 30
0.0
 11
257.5404311674
 21
183.1186606679
 31
0.0
  0
LINE
  5
20D
330
1EF
100
AcDbEntity
  8
Default
  6
Continuous
 62
     7
100
AcDbLine
 10
259.4877280219
 20
185.7035066706
 30
0.0
 11
257.5404311674
 21
185.7035066706
 31
0.0
  0
LINE
  5
20E
330
1EF
100
AcDbEntity
  8
Default
  6
Continuous
 62
     7
100
AcDbLine
 10
259.4877280219
 20
187.1610918606
 30
0.0
 11
259.4877280219
 21
185.7035066706
 31
0.0
  0
LINE
  5
20F
330
1EF
100
AcDbEntity
  8
Default
  6
Continuous
 62
     7
100
AcDbLine
 10
257.5404311674
 20
187.1610918606
 30
0.0
 11
259.4877280219
 21
187.1610918606
 31
0.0
  0
LINE
  5
210
330
1EF
100
AcDbEntity
  8
Default
  6
Continuous
 62
     7
100
AcDbLine
 10
257.5404311674
 20
188.260633145
 30
0.0
 11
257.5404311674
 21
187.1610918606
 31
0.0
  0
LINE
  5
211
330
1EF
100
AcDbEntity
  8
Default
  6
Continuous
 62
     7
100
AcDbLine
 10
259.5870563312
 20
188.260633145
 30
0.0
 11
257.5404311674
 21
188.260633145
 31
0.0
  0
LINE
  5
212
330
1EF
100
AcDbEntity
  8
Default
  6
Continuous
 62
     7
100
AcDbLine
 10
259.5870563312
 20
189.711288453
 30
0.0
 11
259.5870563312
 21
188.260633145
 31
0.0
  0
LINE
  5
213
330
1EF
100
AcDbEntity
  8
Default
  6
Continuous
 62
     7
100
AcDbLine
 10
255.0710831988
 20
187.1610918606
 30
0.0
 11
255.0710831988
 21
185.7035066706
 31
0.0
  0
LINE
  5
214
330
1EF
100
AcDbEntity
  8
Default
  6
Continuous
 62
     7
100
AcDbLine
 10
252.9366795291
 20
187.1610918606
 30
0.0
 11
255.0710831988
 21
187.1610918606
 31
0.0
  0
LINE
  5
215
330
1EF
100
AcDbEntity
  8
Default
  6
Continuous
 62
     7
100
AcDbLine
 10
252.9366795291
 20
185.7035066706
 30
0.0
 11
252.9366795291
 21
187.1610918606
 31
0.0
  0
LINE
  5
216
330
1EF
100
AcDbEntity
  8
Default
  6
Continuous
 62
     7
100
AcDbLine
 10
255.0710831988
 20
185.7035066706
 30
0.0
 11
252.9366795291
 21
185.7035066706
 31
0.0
  0
SPLINE
  5
217
330
1EF
100
AcDbEntity
  8
Default
  6
Continuous
 62
     7
100
AcDbSpline
210
0.0
220
0.0
230
1.0
 70
    11
 71
     3
 72
    47
 73
    43
 74
     0
 42
0.0000000008494054
 43
0.0000000001
 12
1.0
 22
0.0
 32
0.0
 13
1.0
 23
0.0
 33
0.0
 40
0.0
 40
0.0
 40
0.0
 40
0.0
 40
0.0637917384076936
 40
0.0637917384076936
 40
0.0637917384076936
 40
0.1265834997779105
 40
0.1265834997779105
 40
0.1893752611481286
 40
0.1893752611481286
 40
0.1893752611481286
 40
0.2604081010642026
 40
0.2604081010642026
 40
0.3159741129340349
 40
0.3159741129340349
 40
0.3159741129340349
 40
0.3751091105868484
 40
0.3751091105868484
 40
0.3751091105868484
 40
0.435995169879425
 40
0.435995169879425
 40
0.435995169879425
 40
0.4997689343159713
 40
0.4997689343159713
 40
0.5635426987525196
 40
0.5635426987525196
 40
0.5635426987525196
 40
0.624232315369434
 40
0.624232315369434
 40
0.624232315369434
 40
0.6835869381889372
 40
0.6835869381889372
 40
0.6835869381889372
 40
0.7357943705008892
 40
0.7357943705008892
 40
0.8025337685079206
 40
0.8025337685079206
 40
0.8692731665149518
 40
0.8692731665149518
 40
0.9360125645219831
 40
0.9360125645219831
 40
0.9360125645219831
 40
1.0
 40
1.0
 40
1.0
 40
1.0
 10
248.4438060035654
 20
184.5693159759436
 30
0.0
 10
248.7025215998956
 20
184.5693159759436
 30
0.0
 10
248.9450674714552
 20
184.620135110937
 30
0.0
 10
249.1691336575627
 20
184.7194634202424
 30
0.0
 10
249.3951304192655
 20
184.8196475517189
 30
0.0
 10
249.5941664229625
 20
184.9550794097575
 30
0.0
 10
249.9314206824644
 20
185.3061934333486
 30
0.0
 10
250.0653984019926
 20
185.5140898946854
 30
0.0
 10
250.160106789935
 20
185.752015844882
 30
0.0
 10
250.2551311293749
 20
185.9907355268896
 30
0.0
 10
250.3056343128707
 20
186.2509673520904
 30
0.0
 10
250.3056343128707
 20
186.7614686627064
 30
0.0
 10
250.2571251385588
 20
186.9809149274508
 30
0.0
 10
250.160106789935
 20
187.1934313101507
 30
0.0
 10
250.0643595068875
 20
187.4031634539689
 30
0.0
 10
249.9314206824644
 20
187.5907445473721
 30
0.0
 10
249.7627935527134
 20
187.7547517557601
 30
0.0
 10
249.5953209577949
 20
187.9176360604069
 30
0.0
 10
249.3955098043517
 20
188.0458068016317
 30
0.0
 10
249.1691336575627
 20
188.140515189574
 30
0.0
 10
248.9439009259591
 20
188.2347452099388
 30
0.0
 10
248.7025215998956
 20
188.2860427125098
 30
0.0
 10
248.1850904072351
 20
188.2860427125098
 30
0.0
 10
247.9425445356754
 20
188.2375335381978
 30
0.0
 10
247.7161683888864
 20
188.140515189574
 30
0.0
 10
247.4925801256786
 20
188.0446916481992
 30
0.0
 10
247.2934455841682
 20
187.9164490034665
 30
0.0
 10
247.1248184544172
 20
187.7547517557601
 30
0.0
 10
246.9550373605366
 20
187.5919479671074
 30
0.0
 10
246.8222136051381
 20
187.403637732169
 30
0.0
 10
246.7228852958327
 20
187.1934313101507
 30
0.0
 10
246.622664698655
 20
186.9813365579839
 30
0.0
 10
246.5727378515339
 20
186.7614686627064
 30
0.0
 10
246.5727378515339
 20
186.2509673520904
 30
0.0
 10
246.6235569865273
 20
185.9899417950786
 30
0.0
 10
246.8222136051381
 20
185.5140898946854
 30
0.0
 10
246.9561913246663
 20
185.3061934333486
 30
0.0
 10
247.2934455841682
 20
184.9550794097575
 30
0.0
 10
247.492102202779
 20
184.8187917295478
 30
0.0
 10
247.7161683888864
 20
184.7194634202424
 30
0.0
 10
247.9421651505893
 20
184.6192792887659
 30
0.0
 10
248.1850904072351
 20
184.5693159759436
 30
0.0
 10
248.4438060035654
 20
184.5693159759436
 30
0.0
  0
SPLINE
  5
218
330
1EF
100
AcDbEntity
  8
Default
  6
Continuous
 62
     7
100
AcDbSpline
210
0.0
220
0.0
230
1.0
 70
    11
 71
     3
 72
    49
 73
    45
 74
     0
 42
0.0000000004385322
 43
0.0000000001
 12
1.0
 22
0.0
 32
0.0
 13
1.0
 23
0.0
 33
0.0
 40
0.0
 40
0.0
 40
0.0
 40
0.0
 40
0.0617996483207596
 40
0.0617996483207596
 40
0.0617996483207596
 40
0.1220737652654132
 40
0.1220737652654132
 40
0.1220737652654132
 40
0.1820249318660078
 40
0.1820249318660078
 40
0.1820249318660078
 40
0.2438982680995642
 40
0.2438982680995642
 40
0.3109516975991858
 40
0.3109516975991858
 40
0.3109516975991858
 40
0.3722543214771952
 40
0.3722543214771952
 40
0.3722543214771952
 40
0.4335172266527087
 40
0.4335172266527087
 40
0.4335172266527087
 40
0.4994898970728853
 40
0.4994898970728853
 40
0.5657506577569065
 40
0.5657506577569065
 40
0.5657506577569065
 40
0.626961718898901
 40
0.626961718898901
 40
0.6886100019061948
 40
0.6886100019061948
 40
0.6886100019061948
 40
0.7556907268882871
 40
0.7556907268882871
 40
0.8175892499404324
 40
0.8175892499404324
 40
0.8175892499404324
 40
0.8774725210786118
 40
0.8774725210786118
 40
0.8774725210786118
 40
0.9379094648157675
 40
0.9379094648157675
 40
0.9379094648157675
 40
1.0
 40
1.0
 40
1.0
 40
1.0
 10
248.4438060035654
 20
189.9492144032044
 30
0.0
 10
248.9196356399268
 20
189.9515130970999
 30
0.0
 10
249.3770301188996
 20
189.8637458579882
 30
0.0
 10
249.8136126877069
 20
189.6997386496002
 30
0.0
 10
250.2509557040483
 20
189.5354457704455
 30
0.0
 10
250.6382686510096
 20
189.3001154516972
 30
0.0
 10
250.9755229105116
 20
188.997510602418
 30
0.0
 10
251.3129086463213
 20
188.694787784671
 30
0.0
 10
251.585352530433
 20
188.3368618475032
 30
0.0
 10
251.7863191097253
 20
187.918758964148
 30
0.0
 10
251.9868172819147
 20
187.5016305829262
 30
0.0
 10
252.0889239590044
 20
187.0455938265333
 30
0.0
 10
252.0889239590044
 20
186.0107314412123
 30
0.0
 10
251.9988354924251
 20
185.52101977673
 30
0.0
 10
251.816348598585
 20
185.0775073258781
 30
0.0
 10
251.6330488643873
 20
184.6320193642835
 30
0.0
 10
251.3820759904592
 20
184.2482314412123
 30
0.0
 10
251.0609914557278
 20
183.9225269851179
 30
0.0
 10
250.7410617834882
 20
183.5979940082417
 30
0.0
 10
250.3564534478642
 20
183.3473467754193
 30
0.0
 10
249.9083210756492
 20
183.1671698422608
 30
0.0
 10
249.4629767181928
 20
182.9881138634896
 30
0.0
 10
248.9727869996335
 20
182.8992144032044
 30
0.0
 10
247.9125150468157
 20
182.8992144032044
 30
0.0
 10
247.4251133430149
 20
182.9893028697837
 30
0.0
 10
246.9792909314815
 20
183.1671698422608
 30
0.0
 10
246.530680710158
 20
183.3461490497318
 30
0.0
 10
246.1453951254526
 20
183.5991324897051
 30
0.0
 10
245.4962961739454
 20
184.2482314412123
 30
0.0
 10
245.2445104596597
 20
184.6316849143446
 30
0.0
 10
245.0620235658196
 20
185.0775073258781
 30
0.0
 10
244.8803465126443
 20
185.521351265914
 30
0.0
 10
244.7871382447187
 20
186.0107314412123
 30
0.0
 10
244.7871382447187
 20
187.0455938265333
 30
0.0
 10
244.8887765147056
 20
187.5029660414744
 30
0.0
 10
245.0920530546794
 20
187.918758964148
 30
0.0
 10
245.2957954536029
 20
188.335504780128
 30
0.0
 10
245.5632850337095
 20
188.6972157138204
 30
0.0
 10
245.9005392932115
 20
188.997510602418
 30
0.0
 10
246.2389407961124
 20
189.2988270091107
 30
0.0
 10
246.6281769078904
 20
189.5334214805307
 30
0.0
 10
247.0670694373792
 20
189.6997386496002
 30
0.0
 10
247.5072164315149
 20
189.8665311947464
 30
0.0
 10
247.9656441424906
 20
189.9469044425229
 30
0.0
 10
248.4438060035654
 20
189.9492144032044
 30
0.0
  0
LINE
  5
219
330
1EF
100
AcDbEntity
  8
Default
  6
Continuous
 62
     7
100
AcDbLine
 10
242.3339600009
 20
185.4332412708
 30
0.0
 11
240.8347955186
 21
185.4332412708
 31
0.0
  0
SPLINE
  5
21A
330
1EF
100
AcDbEntity
  8
Default
  6
Continuous
 62
     7
100
AcDbSpline
210
0.0
220
0.0
230
1.0
 70
     8
 71
     3
 72
    43
 73
    39
 74
     0
 42
0.0000000009932047
 43
0.0000000001
 12
1.0
 22
0.0
 32
0.0
 13
1.0
 23
0.0
 33
0.0
 40
0.0
 40
0.0
 40
0.0
 40
0.0
 40
0.0949373847537602
 40
0.0949373847537602
 40
0.0949373847537602
 40
0.1911787086491429
 40
0.1911787086491429
 40
0.2677918678027036
 40
0.2677918678027036
 40
0.2677918678027036
 40
0.3406026976746725
 40
0.3406026976746725
 40
0.3406026976746725
 40
0.4151543081273698
 40
0.4151543081273698
 40
0.4151543081273698
 40
0.4895478942304584
 40
0.4895478942304584
 40
0.5659890102262922
 40
0.5659890102262922
 40
0.6424301262221261
 40
0.6424301262221261
 40
0.6424301262221261
 40
0.714798401889747
 40
0.714798401889747
 40
0.714798401889747
 40
0.7953127750919691
 40
0.7953127750919691
 40
0.8472575319966263
 40
0.8472575319966263
 40
0.8472575319966263
 40
0.898191982468852
 40
0.898191982468852
 40
0.898191982468852
 40
0.9471592991231073
 40
0.9471592991231073
 40
0.9471592991231073
 40
1.0
 40
1.0
 40
1.0
 40
1.0
 10
242.2554213377724
 20
187.3782281646723
 30
0.0
 10
242.1353033823333
 20
187.6970027387221
 30
0.0
 10
241.9551264491748
 20
187.9510984136893
 30
0.0
 10
241.7148905382967
 20
188.1428251502555
 30
0.0
 10
241.4721172585773
 20
188.3365769023392
 30
0.0
 10
241.1766696995024
 20
188.4315702354455
 30
0.0
 10
240.5460504334474
 20
188.4315702354455
 30
0.0
 10
240.3011946012062
 20
188.371511257726
 30
0.0
 10
240.0840582971433
 20
188.2490833416055
 30
0.0
 10
239.8686747464151
 20
188.1276436800246
 30
0.0
 10
239.6913649812849
 20
187.9649581777784
 30
0.0
 10
239.5481474190306
 20
187.7663015591677
 30
0.0
 10
239.4057198468884
 20
187.5687407332931
 30
0.0
 10
239.2986716654264
 20
187.345888715131
 30
0.0
 10
239.2270628842993
 20
187.0987229222083
 30
0.0
 10
239.1546578089098
 20
186.848808629735
 30
0.0
 10
239.1161847715863
 20
186.5997714149999
 30
0.0
 10
239.1161847715863
 20
186.089270104384
 30
0.0
 10
239.1554541031722
 20
185.8397943507798
 30
0.0
 10
239.3079115081525
 20
185.3500826862975
 30
0.0
 10
239.4187896208655
 20
185.1283264608715
 30
0.0
 10
239.5643171438012
 20
184.9342897636238
 30
0.0
 10
239.7109534478642
 20
184.7387746915399
 30
0.0
 10
239.8900215998956
 20
184.5808657793512
 30
0.0
 10
240.104847943277
 20
184.4630577845936
 30
0.0
 10
240.3206481660817
 20
184.3447157269266
 30
0.0
 10
240.5691500402626
 20
184.2851908121166
 30
0.0
 10
241.0403820192927
 20
184.2851908121166
 30
0.0
 10
241.2182489917698
 20
184.3082904189318
 30
0.0
 10
241.3914960428838
 20
184.3591095539252
 30
0.0
 10
241.5619922405099
 20
184.4091217718955
 30
0.0
 10
241.7148905382967
 20
184.4815374700458
 30
0.0
 10
241.8488682578248
 20
184.5762458579881
 30
0.0
 10
241.9813056983178
 20
184.6698654279918
 30
0.0
 10
242.089104168703
 20
184.7910722013695
 30
0.0
 10
242.1768826746007
 20
184.9342897636238
 30
0.0
 10
242.2630012238817
 20
185.0747989756085
 30
0.0
 10
242.315480315492
 20
185.241514534266
 30
0.0
 10
242.3339600009441
 20
185.4332412708322
 30
0.0
  0
LINE
  5
21B
330
1EF
100
AcDbEntity
  8
Default
  6
Continuous
 62
     7
100
AcDbLine
 10
243.8839436182
 20
188.0642864871
 30
0.0
 11
242.2554213378
 21
187.3782281647
 31
0.0
  0
SPLINE
  5
21C
330
1EF
100
AcDbEntity
  8
Default
  6
Continuous
 62
     7
100
AcDbSpline
210
0.0
220
0.0
230
1.0
 70
     8
 71
     3
 72
    51
 73
    47
 74
     0
 42
0.0000000004766382
 43
0.0000000001
 12
1.0
 22
0.0
 32
0.0
 13
1.0
 23
0.0
 33
0.0
 40
0.0
 40
0.0
 40
0.0
 40
0.0
 40
0.0095402040290222
 40
0.0095402040290222
 40
0.0095402040290222
 40
0.0400756007423482
 40
0.0400756007423482
 40
0.0400756007423482
 40
0.0693620114069116
 40
0.0693620114069116
 40
0.0986484220714753
 40
0.0986484220714753
 40
0.0986484220714753
 40
0.1302632519246672
 40
0.1302632519246672
 40
0.1302632519246672
 40
0.2055179711079718
 40
0.2055179711079718
 40
0.2055179711079718
 40
0.281182745691462
 40
0.281182745691462
 40
0.3511962093102096
 40
0.3511962093102096
 40
0.3511962093102096
 40
0.4149417185613706
 40
0.4149417185613706
 40
0.4149417185613706
 40
0.4786592191897758
 40
0.4786592191897758
 40
0.4786592191897758
 40
0.5478830793697405
 40
0.5478830793697405
 40
0.6199007276287178
 40
0.6199007276287178
 40
0.6199007276287178
 40
0.6846819262147057
 40
0.6846819262147057
 40
0.6846819262147057
 40
0.7494892886116509
 40
0.7494892886116509
 40
0.7494892886116509
 40
0.8193637744922013
 40
0.8193637744922013
 40
0.9096818872461009
 40
0.9096818872461009
 40
1.0
 40
1.0
 40
1.0
 40
1.0
 10
244.1426592145745
 20
186.777638387477
 30
0.0
 10
244.1426592145745
 20
186.7114195146068
 30
0.0
 10
244.1426592145745
 20
186.6452006417365
 30
0.0
 10
244.1426592145745
 20
186.5789817688662
 30
0.0
 10
244.1426592145745
 20
186.3618454648034
 30
0.0
 10
244.1287994504854
 20
186.1493290821035
 30
0.0
 10
244.1172496470778
 20
185.9437425814482
 30
0.0
 10
244.1057071113542
 20
185.738285445568
 30
0.0
 10
244.0849101975365
 20
185.5371895015006
 30
0.0
 10
244.0109914557279
 20
185.1398762642791
 30
0.0
 10
243.9578623600529
 20
184.9435296063499
 30
0.0
 10
243.8839436182442
 20
184.7518028697837
 30
0.0
 10
243.8103238022207
 20
184.5608514719727
 30
0.0
 10
243.7060766457672
 20
184.3683493966513
 30
0.0
 10
243.567479004876
 20
184.1766226600851
 30
0.0
 10
243.2385391943749
 20
183.7215892555586
 30
0.0
 10
242.8467712722416
 20
183.3866161070052
 30
0.0
 10
242.3801592145745
 20
183.1833395670314
 30
0.0
 10
241.9127013576763
 20
182.9796945600658
 30
0.0
 10
241.4007358856099
 20
182.8761147963892
 30
0.0
 10
240.3289141293845
 20
182.8761147963892
 30
0.0
 10
239.8530622289913
 20
182.9592733809239
 30
0.0
 10
239.4187896208655
 20
183.1279005106749
 30
0.0
 10
238.9865243210358
 20
183.2957482068854
 30
0.0
 10
238.6149233036964
 20
183.5344535906225
 30
0.0
 10
238.3076985330542
 20
183.8370584399017
 30
0.0
 10
237.9993189146371
 20
184.1408007708237
 30
0.0
 10
237.7625478122154
 20
184.5092569982241
 30
0.0
 10
237.5893007611014
 20
184.9412196456684
 30
0.0
 10
237.4171718734448
 20
185.3703943388921
 30
0.0
 10
237.3328951254526
 20
185.8444142721428
 30
0.0
 10
237.3328951254526
 20
186.8954463822346
 30
0.0
 10
237.4183636706689
 20
187.3828480860353
 30
0.0
 10
237.5893007611014
 20
187.8194306548426
 30
0.0
 10
237.760544896821
 20
188.2567974339103
 30
0.0
 10
238.005093683775
 20
188.6302268540563
 30
0.0
 10
238.3192483364618
 20
188.9420715460616
 30
0.0
 10
238.6322480402607
 20
189.2527697814501
 30
0.0
 10
239.0099265802364
 20
189.4918421882634
 30
0.0
 10
239.4488191097252
 20
189.6627792786959
 30
0.0
 10
239.8889361806183
 20
189.8341932957806
 30
0.0
 10
240.3751133430149
 20
189.9145649929816
 30
0.0
 10
241.587842700813
 20
189.9145649929816
 30
0.0
 10
242.1815025959638
 20
189.7621075880012
 30
0.0
 10
243.2025052171957
 20
189.1522779680799
 30
0.0
 10
243.5998184544173
 20
188.6879758710943
 30
0.0
 10
243.8839436182442
 20
188.0642864870838
 30
0.0
  0
LINE
  5
21D
330
1EF
100
AcDbEntity
  8
Default
  6
Continuous
 62
     7
100
AcDbLine
 10
240.8347955186
 20
186.7776383875
 30
0.0
 11
244.1426592146
 21
186.7776383875
 31
0.0
  0
LINE
  5
21E
330
1EF
100
AcDbEntity
  8
Default
  6
Continuous
 62
     7
100
AcDbLine
 10
240.8347955186
 20
185.4332412708
 30
0.0
 11
240.8347955186
 21
186.7776383875
 31
0.0
  0
SPLINE
  5
21F
330
1EF
100
AcDbEntity
  8
Default
  6
Continuous
 62
     7
100
AcDbSpline
210
0.0
220
0.0
230
1.0
 70
     8
 71
     3
 72
    16
 73
    12
 74
     0
 42
0.000000000976763
 43
0.0000000001
 12
1.0
 22
0.0
 32
0.0
 13
1.0
 23
0.0
 33
0.0
 40
0.0
 40
0.0
 40
0.0
 40
0.0
 40
0.6164577788718584
 40
0.6164577788718584
 40
0.6164577788718584
 40
0.6381328433885463
 40
0.6381328433885463
 40
0.6607110355934293
 40
0.6607110355934293
 40
0.6607110355934293
 40
1.0
 40
1.0
 40
1.0
 40
1.0
 10
233.0225084937357
 20
183.1186606679488
 30
0.0
 10
233.0225084937357
 20
185.2199549012385
 30
0.0
 10
233.0225084937357
 20
187.3212491345281
 30
0.0
 10
233.0225084937357
 20
189.4225433678178
 30
0.0
 10
233.0225084937357
 20
189.503391991671
 30
0.0
 10
233.050228021914
 20
189.5703808514351
 30
0.0
 10
233.1634160953085
 20
189.6835689248296
 30
0.0
 10
233.2304049550725
 20
189.7112884530078
 30
0.0
 10
233.3089436182443
 20
189.7112884530078
 30
0.0
 10
234.4654639327921
 20
189.7112884530078
 30
0.0
 10
235.6219842473399
 20
189.7112884530078
 30
0.0
 10
236.7785045618878
 20
189.7112884530078
 30
0.0
  0
LINE
  5
220
330
1EF
100
AcDbEntity
  8
Default
  6
Continuous
 62
     7
100
AcDbLine
 10
236.7785045619
 20
183.1186606679
 30
0.0
 11
233.0225084937
 21
183.1186606679
 31
0.0
  0
LINE
  5
221
330
1EF
100
AcDbEntity
  8
Default
  6
Continuous
 62
     7
100
AcDbLine
 10
236.7785045619
 20
184.5693159759
 30
0.0
 11
236.7785045619
 21
183.1186606679
 31
0.0
  0
LINE
  5
222
330
1EF
100
AcDbEntity
  8
Default
  6
Continuous
 62
     7
100
AcDbLine
 10
234.7318793981
 20
184.5693159759
 30
0.0
 11
236.7785045619
 21
184.5693159759
 31
0.0
  0
LINE
  5
223
330
1EF
100
AcDbEntity
  8
Default
  6
Continuous
 62
     7
100
AcDbLine
 10
234.7318793981
 20
185.7035066706
 30
0.0
 11
234.7318793981
 21
184.5693159759
 31
0.0
  0
LINE
  5
224
330
1EF
100
AcDbEntity
  8
Default
  6
Continuous
 62
     7
100
AcDbLine
 10
236.6791762526
 20
185.7035066706
 30
0.0
 11
234.7318793981
 21
185.7035066706
 31
0.0
  0
LINE
  5
225
330
1EF
100
AcDbEntity
  8
Default
  6
Continuous
 62
     7
100
AcDbLine
 10
236.6791762526
 20
187.1610918606
 30
0.0
 11
236.6791762526
 21
185.7035066706
 31
0.0
  0
LINE
  5
226
330
1EF
100
AcDbEntity
  8
Default
  6
Continuous
 62
     7
100
AcDbLine
 10
234.7318793981
 20
187.1610918606
 30
0.0
 11
236.6791762526
 21
187.1610918606
 31
0.0
  0
LINE
  5
227
330
1EF
100
AcDbEntity
  8
Default
  6
Continuous
 62
     7
100
AcDbLine
 10
234.7318793981
 20
188.260633145
 30
0.0
 11
234.7318793981
 21
187.1610918606
 31
0.0
  0
LINE
  5
228
330
1EF
100
AcDbEntity
  8
Default
  6
Continuous
 62
     7
100
AcDbLine
 10
236.7785045619
 20
188.260633145
 30
0.0
 11
234.7318793981
 21
188.260633145
 31
0.0
  0
LINE
  5
229
330
1EF
100
AcDbEntity
  8
Default
  6
Continuous
 62
     7
100
AcDbLine
 10
236.7785045619
 20
189.711288453
 30
0.0
 11
236.7785045619
 21
188.260633145
 31
0.0
  0
LINE
  5
22A
330
1EF
100
AcDbEntity
  8
Default
  6
Continuous
 62
     7
100
AcDbLine
 10
228.7098119013
 20
188.3992307859
 30
0.0
 11
228.7098119013
 21
186.7499188593
 31
0.0
  0
LINE
  5
22B
330
1EF
100
AcDbEntity
  8
Default
  6
Continuous
 62
     7
100
AcDbLine
 10
228.7098119013
 20
186.7499188593
 30
0.0
 11
228.8807489918
 21
186.7499188593
 31
0.0
  0
SPLINE
  5
22C
330
1EF
100
AcDbEntity
  8
Default
  6
Continuous
 62
     7
100
AcDbSpline
210
0.0
220
0.0
230
1.0
 70
     8
 71
     3
 72
    29
 73
    25
 74
     0
 42
0.0000000028633018
 43
0.0000000001
 12
1.0
 22
0.0
 32
0.0
 13
1.0
 23
0.0
 33
0.0
 40
0.0
 40
0.0
 40
0.0
 40
0.0
 40
0.1203556671631279
 40
0.1203556671631279
 40
0.1203556671631279
 40
0.2363519504887718
 40
0.2363519504887718
 40
0.2363519504887718
 40
0.3551316836966588
 40
0.3551316836966588
 40
0.4739114169045465
 40
0.4739114169045465
 40
0.5942337440501996
 40
0.5942337440501996
 40
0.7145560711958533
 40
0.7145560711958533
 40
0.7145560711958533
 40
0.8303426976884648
 40
0.8303426976884648
 40
0.8303426976884648
 40
0.9506957818555967
 40
0.9506957818555967
 40
0.9506957818555967
 40
1.0
 40
1.0
 40
1.0
 40
1.0
 10
228.8807489917698
 20
186.7499188592988
 30
0.0
 10
229.019346632661
 20
186.7499188592988
 30
0.0
 10
229.1579442735522
 20
186.7591587020248
 30
0.0
 10
229.2965419144435
 20
186.7799483481585
 30
0.0
 10
229.4373986855855
 20
186.8010768638298
 30
0.0
 10
229.5644973534998
 20
186.8376973651965
 30
0.0
 10
229.6799953875758
 20
186.8954463822346
 30
0.0
 10
229.7964174059245
 20
186.9536573914089
 30
0.0
 10
229.8902018095942
 20
187.0340440231258
 30
0.0
 10
230.0287994504854
 20
187.2511803271887
 30
0.0
 10
230.0634488607082
 20
187.3967078501244
 30
0.0
 10
230.0634488607082
 20
187.7547517557601
 30
0.0
 10
230.0287994504854
 20
187.8979693180144
 30
0.0
 10
229.8902018095942
 20
188.1151056220773
 30
0.0
 10
229.7978033823333
 20
188.198264206612
 30
0.0
 10
229.6799953875758
 20
188.25601322365
 30
0.0
 10
229.5649627826514
 20
188.3124017554757
 30
0.0
 10
229.4374495160162
 20
188.3484116509108
 30
0.0
 10
229.2965419144435
 20
188.3692012970445
 30
0.0
 10
229.1578950608181
 20
188.3896573902023
 30
0.0
 10
229.019346632661
 20
188.3992307859043
 30
0.0
 10
228.8807489917698
 20
188.3992307859043
 30
0.0
 10
228.8237699616256
 20
188.3992307859043
 30
0.0
 10
228.7667909314815
 20
188.3992307859043
 30
0.0
 10
228.7098119013373
 20
188.3992307859043
 30
0.0
  0
LINE
  5
22D
330
1EF
100
AcDbEntity
  8
Default
  6
Continuous
 62
     7
100
AcDbLine
 10
228.7098119013
 20
183.1186606679
 30
0.0
 11
227.000440997
 21
183.1186606679
 31
0.0
  0
LINE
  5
22E
330
1EF
100
AcDbEntity
  8
Default
  6
Continuous
 62
     7
100
AcDbLine
 10
228.7098119013
 20
185.6526875356
 30
0.0
 11
228.7098119013
 21
183.1186606679
 31
0.0
  0
LINE
  5
22F
330
1EF
100
AcDbEntity
  8
Default
  6
Continuous
 62
     7
100
AcDbLine
 10
230.3406441425
 20
183.1186606679
 30
0.0
 11
228.7098119013
 21
185.6526875356
 31
0.0
  0
LINE
  5
230
330
1EF
100
AcDbEntity
  8
Default
  6
Continuous
 62
     7
100
AcDbLine
 10
232.4773577729
 20
183.1186606679
 30
0.0
 11
230.3406441425
 21
183.1186606679
 31
0.0
  0
LINE
  5
231
330
1EF
100
AcDbEntity
  8
Default
  6
Continuous
 62
     7
100
AcDbLine
 10
230.4007031202
 20
185.8190047046
 30
0.0
 11
232.4773577729
 21
183.1186606679
 31
0.0
  0
SPLINE
  5
232
330
1EF
100
AcDbEntity
  8
Default
  6
Continuous
 62
     7
100
AcDbSpline
210
0.0
220
0.0
230
1.0
 70
     8
 71
     3
 72
    39
 73
    35
 74
     0
 42
0.0000000006617465
 43
0.0000000001
 12
1.0
 22
0.0
 32
0.0
 13
1.0
 23
0.0
 33
0.0
 40
0.0
 40
0.0
 40
0.0
 40
0.0
 40
0.4184837171182216
 40
0.4184837171182216
 40
0.4184837171182216
 40
0.4329116956232541
 40
0.4329116956232541
 40
0.447940839899329
 40
0.447940839899329
 40
0.447940839899329
 40
0.5989875461512338
 40
0.5989875461512338
 40
0.5989875461512338
 40
0.65983019696195
 40
0.65983019696195
 40
0.65983019696195
 40
0.7141636694202442
 40
0.7141636694202442
 40
0.7141636694202442
 40
0.7672492360561214
 40
0.7672492360561214
 40
0.7672492360561214
 40
0.8311842098663922
 40
0.8311842098663922
 40
0.8732466926363075
 40
0.8732466926363075
 40
0.8732466926363075
 40
0.9147241024096695
 40
0.9147241024096695
 40
0.9147241024096695
 40
0.9560702513872078
 40
0.9560702513872078
 40
0.9560702513872078
 40
1.0
 40
1.0
 40
1.0
 40
1.0
 10
227.0004409970123
 20
183.1186606679488
 30
0.0
 10
227.0004409970123
 20
185.2199549012385
 30
0.0
 10
227.0004409970123
 20
187.3212491345281
 30
0.0
 10
227.0004409970123
 20
189.4225433678178
 30
0.0
 10
227.0004409970123
 20
189.503391991671
 30
0.0
 10
227.0281605251905
 20
189.5703808514351
 30
0.0
 10
227.141348598585
 20
189.6835689248296
 30
0.0
 10
227.2060274976676
 20
189.7112884530078
 30
0.0
 10
227.2776362787947
 20
189.7112884530078
 30
0.0
 10
228.0360733692272
 20
189.7112884530078
 30
0.0
 10
228.7945104596597
 20
189.7112884530078
 30
0.0
 10
229.5529475500922
 20
189.7112884530078
 30
0.0
 10
229.8786520061866
 20
189.7112884530078
 30
0.0
 10
230.1812568554658
 20
189.672019121422
 30
0.0
 10
230.4584521372482
 20
189.5911704975687
 30
0.0
 10
230.7371553613635
 20
189.5098820572018
 30
0.0
 10
230.9781932905902
 20
189.3902039182765
 30
0.0
 10
231.1837797912455
 20
189.223886749207
 30
0.0
 10
231.3882367819392
 20
189.0584833410054
 30
0.0
 10
231.5510635396073
 20
188.8496731188007
 30
0.0
 10
231.6665615736833
 20
188.5955774438335
 30
0.0
 10
231.782929798427
 20
188.3395673493973
 30
0.0
 10
231.8398086247973
 20
188.0365669589056
 30
0.0
 10
231.8398086247973
 20
187.4544568671624
 30
0.0
 10
231.8097791359376
 20
187.235010602418
 30
0.0
 10
231.745100236855
 20
187.0317340624443
 30
0.0
 10
231.679966279852
 20
186.827027340435
 30
0.0
 10
231.5903328711931
 20
186.6390407465858
 30
0.0
 10
231.4679049550726
 20
186.4750335381978
 30
0.0
 10
231.3443697291374
 20
186.3095429525111
 30
0.0
 10
231.1953295946532
 20
186.1678087675556
 30
0.0
 10
231.0151526614946
 20
186.0523107334796
 30
0.0
 10
230.8366129371881
 20
185.9378621922575
 30
0.0
 10
230.6316991883622
 20
185.8582740362319
 30
0.0
 10
230.4007031202102
 20
185.8190047046461
 30
0.0
  0
HATCH
  5
233
330
1EF
100
AcDbEntity
  8
Default
  6
Continuous
 62
     7
100
AcDbHatch
 10
0.0
 20
0.0
 30
0.0
210
0.0
220
0.0
230
1.0
  2
SOLID
 70
     1
 71
     0
 91
        2
 92
        1
 93
        6
 72
     4
 94
        3
 73
     0
 74
     0
 95
       39
 96
       35
 40
0.0
 40
0.0
 40
0.0
 40
0.0
 40
0.0439297486127922
 40
0.0439297486127922
 40
0.0439297486127922
 40
0.0852758975903305
 40
0.0852758975903305
 40
0.0852758975903305
 40
0.1267533073636925
 40
0.1267533073636925
 40
0.1267533073636925
 40
0.1688157901336078
 40
0.1688157901336078
 40
0.2327507639438786
 40
0.2327507639438786
 40
0.2327507639438786
 40
0.2858363305797558
 40
0.2858363305797558
 40
0.2858363305797558
 40
0.34016980303805
 40
0.34016980303805
 40
0.34016980303805
 40
0.4010124538487662
 40
0.4010124538487662
 40
0.4010124538487662
 40
0.552059160100671
 40
0.552059160100671
 40
0.552059160100671
 40
0.5670883043767458
 40
0.5670883043767458
 40
0.5815162828817784
 40
0.5815162828817784
 40
0.5815162828817784
 40
1.0
 40
1.0
 40
1.0
 40
1.0
 10
230.4007031202102
 20
185.8190047046461
 10
230.6316991883622
 20
185.8582740362319
 10
230.8366129371881
 20
185.9378621922575
 10
231.0151526614946
 20
186.0523107334796
 10
231.1953295946532
 20
186.1678087675556
 10
231.3443697291374
 20
186.3095429525111
 10
231.4679049550726
 20
186.4750335381978
 10
231.5903328711931
 20
186.6390407465858
 10
231.679966279852
 20
186.827027340435
 10
231.745100236855
 20
187.0317340624443
 10
231.8097791359376
 20
187.235010602418
 10
231.8398086247973
 20
187.4544568671624
 10
231.8398086247973
 20
188.0365669589056
 10
231.782929798427
 20
188.3395673493973
 10
231.6665615736833
 20
188.5955774438335
 10
231.5510635396073
 20
188.8496731188007
 10
231.3882367819392
 20
189.0584833410054
 10
231.1837797912455
 20
189.223886749207
 10
230.9781932905902
 20
189.3902039182765
 10
230.7371553613635
 20
189.5098820572018
 10
230.4584521372482
 20
189.5911704975687
 10
230.1812568554658
 20
189.672019121422
 10
229.8786520061866
 20
189.7112884530078
 10
229.5529475500922
 20
189.7112884530078
 10
228.7945104596597
 20
189.7112884530078
 10
228.0360733692272
 20
189.7112884530078
 10
227.2776362787947
 20
189.7112884530078
 10
227.2060274976676
 20
189.7112884530078
 10
227.141348598585
 20
189.6835689248296
 10
227.0281605251905
 20
189.5703808514351
 10
227.0004409970123
 20
189.503391991671
 10
227.0004409970123
 20
189.4225433678178
 10
227.0004409970123
 20
187.3212491345281
 10
227.0004409970123
 20
185.2199549012385
 10
227.0004409970123
 20
183.1186606679488
 72
     1
 10
227.0004409970123
 20
183.1186606679488
 11
228.7098119013373
 21
183.1186606679488
 72
     1
 10
228.7098119013373
 20
183.1186606679488
 11
228.7098119013373
 21
185.6526875355766
 72
     1
 10
228.7098119013373
 20
185.6526875355766
 11
230.3406441424906
 21
183.1186606679488
 72
     1
 10
230.3406441424906
 20
183.1186606679488
 11
232.4773577728969
 21
183.1186606679488
 72
     1
 10
232.4773577728969
 20
183.1186606679488
 11
230.4007031202102
 21
185.8190047046461
 97
        0
 92
        1
 93
        3
 72
     1
 10
228.7098119013373
 20
188.3992307859043
 11
228.7098119013373
 21
186.7499188592988
 72
     1
 10
228.7098119013373
 20
186.7499188592988
 11
228.8807489917698
 21
186.7499188592988
 72
     4
 94
        3
 73
     0
 74
     0
 95
       29
 96
       25
 40
0.0
 40
0.0
 40
0.0
 40
0.0
 40
0.120355667163128
 40
0.120355667163128
 40
0.120355667163128
 40
0.2363519504887718
 40
0.2363519504887718
 40
0.2363519504887718
 40
0.3551316836966587
 40
0.3551316836966587
 40
0.4739114169045465
 40
0.4739114169045465
 40
0.5942337440501996
 40
0.5942337440501996
 40
0.7145560711958533
 40
0.7145560711958533
 40
0.7145560711958533
 40
0.8303426976884648
 40
0.8303426976884648
 40
0.8303426976884648
 40
0.9506957818555967
 40
0.9506957818555967
 40
0.9506957818555967
 40
1.0
 40
1.0
 40
1.0
 40
1.0
 10
228.8807489917698
 20
186.7499188592988
 10
229.019346632661
 20
186.7499188592988
 10
229.1579442735522
 20
186.7591587020248
 10
229.2965419144435
 20
186.7799483481585
 10
229.4373986855855
 20
186.8010768638298
 10
229.5644973534998
 20
186.8376973651965
 10
229.6799953875758
 20
186.8954463822346
 10
229.7964174059245
 20
186.9536573914089
 10
229.8902018095942
 20
187.0340440231258
 10
230.0287994504854
 20
187.2511803271887
 10
230.0634488607082
 20
187.3967078501244
 10
230.0634488607082
 20
187.7547517557601
 10
230.0287994504854
 20
187.8979693180144
 10
229.8902018095942
 20
188.1151056220773
 10
229.7978033823333
 20
188.198264206612
 10
229.6799953875758
 20
188.25601322365
 10
229.5649627826514
 20
188.3124017554757
 10
229.4374495160162
 20
188.3484116509108
 10
229.2965419144435
 20
188.3692012970445
 10
229.1578950608181
 20
188.3896573902023
 10
229.019346632661
 20
188.3992307859043
 10
228.8807489917698
 20
188.3992307859043
 10
228.8237699616256
 20
188.3992307859043
 10
228.7667909314815
 20
188.3992307859043
 10
228.7098119013373
 20
188.3992307859043
 97
        0
 75
     0
 76
     1
 98
        0
  0
HATCH
  5
234
330
1EF
100
AcDbEntity
  8
Default
  6
Continuous
 62
     7
100
AcDbHatch
 10
0.0
 20
0.0
 30
0.0
210
0.0
220
0.0
230
1.0
  2
SOLID
 70
     1
 71
     0
 91
        1
 92
        1
 93
       11
 72
     4
 94
        3
 73
     0
 74
     0
 95
       16
 96
       12
 40
0.0
 40
0.0
 40
0.0
 40
0.0
 40
0.3392889644065707
 40
0.3392889644065707
 40
0.3392889644065707
 40
0.3618671566114537
 40
0.3618671566114537
 40
0.3835422211281416
 40
0.3835422211281416
 40
0.3835422211281416
 40
1.0
 40
1.0
 40
1.0
 40
1.0
 10
236.7785045618878
 20
189.7112884530078
 10
235.6219842473399
 20
189.7112884530078
 10
234.4654639327921
 20
189.7112884530078
 10
233.3089436182443
 20
189.7112884530078
 10
233.2304049550725
 20
189.7112884530078
 10
233.1634160953085
 20
189.6835689248296
 10
233.050228021914
 20
189.5703808514351
 10
233.0225084937357
 20
189.503391991671
 10
233.0225084937357
 20
189.4225433678178
 10
233.0225084937357
 20
187.3212491345281
 10
233.0225084937357
 20
185.2199549012385
 10
233.0225084937357
 20
183.1186606679488
 72
     1
 10
233.0225084937357
 20
183.1186606679488
 11
236.7785045618878
 21
183.1186606679488
 72
     1
 10
236.7785045618878
 20
183.1186606679488
 11
236.7785045618878
 21
184.5693159759436
 72
     1
 10
236.7785045618878
 20
184.5693159759436
 11
234.7318793980608
 21
184.5693159759436
 72
     1
 10
234.7318793980608
 20
184.5693159759436
 11
234.7318793980608
 21
185.7035066705701
 72
     1
 10
234.7318793980608
 20
185.7035066705701
 11
236.6791762525824
 21
185.7035066705701
 72
     1
 10
236.6791762525824
 20
185.7035066705701
 11
236.6791762525824
 21
187.1610918606094
 72
     1
 10
236.6791762525824
 20
187.1610918606094
 11
234.7318793980608
 21
187.1610918606094
 72
     1
 10
234.7318793980608
 20
187.1610918606094
 11
234.7318793980608
 21
188.260633145013
 72
     1
 10
234.7318793980608
 20
188.260633145013
 11
236.7785045618878
 21
188.260633145013
 72
     1
 10
236.7785045618878
 20
188.260633145013
 11
236.7785045618878
 21
189.7112884530078
 97
        0
 75
     0
 76
     1
 98
        0
  0
HATCH
  5
235
330
1EF
100
AcDbEntity
  8
Default
  6
Continuous
 62
     7
100
AcDbHatch
 10
0.0
 20
0.0
 30
0.0
210
0.0
220
0.0
230
1.0
  2
SOLID
 70
     1
 71
     0
 91
        1
 92
        1
 93
        6
 72
     4
 94
        3
 73
     0
 74
     0
 95
       51
 96
       47
 40
0.0
 40
0.0
 40
0.0
 40
0.0
 40
0.0903181127538991
 40
0.0903181127538991
 40
0.1806362255077987
 40
0.1806362255077987
 40
0.2505107113883491
 40
0.2505107113883491
 40
0.2505107113883491
 40
0.3153180737852943
 40
0.3153180737852943
 40
0.3153180737852943
 40
0.3800992723712822
 40
0.3800992723712822
 40
0.3800992723712822
 40
0.4521169206302595
 40
0.4521169206302595
 40
0.5213407808102242
 40
0.5213407808102242
 40
0.5213407808102242
 40
0.5850582814386294
 40
0.5850582814386294
 40
0.5850582814386294
 40
0.6488037906897904
 40
0.6488037906897904
 40
0.6488037906897904
 40
0.718817254308538
 40
0.718817254308538
 40
0.7944820288920282
 40
0.7944820288920282
 40
0.7944820288920282
 40
0.8697367480753329
 40
0.8697367480753329
 40
0.8697367480753329
 40
0.9013515779285247
 40
0.9013515779285247
 40
0.9013515779285247
 40
0.9306379885930884
 40
0.9306379885930884
 40
0.9599243992576518
 40
0.9599243992576518
 40
0.9599243992576518
 40
0.9904597959709778
 40
0.9904597959709778
 40
0.9904597959709778
 40
1.0
 40
1.0
 40
1.0
 40
1.0
 10
243.8839436182442
 20
188.0642864870838
 10
243.5998184544173
 20
188.6879758710943
 10
243.2025052171957
 20
189.1522779680799
 10
242.1815025959638
 20
189.7621075880012
 10
241.587842700813
 20
189.9145649929816
 10
240.3751133430149
 20
189.9145649929816
 10
239.8889361806183
 20
189.8341932957806
 10
239.4488191097252
 20
189.6627792786959
 10
239.0099265802364
 20
189.4918421882634
 10
238.6322480402607
 20
189.2527697814501
 10
238.3192483364618
 20
188.9420715460616
 10
238.005093683775
 20
188.6302268540563
 10
237.760544896821
 20
188.2567974339103
 10
237.5893007611014
 20
187.8194306548426
 10
237.4183636706689
 20
187.3828480860353
 10
237.3328951254526
 20
186.8954463822346
 10
237.3328951254526
 20
185.8444142721428
 10
237.4171718734448
 20
185.3703943388921
 10
237.5893007611014
 20
184.9412196456684
 10
237.7625478122154
 20
184.5092569982241
 10
237.9993189146371
 20
184.1408007708237
 10
238.3076985330542
 20
183.8370584399017
 10
238.6149233036964
 20
183.5344535906225
 10
238.9865243210358
 20
183.2957482068854
 10
239.4187896208655
 20
183.1279005106749
 10
239.8530622289913
 20
182.9592733809239
 10
240.3289141293845
 20
182.8761147963892
 10
241.4007358856099
 20
182.8761147963892
 10
241.9127013576763
 20
182.9796945600658
 10
242.3801592145745
 20
183.1833395670314
 10
242.8467712722416
 20
183.3866161070052
 10
243.2385391943749
 20
183.7215892555586
 10
243.567479004876
 20
184.1766226600851
 10
243.7060766457672
 20
184.3683493966513
 10
243.8103238022207
 20
184.5608514719727
 10
243.8839436182442
 20
184.7518028697837
 10
243.9578623600529
 20
184.9435296063499
 10
244.0109914557279
 20
185.1398762642791
 10
244.0849101975365
 20
185.5371895015006
 10
244.1057071113542
 20
185.738285445568
 10
244.1172496470778
 20
185.9437425814482
 10
244.1287994504854
 20
186.1493290821035
 10
244.1426592145745
 20
186.3618454648034
 10
244.1426592145745
 20
186.5789817688662
 10
244.1426592145745
 20
186.6452006417365
 10
244.1426592145745
 20
186.7114195146068
 10
244.1426592145745
 20
186.777638387477
 72
     1
 10
244.1426592145745
 20
186.777638387477
 11
240.8347955186374
 21
186.777638387477
 72
     1
 10
240.8347955186374
 20
186.777638387477
 11
240.8347955186374
 21
185.4332412708322
 72
     1
 10
240.8347955186374
 20
185.4332412708322
 11
242.3339600009441
 21
185.4332412708322
 72
     4
 94
        3
 73
     0
 74
     0
 95
       43
 96
       39
 40
0.0
 40
0.0
 40
0.0
 40
0.0
 40
0.0528407008768927
 40
0.0528407008768927
 40
0.0528407008768927
 40
0.101808017531148
 40
0.101808017531148
 40
0.101808017531148
 40
0.1527424680033737
 40
0.1527424680033737
 40
0.1527424680033737
 40
0.2046872249080309
 40
0.2046872249080309
 40
0.285201598110253
 40
0.285201598110253
 40
0.285201598110253
 40
0.3575698737778739
 40
0.3575698737778739
 40
0.3575698737778739
 40
0.4340109897737078
 40
0.4340109897737078
 40
0.5104521057695417
 40
0.5104521057695417
 40
0.5848456918726302
 40
0.5848456918726302
 40
0.5848456918726302
 40
0.6593973023253275
 40
0.6593973023253275
 40
0.6593973023253275
 40
0.7322081321972964
 40
0.7322081321972964
 40
0.7322081321972964
 40
0.808821291350857
 40
0.808821291350857
 40
0.9050626152462398
 40
0.9050626152462398
 40
0.9050626152462398
 40
1.0
 40
1.0
 40
1.0
 40
1.0
 10
242.3339600009441
 20
185.4332412708322
 10
242.315480315492
 20
185.241514534266
 10
242.2630012238817
 20
185.0747989756085
 10
242.1768826746007
 20
184.9342897636238
 10
242.089104168703
 20
184.7910722013695
 10
241.9813056983178
 20
184.6698654279918
 10
241.8488682578248
 20
184.5762458579881
 10
241.7148905382967
 20
184.4815374700458
 10
241.5619922405099
 20
184.4091217718955
 10
241.3914960428838
 20
184.3591095539252
 10
241.2182489917698
 20
184.3082904189318
 10
241.0403820192927
 20
184.2851908121166
 10
240.5691500402626
 20
184.2851908121166
 10
240.3206481660817
 20
184.3447157269266
 10
240.104847943277
 20
184.4630577845936
 10
239.8900215998956
 20
184.5808657793512
 10
239.7109534478642
 20
184.7387746915399
 10
239.5643171438012
 20
184.9342897636238
 10
239.4187896208655
 20
185.1283264608715
 10
239.3079115081525
 20
185.3500826862975
 10
239.1554541031722
 20
185.8397943507798
 10
239.1161847715863
 20
186.089270104384
 10
239.1161847715863
 20
186.5997714149999
 10
239.1546578089098
 20
186.848808629735
 10
239.2270628842993
 20
187.0987229222083
 10
239.2986716654264
 20
187.345888715131
 10
239.4057198468884
 20
187.5687407332931
 10
239.5481474190306
 20
187.7663015591677
 10
239.6913649812849
 20
187.9649581777784
 10
239.8686747464151
 20
188.1276436800246
 10
240.0840582971433
 20
188.2490833416055
 10
240.3011946012062
 20
188.371511257726
 10
240.5460504334474
 20
188.4315702354455
 10
241.1766696995024
 20
188.4315702354455
 10
241.4721172585773
 20
188.3365769023392
 10
241.7148905382967
 20
188.1428251502555
 10
241.9551264491748
 20
187.9510984136893
 10
242.1353033823333
 20
187.6970027387221
 10
242.2554213377724
 20
187.3782281646723
 72
     1
 10
242.2554213377724
 20
187.3782281646723
 11
243.8839436182442
 21
188.0642864870838
 97
        0
 75
     0
 76
     1
 98
        0
  0
HATCH
  5
236
330
1EF
100
AcDbEntity
  8
Default
  6
Continuous
 62
     7
100
AcDbHatch
 10
0.0
 20
0.0
 30
0.0
210
0.0
220
0.0
230
1.0
  2
SOLID
 70
     1
 71
     0
 91
        2
 92
        1
 93
        1
 72
     4
 94
        3
 73
     0
 74
     0
 95
       49
 96
       45
 40
0.0
 40
0.0
 40
0.0
 40
0.0
 40
0.0620905351842325
 40
0.0620905351842325
 40
0.0620905351842325
 40
0.1225274789213882
 40
0.1225274789213882
 40
0.1225274789213882
 40
0.1824107500595676
 40
0.1824107500595676
 40
0.1824107500595676
 40
0.2443092731117129
 40
0.2443092731117129
 40
0.3113899980938052
 40
0.3113899980938052
 40
0.3113899980938052
 40
0.373038281101099
 40
0.373038281101099
 40
0.4342493422430935
 40
0.4342493422430935
 40
0.4342493422430935
 40
0.5005101029271146
 40
0.5005101029271146
 40
0.5664827733472912
 40
0.5664827733472912
 40
0.5664827733472912
 40
0.6277456785228048
 40
0.6277456785228048
 40
0.6277456785228048
 40
0.6890483024008142
 40
0.6890483024008142
 40
0.6890483024008142
 40
0.7561017319004357
 40
0.7561017319004357
 40
0.8179750681339922
 40
0.8179750681339922
 40
0.8179750681339922
 40
0.8779262347345869
 40
0.8779262347345869
 40
0.8779262347345869
 40
0.9382003516792404
 40
0.9382003516792404
 40
0.9382003516792404
 40
1.0
 40
1.0
 40
1.0
 40
1.0
 10
248.4438060035654
 20
189.9492144032044
 10
247.9656441424906
 20
189.9469044425229
 10
247.5072164315149
 20
189.8665311947464
 10
247.0670694373792
 20
189.6997386496002
 10
246.6281769078904
 20
189.5334214805307
 10
246.2389407961124
 20
189.2988270091107
 10
245.9005392932115
 20
188.997510602418
 10
245.5632850337095
 20
188.6972157138204
 10
245.2957954536029
 20
188.335504780128
 10
245.0920530546794
 20
187.918758964148
 10
244.8887765147056
 20
187.5029660414744
 10
244.7871382447187
 20
187.0455938265333
 10
244.7871382447187
 20
186.0107314412123
 10
244.8803465126443
 20
185.521351265914
 10
245.0620235658196
 20
185.0775073258781
 10
245.2445104596597
 20
184.6316849143446
 10
245.4962961739454
 20
184.2482314412123
 10
246.1453951254526
 20
183.5991324897051
 10
246.530680710158
 20
183.3461490497318
 10
246.9792909314815
 20
183.1671698422608
 10
247.4251133430149
 20
182.9893028697837
 10
247.9125150468157
 20
182.8992144032044
 10
248.9727869996335
 20
182.8992144032044
 10
249.4629767181928
 20
182.9881138634896
 10
249.9083210756492
 20
183.1671698422608
 10
250.3564534478642
 20
183.3473467754193
 10
250.7410617834882
 20
183.5979940082417
 10
251.0609914557278
 20
183.9225269851179
 10
251.3820759904592
 20
184.2482314412123
 10
251.6330488643873
 20
184.6320193642835
 10
251.816348598585
 20
185.0775073258781
 10
251.9988354924251
 20
185.52101977673
 10
252.0889239590044
 20
186.0107314412123
 10
252.0889239590044
 20
187.0455938265333
 10
251.9868172819147
 20
187.5016305829262
 10
251.7863191097253
 20
187.918758964148
 10
251.585352530433
 20
188.3368618475032
 10
251.3129086463213
 20
188.694787784671
 10
250.9755229105116
 20
188.997510602418
 10
250.6382686510096
 20
189.3001154516972
 10
250.2509557040483
 20
189.5354457704455
 10
249.8136126877069
 20
189.6997386496002
 10
249.3770301188996
 20
189.8637458579882
 10
248.9196356399268
 20
189.9515130970999
 10
248.4438060035654
 20
189.9492144032044
 97
        0
 92
        1
 93
        1
 72
     4
 94
        3
 73
     0
 74
     0
 95
       47
 96
       43
 40
0.0
 40
0.0
 40
0.0
 40
0.0
 40
0.0637917384076936
 40
0.0637917384076936
 40
0.0637917384076936
 40
0.1265834997779105
 40
0.1265834997779105
 40
0.1893752611481285
 40
0.1893752611481285
 40
0.1893752611481285
 40
0.2604081010642026
 40
0.2604081010642026
 40
0.3159741129340349
 40
0.3159741129340349
 40
0.3159741129340349
 40
0.3751091105868485
 40
0.3751091105868485
 40
0.3751091105868485
 40
0.435995169879425
 40
0.435995169879425
 40
0.435995169879425
 40
0.4997689343159712
 40
0.4997689343159712
 40
0.5635426987525196
 40
0.5635426987525196
 40
0.5635426987525196
 40
0.624232315369434
 40
0.624232315369434
 40
0.624232315369434
 40
0.6835869381889372
 40
0.6835869381889372
 40
0.6835869381889372
 40
0.7357943705008892
 40
0.7357943705008892
 40
0.8025337685079206
 40
0.8025337685079206
 40
0.8692731665149518
 40
0.8692731665149518
 40
0.9360125645219831
 40
0.9360125645219831
 40
0.9360125645219831
 40
1.0
 40
1.0
 40
1.0
 40
1.0
 10
248.4438060035654
 20
184.5693159759436
 10
248.7025215998956
 20
184.5693159759436
 10
248.9450674714552
 20
184.620135110937
 10
249.1691336575627
 20
184.7194634202424
 10
249.3951304192655
 20
184.8196475517189
 10
249.5941664229625
 20
184.9550794097575
 10
249.9314206824644
 20
185.3061934333486
 10
250.0653984019926
 20
185.5140898946854
 10
250.160106789935
 20
185.752015844882
 10
250.2551311293749
 20
185.9907355268896
 10
250.3056343128707
 20
186.2509673520904
 10
250.3056343128707
 20
186.7614686627064
 10
250.2571251385588
 20
186.9809149274508
 10
250.160106789935
 20
187.1934313101507
 10
250.0643595068875
 20
187.4031634539689
 10
249.9314206824644
 20
187.5907445473721
 10
249.7627935527134
 20
187.7547517557601
 10
249.5953209577949
 20
187.9176360604069
 10
249.3955098043517
 20
188.0458068016317
 10
249.1691336575627
 20
188.140515189574
 10
248.9439009259591
 20
188.2347452099388
 10
248.7025215998956
 20
188.2860427125098
 10
248.1850904072351
 20
188.2860427125098
 10
247.9425445356754
 20
188.2375335381978
 10
247.7161683888864
 20
188.140515189574
 10
247.4925801256786
 20
188.0446916481992
 10
247.2934455841682
 20
187.9164490034665
 10
247.1248184544172
 20
187.7547517557601
 10
246.9550373605366
 20
187.5919479671074
 10
246.8222136051381
 20
187.403637732169
 10
246.7228852958327
 20
187.1934313101507
 10
246.622664698655
 20
186.9813365579839
 10
246.5727378515339
 20
186.7614686627064
 10
246.5727378515339
 20
186.2509673520904
 10
246.6235569865273
 20
185.9899417950786
 10
246.8222136051381
 20
185.5140898946854
 10
246.9561913246663
 20
185.3061934333486
 10
247.2934455841682
 20
184.9550794097575
 10
247.492102202779
 20
184.8187917295478
 10
247.7161683888864
 20
184.7194634202424
 10
247.9421651505893
 20
184.6192792887659
 10
248.1850904072351
 20
184.5693159759436
 10
248.4438060035654
 20
184.5693159759436
 97
        0
 75
     0
 76
     1
 98
        0
  0
HATCH
  5
237
330
1EF
100
AcDbEntity
  8
Default
  6
Continuous
 62
     7
100
AcDbHatch
 10
0.0
 20
0.0
 30
0.0
210
0.0
220
0.0
230
1.0
  2
SOLID
 70
     1
 71
     0
 91
        1
 92
        1
 93
        4
 72
     1
 10
255.0710831988471
 20
185.7035066705701
 11
255.0710831988471
 21
187.1610918606094
 72
     1
 10
255.0710831988471
 20
187.1610918606094
 11
252.9366795291224
 21
187.1610918606094
 72
     1
 10
252.9366795291224
 20
187.1610918606094
 11
252.9366795291224
 21
185.70350667057
 72
     1
 10
252.9366795291224
 20
185.70350667057
 11
255.0710831988471
 21
185.7035066705701
 97
        0
 75
     0
 76
     1
 98
        0
  0
HATCH
  5
238
330
1EF
100
AcDbEntity
  8
Default
  6
Continuous
 62
     7
100
AcDbHatch
 10
0.0
 20
0.0
 30
0.0
210
0.0
220
0.0
230
1.0
  2
SOLID
 70
     1
 71
     0
 91
        1
 92
        1
 93
        9
 72
     4
 94
        3
 73
     0
 74
     0
 95
       16
 96
       12
 40
0.0
 40
0.0
 40
0.0
 40
0.0
 40
0.3396620468027166
 40
0.3396620468027166
 40
0.3396620468027166
 40
0.3623316833330921
 40
0.3623316833330921
 40
0.3840945344022499
 40
0.3840945344022499
 40
0.3840945344022499
 40
1.0
 40
1.0
 40
1.0
 40
1.0
 10
259.5870563312193
 20
189.7112884530078
 10
258.42822605599
 20
189.7112884530078
 10
257.2693957807606
 20
189.7112884530078
 10
256.1105655055312
 20
189.7112884530078
 10
256.0297168816781
 20
189.7112884530078
 10
255.962728021914
 20
189.6835689248296
 10
255.8495399485194
 20
189.5703808514351
 10
255.8218204203412
 20
189.503391991671
 10
255.8218204203412
 20
189.4225433678178
 10
255.8218204203412
 20
187.3212491345281
 10
255.8218204203412
 20
185.2199549012385
 10
255.8218204203412
 20
183.1186606679488
 72
     1
 10
255.8218204203412
 20
183.1186606679488
 11
257.5404311673923
 21
183.1186606679488
 72
     1
 10
257.5404311673923
 20
183.1186606679488
 11
257.5404311673923
 21
185.7035066705701
 72
     1
 10
257.5404311673923
 20
185.7035066705701
 11
259.4877280219139
 21
185.7035066705701
 72
     1
 10
259.4877280219139
 20
185.7035066705701
 11
259.4877280219139
 21
187.1610918606094
 72
     1
 10
259.4877280219139
 20
187.1610918606094
 11
257.5404311673923
 21
187.1610918606094
 72
     1
 10
257.5404311673923
 20
187.1610918606094
 11
257.5404311673923
 21
188.260633145013
 72
     1
 10
257.5404311673923
 20
188.260633145013
 11
259.5870563312194
 21
188.260633145013
 72
     1
 10
259.5870563312193
 20
188.260633145013
 11
259.5870563312193
 21
189.7112884530078
 97
        0
 75
     0
 76
     1
 98
        0
  0
HATCH
  5
239
330
1EF
100
AcDbEntity
  8
Default
  6
Continuous
 62
     7
100
AcDbHatch
 10
0.0
 20
0.0
 30
0.0
210
0.0
220
0.0
230
1.0
  2
SOLID
 70
     1
 71
     0
 91
        1
 92
        1
 93
        4
 72
     4
 94
        3
 73
     0
 74
     0
 95
       14
 96
       10
 40
0.0
 40
0.0
 40
0.0
 40
0.0
 40
0.7580098693161609
 40
0.7580098693161609
 40
0.7580098693161609
 40
0.8789822868889446
 40
0.8789822868889446
 40
0.8789822868889446
 40
1.0
 40
1.0
 40
1.0
 40
1.0
 10
262.1857620979297
 20
189.7274581777785
 10
261.7114501713242
 20
189.7274581777785
 10
261.2371382447187
 20
189.7274581777785
 10
260.7628263181132
 20
189.7274581777785
 10
260.68197769426
 20
189.7274581777785
 10
260.6172507110666
 20
189.6973825281723
 10
260.5595497781394
 20
189.6419896325622
 10
260.5018007611014
 20
189.5865505762057
 10
260.4740812329231
 20
189.5195617164416
 10
260.4740812329231
 20
189.4387130925884
 72
     1
 10
260.4740812329231
 20
189.4387130925884
 11
260.4740812329231
 21
183.1186606679488
 72
     1
 10
260.4740812329231
 20
183.1186606679488
 11
262.1857620979297
 21
183.1186606679488
 72
     1
 10
262.1857620979297
 20
183.1186606679488
 11
262.1857620979297
 21
189.7274581777785
 97
        0
 75
     0
 76
     1
 98
        0
  0
HATCH
  5
23A
330
1EF
100
AcDbEntity
  8
Default
  6
Continuous
 62
     7
100
AcDbHatch
 10
0.0
 20
0.0
 30
0.0
210
0.0
220
0.0
230
1.0
  2
SOLID
 70
     1
 71
     0
 91
        1
 92
        1
 93
       12
 72
     1
 10
266.2235733692272
 20
188.0042275093643
 11
265.2095006300398
 21
189.7112884530078
 72
     1
 10
265.2095006300398
 20
189.7112884530078
 11
263.1051264491747
 21
189.7112884530078
 72
     1
 10
263.1051264491747
 20
189.7112884530078
 11
265.2095006300398
 21
186.6436606679488
 72
     1
 10
265.2095006300398
 20
186.6436606679488
 11
262.6269645881001
 21
183.1186606679488
 72
     1
 10
262.6269645881001
 20
183.1186606679488
 11
264.7036192407868
 21
183.1186606679488
 72
     1
 10
264.7036192407868
 20
183.1186606679488
 11
266.2235733692272
 21
185.2646141410812
 72
     1
 10
266.2235733692272
 20
185.2646141410812
 11
267.2561257938668
 21
183.6453317033355
 72
     1
 10
267.2561257938668
 20
183.6453317033355
 11
268.2886782185064
 21
185.1144666967824
 72
     1
 10
268.2886782185064
 20
185.1144666967824
 11
267.226096305007
 21
186.6436606679488
 72
     1
 10
267.226096305007
 20
186.6436606679488
 11
269.3420202892797
 21
189.7112884530078
 72
     1
 10
269.3420202892797
 20
189.7112884530078
 11
267.226096305007
 21
189.7112884530078
 72
     1
 10
267.226096305007
 20
189.7112884530078
 11
266.2235733692272
 21
188.0042275093643
 97
        0
 75
     0
 76
     1
 98
        0
  0
HATCH
  5
23B
330
1EF
100
AcDbEntity
  8
Default
  6
Continuous
 62
     7
100
AcDbHatch
 10
0.0
 20
0.0
 30
0.0
210
0.0
220
0.0
230
1.0
  2
SOLID
 70
     1
 71
     0
 91
        1
 92
        1
 93
        3
 72
     4
 94
        3
 73
     0
 74
     0
 95
       13
 96
        9
 40
0.0
 40
0.0
 40
0.0
 40
0.0
 40
0.0445094381088423
 40
0.0445094381088423
 40
0.0908355879772283
 40
0.0908355879772283
 40
0.0908355879772283
 40
1.0
 40
1.0
 40
1.0
 40
1.0
 10
272.7122529236178
 20
189.5334214805307
 10
272.6198544963569
 20
189.6512294752883
 10
272.5159062656886
 20
189.7112884530078
 10
272.2849101975365
 20
189.7112884530078
 10
272.1870447473536
 20
189.6501983627819
 10
272.1047332643779
 20
189.5334214805307
 10
270.697967209332
 20
187.5376154516972
 10
269.2912011542862
 20
185.5418094228636
 10
267.8844350992403
 20
183.5460033940301
 72
     4
 94
        3
 73
     0
 74
     0
 95
       11
 96
        7
 40
0.0
 40
0.0
 40
0.0
 40
0.0
 40
0.3439066424360135
 40
0.3439066424360135
 40
0.3439066424360135
 40
1.0
 40
1.0
 40
1.0
 40
1.0
 10
267.8844350992403
 20
183.5460033940301
 10
267.8313060035653
 20
183.4605348488138
 10
267.8027439506852
 20
183.3911859889177
 10
267.8035864753871
 20
183.3381069326933
 10
267.8058964360686
 20
183.1925794097575
 10
267.9075347060556
 20
183.1186606679488
 10
268.1131212067108
 20
183.1186606679488
 72
     4
 94
        3
 73
     0
 74
     0
 95
       16
 96
       12
 40
0.0
 40
0.0
 40
0.0
 40
0.0
 40
0.5188870924081099
 40
0.5188870924081099
 40
0.5188870924081099
 40
0.544909989588877
 40
0.544909989588877
 40
0.5581347406151689
 40
0.5581347406151689
 40
0.5581347406151689
 40
1.0
 40
1.0
 40
1.0
 40
1.0
 10
268.1131212067108
 20
183.1186606679488
 10
270.9805523993713
 20
183.1186606679488
 10
273.8479835920319
 20
183.1186606679488
 10
276.7154147846925
 20
183.1186606679488
 10
276.9140714033032
 20
183.1186606679488
 10
277.0133997126086
 20
183.1879594883945
 10
277.0133997126086
 20
183.4004758710943
 10
276.9849943017649
 20
183.4716012002038
 10
276.9325510887554
 20
183.5460033940301
 10
275.5257850337095
 20
185.5418094228636
 10
274.1190189786636
 20
187.5376154516972
 10
272.7122529236178
 20
189.5334214805307
 97
        0
 75
     0
 76
     1
 98
        0
  0
ENDBLK
  5
23D
330
1EF
100
AcDbEntity
  8
0
100
AcDbBlockEnd
  0
ENDSEC
  0
SECTION
  2
ENTITIES
  0
INSERT
  5
41
330
1F
100
AcDbEntity
  8
Default
100
AcDbBlockReference
  2
SE
 10
0.0
 20
0.0
 30
0.0
  0
DIMENSION
  5
177
330
1F
100
AcDbEntity
  8
Default
  6
Continuous
 62
     7
100
AcDbDimension
  2
DMBLK2
 10
182.5201582538
 20
55.4239200473
 30
0.0
 11
152.5201575832
 21
55.4239200473
 31
0.0
 70
   160
  1
\A1;<>
 71
     5
 42
-1.0
  3
DIN
100
AcDbAlignedDimension
 13
122.5201582538
 23
73.0122169524
 33
0.0
 14
182.5201582538
 24
68.126333529
 34
0.0
100
AcDbRotatedDimension
  0
INSERT
  5
182
330
1F
100
AcDbEntity
  8
Default
100
AcDbBlockReference
  2
GDimGGroup
 10
0.0
 20
0.0
 30
0.0
  0
INSERT
  5
18E
330
1F
100
AcDbEntity
  8
Default
100
AcDbBlockReference
  2
GDimGGroup1
 10
0.0
 20
0.0
 30
0.0
  0
INSERT
  5
197
330
1F
100
AcDbEntity
  8
Default
100
AcDbBlockReference
  2
GDimGGroup2
 10
0.0
 20
0.0
 30
0.0
  0
DIMENSION
  5
1A0
330
1F
100
AcDbEntity
  8
Default
  6
Continuous
 62
     7
100
AcDbDimension
  2
DMBLK3
 10
168.5201582538
 20
140.5726410836
 30
0.0
 11
187.5201588647
 21
140.5726410836
 31
0.0
 70
   160
  1
\A1;<>
 71
     5
 42
-1.0
  3
DIN
100
AcDbAlignedDimension
 13
206.5201582538
 23
110.5872169524
 33
0.0
 14
168.5201582538
 24
123.6372169524
 34
0.0
100
AcDbRotatedDimension
  0
DIMENSION
  5
1AA
330
1F
100
AcDbEntity
  8
Default
  6
Continuous
 62
     7
100
AcDbDimension
  2
DMBLK4
 10
141.5701582538
 20
157.3726423472
 30
0.0
 11
174.0451598691
 21
157.3726423472
 31
0.0
 70
   160
  1
\A1;<>
 71
     5
 42
-1.0
  3
DIN
100
AcDbAlignedDimension
 13
206.5201582538
 23
110.5872169524
 33
0.0
 14
141.5701582538
 24
126.2122169524
 34
0.0
100
AcDbRotatedDimension
  0
DIMENSION
  5
1B4
330
1F
100
AcDbEntity
  8
Default
  6
Continuous
 62
     7
100
AcDbDimension
  2
DMBLK5
 10
54.2701582538
 20
165.772642979
 30
0.0
 11
130.3951548563
 21
165.772642979
 31
0.0
 70
   160
  1
\A1;<>
 71
     5
 42
-1.0
  3
DIN
100
AcDbAlignedDimension
 13
206.5201582538
 23
110.5872169524
 33
0.0
 14
54.2701582538
 24
106.6444015703
 34
0.0
100
AcDbRotatedDimension
  0
INSERT
  5
1BF
330
1F
100
AcDbEntity
  8
Default
100
AcDbBlockReference
  2
GDimGGroup3
 10
0.0
 20
0.0
 30
0.0
  0
DIMENSION
  5
1C9
330
1F
100
AcDbEntity
  8
Default
  6
Continuous
 62
     7
100
AcDbDimension
  2
DMBLK6
 10
158.5201582538
 20
148.9726417154
 30
0.0
 11
182.5201580452
 21
148.9726417154
 31
0.0
 70
   160
  1
\A1;<>
 71
     5
 42
-1.0
  3
DIN
100
AcDbAlignedDimension
 13
206.5201582538
 23
110.5872169524
 33
0.0
 14
158.5201582538
 24
123.4372169336
 34
0.0
100
AcDbRotatedDimension
  0
DIMENSION
  5
1D3
330
1F
100
AcDbEntity
  8
Default
  6
Continuous
 62
     7
100
AcDbDimension
  2
DMBLK7
 10
182.5201582538
 20
132.1726423144
 30
0.0
 11
194.5201581495
 21
132.1726423144
 31
0.0
 70
   160
  1
\A1;<>
 71
     5
 42
-1.0
  3
DIN
100
AcDbAlignedDimension
 13
206.5201582538
 23
110.5872169524
 33
0.0
 14
182.5201582538
 24
122.3481003759
 34
0.0
100
AcDbRotatedDimension
  0
INSERT
  5
23E
330
1F
100
AcDbEntity
  8
Default
 62
     7
100
AcDbBlockReference
  2
RF-Massblatt_2016
 10
0.0
 20
0.0
 30
0.0
  0
ENDSEC
  0
SECTION
  2
OBJECTS
  0
DICTIONARY
  5
C
330
0
100
AcDbDictionary
281
     1
  3
ACAD_GROUP
350
D
  3
ACAD_LAYOUT
350
1A
  3
ACAD_MATERIAL
350
3B
  3
ACAD_MLEADERSTYLE
350
241
  3
ACAD_MLINESTYLE
350
17
  3
ACAD_PLOTSETTINGS
350
19
  3
ACAD_PLOTSTYLENAME
350
E
  3
ACAD_VISUALSTYLE
350
2A
  3
AcDbVariableDictionary
350
23F
  0
DICTIONARY
  5
246
330
1F0
100
AcDbDictionary
280
     1
281
     1
  3
ACAD_MTEXT_RT
360
247
  0
DICTIONARY
  5
248
330
1F1
100
AcDbDictionary
280
     1
281
     1
  3
ACAD_MTEXT_RT
360
249
  0
DICTIONARY
  5
24A
330
1F4
100
AcDbDictionary
280
     1
281
     1
  3
ACAD_MTEXT_RT
360
24B
  0
DICTIONARY
  5
D
102
{ACAD_REACTORS
330
C
102
}
330
C
100
AcDbDictionary
281
     1
  0
DICTIONARY
  5
1A
102
{ACAD_REACTORS
330
C
102
}
330
C
100
AcDbDictionary
281
     1
  3
Layout1
350
1E
  3
Model
350
22
  0
DICTIONARY
  5
3B
102
{ACAD_REACTORS
330
C
102
}
330
C
100
AcDbDictionary
281
     1
  3
ByBlock
350
3D
  3
ByLayer
350
3C
  3
Global
350
3E
  0
DICTIONARY
  5
241
102
{ACAD_REACTORS
330
C
102
}
330
C
100
AcDbDictionary
281
     1
  0
DICTIONARY
  5
17
102
{ACAD_REACTORS
330
C
102
}
330
C
100
AcDbDictionary
281
     1
  3
Standard
350
18
  0
DICTIONARY
  5
19
102
{ACAD_REACTORS
330
C
102
}
330
C
100
AcDbDictionary
281
     1
  0
ACDBDICTIONARYWDFLT
  5
E
102
{ACAD_REACTORS
330
C
102
}
330
C
100
AcDbDictionary
281
     1
  3
Normal
350
F
100
AcDbDictionaryWithDefault
340
F
  0
DICTIONARY
  5
2A
102
{ACAD_REACTORS
330
C
102
}
330
C
100
AcDbDictionary
281
     1
  3
2dWireframe
350
2F
  3
3D Hidden
350
31
  3
3dWireframe
350
30
  3
Basic
350
32
  3
Brighten
350
36
  3
ColorChange
350
3A
  3
Conceptual
350
34
  3
Dim
350
35
  3
Facepattern
350
39
  3
Flat
350
2B
  3
FlatWithEdges
350
2C
  3
Gouraud
350
2D
  3
GouraudWithEdges
350
2E
  3
Linepattern
350
38
  3
Realistic
350
33
  3
Thicken
350
37
  0
DICTIONARY
  5
23F
102
{ACAD_REACTORS
330
C
102
}
330
C
100
AcDbDictionary
281
     1
  3
DIMASSOC
350
244
  3
HIDETEXT
350
245
  3
PSOLHEIGHT
350
243
  3
PSOLWIDTH
350
242
  0
XRECORD
  5
247
102
{ACAD_REACTORS
330
246
102
}
330
246
100
AcDbXrecord
280
     1
 40
10118767.0
  1
\pxsm1.;{\fVectora Com 45 Light|b1||i0||c0|p34;\C7;\H2.5;\W1.;REGO-FIX AG\P}{\fVectora Com 45 Light|b0||i0||c0|p34;\C7;\H2.5;\W1.;Obermattweg 60\P}{\fVectora Com 45 Light|b0||i0||c0|p34;\C7;\H2.5;\W1.;4456 Tenniken / Switzerland\P}{\fVectora Com 45 L
  1
ight|b0||i0||c0|p34;\C7;\H2.5;\W1.;\P}{\fVectora Com 45 Light|b0||i0||c0|p34;\C7;\H2.5;\W1.;P +41 61 976 14 66\P}{\fVectora Com 45 Light|b0||i0||c0|p34;\C7;\H2.5;\W1.;F +41 61 976 14 14\P}{\fVectora Com 45 Light|b1||i0||c0|p34;\C7;\H2.5;\W1.;www.rego
  1
-fix.com}
  0
XRECORD
  5
249
102
{ACAD_REACTORS
330
248
102
}
330
248
100
AcDbXrecord
280
     1
 40
47111022.0
  1
\pxsm1.;{\fSolid Edge ISO|b0||i0||c0|p34;\C7;\H2.;\W1.;This is a non-controlled copy. All information given herein is subject to change without notice\P}{\fSolid Edge ISO|b0||i0||c0|p34;\C7;\H2.;\W1.;\P}{\fSolid Edge ISO|b0||i0||c0|p34;\C7;\H2.;\W1.;
  1
The information given herein has been carefully checked and is believed to be correct. REGO-FIX,\P}{\fSolid Edge ISO|b0||i0||c0|p34;\C7;\H2.;\W1.;however, assumes no responsibility or liability for any errors, inaccuracies or omissions that may appea
  1
r\P}{\fSolid Edge ISO|b0||i0||c0|p34;\C7;\H2.;\W1.;in this drawing\P}{\fSolid Edge ISO|b0||i0||c0|p34;\C7;\H2.;\W1.;\P}{\fSolid Edge ISO|b0||i0||c0|p34;\C7;\H2.;\W1.;This document is subject to copyright laws. No part of this document may be reproduc
  1
ed or transmitted\P}{\fSolid Edge ISO|b0||i0||c0|p34;\C7;\H2.;\W1.;in any form or any means, electronic or mechanic, for any purpose, without the express written permission\P}{\fSolid Edge ISO|b0||i0||c0|p34;\C7;\H2.;\W1.;of REGO-FIX\P}{\fSolid Edge 
  1
ISO|b0||i0||c0|p34;\C7;\H1.5;\W1.;\P}
  0
XRECORD
  5
24B
102
{ACAD_REACTORS
330
24A
102
}
330
24A
100
AcDbXrecord
280
     1
 40
2697483.0
  1
\pxsm1.;{\fVectora Com 45 Light|b0||i0||c0|p34;\C7;\H3.5;\W1.;Type :\P}{\fVectora Com 45 Light|b0||i0||c0|p34;\C7;\H3.5;\W1.;Part No. :\P}{\fVectora Com 45 Light|b0||i0||c0|p34;\C7;\H3.5;\W1.;Date : \P}{\fVectora Com 45 Light|b0||i0||c0|p34;\C7;\H3.5
  1
;\W1.;Scale :}
  0
LAYOUT
  5
1E
102
{ACAD_REACTORS
330
1A
102
}
330
1A
100
AcDbPlotSettings
  1

  2
none_device
  4

  6

 40
0.0
 41
0.0
 42
0.0
 43
0.0
 44
0.0
 45
0.0
 46
0.0
 47
0.0
 48
0.0
 49
0.0
140
0.0
141
0.0
142
1.0
143
1.0
 70
   688
 72
     0
 73
     0
 74
     5
  7

 75
    16
147
1.0
148
0.0
149
0.0
100
AcDbLayout
  1
Layout1
 70
     1
 71
     1
 10
0.0
 20
0.0
 11
297.0
 21
210.0
 12
0.0
 22
0.0
 32
0.0
 14
0.0
 24
0.0
 34
0.0
 15
297.0
 25
210.0
 35
0.0
146
0.0
 13
0.0
 23
0.0
 33
0.0
 16
1.0
 26
0.0
 36
0.0
 17
0.0
 27
1.0
 37
0.0
 76
     0
330
1B
  0
LAYOUT
  5
22
102
{ACAD_REACTORS
330
1A
102
}
330
1A
100
AcDbPlotSettings
  1

  2
none_device
  4

  6

 40
0.0
 41
0.0
 42
0.0
 43
0.0
 44
0.0
 45
0.0
 46
0.0
 47
0.0
 48
0.0
 49
0.0
140
0.0
141
0.0
142
1.0
143
1.0
 70
  1712
 72
     0
 73
     0
 74
     0
  7

 75
     0
147
1.0
148
0.0
149
0.0
100
AcDbLayout
  1
Model
 70
     1
 71
     0
 10
0.0
 20
0.0
 11
297.0
 21
210.0
 12
0.0
 22
0.0
 32
0.0
 14
0.0
 24
0.0
 34
0.0
 15
297.0
 25
210.0
 35
0.0
146
0.0
 13
0.0
 23
0.0
 33
0.0
 16
1.0
 26
0.0
 36
0.0
 17
0.0
 27
1.0
 37
0.0
 76
     0
330
1F
331
29
  0
MATERIAL
  5
3D
102
{ACAD_REACTORS
330
3B
102
}
102
{ACAD_XDICTIONARY
360
26E
102
}
330
3B
100
AcDbMaterial
  1
ByBlock
  0
MATERIAL
  5
3C
102
{ACAD_REACTORS
330
3B
102
}
102
{ACAD_XDICTIONARY
360
26C
102
}
330
3B
100
AcDbMaterial
  1
ByLayer
  0
MATERIAL
  5
3E
102
{ACAD_REACTORS
330
3B
102
}
102
{ACAD_XDICTIONARY
360
270
102
}
330
3B
100
AcDbMaterial
  1
Global
  0
MLINESTYLE
  5
18
102
{ACAD_REACTORS
330
17
102
}
330
17
100
AcDbMlineStyle
  2
Standard
 70
     0
  3

 62
   256
 51
90.0
 52
90.0
 71
     2
 49
0.5
 62
   256
  6
BYLAYER
 49
-0.5
 62
   256
  6
BYLAYER
  0
ACDBPLACEHOLDER
  5
F
102
{ACAD_REACTORS
330
E
102
}
330
E
  0
VISUALSTYLE
  5
2F
102
{ACAD_REACTORS
330
2A
102
}
102
{ACAD_XDICTIONARY
360
254
102
}
330
2A
100
AcDbVisualStyle
  2
2dWireframe
 70
     4
 71
     0
 72
     2
 73
     0
 90
        0
 40
-0.6
 41
-30.0
 62
     5
 63
     7
 74
     1
 91
        4
 64
     7
 65
   257
 75
     1
175
     1
 42
1.0
 92
        0
 66
   257
 43
1.0
 76
     1
 77
     6
 78
     2
 67
     7
 79
     5
170
     0
171
     0
290
     0
174
     0
 93
        1
 44
0.0
173
     0
291
     0
 45
0.0
1001
ACAD
1000
AcDbSavedByObjectVersion
1070
     0
  0
VISUALSTYLE
  5
31
102
{ACAD_REACTORS
330
2A
102
}
102
{ACAD_XDICTIONARY
360
258
102
}
330
2A
100
AcDbVisualStyle
  2
3D Hidden
 70
     6
 71
     1
 72
     2
 73
     2
 90
        0
 40
-0.6
 41
-30.0
 62
     5
 63
     7
 74
     2
 91
        2
 64
     7
 65
   257
 75
     2
175
     1
 42
40.0
 92
        0
 66
   257
 43
1.0
 76
     1
 77
     6
 78
     2
 67
     7
 79
     3
170
     0
171
     0
290
     0
174
     0
 93
        1
 44
0.0
173
     0
291
     0
 45
0.0
1001
ACAD
1000
AcDbSavedByObjectVersion
1070
     0
  0
VISUALSTYLE
  5
30
102
{ACAD_REACTORS
330
2A
102
}
102
{ACAD_XDICTIONARY
360
256
102
}
330
2A
100
AcDbVisualStyle
  2
3dWireframe
 70
     5
 71
     0
 72
     2
 73
     0
 90
        0
 40
-0.6
 41
-30.0
 62
     5
 63
     7
 74
     1
 91
        4
 64
     7
 65
   257
 75
     1
175
     1
 42
1.0
 92
        0
 66
   257
 43
1.0
 76
     1
 77
     6
 78
     2
 67
     7
 79
     5
170
     0
171
     0
290
     0
174
     0
 93
        1
 44
0.0
173
     0
291
     0
 45
0.0
1001
ACAD
1000
AcDbSavedByObjectVersion
1070
     0
  0
VISUALSTYLE
  5
32
102
{ACAD_REACTORS
330
2A
102
}
102
{ACAD_XDICTIONARY
360
25A
102
}
330
2A
100
AcDbVisualStyle
  2
Basic
 70
     7
 71
     1
 72
     0
 73
     1
 90
        0
 40
-0.6
 41
-30.0
 62
     5
 63
     7
 74
     0
 91
        4
 64
     7
 65
   257
 75
     1
175
     1
 42
1.0
 92
        8
 66
     7
 43
1.0
 76
     1
 77
     6
 78
     2
 67
     7
 79
     5
170
     0
171
     0
290
     0
174
     0
 93
        1
 44
0.0
173
     0
291
     1
 45
0.0
1001
ACAD
1000
AcDbSavedByObjectVersion
1070
     0
  0
VISUALSTYLE
  5
36
102
{ACAD_REACTORS
330
2A
102
}
102
{ACAD_XDICTIONARY
360
262
102
}
330
2A
100
AcDbVisualStyle
  2
Brighten
 70
    12
 71
     2
 72
     2
 73
     0
 90
        0
 40
-0.6
 41
-30.0
 62
     5
 63
     7
 74
     1
 91
        4
 64
     7
 65
   257
 75
     1
175
     1
 42
1.0
 92
        8
 66
     7
 43
1.0
 76
     1
 77
     6
 78
     2
 67
     7
 79
     5
170
     0
171
     0
290
     0
174
     0
 93
        1
 44
50.0
173
     0
291
     1
 45
0.0
1001
ACAD
1000
AcDbSavedByObjectVersion
1070
     0
  0
VISUALSTYLE
  5
3A
102
{ACAD_REACTORS
330
2A
102
}
102
{ACAD_XDICTIONARY
360
26A
102
}
330
2A
100
AcDbVisualStyle
  2
ColorChange
 70
    16
 71
     2
 72
     2
 73
     3
 90
        0
 40
-0.6
 41
-30.0
 62
     5
 63
     8
 74
     1
 91
        4
 64
     7
 65
   257
 75
     1
175
     1
 42
1.0
 92
        8
 66
     8
 43
1.0
 76
     1
 77
     6
 78
     2
 67
     7
 79
     5
170
     0
171
     0
290
     0
174
     0
 93
        1
 44
0.0
173
     0
291
     1
 45
0.0
1001
ACAD
1000
AcDbSavedByObjectVersion
1070
     0
  0
VISUALSTYLE
  5
34
102
{ACAD_REACTORS
330
2A
102
}
102
{ACAD_XDICTIONARY
360
25E
102
}
330
2A
100
AcDbVisualStyle
  2
Conceptual
 70
     9
 71
     3
 72
     2
 73
     0
 90
        0
 40
-0.6
 41
-30.0
 62
     5
 63
     7
 74
     2
 91
        2
 64
     7
 65
   257
 75
     1
175
     1
 42
40.0
 92
        8
 66
     7
 43
1.0
 76
     1
 77
     6
 78
     2
 67
     7
 79
     3
170
     0
171
     0
290
     0
174
     0
 93
        1
 44
0.0
173
     0
291
     0
 45
0.0
1001
ACAD
1000
AcDbSavedByObjectVersion
1070
     0
  0
VISUALSTYLE
  5
35
102
{ACAD_REACTORS
330
2A
102
}
102
{ACAD_XDICTIONARY
360
260
102
}
330
2A
100
AcDbVisualStyle
  2
Dim
 70
    11
 71
     2
 72
     2
 73
     0
 90
        0
 40
-0.6
 41
-30.0
 62
     5
 63
     7
 74
     1
 91
        4
 64
     7
 65
   257
 75
     1
175
     1
 42
1.0
 92
        8
 66
     7
 43
1.0
 76
     1
 77
     6
 78
     2
 67
     7
 79
     5
170
     0
171
     0
290
     0
174
     0
 93
        1
 44
-50.0
173
     0
291
     1
 45
0.0
1001
ACAD
1000
AcDbSavedByObjectVersion
1070
     0
  0
VISUALSTYLE
  5
39
102
{ACAD_REACTORS
330
2A
102
}
102
{ACAD_XDICTIONARY
360
268
102
}
330
2A
100
AcDbVisualStyle
  2
Facepattern
 70
    15
 71
     2
 72
     2
 73
     0
 90
        0
 40
-0.6
 41
-30.0
 62
     5
 63
     7
 74
     1
 91
        4
 64
     7
 65
   257
 75
     1
175
     1
 42
1.0
 92
        8
 66
     7
 43
1.0
 76
     1
 77
     6
 78
     2
 67
     7
 79
     5
170
     0
171
     0
290
     0
174
     0
 93
        1
 44
0.0
173
     0
291
     1
 45
0.0
1001
ACAD
1000
AcDbSavedByObjectVersion
1070
     0
  0
VISUALSTYLE
  5
2B
102
{ACAD_REACTORS
330
2A
102
}
102
{ACAD_XDICTIONARY
360
24C
102
}
330
2A
100
AcDbVisualStyle
  2
Flat
 70
     0
 71
     2
 72
     1
 73
     1
 90
        2
 40
-0.6
 41
30.0
 62
     5
 63
     7
 74
     0
 91
        4
 64
     7
 65
   257
 75
     1
175
     1
 42
1.0
 92
        8
 66
     7
 43
1.0
 76
     1
 77
     6
 78
     2
 67
     7
 79
     5
170
     0
171
     0
290
     0
174
     0
 93
       13
 44
0.0
173
     0
291
     1
 45
0.0
1001
ACAD
1000
AcDbSavedByObjectVersion
1070
     0
  0
VISUALSTYLE
  5
2C
102
{ACAD_REACTORS
330
2A
102
}
102
{ACAD_XDICTIONARY
360
24E
102
}
330
2A
100
AcDbVisualStyle
  2
FlatWithEdges
 70
     1
 71
     2
 72
     1
 73
     1
 90
        2
 40
-0.6
 41
30.0
 62
     5
 63
     7
 74
     1
 91
        4
 64
     7
 65
   257
 75
     1
175
     1
 42
1.0
 92
        0
 66
   257
 43
1.0
 76
     1
 77
     6
 78
     2
 67
     7
 79
     5
170
     0
171
     0
290
     0
174
     0
 93
       13
 44
0.0
173
     0
291
     1
 45
0.0
1001
ACAD
1000
AcDbSavedByObjectVersion
1070
     0
  0
VISUALSTYLE
  5
2D
102
{ACAD_REACTORS
330
2A
102
}
102
{ACAD_XDICTIONARY
360
250
102
}
330
2A
100
AcDbVisualStyle
  2
Gouraud
 70
     2
 71
     2
 72
     2
 73
     1
 90
        2
 40
-0.6
 41
30.0
 62
     5
 63
     7
 74
     0
 91
        4
 64
     7
 65
   257
 75
     1
175
     1
 42
1.0
 92
        0
 66
     7
 43
1.0
 76
     1
 77
     6
 78
     2
 67
     7
 79
     5
170
     0
171
     0
290
     0
174
     0
 93
       13
 44
0.0
173
     0
291
     1
 45
0.0
1001
ACAD
1000
AcDbSavedByObjectVersion
1070
     0
  0
VISUALSTYLE
  5
2E
102
{ACAD_REACTORS
330
2A
102
}
102
{ACAD_XDICTIONARY
360
252
102
}
330
2A
100
AcDbVisualStyle
  2
GouraudWithEdges
 70
     3
 71
     2
 72
     2
 73
     1
 90
        2
 40
-0.6
 41
30.0
 62
     5
 63
     7
 74
     1
 91
        4
 64
     7
 65
   257
 75
     1
175
     1
 42
1.0
 92
        0
 66
   257
 43
1.0
 76
     1
 77
     6
 78
     2
 67
     7
 79
     5
170
     0
171
     0
290
     0
174
     0
 93
       13
 44
0.0
173
     0
291
     1
 45
0.0
1001
ACAD
1000
AcDbSavedByObjectVersion
1070
     0
  0
VISUALSTYLE
  5
38
102
{ACAD_REACTORS
330
2A
102
}
102
{ACAD_XDICTIONARY
360
266
102
}
330
2A
100
AcDbVisualStyle
  2
Linepattern
 70
    14
 71
     2
 72
     2
 73
     0
 90
        0
 40
-0.6
 41
-30.0
 62
     5
 63
     7
 74
     1
 91
        4
 64
     7
 65
   257
 75
     7
175
     7
 42
1.0
 92
        8
 66
     7
 43
1.0
 76
     1
 77
     6
 78
     2
 67
     7
 79
     5
170
     0
171
     0
290
     0
174
     0
 93
        1
 44
0.0
173
     0
291
     1
 45
0.0
1001
ACAD
1000
AcDbSavedByObjectVersion
1070
     0
  0
VISUALSTYLE
  5
33
102
{ACAD_REACTORS
330
2A
102
}
102
{ACAD_XDICTIONARY
360
25C
102
}
330
2A
100
AcDbVisualStyle
  2
Realistic
 70
     8
 71
     2
 72
     2
 73
     0
 90
        0
 40
-0.6
 41
-30.0
 62
     5
 63
     7
 74
     1
 91
        0
 64
     7
 65
   257
 75
     1
175
     1
 42
1.0
 92
        8
 66
     8
 43
1.0
 76
     1
 77
     6
 78
     2
 67
     7
 79
     5
170
     0
171
     0
290
     0
174
     0
 93
       13
 44
0.0
173
     0
291
     0
 45
0.0
1001
ACAD
1000
AcDbSavedByObjectVersion
1070
     0
  0
VISUALSTYLE
  5
37
102
{ACAD_REACTORS
330
2A
102
}
102
{ACAD_XDICTIONARY
360
264
102
}
330
2A
100
AcDbVisualStyle
  2
Thicken
 70
    13
 71
     2
 72
     2
 73
     0
 90
        0
 40
-0.6
 41
-30.0
 62
     5
 63
     7
 74
     1
 91
        4
 64
     7
 65
   257
 75
     1
175
     1
 42
1.0
 92
       12
 66
     7
 43
1.0
 76
     1
 77
     6
 78
     2
 67
     7
 79
     5
170
     0
171
     0
290
     0
174
     0
 93
        1
 44
0.0
173
     0
291
     1
 45
0.0
1001
ACAD
1000
AcDbSavedByObjectVersion
1070
     0
  0
DICTIONARYVAR
  5
244
102
{ACAD_REACTORS
330
23F
102
}
330
23F
100
DictionaryVariables
280
     0
  1
2
  0
DICTIONARYVAR
  5
245
102
{ACAD_REACTORS
330
23F
102
}
330
23F
100
DictionaryVariables
280
     0
  1
1
  0
DICTIONARYVAR
  5
243
102
{ACAD_REACTORS
330
23F
102
}
330
23F
100
DictionaryVariables
280
     0
  1
80.000000
  0
DICTIONARYVAR
  5
242
102
{ACAD_REACTORS
330
23F
102
}
330
23F
100
DictionaryVariables
280
     0
  1
5.000000
  0
DICTIONARY
  5
26E
330
3D
100
AcDbDictionary
280
     1
281
     1
  3
ACAD_XREC_ROUNDTRIP
360
26F
  0
DICTIONARY
  5
26C
330
3C
100
AcDbDictionary
280
     1
281
     1
  3
ACAD_XREC_ROUNDTRIP
360
26D
  0
DICTIONARY
  5
270
330
3E
100
AcDbDictionary
280
     1
281
     1
  3
ACAD_XREC_ROUNDTRIP
360
271
  0
DICTIONARY
  5
254
330
2F
100
AcDbDictionary
280
     1
281
     1
  3
ACAD_XREC_ROUNDTRIP
360
255
  0
DICTIONARY
  5
258
330
31
100
AcDbDictionary
280
     1
281
     1
  3
ACAD_XREC_ROUNDTRIP
360
259
  0
DICTIONARY
  5
256
330
30
100
AcDbDictionary
280
     1
281
     1
  3
ACAD_XREC_ROUNDTRIP
360
257
  0
DICTIONARY
  5
25A
330
32
100
AcDbDictionary
280
     1
281
     1
  3
ACAD_XREC_ROUNDTRIP
360
25B
  0
DICTIONARY
  5
262
330
36
100
AcDbDictionary
280
     1
281
     1
  3
ACAD_XREC_ROUNDTRIP
360
263
  0
DICTIONARY
  5
26A
330
3A
100
AcDbDictionary
280
     1
281
     1
  3
ACAD_XREC_ROUNDTRIP
360
26B
  0
DICTIONARY
  5
25E
330
34
100
AcDbDictionary
280
     1
281
     1
  3
ACAD_XREC_ROUNDTRIP
360
25F
  0
DICTIONARY
  5
260
330
35
100
AcDbDictionary
280
     1
281
     1
  3
ACAD_XREC_ROUNDTRIP
360
261
  0
DICTIONARY
  5
268
330
39
100
AcDbDictionary
280
     1
281
     1
  3
ACAD_XREC_ROUNDTRIP
360
269
  0
DICTIONARY
  5
24C
330
2B
100
AcDbDictionary
280
     1
281
     1
  3
ACAD_XREC_ROUNDTRIP
360
24D
  0
DICTIONARY
  5
24E
330
2C
100
AcDbDictionary
280
     1
281
     1
  3
ACAD_XREC_ROUNDTRIP
360
24F
  0
DICTIONARY
  5
250
330
2D
100
AcDbDictionary
280
     1
281
     1
  3
ACAD_XREC_ROUNDTRIP
360
251
  0
DICTIONARY
  5
252
330
2E
100
AcDbDictionary
280
     1
281
     1
  3
ACAD_XREC_ROUNDTRIP
360
253
  0
DICTIONARY
  5
266
330
38
100
AcDbDictionary
280
     1
281
     1
  3
ACAD_XREC_ROUNDTRIP
360
267
  0
DICTIONARY
  5
25C
330
33
100
AcDbDictionary
280
     1
281
     1
  3
ACAD_XREC_ROUNDTRIP
360
25D
  0
DICTIONARY
  5
264
330
37
100
AcDbDictionary
280
     1
281
     1
  3
ACAD_XREC_ROUNDTRIP
360
265
  0
XRECORD
  5
26F
102
{ACAD_REACTORS
330
26E
102
}
330
26E
100
AcDbXrecord
280
     1
102
MATERIAL
148
0.0
149
0.0
149
0.0
 93
        0
 94
      127
282
     0
 72
     1
 77
     1
171
     1
175
     1
179
     1
273
     0
  0
XRECORD
  5
26D
102
{ACAD_REACTORS
330
26C
102
}
330
26C
100
AcDbXrecord
280
     1
102
MATERIAL
148
0.0
149
0.0
149
0.0
 93
        0
 94
      127
282
     0
 72
     1
 77
     1
171
     1
175
     1
179
     1
273
     0
  0
XRECORD
  5
271
102
{ACAD_REACTORS
330
270
102
}
330
270
100
AcDbXrecord
280
     1
102
MATERIAL
148
0.0
149
0.0
149
0.0
 93
        0
 94
      127
282
     0
 72
     1
 77
     1
171
     1
175
     1
179
     1
273
     0
  0
XRECORD
  5
255
102
{ACAD_REACTORS
330
254
102
}
330
254
100
AcDbXrecord
280
     1
102
RTVSPropertyOp0
 70
     1
102
RTVSPropertyOp1
 70
     1
102
RTVSPropertyOp2
 70
     1
102
RTVSPropertyOp3
 70
     1
102
RTVSPropertyOp4
 70
     1
102
RTVSPropertyOp5
 70
     1
102
RTVSPropertyOp6
 70
     1
102
RTVSPropertyOp7
 70
     1
102
RTVSPropertyOp8
 70
     1
102
RTVSPropertyOp9
 70
     1
102
RTVSPropertyOp10
 70
     1
102
RTVSPropertyOp11
 70
     1
102
RTVSPropertyOp12
 70
     1
102
RTVSPropertyOp13
 70
     1
102
RTVSPropertyOp14
 70
     1
102
RTVSPropertyOp15
 70
     1
102
RTVSPropertyOp16
 70
     1
102
RTVSPropertyOp17
 70
     1
102
RTVSPropertyOp18
 70
     1
102
RTVSPropertyOp19
 70
     1
102
RTVSPropertyOp20
 70
     1
102
RTVSPropertyOp21
 70
     1
102
RTVSPropertyOp22
 70
     1
102
RTVSPropertyOp23
 70
     1
102
RTVSPropertyOp24
 70
     1
102
RTVSPropertyOp25
 70
     1
102
RTVSPropertyOp26
 70
     1
102
RTVSPropertyOp27
 70
     1
102
RTVSPropertyOp28
 70
     1
102
RTVSPropertyOp29
 70
     1
102
RTVSPropertyOp30
 70
     1
102
RTVSPropertyOp31
 70
     1
102
RTVSPropertyOp32
 70
     1
  0
XRECORD
  5
259
102
{ACAD_REACTORS
330
258
102
}
330
258
100
AcDbXrecord
280
     1
102
RTVSPropertyOp0
 70
     1
102
RTVSPropertyOp1
 70
     1
102
RTVSPropertyOp2
 70
     1
102
RTVSPropertyOp3
 70
     1
102
RTVSPropertyOp4
 70
     1
102
RTVSPropertyOp5
 70
     1
102
RTVSPropertyOp6
 70
     1
102
RTVSPropertyOp7
 70
     1
102
RTVSPropertyOp8
 70
     1
102
RTVSPropertyOp9
 70
     1
102
RTVSPropertyOp10
 70
     1
102
RTVSPropertyOp11
 70
     1
102
RTVSPropertyOp12
 70
     1
102
RTVSPropertyOp13
 70
     1
102
RTVSPropertyOp14
 70
     1
102
RTVSPropertyOp15
 70
     1
102
RTVSPropertyOp16
 70
     1
102
RTVSPropertyOp17
 70
     1
102
RTVSPropertyOp18
 70
     1
102
RTVSPropertyOp19
 70
     1
102
RTVSPropertyOp20
 70
     1
102
RTVSPropertyOp21
 70
     1
102
RTVSPropertyOp22
 70
     1
102
RTVSPropertyOp23
 70
     1
102
RTVSPropertyOp24
 70
     1
102
RTVSPropertyOp25
 70
     1
102
RTVSPropertyOp26
 70
     1
102
RTVSPropertyOp27
 70
     1
102
RTVSPropertyOp28
 70
     1
102
RTVSPropertyOp29
 70
     1
102
RTVSPropertyOp30
 70
     1
102
RTVSPropertyOp31
 70
     1
102
RTVSPropertyOp32
 70
     1
  0
XRECORD
  5
257
102
{ACAD_REACTORS
330
256
102
}
330
256
100
AcDbXrecord
280
     1
102
RTVSPropertyOp0
 70
     1
102
RTVSPropertyOp1
 70
     1
102
RTVSPropertyOp2
 70
     1
102
RTVSPropertyOp3
 70
     1
102
RTVSPropertyOp4
 70
     1
102
RTVSPropertyOp5
 70
     1
102
RTVSPropertyOp6
 70
     1
102
RTVSPropertyOp7
 70
     1
102
RTVSPropertyOp8
 70
     1
102
RTVSPropertyOp9
 70
     1
102
RTVSPropertyOp10
 70
     1
102
RTVSPropertyOp11
 70
     1
102
RTVSPropertyOp12
 70
     1
102
RTVSPropertyOp13
 70
     1
102
RTVSPropertyOp14
 70
     1
102
RTVSPropertyOp15
 70
     1
102
RTVSPropertyOp16
 70
     1
102
RTVSPropertyOp17
 70
     1
102
RTVSPropertyOp18
 70
     1
102
RTVSPropertyOp19
 70
     1
102
RTVSPropertyOp20
 70
     1
102
RTVSPropertyOp21
 70
     1
102
RTVSPropertyOp22
 70
     1
102
RTVSPropertyOp23
 70
     1
102
RTVSPropertyOp24
 70
     1
102
RTVSPropertyOp25
 70
     1
102
RTVSPropertyOp26
 70
     1
102
RTVSPropertyOp27
 70
     1
102
RTVSPropertyOp28
 70
     1
102
RTVSPropertyOp29
 70
     1
102
RTVSPropertyOp30
 70
     1
102
RTVSPropertyOp31
 70
     1
102
RTVSPropertyOp32
 70
     1
  0
XRECORD
  5
25B
102
{ACAD_REACTORS
330
25A
102
}
330
25A
100
AcDbXrecord
280
     1
102
RTVSPropertyOp0
 70
     1
102
RTVSPropertyOp1
 70
     1
102
RTVSPropertyOp2
 70
     1
102
RTVSPropertyOp3
 70
     1
102
RTVSPropertyOp4
 70
     1
102
RTVSPropertyOp5
 70
     1
102
RTVSPropertyOp6
 70
     1
102
RTVSPropertyOp7
 70
     1
102
RTVSPropertyOp8
 70
     1
102
RTVSPropertyOp9
 70
     1
102
RTVSPropertyOp10
 70
     1
102
RTVSPropertyOp11
 70
     1
102
RTVSPropertyOp12
 70
     1
102
RTVSPropertyOp13
 70
     1
102
RTVSPropertyOp14
 70
     1
102
RTVSPropertyOp15
 70
     1
102
RTVSPropertyOp16
 70
     1
102
RTVSPropertyOp17
 70
     1
102
RTVSPropertyOp18
 70
     1
102
RTVSPropertyOp19
 70
     1
102
RTVSPropertyOp20
 70
     1
102
RTVSPropertyOp21
 70
     1
102
RTVSPropertyOp22
 70
     1
102
RTVSPropertyOp23
 70
     1
102
RTVSPropertyOp24
 70
     1
102
RTVSPropertyOp25
 70
     1
102
RTVSPropertyOp26
 70
     1
102
RTVSPropertyOp27
 70
     1
102
RTVSPropertyOp28
 70
     1
102
RTVSPropertyOp29
 70
     1
102
RTVSPropertyOp30
 70
     1
102
RTVSPropertyOp31
 70
     1
102
RTVSPropertyOp32
 70
     1
  0
XRECORD
  5
263
102
{ACAD_REACTORS
330
262
102
}
330
262
100
AcDbXrecord
280
     1
102
RTVSPropertyOp0
 70
     1
102
RTVSPropertyOp1
 70
     1
102
RTVSPropertyOp2
 70
     1
102
RTVSPropertyOp3
 70
     1
102
RTVSPropertyOp4
 70
     1
102
RTVSPropertyOp5
 70
     1
102
RTVSPropertyOp6
 70
     1
102
RTVSPropertyOp7
 70
     1
102
RTVSPropertyOp8
 70
     1
102
RTVSPropertyOp9
 70
     1
102
RTVSPropertyOp10
 70
     1
102
RTVSPropertyOp11
 70
     1
102
RTVSPropertyOp12
 70
     1
102
RTVSPropertyOp13
 70
     1
102
RTVSPropertyOp14
 70
     1
102
RTVSPropertyOp15
 70
     1
102
RTVSPropertyOp16
 70
     1
102
RTVSPropertyOp17
 70
     1
102
RTVSPropertyOp18
 70
     1
102
RTVSPropertyOp19
 70
     1
102
RTVSPropertyOp20
 70
     1
102
RTVSPropertyOp21
 70
     1
102
RTVSPropertyOp22
 70
     1
102
RTVSPropertyOp23
 70
     1
102
RTVSPropertyOp24
 70
     1
102
RTVSPropertyOp25
 70
     1
102
RTVSPropertyOp26
 70
     1
102
RTVSPropertyOp27
 70
     1
102
RTVSPropertyOp28
 70
     1
102
RTVSPropertyOp29
 70
     1
102
RTVSPropertyOp30
 70
     1
102
RTVSPropertyOp31
 70
     1
102
RTVSPropertyOp32
 70
     1
  0
XRECORD
  5
26B
102
{ACAD_REACTORS
330
26A
102
}
330
26A
100
AcDbXrecord
280
     1
102
RTVSPropertyOp0
 70
     1
102
RTVSPropertyOp1
 70
     1
102
RTVSPropertyOp2
 70
     1
102
RTVSPropertyOp3
 70
     1
102
RTVSPropertyOp4
 70
     1
102
RTVSPropertyOp5
 70
     1
102
RTVSPropertyOp6
 70
     1
102
RTVSPropertyOp7
 70
     1
102
RTVSPropertyOp8
 70
     1
102
RTVSPropertyOp9
 70
     1
102
RTVSPropertyOp10
 70
     1
102
RTVSPropertyOp11
 70
     1
102
RTVSPropertyOp12
 70
     1
102
RTVSPropertyOp13
 70
     1
102
RTVSPropertyOp14
 70
     1
102
RTVSPropertyOp15
 70
     1
102
RTVSPropertyOp16
 70
     1
102
RTVSPropertyOp17
 70
     1
102
RTVSPropertyOp18
 70
     1
102
RTVSPropertyOp19
 70
     1
102
RTVSPropertyOp20
 70
     1
102
RTVSPropertyOp21
 70
     1
102
RTVSPropertyOp22
 70
     1
102
RTVSPropertyOp23
 70
     1
102
RTVSPropertyOp24
 70
     1
102
RTVSPropertyOp25
 70
     1
102
RTVSPropertyOp26
 70
     1
102
RTVSPropertyOp27
 70
     1
102
RTVSPropertyOp28
 70
     1
102
RTVSPropertyOp29
 70
     1
102
RTVSPropertyOp30
 70
     1
102
RTVSPropertyOp31
 70
     1
102
RTVSPropertyOp32
 70
     1
  0
XRECORD
  5
25F
102
{ACAD_REACTORS
330
25E
102
}
330
25E
100
AcDbXrecord
280
     1
102
RTVSPropertyOp0
 70
     1
102
RTVSPropertyOp1
 70
     1
102
RTVSPropertyOp2
 70
     1
102
RTVSPropertyOp3
 70
     1
102
RTVSPropertyOp4
 70
     1
102
RTVSPropertyOp5
 70
     1
102
RTVSPropertyOp6
 70
     1
102
RTVSPropertyOp7
 70
     1
102
RTVSPropertyOp8
 70
     1
102
RTVSPropertyOp9
 70
     1
102
RTVSPropertyOp10
 70
     1
102
RTVSPropertyOp11
 70
     1
102
RTVSPropertyOp12
 70
     1
102
RTVSPropertyOp13
 70
     1
102
RTVSPropertyOp14
 70
     1
102
RTVSPropertyOp15
 70
     1
102
RTVSPropertyOp16
 70
     1
102
RTVSPropertyOp17
 70
     1
102
RTVSPropertyOp18
 70
     1
102
RTVSPropertyOp19
 70
     1
102
RTVSPropertyOp20
 70
     1
102
RTVSPropertyOp21
 70
     1
102
RTVSPropertyOp22
 70
     1
102
RTVSPropertyOp23
 70
     1
102
RTVSPropertyOp24
 70
     1
102
RTVSPropertyOp25
 70
     1
102
RTVSPropertyOp26
 70
     1
102
RTVSPropertyOp27
 70
     1
102
RTVSPropertyOp28
 70
     1
102
RTVSPropertyOp29
 70
     1
102
RTVSPropertyOp30
 70
     1
102
RTVSPropertyOp31
 70
     1
102
RTVSPropertyOp32
 70
     1
  0
XRECORD
  5
261
102
{ACAD_REACTORS
330
260
102
}
330
260
100
AcDbXrecord
280
     1
102
RTVSPropertyOp0
 70
     1
102
RTVSPropertyOp1
 70
     1
102
RTVSPropertyOp2
 70
     1
102
RTVSPropertyOp3
 70
     1
102
RTVSPropertyOp4
 70
     1
102
RTVSPropertyOp5
 70
     1
102
RTVSPropertyOp6
 70
     1
102
RTVSPropertyOp7
 70
     1
102
RTVSPropertyOp8
 70
     1
102
RTVSPropertyOp9
 70
     1
102
RTVSPropertyOp10
 70
     1
102
RTVSPropertyOp11
 70
     1
102
RTVSPropertyOp12
 70
     1
102
RTVSPropertyOp13
 70
     1
102
RTVSPropertyOp14
 70
     1
102
RTVSPropertyOp15
 70
     1
102
RTVSPropertyOp16
 70
     1
102
RTVSPropertyOp17
 70
     1
102
RTVSPropertyOp18
 70
     1
102
RTVSPropertyOp19
 70
     1
102
RTVSPropertyOp20
 70
     1
102
RTVSPropertyOp21
 70
     1
102
RTVSPropertyOp22
 70
     1
102
RTVSPropertyOp23
 70
     1
102
RTVSPropertyOp24
 70
     1
102
RTVSPropertyOp25
 70
     1
102
RTVSPropertyOp26
 70
     1
102
RTVSPropertyOp27
 70
     1
102
RTVSPropertyOp28
 70
     1
102
RTVSPropertyOp29
 70
     1
102
RTVSPropertyOp30
 70
     1
102
RTVSPropertyOp31
 70
     1
102
RTVSPropertyOp32
 70
     1
  0
XRECORD
  5
269
102
{ACAD_REACTORS
330
268
102
}
330
268
100
AcDbXrecord
280
     1
102
RTVSPropertyOp0
 70
     1
102
RTVSPropertyOp1
 70
     1
102
RTVSPropertyOp2
 70
     1
102
RTVSPropertyOp3
 70
     1
102
RTVSPropertyOp4
 70
     1
102
RTVSPropertyOp5
 70
     1
102
RTVSPropertyOp6
 70
     1
102
RTVSPropertyOp7
 70
     1
102
RTVSPropertyOp8
 70
     1
102
RTVSPropertyOp9
 70
     1
102
RTVSPropertyOp10
 70
     1
102
RTVSPropertyOp11
 70
     1
102
RTVSPropertyOp12
 70
     1
102
RTVSPropertyOp13
 70
     1
102
RTVSPropertyOp14
 70
     1
102
RTVSPropertyOp15
 70
     1
102
RTVSPropertyOp16
 70
     1
102
RTVSPropertyOp17
 70
     1
102
RTVSPropertyOp18
 70
     1
102
RTVSPropertyOp19
 70
     1
102
RTVSPropertyOp20
 70
     1
102
RTVSPropertyOp21
 70
     1
102
RTVSPropertyOp22
 70
     1
102
RTVSPropertyOp23
 70
     1
102
RTVSPropertyOp24
 70
     1
102
RTVSPropertyOp25
 70
     1
102
RTVSPropertyOp26
 70
     1
102
RTVSPropertyOp27
 70
     1
102
RTVSPropertyOp28
 70
     1
102
RTVSPropertyOp29
 70
     1
102
RTVSPropertyOp30
 70
     1
102
RTVSPropertyOp31
 70
     1
102
RTVSPropertyOp32
 70
     1
  0
XRECORD
  5
24D
102
{ACAD_REACTORS
330
24C
102
}
330
24C
100
AcDbXrecord
280
     1
102
RTVSPropertyOp0
 70
     1
102
RTVSPropertyOp1
 70
     1
102
RTVSPropertyOp2
 70
     1
102
RTVSPropertyOp3
 70
     1
102
RTVSPropertyOp4
 70
     1
102
RTVSPropertyOp5
 70
     1
102
RTVSPropertyOp6
 70
     1
102
RTVSPropertyOp7
 70
     1
102
RTVSPropertyOp8
 70
     1
102
RTVSPropertyOp9
 70
     1
102
RTVSPropertyOp10
 70
     1
102
RTVSPropertyOp11
 70
     1
102
RTVSPropertyOp12
 70
     1
102
RTVSPropertyOp13
 70
     1
102
RTVSPropertyOp14
 70
     1
102
RTVSPropertyOp15
 70
     1
102
RTVSPropertyOp16
 70
     1
102
RTVSPropertyOp17
 70
     1
102
RTVSPropertyOp18
 70
     1
102
RTVSPropertyOp19
 70
     1
102
RTVSPropertyOp20
 70
     1
102
RTVSPropertyOp21
 70
     1
102
RTVSPropertyOp22
 70
     1
102
RTVSPropertyOp23
 70
     1
102
RTVSPropertyOp24
 70
     1
102
RTVSPropertyOp25
 70
     1
102
RTVSPropertyOp26
 70
     1
102
RTVSPropertyOp27
 70
     1
102
RTVSPropertyOp28
 70
     1
102
RTVSPropertyOp29
 70
     1
102
RTVSPropertyOp30
 70
     1
102
RTVSPropertyOp31
 70
     1
102
RTVSPropertyOp32
 70
     1
  0
XRECORD
  5
24F
102
{ACAD_REACTORS
330
24E
102
}
330
24E
100
AcDbXrecord
280
     1
102
RTVSPropertyOp0
 70
     1
102
RTVSPropertyOp1
 70
     1
102
RTVSPropertyOp2
 70
     1
102
RTVSPropertyOp3
 70
     1
102
RTVSPropertyOp4
 70
     1
102
RTVSPropertyOp5
 70
     1
102
RTVSPropertyOp6
 70
     1
102
RTVSPropertyOp7
 70
     1
102
RTVSPropertyOp8
 70
     1
102
RTVSPropertyOp9
 70
     1
102
RTVSPropertyOp10
 70
     1
102
RTVSPropertyOp11
 70
     1
102
RTVSPropertyOp12
 70
     1
102
RTVSPropertyOp13
 70
     1
102
RTVSPropertyOp14
 70
     1
102
RTVSPropertyOp15
 70
     1
102
RTVSPropertyOp16
 70
     1
102
RTVSPropertyOp17
 70
     1
102
RTVSPropertyOp18
 70
     1
102
RTVSPropertyOp19
 70
     1
102
RTVSPropertyOp20
 70
     1
102
RTVSPropertyOp21
 70
     1
102
RTVSPropertyOp22
 70
     1
102
RTVSPropertyOp23
 70
     1
102
RTVSPropertyOp24
 70
     1
102
RTVSPropertyOp25
 70
     1
102
RTVSPropertyOp26
 70
     1
102
RTVSPropertyOp27
 70
     1
102
RTVSPropertyOp28
 70
     1
102
RTVSPropertyOp29
 70
     1
102
RTVSPropertyOp30
 70
     1
102
RTVSPropertyOp31
 70
     1
102
RTVSPropertyOp32
 70
     1
  0
XRECORD
  5
251
102
{ACAD_REACTORS
330
250
102
}
330
250
100
AcDbXrecord
280
     1
102
RTVSPropertyOp0
 70
     1
102
RTVSPropertyOp1
 70
     1
102
RTVSPropertyOp2
 70
     1
102
RTVSPropertyOp3
 70
     1
102
RTVSPropertyOp4
 70
     1
102
RTVSPropertyOp5
 70
     1
102
RTVSPropertyOp6
 70
     1
102
RTVSPropertyOp7
 70
     1
102
RTVSPropertyOp8
 70
     1
102
RTVSPropertyOp9
 70
     1
102
RTVSPropertyOp10
 70
     1
102
RTVSPropertyOp11
 70
     1
102
RTVSPropertyOp12
 70
     1
102
RTVSPropertyOp13
 70
     1
102
RTVSPropertyOp14
 70
     1
102
RTVSPropertyOp15
 70
     1
102
RTVSPropertyOp16
 70
     1
102
RTVSPropertyOp17
 70
     1
102
RTVSPropertyOp18
 70
     1
102
RTVSPropertyOp19
 70
     1
102
RTVSPropertyOp20
 70
     1
102
RTVSPropertyOp21
 70
     1
102
RTVSPropertyOp22
 70
     1
102
RTVSPropertyOp23
 70
     1
102
RTVSPropertyOp24
 70
     1
102
RTVSPropertyOp25
 70
     1
102
RTVSPropertyOp26
 70
     1
102
RTVSPropertyOp27
 70
     1
102
RTVSPropertyOp28
 70
     1
102
RTVSPropertyOp29
 70
     1
102
RTVSPropertyOp30
 70
     1
102
RTVSPropertyOp31
 70
     1
102
RTVSPropertyOp32
 70
     1
  0
XRECORD
  5
253
102
{ACAD_REACTORS
330
252
102
}
330
252
100
AcDbXrecord
280
     1
102
RTVSPropertyOp0
 70
     1
102
RTVSPropertyOp1
 70
     1
102
RTVSPropertyOp2
 70
     1
102
RTVSPropertyOp3
 70
     1
102
RTVSPropertyOp4
 70
     1
102
RTVSPropertyOp5
 70
     1
102
RTVSPropertyOp6
 70
     1
102
RTVSPropertyOp7
 70
     1
102
RTVSPropertyOp8
 70
     1
102
RTVSPropertyOp9
 70
     1
102
RTVSPropertyOp10
 70
     1
102
RTVSPropertyOp11
 70
     1
102
RTVSPropertyOp12
 70
     1
102
RTVSPropertyOp13
 70
     1
102
RTVSPropertyOp14
 70
     1
102
RTVSPropertyOp15
 70
     1
102
RTVSPropertyOp16
 70
     1
102
RTVSPropertyOp17
 70
     1
102
RTVSPropertyOp18
 70
     1
102
RTVSPropertyOp19
 70
     1
102
RTVSPropertyOp20
 70
     1
102
RTVSPropertyOp21
 70
     1
102
RTVSPropertyOp22
 70
     1
102
RTVSPropertyOp23
 70
     1
102
RTVSPropertyOp24
 70
     1
102
RTVSPropertyOp25
 70
     1
102
RTVSPropertyOp26
 70
     1
102
RTVSPropertyOp27
 70
     1
102
RTVSPropertyOp28
 70
     1
102
RTVSPropertyOp29
 70
     1
102
RTVSPropertyOp30
 70
     1
102
RTVSPropertyOp31
 70
     1
102
RTVSPropertyOp32
 70
     1
  0
XRECORD
  5
267
102
{ACAD_REACTORS
330
266
102
}
330
266
100
AcDbXrecord
280
     1
102
RTVSPropertyOp0
 70
     1
102
RTVSPropertyOp1
 70
     1
102
RTVSPropertyOp2
 70
     1
102
RTVSPropertyOp3
 70
     1
102
RTVSPropertyOp4
 70
     1
102
RTVSPropertyOp5
 70
     1
102
RTVSPropertyOp6
 70
     1
102
RTVSPropertyOp7
 70
     1
102
RTVSPropertyOp8
 70
     1
102
RTVSPropertyOp9
 70
     1
102
RTVSPropertyOp10
 70
     1
102
RTVSPropertyOp11
 70
     1
102
RTVSPropertyOp12
 70
     1
102
RTVSPropertyOp13
 70
     1
102
RTVSPropertyOp14
 70
     1
102
RTVSPropertyOp15
 70
     1
102
RTVSPropertyOp16
 70
     1
102
RTVSPropertyOp17
 70
     1
102
RTVSPropertyOp18
 70
     1
102
RTVSPropertyOp19
 70
     1
102
RTVSPropertyOp20
 70
     1
102
RTVSPropertyOp21
 70
     1
102
RTVSPropertyOp22
 70
     1
102
RTVSPropertyOp23
 70
     1
102
RTVSPropertyOp24
 70
     1
102
RTVSPropertyOp25
 70
     1
102
RTVSPropertyOp26
 70
     1
102
RTVSPropertyOp27
 70
     1
102
RTVSPropertyOp28
 70
     1
102
RTVSPropertyOp29
 70
     1
102
RTVSPropertyOp30
 70
     1
102
RTVSPropertyOp31
 70
     1
102
RTVSPropertyOp32
 70
     1
  0
XRECORD
  5
25D
102
{ACAD_REACTORS
330
25C
102
}
330
25C
100
AcDbXrecord
280
     1
102
RTVSPropertyOp0
 70
     1
102
RTVSPropertyOp1
 70
     1
102
RTVSPropertyOp2
 70
     1
102
RTVSPropertyOp3
 70
     1
102
RTVSPropertyOp4
 70
     1
102
RTVSPropertyOp5
 70
     1
102
RTVSPropertyOp6
 70
     1
102
RTVSPropertyOp7
 70
     1
102
RTVSPropertyOp8
 70
     1
102
RTVSPropertyOp9
 70
     1
102
RTVSPropertyOp10
 70
     1
102
RTVSPropertyOp11
 70
     1
102
RTVSPropertyOp12
 70
     1
102
RTVSPropertyOp13
 70
     1
102
RTVSPropertyOp14
 70
     1
102
RTVSPropertyOp15
 70
     1
102
RTVSPropertyOp16
 70
     1
102
RTVSPropertyOp17
 70
     1
102
RTVSPropertyOp18
 70
     1
102
RTVSPropertyOp19
 70
     1
102
RTVSPropertyOp20
 70
     1
102
RTVSPropertyOp21
 70
     1
102
RTVSPropertyOp22
 70
     1
102
RTVSPropertyOp23
 70
     1
102
RTVSPropertyOp24
 70
     1
102
RTVSPropertyOp25
 70
     1
102
RTVSPropertyOp26
 70
     1
102
RTVSPropertyOp27
 70
     1
102
RTVSPropertyOp28
 70
     1
102
RTVSPropertyOp29
 70
     1
102
RTVSPropertyOp30
 70
     1
102
RTVSPropertyOp31
 70
     1
102
RTVSPropertyOp32
 70
     1
  0
XRECORD
  5
265
102
{ACAD_REACTORS
330
264
102
}
330
264
100
AcDbXrecord
280
     1
102
RTVSPropertyOp0
 70
     1
102
RTVSPropertyOp1
 70
     1
102
RTVSPropertyOp2
 70
     1
102
RTVSPropertyOp3
 70
     1
102
RTVSPropertyOp4
 70
     1
102
RTVSPropertyOp5
 70
     1
102
RTVSPropertyOp6
 70
     1
102
RTVSPropertyOp7
 70
     1
102
RTVSPropertyOp8
 70
     1
102
RTVSPropertyOp9
 70
     1
102
RTVSPropertyOp10
 70
     1
102
RTVSPropertyOp11
 70
     1
102
RTVSPropertyOp12
 70
     1
102
RTVSPropertyOp13
 70
     1
102
RTVSPropertyOp14
 70
     1
102
RTVSPropertyOp15
 70
     1
102
RTVSPropertyOp16
 70
     1
102
RTVSPropertyOp17
 70
     1
102
RTVSPropertyOp18
 70
     1
102
RTVSPropertyOp19
 70
     1
102
RTVSPropertyOp20
 70
     1
102
RTVSPropertyOp21
 70
     1
102
RTVSPropertyOp22
 70
     1
102
RTVSPropertyOp23
 70
     1
102
RTVSPropertyOp24
 70
     1
102
RTVSPropertyOp25
 70
     1
102
RTVSPropertyOp26
 70
     1
102
RTVSPropertyOp27
 70
     1
102
RTVSPropertyOp28
 70
     1
102
RTVSPropertyOp29
 70
     1
102
RTVSPropertyOp30
 70
     1
102
RTVSPropertyOp31
 70
     1
102
RTVSPropertyOp32
 70
     1
  0
ENDSEC
  0
EOF
