  0
SECTION
  2
HEADER
  9
$ACADVER
  1
AC1015
  9
$ACADMAINTVER
 70
     6
  9
$DWGCODEPAGE
  3
ANSI_1252
  9
$INSBASE
 10
0.0
 20
0.0
 30
0.0
  9
$EXTMIN
 10
0.0
 20
0.0
 30
0.0
  9
$EXTMAX
 10
297.0
 20
210.0
 30
0.0
  9
$LIMMIN
 10
0.0
 20
0.0
  9
$LIMMAX
 10
297.0
 20
210.0
  9
$ORTHOMODE
 70
     0
  9
$REGENMODE
 70
     1
  9
$FILLMODE
 70
     1
  9
$QTEXTMODE
 70
     0
  9
$MIRRTEXT
 70
     1
  9
$LTSCALE
 40
1.0
  9
$ATTMODE
 70
     1
  9
$TEXTSIZE
 40
2.5
  9
$TRACEWID
 40
1.0
  9
$TEXTSTYLE
  7
Standard
  9
$CLAYER
  8
0
  9
$CELTYPE
  6
ByLayer
  9
$CECOLOR
 62
   256
  9
$CELTSCALE
 40
1.0
  9
$DISPSILH
 70
     0
  9
$DIMSCALE
 40
1.0
  9
$DIMASZ
 40
2.5
  9
$DIMEXO
 40
0.625
  9
$DIMDLI
 40
3.75
  9
$DIMRND
 40
0.0
  9
$DIMDLE
 40
0.0
  9
$DIMEXE
 40
1.25
  9
$DIMTP
 40
0.0
  9
$DIMTM
 40
0.0
  9
$DIMTXT
 40
2.5
  9
$DIMCEN
 40
2.5
  9
$DIMTSZ
 40
0.0
  9
$DIMTOL
 70
     0
  9
$DIMLIM
 70
     0
  9
$DIMTIH
 70
     0
  9
$DIMTOH
 70
     0
  9
$DIMSE1
 70
     0
  9
$DIMSE2
 70
     0
  9
$DIMTAD
 70
     1
  9
$DIMZIN
 70
     8
  9
$DIMBLK
  1

  9
$DIMASO
 70
     1
  9
$DIMSHO
 70
     1
  9
$DIMPOST
  1

  9
$DIMAPOST
  1

  9
$DIMALT
 70
     0
  9
$DIMALTD
 70
     3
  9
$DIMALTF
 40
0.0393700787
  9
$DIMLFAC
 40
1.0
  9
$DIMTOFL
 70
     1
  9
$DIMTVP
 40
0.0
  9
$DIMTIX
 70
     0
  9
$DIMSOXD
 70
     0
  9
$DIMSAH
 70
     0
  9
$DIMBLK1
  1

  9
$DIMBLK2
  1

  9
$DIMSTYLE
  2
ISO-25
  9
$DIMCLRD
 70
     0
  9
$DIMCLRE
 70
     0
  9
$DIMCLRT
 70
     0
  9
$DIMTFAC
 40
1.0
  9
$DIMGAP
 40
0.625
  9
$DIMJUST
 70
     0
  9
$DIMSD1
 70
     0
  9
$DIMSD2
 70
     0
  9
$DIMTOLJ
 70
     0
  9
$DIMTZIN
 70
     8
  9
$DIMALTZ
 70
     0
  9
$DIMALTTZ
 70
     0
  9
$DIMUPT
 70
     0
  9
$DIMDEC
 70
     2
  9
$DIMTDEC
 70
     2
  9
$DIMALTU
 70
     2
  9
$DIMALTTD
 70
     3
  9
$DIMTXSTY
  7
Standard
  9
$DIMAUNIT
 70
     0
  9
$DIMADEC
 70
     0
  9
$DIMALTRND
 40
0.0
  9
$DIMAZIN
 70
     0
  9
$DIMDSEP
 70
    44
  9
$DIMATFIT
 70
     3
  9
$DIMFRAC
 70
     0
  9
$DIMLDRBLK
  1

  9
$DIMLUNIT
 70
     2
  9
$DIMLWD
 70
    -2
  9
$DIMLWE
 70
    -2
  9
$DIMTMOVE
 70
     0
  9
$LUNITS
 70
     2
  9
$LUPREC
 70
     4
  9
$SKETCHINC
 40
1.0
  9
$FILLETRAD
 40
10.0
  9
$AUNITS
 70
     0
  9
$AUPREC
 70
     0
  9
$MENU
  1
.
  9
$ELEVATION
 40
0.0
  9
$PELEVATION
 40
0.0
  9
$THICKNESS
 40
0.0
  9
$LIMCHECK
 70
     0
  9
$CHAMFERA
 40
10.0
  9
$CHAMFERB
 40
10.0
  9
$CHAMFERC
 40
20.0
  9
$CHAMFERD
 40
0.0
  9
$SKPOLY
 70
     0
  9
$TDCREATE
 40
2457353.608385116
  9
$TDUCREATE
 40
2457353.566718449
  9
$TDUPDATE
 40
2457353.608386979
  9
$TDUUPDATE
 40
2457353.566720312
  9
$TDINDWG
 40
0.0000000116
  9
$TDUSRTIMER
 40
0.0000000116
  9
$USRTIMER
 70
     1
  9
$ANGBASE
 50
0.0
  9
$ANGDIR
 70
     0
  9
$PDMODE
 70
     0
  9
$PDSIZE
 40
0.0
  9
$PLINEWID
 40
0.0
  9
$SPLFRAME
 70
     0
  9
$SPLINETYPE
 70
     6
  9
$SPLINESEGS
 70
     8
  9
$HANDSEED
  5
23F
  9
$SURFTAB1
 70
     6
  9
$SURFTAB2
 70
     6
  9
$SURFTYPE
 70
     6
  9
$SURFU
 70
     6
  9
$SURFV
 70
     6
  9
$UCSBASE
  2

  9
$UCSNAME
  2

  9
$UCSORG
 10
0.0
 20
0.0
 30
0.0
  9
$UCSXDIR
 10
1.0
 20
0.0
 30
0.0
  9
$UCSYDIR
 10
0.0
 20
1.0
 30
0.0
  9
$UCSORTHOREF
  2

  9
$UCSORTHOVIEW
 70
     0
  9
$UCSORGTOP
 10
0.0
 20
0.0
 30
0.0
  9
$UCSORGBOTTOM
 10
0.0
 20
0.0
 30
0.0
  9
$UCSORGLEFT
 10
0.0
 20
0.0
 30
0.0
  9
$UCSORGRIGHT
 10
0.0
 20
0.0
 30
0.0
  9
$UCSORGFRONT
 10
0.0
 20
0.0
 30
0.0
  9
$UCSORGBACK
 10
0.0
 20
0.0
 30
0.0
  9
$PUCSBASE
  2

  9
$PUCSNAME
  2

  9
$PUCSORG
 10
0.0
 20
0.0
 30
0.0
  9
$PUCSXDIR
 10
1.0
 20
0.0
 30
0.0
  9
$PUCSYDIR
 10
0.0
 20
1.0
 30
0.0
  9
$PUCSORTHOREF
  2

  9
$PUCSORTHOVIEW
 70
     0
  9
$PUCSORGTOP
 10
0.0
 20
0.0
 30
0.0
  9
$PUCSORGBOTTOM
 10
0.0
 20
0.0
 30
0.0
  9
$PUCSORGLEFT
 10
0.0
 20
0.0
 30
0.0
  9
$PUCSORGRIGHT
 10
0.0
 20
0.0
 30
0.0
  9
$PUCSORGFRONT
 10
0.0
 20
0.0
 30
0.0
  9
$PUCSORGBACK
 10
0.0
 20
0.0
 30
0.0
  9
$USERI1
 70
     0
  9
$USERI2
 70
     0
  9
$USERI3
 70
     0
  9
$USERI4
 70
     0
  9
$USERI5
 70
     0
  9
$USERR1
 40
0.0
  9
$USERR2
 40
0.0
  9
$USERR3
 40
0.0
  9
$USERR4
 40
0.0
  9
$USERR5
 40
0.0
  9
$WORLDVIEW
 70
     1
  9
$SHADEDGE
 70
     3
  9
$SHADEDIF
 70
    70
  9
$TILEMODE
 70
     1
  9
$MAXACTVP
 70
    64
  9
$PINSBASE
 10
0.0
 20
0.0
 30
0.0
  9
$PLIMCHECK
 70
     0
  9
$PEXTMIN
 10
0.0
 20
0.0
 30
0.0
  9
$PEXTMAX
 10
297.0
 20
210.0
 30
0.0
  9
$PLIMMIN
 10
0.0
 20
0.0
  9
$PLIMMAX
 10
297.0
 20
210.0
  9
$UNITMODE
 70
     0
  9
$VISRETAIN
 70
     1
  9
$PLINEGEN
 70
     0
  9
$PSLTSCALE
 70
     1
  9
$TREEDEPTH
 70
  3020
  9
$CMLSTYLE
  2
Standard
  9
$CMLJUST
 70
     0
  9
$CMLSCALE
 40
20.0
  9
$PROXYGRAPHICS
 70
     1
  9
$MEASUREMENT
 70
     1
  9
$CELWEIGHT
370
    -1
  9
$ENDCAPS
280
     0
  9
$JOINSTYLE
280
     0
  9
$LWDISPLAY
290
     0
  9
$INSUNITS
 70
     4
  9
$HYPERLINKBASE
  1

  9
$STYLESHEET
  1

  9
$XEDIT
290
     1
  9
$CEPSNTYPE
380
     0
  9
$PSTYLEMODE
290
     1
  9
$FINGERPRINTGUID
  2
{D32106B8-56C4-4E95-A537-3EF583F04522}
  9
$VERSIONGUID
  2
{FAEB1C32-E019-11D5-929B-00C0DF256EC4}
  9
$EXTNAMES
290
     1
  9
$PSVPSCALE
 40
0.0
  9
$OLESTARTUP
290
     0
  0
ENDSEC
  0
SECTION
  2
CLASSES
  0
CLASS
  1
ACDBDICTIONARYWDFLT
  2
AcDbDictionaryWithDefault
  3
ObjectDBX Classes
 90
        0
280
     0
281
     0
  0
CLASS
  1
VISUALSTYLE
  2
AcDbVisualStyle
  3
ObjectDBX Classes
 90
     4095
280
     0
281
     0
  0
CLASS
  1
MATERIAL
  2
AcDbMaterial
  3
ObjectDBX Classes
 90
     1153
280
     0
281
     0
  0
CLASS
  1
DICTIONARYVAR
  2
AcDbDictionaryVar
  3
ObjectDBX Classes
 90
        0
280
     0
281
     0
  0
CLASS
  1
ACDBPLACEHOLDER
  2
AcDbPlaceHolder
  3
ObjectDBX Classes
 90
        0
280
     0
281
     0
  0
CLASS
  1
LAYOUT
  2
AcDbLayout
  3
ObjectDBX Classes
 90
        0
280
     0
281
     0
  0
ENDSEC
  0
SECTION
  2
TABLES
  0
TABLE
  2
VPORT
  5
8
330
0
100
AcDbSymbolTable
 70
     1
  0
VPORT
  5
29
330
8
100
AcDbSymbolTableRecord
100
AcDbViewportTableRecord
  2
*Active
 70
     0
 10
0.0
 20
0.0
 11
1.0
 21
1.0
 12
344.1869158879
 22
148.5
 13
0.0
 23
0.0
 14
10.0
 24
10.0
 15
10.0
 25
10.0
 16
0.0
 26
0.0
 36
1.0
 17
0.0
 27
0.0
 37
0.0
 40
297.0
 41
1.9729729729
 42
50.0
 43
0.0
 44
0.0
 50
0.0
 51
0.0
 71
     0
 72
   100
 73
     1
 74
     3
 75
     0
 76
     0
 77
     0
 78
     0
281
     0
 65
     1
110
0.0
120
0.0
130
0.0
111
1.0
121
0.0
131
0.0
112
0.0
122
1.0
132
0.0
 79
     0
146
0.0
  0
ENDTAB
  0
TABLE
  2
LTYPE
  5
5
330
0
100
AcDbSymbolTable
 70
     2
  0
LTYPE
  5
14
330
5
100
AcDbSymbolTableRecord
100
AcDbLinetypeTableRecord
  2
ByBlock
 70
     0
  3

 72
    65
 73
     0
 40
0.0
  0
LTYPE
  5
15
330
5
100
AcDbSymbolTableRecord
100
AcDbLinetypeTableRecord
  2
ByLayer
 70
     0
  3

 72
    65
 73
     0
 40
0.0
  0
LTYPE
  5
16
330
5
100
AcDbSymbolTableRecord
100
AcDbLinetypeTableRecord
  2
Continuous
 70
     0
  3
Solid line
 72
    65
 73
     0
 40
0.0
  0
LTYPE
  5
12B
330
5
100
AcDbSymbolTableRecord
100
AcDbLinetypeTableRecord
  2
CENTER2
 70
     0
  3
Center (.5x) ___ _ ___ _ ___ _ ___ _ ___ _ ___
 72
    65
 73
     4
 40
28.575
 49
19.05
 74
     4
 75
     0
340
0
 46
0.0
 50
0.0
 44
0.0
 45
0.0
 49
-3.175
 74
     4
 75
     0
340
0
 46
0.0
 50
0.0
 44
0.0
 45
0.0
 49
3.175
 74
     4
 75
     0
340
0
 46
0.0
 50
0.0
 44
0.0
 45
0.0
 49
-3.175
 74
     4
 75
     0
340
0
 46
0.0
 50
0.0
 44
0.0
 45
0.0
  0
ENDTAB
  0
TABLE
  2
LAYER
  5
2
330
0
100
AcDbSymbolTable
 70
     4
  0
LAYER
  5
10
330
2
100
AcDbSymbolTableRecord
100
AcDbLayerTableRecord
  2
0
 70
     0
 62
     7
  6
Continuous
370
    -3
390
F
  0
LAYER
  5
3F
330
2
100
AcDbSymbolTableRecord
100
AcDbLayerTableRecord
  2
Default
 70
     0
 62
     7
  6
Continuous
370
    -3
390
F
  0
LAYER
  5
42
330
2
100
AcDbSymbolTableRecord
100
AcDbLayerTableRecord
  2
0012348
 70
     0
 62
     7
  6
Continuous
370
    -3
390
F
  0
LAYER
  5
12A
330
2
100
AcDbSymbolTableRecord
100
AcDbLayerTableRecord
  2
DV1_Default
 70
     0
 62
     7
  6
Continuous
370
    -3
390
F
  0
ENDTAB
  0
TABLE
  2
STYLE
  5
3
330
0
100
AcDbSymbolTable
 70
     5
  0
STYLE
  5
11
330
3
100
AcDbSymbolTableRecord
100
AcDbTextStyleTableRecord
  2
Standard
 70
     0
 40
0.0
 41
1.0
 50
0.0
 71
     0
 42
2.5
  3
txt
  4

  0
STYLE
  5
146
330
3
100
AcDbSymbolTableRecord
100
AcDbTextStyleTableRecord
  2
SEACAD_Solid_Edge_ISO1_Symbols
 70
     0
 40
0.0
 41
1.0
 50
0.0
 71
     0
 42
0.2
  3
semeci1.ttf
  4

1001
ACAD
1000
Solid Edge ISO1 Symbols
1071
        0
  0
STYLE
  5
148
330
3
100
AcDbSymbolTableRecord
100
AcDbTextStyleTableRecord
  2
SEACAD_Solid_Edge_ISO
 70
     0
 40
0.0
 41
1.0
 50
0.0
 71
     0
 42
0.2
  3
seiso.ttf
  4

1001
ACAD
1000
Solid Edge ISO
1071
        0
  0
STYLE
  5
1A7
330
3
100
AcDbSymbolTableRecord
100
AcDbTextStyleTableRecord
  2
SEACAD_Solid_Edge_ANSIB
 70
     0
 40
0.0
 41
1.0
 50
0.0
 71
     0
 42
0.2
  3
seansbd.ttf
  4

1001
ACAD
1000
Solid Edge ANSI
1071
 33554432
  0
STYLE
  5
1AC
330
3
100
AcDbSymbolTableRecord
100
AcDbTextStyleTableRecord
  2
SEACAD_Solid_Edge_ANSI
 70
     0
 40
0.0
 41
1.0
 50
0.0
 71
     0
 42
0.2
  3
seans.ttf
  4

1001
ACAD
1000
Solid Edge ANSI
1071
        0
  0
ENDTAB
  0
TABLE
  2
VIEW
  5
6
330
0
100
AcDbSymbolTable
 70
     0
  0
ENDTAB
  0
TABLE
  2
UCS
  5
7
330
0
100
AcDbSymbolTable
 70
     0
  0
ENDTAB
  0
TABLE
  2
APPID
  5
9
330
0
100
AcDbSymbolTable
 70
     1
  0
APPID
  5
12
330
9
100
AcDbSymbolTableRecord
100
AcDbRegAppTableRecord
  2
ACAD
 70
     0
  0
ENDTAB
  0
TABLE
  2
DIMSTYLE
  5
A
330
0
100
AcDbSymbolTable
 70
     3
100
AcDbDimStyleTable
  0
DIMSTYLE
105
27
330
A
100
AcDbSymbolTableRecord
100
AcDbDimStyleTableRecord
  2
ISO-25
 70
     0
 41
2.5
 42
0.625
 43
3.75
 44
1.25
 73
     0
 74
     0
 77
     1
 78
     8
140
2.5
141
2.5
143
0.0393700787
147
0.625
171
     3
172
     1
178
     0
271
     2
272
     2
274
     3
278
    44
283
     0
284
     8
340
11
  0
DIMSTYLE
105
161
330
A
100
AcDbSymbolTableRecord
100
AcDbDimStyleTableRecord
  2
Standard
 70
     0
178
     0
340
11
  0
DIMSTYLE
105
173
102
{ACAD_REACTORS
330
174
330
17E
330
188
330
192
330
19C
102
}
330
A
100
AcDbSymbolTableRecord
100
AcDbDimStyleTableRecord
  2
DIN
 70
     0
 41
3.5
 42
0.0
 44
1.75
 73
     0
 74
     0
 77
     1
 78
     8
140
3.5
141
1.75
147
1.75
172
     1
173
     1
178
     0
179
     3
271
     3
272
     3
278
    44
284
     8
340
148
343
16E
344
16E
  0
ENDTAB
  0
TABLE
  2
BLOCK_RECORD
  5
1
330
0
100
AcDbSymbolTable
 70
    19
  0
BLOCK_RECORD
  5
1F
330
1
100
AcDbSymbolTableRecord
100
AcDbBlockTableRecord
  2
*Model_Space
340
22
  0
BLOCK_RECORD
  5
1B
330
1
100
AcDbSymbolTableRecord
100
AcDbBlockTableRecord
  2
*Paper_Space
340
1E
  0
BLOCK_RECORD
  5
40
330
1
100
AcDbSymbolTableRecord
100
AcDbBlockTableRecord
  2
SE
340
0
102
{BLKREFS
331
41
102
}
  0
BLOCK_RECORD
  5
141
330
1
100
AcDbSymbolTableRecord
100
AcDbBlockTableRecord
  2
GDimGGroup
340
0
102
{BLKREFS
331
142
102
}
  0
BLOCK_RECORD
  5
14C
330
1
100
AcDbSymbolTableRecord
100
AcDbBlockTableRecord
  2
GDimGGroup1
340
0
102
{BLKREFS
331
14D
102
}
  0
BLOCK_RECORD
  5
157
330
1
100
AcDbSymbolTableRecord
100
AcDbBlockTableRecord
  2
GDimGGroup2
340
0
102
{BLKREFS
331
158
102
}
  0
BLOCK_RECORD
  5
162
330
1
100
AcDbSymbolTableRecord
100
AcDbBlockTableRecord
  2
_OBLIQUE
340
0
  0
BLOCK_RECORD
  5
166
330
1
100
AcDbSymbolTableRecord
100
AcDbBlockTableRecord
  2
_DOT
340
0
  0
BLOCK_RECORD
  5
16E
330
1
100
AcDbSymbolTableRecord
100
AcDbBlockTableRecord
  2
_SE_FILLED
340
0
  0
BLOCK_RECORD
  5
175
330
1
100
AcDbSymbolTableRecord
100
AcDbBlockTableRecord
  2
DMBLK277
340
0
  0
BLOCK_RECORD
  5
17F
330
1
100
AcDbSymbolTableRecord
100
AcDbBlockTableRecord
  2
DMBLK278
340
0
  0
BLOCK_RECORD
  5
189
330
1
100
AcDbSymbolTableRecord
100
AcDbBlockTableRecord
  2
DMBLK279
340
0
  0
BLOCK_RECORD
  5
193
330
1
100
AcDbSymbolTableRecord
100
AcDbBlockTableRecord
  2
DMBLK280
340
0
  0
BLOCK_RECORD
  5
19D
330
1
100
AcDbSymbolTableRecord
100
AcDbBlockTableRecord
  2
DMBLK281
340
0
  0
BLOCK_RECORD
  5
1A6
330
1
100
AcDbSymbolTableRecord
100
AcDbBlockTableRecord
  2
SEANNOT_GROUP
340
0
102
{BLKREFS
331
203
102
}
  0
BLOCK_RECORD
  5
1AB
330
1
100
AcDbSymbolTableRecord
100
AcDbBlockTableRecord
  2
SEANNOT_GROUP1
340
0
102
{BLKREFS
331
204
102
}
  0
BLOCK_RECORD
  5
1B0
330
1
100
AcDbSymbolTableRecord
100
AcDbBlockTableRecord
  2
SEANNOT_GROUP2
340
0
102
{BLKREFS
331
206
102
}
  0
BLOCK_RECORD
  5
1B4
330
1
100
AcDbSymbolTableRecord
100
AcDbBlockTableRecord
  2
SEANNOT_GROUP3
340
0
102
{BLKREFS
331
207
102
}
  0
BLOCK_RECORD
  5
1B8
330
1
100
AcDbSymbolTableRecord
100
AcDbBlockTableRecord
  2
Block1
340
0
102
{BLKREFS
331
208
102
}
  0
BLOCK_RECORD
  5
200
330
1
100
AcDbSymbolTableRecord
100
AcDbBlockTableRecord
  2
RF-Massblatt_2016
340
0
102
{BLKREFS
331
20B
102
}
  0
ENDTAB
  0
ENDSEC
  0
SECTION
  2
BLOCKS
  0
BLOCK
  5
20
330
1F
100
AcDbEntity
  8
0
100
AcDbBlockBegin
  2
*Model_Space
 70
     0
 10
0.0
 20
0.0
 30
0.0
  3
*Model_Space
  1

  0
ENDBLK
  5
21
330
1F
100
AcDbEntity
  8
0
100
AcDbBlockEnd
  0
BLOCK
  5
1C
330
1B
100
AcDbEntity
 67
     1
  8
0
100
AcDbBlockBegin
  2
*Paper_Space
 70
     0
 10
0.0
 20
0.0
 30
0.0
  3
*Paper_Space
  1

  0
ENDBLK
  5
1D
330
1B
100
AcDbEntity
 67
     1
  8
0
100
AcDbBlockEnd
  0
BLOCK
  5
13F
330
40
100
AcDbEntity
  8
0
100
AcDbBlockBegin
  2
SE
 70
     0
 10
0.0
 20
0.0
 30
0.0
  3
SE
  1

  0
LINE
  5
43
330
40
100
AcDbEntity
  8
0012348
  6
Continuous
 62
     7
100
AcDbLine
 10
83.7530077518
 20
96.9187506361
 30
0.0
 11
77.2530077518
 21
96.9187506361
 31
0.0
  0
ARC
  5
44
330
40
100
AcDbEntity
  8
0012348
  6
Continuous
 62
     7
100
AcDbCircle
 10
83.7530077518
 20
98.9187506361
 30
0.0
 40
2.000000000000002
100
AcDbArc
 50
270.0
 51
0.0
  0
LINE
  5
45
330
40
100
AcDbEntity
  8
0012348
  6
Continuous
 62
     7
100
AcDbLine
 10
83.7530077518
 20
116.9387506361
 30
0.0
 11
77.2530077518
 21
116.9387506361
 31
0.0
  0
ARC
  5
46
330
40
100
AcDbEntity
  8
0012348
  6
Continuous
 62
     7
100
AcDbCircle
 10
83.7530077518
 20
114.9387506361
 30
0.0
 40
2.0
100
AcDbArc
 50
0.0
 51
90.0
  0
CIRCLE
  5
47
330
40
100
AcDbEntity
  8
0012348
  6
Continuous
 62
     7
100
AcDbCircle
 10
110.7530077518
 20
106.9287506361
 30
0.0
 40
5.999999999999993
  0
LINE
  5
48
330
40
100
AcDbEntity
  8
0012348
  6
Continuous
 62
     7
100
AcDbLine
 10
75.7530077518
 20
95.4187506361
 30
0.0
 11
75.7530077518
 21
93.0477098321
 31
0.0
  0
LINE
  5
49
330
40
100
AcDbEntity
  8
0012348
  6
Continuous
 62
     7
100
AcDbLine
 10
75.7530077518
 20
95.4187506361
 30
0.0
 11
77.2530077518
 21
96.9187506361
 31
0.0
  0
LINE
  5
4A
330
40
100
AcDbEntity
  8
0012348
  6
Continuous
 62
     7
100
AcDbLine
 10
77.2530077518
 20
96.9187506361
 30
0.0
 11
77.2530077518
 21
92.0086921191
 31
0.0
  0
LINE
  5
4B
330
40
100
AcDbEntity
  8
0012348
  6
Continuous
 62
     7
100
AcDbLine
 10
75.7530077518
 20
118.4387506361
 30
0.0
 11
77.2530077518
 21
116.9387506361
 31
0.0
  0
LINE
  5
4C
330
40
100
AcDbEntity
  8
0012348
  6
Continuous
 62
     7
100
AcDbLine
 10
77.2530077518
 20
116.9387506361
 30
0.0
 11
77.2530077518
 21
121.848809153
 31
0.0
  0
LINE
  5
4D
330
40
100
AcDbEntity
  8
0012348
  6
Continuous
 62
     7
100
AcDbLine
 10
75.7530077518
 20
118.4387506361
 30
0.0
 11
75.7530077518
 21
120.8097914401
 31
0.0
  0
LINE
  5
4E
330
40
100
AcDbEntity
  8
0012348
  6
Continuous
 62
     7
100
AcDbLine
 10
143.8780077518
 20
116.9287506361
 30
0.0
 11
144.3780077518
 21
116.9287506361
 31
0.0
  0
LINE
  5
4F
330
40
100
AcDbEntity
  8
0012348
  6
Continuous
 62
     7
100
AcDbLine
 10
144.3780077518
 20
116.9287506361
 30
0.0
 11
147.1280077518
 21
116.9287506361
 31
0.0
  0
LINE
  5
50
330
40
100
AcDbEntity
  8
0012348
  6
Continuous
 62
     7
100
AcDbLine
 10
147.1280077518
 20
116.9287506361
 30
0.0
 11
147.6280077518
 21
116.9287506361
 31
0.0
  0
LINE
  5
51
330
40
100
AcDbEntity
  8
0012348
  6
Continuous
 62
     7
100
AcDbLine
 10
147.6280077518
 20
96.9287506361
 30
0.0
 11
147.1280077518
 21
96.9287506361
 31
0.0
  0
LINE
  5
52
330
40
100
AcDbEntity
  8
0012348
  6
Continuous
 62
     7
100
AcDbLine
 10
147.1280077518
 20
96.9287506361
 30
0.0
 11
144.3780077518
 21
96.9287506361
 31
0.0
  0
LINE
  5
53
330
40
100
AcDbEntity
  8
0012348
  6
Continuous
 62
     7
100
AcDbLine
 10
144.3780077518
 20
96.9287506361
 30
0.0
 11
143.8780077518
 21
96.9287506361
 31
0.0
  0
LINE
  5
54
330
40
100
AcDbEntity
  8
0012348
  6
Continuous
 62
     7
100
AcDbLine
 10
154.7530077518
 20
116.9287506361
 30
0.0
 11
154.7530077518
 21
96.9287506361
 31
0.0
  0
LINE
  5
55
330
40
100
AcDbEntity
  8
0012348
  6
Continuous
 62
     7
100
AcDbLine
 10
143.8780077518
 20
75.4287506361
 30
0.0
 11
144.3780077518
 21
75.4287506361
 31
0.0
  0
LINE
  5
56
330
40
100
AcDbEntity
  8
0012348
  6
Continuous
 62
     7
100
AcDbLine
 10
144.3780077518
 20
75.4287506361
 30
0.0
 11
147.1280077518
 21
75.4287506361
 31
0.0
  0
LINE
  5
57
330
40
100
AcDbEntity
  8
0012348
  6
Continuous
 62
     7
100
AcDbLine
 10
147.1280077518
 20
75.4287506361
 30
0.0
 11
147.6280077518
 21
75.4287506361
 31
0.0
  0
LINE
  5
58
330
40
100
AcDbEntity
  8
0012348
  6
Continuous
 62
     7
100
AcDbLine
 10
154.7530077518
 20
75.4287506361
 30
0.0
 11
154.7530077518
 21
68.744984452
 31
0.0
  0
LINE
  5
59
330
40
100
AcDbEntity
  8
0012348
  6
Continuous
 62
     7
100
AcDbLine
 10
147.6280077518
 20
71.2123457261
 30
0.0
 11
147.6280077518
 21
72.7234878831
 31
0.0
  0
SPLINE
  5
5A
330
40
100
AcDbEntity
  8
0012348
  6
Continuous
 62
     7
100
AcDbSpline
210
0.0
220
0.0
230
1.0
 70
     8
 71
     3
 72
    12
 73
     8
 74
     0
 42
0.0000000105735813
 43
0.0000000001
 12
1.0
 22
0.0
 32
0.0
 13
1.0
 23
0.0
 33
0.0
 40
0.0
 40
0.0
 40
0.0
 40
0.0
 40
0.5000000000000029
 40
0.5000000000000029
 40
0.7500000000000014
 40
0.7500000000000014
 40
1.0
 40
1.0
 40
1.0
 40
1.0
 10
147.62800775184
 20
72.72348788311616
 30
0.0
 10
147.62800775184
 20
72.87951080888017
 30
0.0
 10
147.5902965607458
 20
73.03544810954662
 30
0.0
 10
147.4659964790317
 20
73.23352959551919
 30
0.0
 10
147.4127759385068
 20
73.29298262267397
 30
0.0
 10
147.2826857921916
 20
73.38022828383065
 30
0.0
 10
147.2060587803792
 20
73.40637005236688
 30
0.0
 10
147.12800775184
 20
73.40637005236692
 30
0.0
  0
LINE
  5
5B
330
40
100
AcDbEntity
  8
0012348
  6
Continuous
 62
     7
100
AcDbLine
 10
147.1280077518
 20
73.4063700524
 30
0.0
 11
144.3780077518
 21
73.4063700524
 31
0.0
  0
SPLINE
  5
5C
330
40
100
AcDbEntity
  8
0012348
  6
Continuous
 62
     7
100
AcDbSpline
210
0.0
220
0.0
230
1.0
 70
     8
 71
     3
 72
    12
 73
     8
 74
     0
 42
0.000000010574829
 43
0.0000000001
 12
1.0
 22
0.0
 32
0.0
 13
1.0
 23
0.0
 33
0.0
 40
0.0
 40
0.0
 40
0.0
 40
0.0
 40
0.2499999999999985
 40
0.2499999999999985
 40
0.499999999999997
 40
0.499999999999997
 40
1.0
 40
1.0
 40
1.0
 40
1.0
 10
144.37800775184
 20
73.40637005236684
 30
0.0
 10
144.3002934617635
 20
73.40637005236682
 30
0.0
 10
144.2225818164743
 20
73.37984245813381
 30
0.0
 10
144.093038280547
 20
73.29273102486233
 30
0.0
 10
144.0398166375682
 20
73.23318738926625
 30
0.0
 10
143.9162690167612
 20
73.03636403323662
 30
0.0
 10
143.87800775184
 20
72.87881085579966
 30
0.0
 10
143.87800775184
 20
72.72348788311616
 30
0.0
  0
LINE
  5
5D
330
40
100
AcDbEntity
  8
0012348
  6
Continuous
 62
     7
100
AcDbLine
 10
143.8780077518
 20
72.7234878831
 30
0.0
 11
143.8780077518
 21
71.2123457261
 31
0.0
  0
SPLINE
  5
5E
330
40
100
AcDbEntity
  8
0012348
  6
Continuous
 62
     7
100
AcDbSpline
210
0.0
220
0.0
230
1.0
 70
     8
 71
     3
 72
     8
 73
     4
 74
     0
 42
0.000000012241591
 43
0.0000000001
 12
1.0
 22
0.0
 32
0.0
 13
1.0
 23
0.0
 33
0.0
 40
0.0
 40
0.0
 40
0.0
 40
0.0
 40
1.0
 40
1.0
 40
1.0
 40
1.0
 10
154.25300775184
 20
68.09899400538245
 30
0.0
 10
154.4200170695117
 20
68.31404726886295
 30
0.0
 10
154.5866906538984
 20
68.5293772144168
 30
0.0
 10
154.75300775184
 20
68.74498445201674
 30
0.0
  0
LINE
  5
5F
330
40
100
AcDbEntity
  8
0012348
  6
Continuous
 62
     7
100
AcDbLine
 10
149.000603016
 20
68.0989940054
 30
0.0
 11
154.2530077518
 21
68.0989940054
 31
0.0
  0
SPLINE
  5
60
330
40
100
AcDbEntity
  8
0012348
  6
Continuous
 62
     7
100
AcDbSpline
210
0.0
220
0.0
230
1.0
 70
     8
 71
     3
 72
     8
 73
     4
 74
     0
 42
0.0000000029389786
 43
0.0000000001
 12
1.0
 22
0.0
 32
0.0
 13
1.0
 23
0.0
 33
0.0
 40
0.0
 40
0.0
 40
0.0
 40
0.0
 40
1.0
 40
1.0
 40
1.0
 40
1.0
 10
147.62800775184
 20
71.21234572606319
 30
0.0
 10
148.0786054191219
 20
70.17171921014318
 30
0.0
 10
148.5365640752485
 20
69.13394643860383
 30
0.0
 10
149.0006030160316
 20
68.09899400538245
 30
0.0
  0
SPLINE
  5
61
330
40
100
AcDbEntity
  8
0012348
  6
Continuous
 62
     7
100
AcDbSpline
210
0.0
220
0.0
230
1.0
 70
     8
 71
     3
 72
     8
 73
     4
 74
     0
 42
0.0000000029389786
 43
0.0000000001
 12
1.0
 22
0.0
 32
0.0
 13
1.0
 23
0.0
 33
0.0
 40
0.0
 40
0.0
 40
0.0
 40
0.0
 40
1.0
 40
1.0
 40
1.0
 40
1.0
 10
142.5054124876484
 20
68.09899400538245
 30
0.0
 10
142.9694514284315
 20
69.13394643860383
 30
0.0
 10
143.4274100845581
 20
70.17171921014318
 30
0.0
 10
143.87800775184
 20
71.21234572606319
 30
0.0
  0
LINE
  5
62
330
40
100
AcDbEntity
  8
0012348
  6
Continuous
 62
     7
100
AcDbLine
 10
143.8780077518
 20
116.9287506361
 30
0.0
 11
142.5054124876
 21
116.9287506361
 31
0.0
  0
LINE
  5
63
330
40
100
AcDbEntity
  8
0012348
  6
Continuous
 62
     7
100
AcDbLine
 10
142.5054124876
 20
116.9287506361
 30
0.0
 11
142.5054124876
 21
156.9287506361
 31
0.0
  0
LINE
  5
64
330
40
100
AcDbEntity
  8
0012348
  6
Continuous
 62
     7
100
AcDbLine
 10
142.5054124876
 20
68.0989940054
 30
0.0
 11
142.5054124876
 21
56.9287506361
 31
0.0
  0
LINE
  5
65
330
40
100
AcDbEntity
  8
0012348
  6
Continuous
 62
     7
100
AcDbLine
 10
142.5054124876
 20
75.4287506361
 30
0.0
 11
142.5054124876
 21
96.9287506361
 31
0.0
  0
LINE
  5
66
330
40
100
AcDbEntity
  8
0012348
  6
Continuous
 62
     7
100
AcDbLine
 10
142.5054124876
 20
96.9287506361
 30
0.0
 11
143.8780077518
 21
96.9287506361
 31
0.0
  0
LINE
  5
67
330
40
100
AcDbEntity
  8
0012348
  6
Continuous
 62
     7
100
AcDbLine
 10
143.8780077518
 20
75.4287506361
 30
0.0
 11
142.5054124876
 21
75.4287506361
 31
0.0
  0
LINE
  5
68
330
40
100
AcDbEntity
  8
0012348
  6
Continuous
 62
     7
100
AcDbLine
 10
149.000603016
 20
116.9287506361
 30
0.0
 11
147.6280077518
 21
116.9287506361
 31
0.0
  0
LINE
  5
69
330
40
100
AcDbEntity
  8
0012348
  6
Continuous
 62
     7
100
AcDbLine
 10
147.6280077518
 20
116.9287506361
 30
0.0
 11
147.6280077518
 21
154.5513459003
 31
0.0
  0
LINE
  5
6A
330
40
100
AcDbEntity
  8
0012348
  6
Continuous
 62
     7
100
AcDbLine
 10
147.6280077518
 20
71.2123457261
 30
0.0
 11
147.6280077518
 21
59.3061553719
 31
0.0
  0
LINE
  5
6B
330
40
100
AcDbEntity
  8
0012348
  6
Continuous
 62
     7
100
AcDbLine
 10
147.6280077518
 20
75.4287506361
 30
0.0
 11
147.6280077518
 21
96.9287506361
 31
0.0
  0
LINE
  5
6C
330
40
100
AcDbEntity
  8
0012348
  6
Continuous
 62
     7
100
AcDbLine
 10
147.6280077518
 20
96.9287506361
 30
0.0
 11
149.000603016
 21
96.9287506361
 31
0.0
  0
LINE
  5
6D
330
40
100
AcDbEntity
  8
0012348
  6
Continuous
 62
     7
100
AcDbLine
 10
149.000603016
 20
75.4287506361
 30
0.0
 11
147.6280077518
 21
75.4287506361
 31
0.0
  0
LINE
  5
6E
330
40
100
AcDbEntity
  8
0012348
  6
Continuous
 62
     7
100
AcDbLine
 10
154.2530077518
 20
116.9287506361
 30
0.0
 11
149.000603016
 21
116.9287506361
 31
0.0
  0
LINE
  5
6F
330
40
100
AcDbEntity
  8
0012348
  6
Continuous
 62
     7
100
AcDbLine
 10
149.000603016
 20
116.9287506361
 30
0.0
 11
149.000603016
 21
156.9287506361
 31
0.0
  0
LINE
  5
70
330
40
100
AcDbEntity
  8
0012348
  6
Continuous
 62
     7
100
AcDbLine
 10
149.000603016
 20
68.0989940054
 30
0.0
 11
149.000603016
 21
56.9287506361
 31
0.0
  0
LINE
  5
71
330
40
100
AcDbEntity
  8
0012348
  6
Continuous
 62
     7
100
AcDbLine
 10
149.000603016
 20
75.4287506361
 30
0.0
 11
149.000603016
 21
96.9287506361
 31
0.0
  0
LINE
  5
72
330
40
100
AcDbEntity
  8
0012348
  6
Continuous
 62
     7
100
AcDbLine
 10
149.000603016
 20
96.9287506361
 30
0.0
 11
154.2530077518
 21
96.9287506361
 31
0.0
  0
LINE
  5
73
330
40
100
AcDbEntity
  8
0012348
  6
Continuous
 62
     7
100
AcDbLine
 10
154.2530077518
 20
75.4287506361
 30
0.0
 11
149.000603016
 21
75.4287506361
 31
0.0
  0
LINE
  5
74
330
40
100
AcDbEntity
  8
0012348
  6
Continuous
 62
     7
100
AcDbLine
 10
154.7530077518
 20
116.9287506361
 30
0.0
 11
154.2530077518
 21
116.9287506361
 31
0.0
  0
LINE
  5
75
330
40
100
AcDbEntity
  8
0012348
  6
Continuous
 62
     7
100
AcDbLine
 10
154.2530077518
 20
116.9287506361
 30
0.0
 11
154.2530077518
 21
156.9287506361
 31
0.0
  0
LINE
  5
76
330
40
100
AcDbEntity
  8
0012348
  6
Continuous
 62
     7
100
AcDbLine
 10
154.2530077518
 20
68.0989940054
 30
0.0
 11
154.2530077518
 21
56.9287506361
 31
0.0
  0
LINE
  5
77
330
40
100
AcDbEntity
  8
0012348
  6
Continuous
 62
     7
100
AcDbLine
 10
154.2530077518
 20
75.4287506361
 30
0.0
 11
154.2530077518
 21
96.9287506361
 31
0.0
  0
LINE
  5
78
330
40
100
AcDbEntity
  8
0012348
  6
Continuous
 62
     7
100
AcDbLine
 10
154.2530077518
 20
96.9287506361
 30
0.0
 11
154.7530077518
 21
96.9287506361
 31
0.0
  0
LINE
  5
79
330
40
100
AcDbEntity
  8
0012348
  6
Continuous
 62
     7
100
AcDbLine
 10
154.7530077518
 20
75.4287506361
 30
0.0
 11
154.2530077518
 21
75.4287506361
 31
0.0
  0
LINE
  5
7A
330
40
100
AcDbEntity
  8
0012348
  6
Continuous
 62
     7
100
AcDbLine
 10
142.5054124876
 20
116.9287506361
 30
0.0
 11
140.7530077518
 21
116.9287506361
 31
0.0
  0
ARC
  5
7B
330
40
100
AcDbEntity
  8
0012348
  6
Continuous
 62
     7
100
AcDbCircle
 10
140.7530077518
 20
106.9287506361
 30
0.0
 40
10.0
100
AcDbArc
 50
90.0
 51
270.0
  0
LINE
  5
7C
330
40
100
AcDbEntity
  8
0012348
  6
Continuous
 62
     7
100
AcDbLine
 10
140.7530077518
 20
96.9287506361
 30
0.0
 11
142.5054124876
 21
96.9287506361
 31
0.0
  0
LINE
  5
7D
330
40
100
AcDbEntity
  8
0012348
  6
Continuous
 62
     7
100
AcDbLine
 10
142.5054124876
 20
75.4287506361
 30
0.0
 11
140.389905611
 21
75.4287506361
 31
0.0
  0
ARC
  5
7E
330
40
100
AcDbEntity
  8
0012348
  6
Continuous
 62
     7
100
AcDbCircle
 10
140.389905611
 20
65.4287506361
 30
0.0
 40
10.00000000000001
100
AcDbArc
 50
90.0
 51
164.5127260012
  0
LINE
  5
7F
330
40
100
AcDbEntity
  8
0012348
  6
Continuous
 62
     7
100
AcDbLine
 10
130.7530077518
 20
68.0989940054
 30
0.0
 11
142.5054124876
 21
68.0989940054
 31
0.0
  0
ARC
  5
80
330
40
100
AcDbEntity
  8
0012348
  6
Continuous
 62
     7
100
AcDbCircle
 10
132.753007751
 20
206.6875806815
 30
0.0
 40
50.00941078914368
100
AcDbArc
 50
264.2619131484
 51
275.7380864647
  0
LINE
  5
81
330
40
100
AcDbEntity
  8
0012348
  6
Continuous
 62
     7
100
AcDbLine
 10
126.2530077518
 20
56.9287506361
 30
0.0
 11
126.2530077518
 21
156.9287506361
 31
0.0
  0
LINE
  5
82
330
40
100
AcDbEntity
  8
0012348
  6
Continuous
 62
     7
100
AcDbLine
 10
154.7530077518
 20
75.4287506361
 30
0.0
 11
154.7530077518
 21
96.9287506361
 31
0.0
  0
LINE
  5
83
330
40
100
AcDbEntity
  8
0012348
  6
Continuous
 62
     7
100
AcDbLine
 10
154.7530077518
 20
116.9287506361
 30
0.0
 11
154.7530077518
 21
156.4287506361
 31
0.0
  0
LINE
  5
84
330
40
100
AcDbEntity
  8
0012348
  6
Continuous
 62
     7
100
AcDbLine
 10
154.7530077518
 20
68.744984452
 30
0.0
 11
154.7530077518
 21
57.4287506361
 31
0.0
  0
LINE
  5
85
330
40
100
AcDbEntity
  8
0012348
  6
Continuous
 62
     7
100
AcDbLine
 10
123.9994179134
 20
69.1992506361
 30
0.0
 11
123.9994179134
 21
144.6582506361
 31
0.0
  0
LINE
  5
86
330
40
100
AcDbEntity
  8
0012348
  6
Continuous
 62
     7
100
AcDbLine
 10
125.7530077518
 20
57.4287506361
 30
0.0
 11
125.7530077518
 21
156.4287506361
 31
0.0
  0
LINE
  5
87
330
40
100
AcDbEntity
  8
0012348
  6
Continuous
 62
     7
100
AcDbLine
 10
143.8780077518
 20
116.9287506361
 30
0.0
 11
143.8780077518
 21
154.5513459003
 31
0.0
  0
LINE
  5
88
330
40
100
AcDbEntity
  8
0012348
  6
Continuous
 62
     7
100
AcDbLine
 10
143.8780077518
 20
71.2123457261
 30
0.0
 11
143.8780077518
 21
59.3061553719
 31
0.0
  0
LINE
  5
89
330
40
100
AcDbEntity
  8
0012348
  6
Continuous
 62
     7
100
AcDbLine
 10
143.8780077518
 20
75.4287506361
 30
0.0
 11
143.8780077518
 21
96.9287506361
 31
0.0
  0
LINE
  5
8A
330
40
100
AcDbEntity
  8
0012348
  6
Continuous
 62
     7
100
AcDbLine
 10
123.4244187864
 20
144.8123211878
 30
0.0
 11
123.4244187864
 21
69.0451800844
 31
0.0
  0
SPLINE
  5
8B
330
40
100
AcDbEntity
  8
0012348
  6
Continuous
 62
     7
100
AcDbSpline
210
0.0
220
0.0
230
1.0
 70
     8
 71
     3
 72
    20
 73
    16
 74
     0
 42
0.0000000028588564
 43
0.0000000001
 12
1.0
 22
0.0
 32
0.0
 13
1.0
 23
0.0
 33
0.0
 40
0.0
 40
0.0
 40
0.0
 40
0.0
 40
0.2500000000000038
 40
0.2500000000000038
 40
0.3750000000000058
 40
0.3750000000000058
 40
0.4375000000000048
 40
0.4375000000000048
 40
0.5000000000000039
 40
0.5000000000000039
 40
0.6250000000000029
 40
0.6250000000000029
 40
0.7500000000000019
 40
0.7500000000000019
 40
1.0
 40
1.0
 40
1.0
 40
1.0
 10
77.25300775182778
 20
92.00869211913275
 30
0.0
 10
77.0976915673727
 20
91.76523536302403
 30
0.0
 10
76.94354155183792
 20
91.53245055916808
 30
0.0
 10
76.69225163597407
 20
91.2358056037035
 30
0.0
 10
76.60624318697137
 20
91.1421668182363
 30
0.0
 10
76.4519254777563
 20
91.06702320442731
 30
0.0
 10
76.39258049362525
 20
91.0556600764579
 30
0.0
 10
76.27688079350057
 20
91.09930941766834
 30
0.0
 10
76.22280988775526
 20
91.15368173210598
 30
0.0
 10
76.09085046765648
 20
91.34201825055004
 30
0.0
 10
76.03097626394901
 20
91.49461406967905
 30
0.0
 10
75.928228858503
 20
91.79759506650078
 30
0.0
 10
75.88751881162207
 20
91.95198371231203
 30
0.0
 10
75.7882716455023
 20
92.41818992338031
 30
0.0
 10
75.75300775183999
 20
92.73651665367476
 30
0.0
 10
75.75300775183999
 20
93.0477098321281
 30
0.0
  0
ARC
  5
8C
330
40
100
AcDbEntity
  8
0012348
  6
Continuous
 62
     7
100
AcDbCircle
 10
77.7990010578
 20
92.8446959932
 30
0.0
 40
0.9985044654895177
100
AcDbArc
 50
236.851486352
 51
261.5997689438
  0
LINE
  5
8D
330
40
100
AcDbEntity
  8
0012348
  6
Continuous
 62
     7
100
AcDbLine
 10
75.7530077518
 20
93.0477098321
 30
0.0
 11
75.7530077518
 21
73.3312490755
 31
0.0
  0
LINE
  5
8E
330
40
100
AcDbEntity
  8
0012348
  6
Continuous
 62
     7
100
AcDbLine
 10
75.7530077518
 20
120.8097914401
 30
0.0
 11
75.7530077518
 21
140.5262521966
 31
0.0
  0
SPLINE
  5
8F
330
40
100
AcDbEntity
  8
0012348
  6
Continuous
 62
     7
100
AcDbSpline
210
0.0
220
0.0
230
1.0
 70
    11
 71
     3
 72
    28
 73
    24
 74
     0
 42
0.000000000221298
 43
0.0000000001
 12
1.0
 22
0.0
 32
0.0
 13
1.0
 23
0.0
 33
0.0
 40
0.0
 40
0.0
 40
0.0
 40
0.0
 40
0.125
 40
0.125
 40
0.25
 40
0.25
 40
0.3125
 40
0.3125
 40
0.375
 40
0.375
 40
0.4375
 40
0.4375
 40
0.5
 40
0.5
 40
0.625
 40
0.625
 40
0.75
 40
0.75
 40
0.875
 40
0.875
 40
0.9375
 40
0.9375
 40
1.0
 40
1.0
 40
1.0
 40
1.0
 10
105.4182216200644
 20
102.6349922677928
 30
0.0
 10
106.6665734217496
 20
101.2432148142084
 30
0.0
 10
108.4558781467888
 20
100.39894066874
 30
0.0
 10
112.12766641752
 20
100.0278709168108
 30
0.0
 10
114.0427670753252
 20
100.5016551337388
 30
0.0
 10
116.302027558581
 20
102.0565412947438
 30
0.0
 10
116.968259954467
 20
102.7252695744544
 30
0.0
 10
117.9682709229042
 20
104.2600760270414
 30
0.0
 10
118.3128203637511
 20
105.1459999459781
 30
0.0
 10
118.574938526193
 20
106.9790628575014
 30
0.0
 10
118.4933175001296
 20
107.9295170995795
 30
0.0
 10
117.9226184983571
 20
109.7036748121063
 30
0.0
 10
117.4409544220696
 20
110.5160196507472
 30
0.0
 10
115.5968548983816
 20
112.5683113209831
 30
0.0
 10
113.8276914684685
 20
113.4291025648389
 30
0.0
 10
110.1517564558312
 20
113.8405718849391
 30
0.0
 10
108.234601433171
 20
113.3949939601612
 30
0.0
 10
105.1691777808976
 20
111.2963412569108
 30
0.0
 10
104.0572213390894
 20
109.6337296299577
 30
0.0
 10
103.6695468182873
 20
106.8660615780611
 30
0.0
 10
103.7532796028311
 20
105.9176939835457
 30
0.0
 10
104.3149610543164
 20
104.154142848392
 30
0.0
 10
104.7940457192218
 20
103.330880994585
 30
0.0
 10
105.4182216200644
 20
102.6349922677928
 30
0.0
  0
ARC
  5
90
330
40
100
AcDbEntity
  8
0012348
  6
Continuous
 62
     7
100
AcDbCircle
 10
69.2352803686
 20
20.5022369681
 30
0.0
 40
71.84948646202153
100
AcDbArc
 50
78.3426983036
 51
83.271800769
  0
LINE
  5
91
330
40
100
AcDbEntity
  8
0012348
  6
Continuous
 62
     7
100
AcDbLine
 10
85.7530077518
 20
94.5109237152
 30
0.0
 11
85.7530077518
 21
119.3465775569
 31
0.0
  0
ARC
  5
92
330
40
100
AcDbEntity
  8
0012348
  6
Continuous
 62
     7
100
AcDbCircle
 10
69.2352803686
 20
193.3552643041
 30
0.0
 40
71.84948646200142
100
AcDbArc
 50
276.728199231
 51
281.6573016964
  0
SPLINE
  5
93
330
40
100
AcDbEntity
  8
0012348
  6
Continuous
 62
     7
100
AcDbSpline
210
0.0
220
0.0
230
1.0
 70
     8
 71
     3
 72
    20
 73
    16
 74
     0
 42
0.0000000022415878
 43
0.0000000001
 12
1.0
 22
0.0
 32
0.0
 13
1.0
 23
0.0
 33
0.0
 40
0.0
 40
0.0
 40
0.0
 40
0.0
 40
0.0625000000000001
 40
0.0625000000000001
 40
0.1250000000000001
 40
0.1250000000000001
 40
0.2500000000000001
 40
0.2500000000000001
 40
0.3750000000000001
 40
0.3750000000000001
 40
0.5
 40
0.5
 40
0.75
 40
0.75
 40
1.0
 40
1.0
 40
1.0
 40
1.0
 10
83.75300775184002
 20
122.9877697026857
 30
0.0
 10
83.8517784694841
 20
123.0095587866617
 30
0.0
 10
83.95507019034488
 20
122.9991416288652
 30
0.0
 10
84.13958636771784
 20
122.9298301552785
 30
0.0
 10
84.21978486310609
 20
122.876551393436
 30
0.0
 10
84.4421989422097
 20
122.6977265980803
 30
0.0
 10
84.56227203037237
 20
122.5581627311961
 30
0.0
 10
84.78683064128522
 20
122.266825151705
 30
0.0
 10
84.88924475812826
 20
122.1128838243688
 30
0.0
 10
85.07706213184447
 20
121.7990489855425
 30
0.0
 10
85.1627117889881
 20
121.6383963486959
 30
0.0
 10
85.3969340677077
 20
121.1458523696219
 30
0.0
 10
85.52323983148375
 20
120.8035716556966
 30
0.0
 10
85.70271037136166
 20
120.0848239209816
 30
0.0
 10
85.75300775184
 20
119.7191207194619
 30
0.0
 10
85.75300775184002
 20
119.3465775569472
 30
0.0
  0
SPLINE
  5
94
330
40
100
AcDbEntity
  8
0012348
  6
Continuous
 62
     7
100
AcDbSpline
210
0.0
220
0.0
230
1.0
 70
     8
 71
     3
 72
    14
 73
    10
 74
     0
 42
0.0000000022257299
 43
0.0000000001
 12
1.0
 22
0.0
 32
0.0
 13
1.0
 23
0.0
 33
0.0
 40
0.0
 40
0.0
 40
0.0
 40
0.0
 40
0.5000000000000001
 40
0.5000000000000001
 40
0.7499999999999992
 40
0.7499999999999992
 40
0.8749999999999997
 40
0.8749999999999997
 40
1.0
 40
1.0
 40
1.0
 40
1.0
 10
85.75300775184002
 20
94.51092371523339
 30
0.0
 10
85.75300775184002
 20
93.76529330526073
 30
0.0
 10
85.55254420239913
 20
93.03865042250946
 30
0.0
 10
85.08439626616475
 20
92.05453091910398
 30
0.0
 10
84.90033460091074
 20
91.73792422791954
 30
0.0
 10
84.56160510937589
 20
91.29847805430214
 30
0.0
 10
84.43939833175565
 20
91.15721750613132
 30
0.0
 10
84.14571550350425
 20
90.9217051050459
 30
0.0
 10
83.94964852523508
 20
90.82635208996062
 30
0.0
 10
83.7530077518397
 20
90.86973156949499
 30
0.0
  0
ARC
  5
95
330
40
100
AcDbEntity
  8
0012348
  6
Continuous
 62
     7
100
AcDbCircle
 10
77.7982527431
 20
121.0147778886
 30
0.0
 40
0.9964438019999106
100
AcDbArc
 50
98.3742343891
 51
123.1745103152
  0
SPLINE
  5
96
330
40
100
AcDbEntity
  8
0012348
  6
Continuous
 62
     7
100
AcDbSpline
210
0.0
220
0.0
230
1.0
 70
     8
 71
     3
 72
    20
 73
    16
 74
     0
 42
0.0000000028588564
 43
0.0000000001
 12
1.0
 22
0.0
 32
0.0
 13
1.0
 23
0.0
 33
0.0
 40
0.0
 40
0.0
 40
0.0
 40
0.0
 40
0.2500000000000125
 40
0.2500000000000125
 40
0.3750000000000179
 40
0.3750000000000179
 40
0.4375000000000185
 40
0.4375000000000185
 40
0.5000000000000191
 40
0.5000000000000191
 40
0.6250000000000147
 40
0.6250000000000147
 40
0.7500000000000101
 40
0.7500000000000101
 40
1.0
 40
1.0
 40
1.0
 40
1.0
 10
77.25300775182778
 20
121.8488091530478
 30
0.0
 10
77.0976915673727
 20
122.0922659091566
 30
0.0
 10
76.94354155183792
 20
122.3250507130125
 30
0.0
 10
76.69225163597405
 20
122.6216956684771
 30
0.0
 10
76.60624318697133
 20
122.7153344539443
 30
0.0
 10
76.45192547775628
 20
122.7904780677533
 30
0.0
 10
76.3925804936252
 20
122.8018411957227
 30
0.0
 10
76.27688079350052
 20
122.7581918545122
 30
0.0
 10
76.22280988775523
 20
122.7038195400746
 30
0.0
 10
76.09085046765645
 20
122.5154830216305
 30
0.0
 10
76.03097626394901
 20
122.3628872025015
 30
0.0
 10
75.92822885850302
 20
122.0599062056798
 30
0.0
 10
75.88751881162206
 20
121.9055175598685
 30
0.0
 10
75.78827164550232
 20
121.4393113488002
 30
0.0
 10
75.75300775184
 20
121.1209846185058
 30
0.0
 10
75.75300775183999
 20
120.8097914400524
 30
0.0
  0
LINE
  5
97
330
40
100
AcDbEntity
  8
0012348
  6
Continuous
 62
     7
100
AcDbLine
 10
202.1030077518
 20
98.9287506361
 30
0.0
 11
202.1030077518
 21
114.9287506361
 31
0.0
  0
LINE
  5
98
330
40
100
AcDbEntity
  8
0012348
  6
Continuous
 62
     7
100
AcDbLine
 10
170.7530077518
 20
102.9287506361
 30
0.0
 11
171.2530077518
 21
102.9287506361
 31
0.0
  0
ARC
  5
99
330
40
100
AcDbEntity
  8
0012348
  6
Continuous
 62
     7
100
AcDbCircle
 10
170.7530077518
 20
106.9287506361
 30
0.0
 40
4.0
100
AcDbArc
 50
90.0
 51
270.0
  0
LINE
  5
9A
330
40
100
AcDbEntity
  8
0012348
  6
Continuous
 62
     7
100
AcDbLine
 10
175.1530077518
 20
90.9287506361
 30
0.0
 11
175.1530077518
 21
102.1229452588
 31
0.0
  0
LINE
  5
9B
330
40
100
AcDbEntity
  8
0012348
  6
Continuous
 62
     7
100
AcDbLine
 10
175.1530077518
 20
102.1229452588
 30
0.0
 11
170.7530077518
 21
102.1229452588
 31
0.0
  0
ARC
  5
9C
330
40
100
AcDbEntity
  8
0012348
  6
Continuous
 62
     7
100
AcDbCircle
 10
170.9426210336
 20
106.9287506361
 30
0.0
 40
4.80954452325464
100
AcDbArc
 50
92.2594357941
 51
267.7405642059
  0
LINE
  5
9D
330
40
100
AcDbEntity
  8
0012348
  6
Continuous
 62
     7
100
AcDbLine
 10
170.7530077518
 20
111.7345560134
 30
0.0
 11
175.1530077518
 21
111.7345560134
 31
0.0
  0
LINE
  5
9E
330
40
100
AcDbEntity
  8
0012348
  6
Continuous
 62
     7
100
AcDbLine
 10
175.1530077518
 20
122.9287506361
 30
0.0
 11
175.1530077518
 21
111.7345560134
 31
0.0
  0
LINE
  5
9F
330
40
100
AcDbEntity
  8
0012348
  6
Continuous
 62
     7
100
AcDbLine
 10
171.2530077518
 20
110.9287506361
 30
0.0
 11
170.7530077518
 21
110.9287506361
 31
0.0
  0
LINE
  5
A0
330
40
100
AcDbEntity
  8
0012348
  6
Continuous
 62
     7
100
AcDbLine
 10
202.7530077518
 20
114.2787506361
 30
0.0
 11
202.7530077518
 21
99.5787506361
 31
0.0
  0
SPLINE
  5
A1
330
40
100
AcDbEntity
  8
0012348
  6
Continuous
 62
     7
100
AcDbSpline
210
0.0
220
0.0
230
1.0
 70
     8
 71
     3
 72
     8
 73
     4
 74
     0
 42
0.0000000010921829
 43
0.0000000001
 12
1.0
 22
0.0
 32
0.0
 13
1.0
 23
0.0
 33
0.0
 40
0.0
 40
0.0
 40
0.0
 40
0.0
 40
0.0589161938535543
 40
0.0589161938535543
 40
0.0589161938535543
 40
0.0589161938535543
 10
175.7228682610565
 20
102.3588901268738
 30
0.0
 10
175.7109290460711
 20
102.5382905874985
 30
0.0
 10
175.69955737951
 20
102.7177461802042
 30
0.0
 10
175.6887853911909
 20
102.8972456689018
 30
0.0
  0
SPLINE
  5
A2
330
40
100
AcDbEntity
  8
0012348
  6
Continuous
 62
     7
100
AcDbSpline
210
0.0
220
0.0
230
1.0
 70
     8
 71
     3
 72
     8
 73
     4
 74
     0
 42
0.0000000010932564
 43
0.0000000001
 12
1.0
 22
0.0
 32
0.0
 13
1.0
 23
0.0
 33
0.0
 40
0.9405926983699182
 40
0.9405926983699182
 40
0.9405926983699182
 40
0.9405926983699182
 40
1.0
 40
1.0
 40
1.0
 40
1.0
 10
175.6885427254584
 20
110.9563006324211
 30
0.0
 10
175.6993860300113
 20
111.1370840626536
 30
0.0
 10
175.7108387573449
 20
111.3178539925472
 30
0.0
 10
175.7228682610565
 20
111.4986111453068
 30
0.0
  0
LINE
  5
A3
330
40
100
AcDbEntity
  8
0012348
  6
Continuous
 62
     7
100
AcDbLine
 10
175.7530077518
 20
102.3287506361
 30
0.0
 11
175.1530077518
 21
102.9287506361
 31
0.0
  0
LINE
  5
A4
330
40
100
AcDbEntity
  8
0012348
  6
Continuous
 62
     7
100
AcDbLine
 10
175.1530077518
 20
102.1229452588
 30
0.0
 11
175.7530077518
 21
102.1269133738
 31
0.0
  0
LINE
  5
A5
330
40
100
AcDbEntity
  8
0012348
  6
Continuous
 62
     7
100
AcDbLine
 10
175.1530077518
 20
102.1229452588
 30
0.0
 11
175.1530077518
 21
102.9287506361
 31
0.0
  0
LINE
  5
A6
330
40
100
AcDbEntity
  8
0012348
  6
Continuous
 62
     7
100
AcDbLine
 10
175.7530077518
 20
111.7305878984
 30
0.0
 11
175.1530077518
 21
111.7345560134
 31
0.0
  0
LINE
  5
A7
330
40
100
AcDbEntity
  8
0012348
  6
Continuous
 62
     7
100
AcDbLine
 10
175.1530077518
 20
110.9287506361
 30
0.0
 11
175.7530077518
 21
111.5287506361
 31
0.0
  0
LINE
  5
A8
330
40
100
AcDbEntity
  8
0012348
  6
Continuous
 62
     7
100
AcDbLine
 10
170.7530077518
 20
102.1229452588
 30
0.0
 11
170.7530077518
 21
102.9287506361
 31
0.0
  0
LINE
  5
A9
330
40
100
AcDbEntity
  8
0012348
  6
Continuous
 62
     7
100
AcDbLine
 10
175.1530077518
 20
110.9287506361
 30
0.0
 11
175.1530077518
 21
111.7345560134
 31
0.0
  0
LINE
  5
AA
330
40
100
AcDbEntity
  8
0012348
  6
Continuous
 62
     7
100
AcDbLine
 10
170.7530077518
 20
111.7345560134
 30
0.0
 11
170.7530077518
 21
110.9287506361
 31
0.0
  0
ARC
  5
AB
330
40
100
AcDbEntity
  8
0012348
  6
Continuous
 62
     7
100
AcDbCircle
 10
198.756663975
 20
92.029044612
 30
0.0
 40
7.25616966498673
100
AcDbArc
 50
71.9662720778
 51
99.6386315404
  0
LINE
  5
AC
330
40
100
AcDbEntity
  8
0012348
  6
Continuous
 62
     7
100
AcDbLine
 10
190.7530077518
 20
99.1827839437
 30
0.0
 11
197.5422536645
 21
99.1827839437
 31
0.0
  0
ARC
  5
AD
330
40
100
AcDbEntity
  8
0012348
  6
Continuous
 62
     7
100
AcDbCircle
 10
147.1280077518
 20
153.4287506361
 30
0.0
 40
0.5000000000000004
100
AcDbArc
 50
270.0
 51
0.0
  0
LINE
  5
AE
330
40
100
AcDbEntity
  8
0012348
  6
Continuous
 62
     7
100
AcDbLine
 10
147.1280077518
 20
152.9287506361
 30
0.0
 11
144.3780077518
 21
152.9287506361
 31
0.0
  0
ARC
  5
AF
330
40
100
AcDbEntity
  8
0012348
  6
Continuous
 62
     7
100
AcDbCircle
 10
144.3780077518
 20
153.4287506361
 30
0.0
 40
0.5000000000000004
100
AcDbArc
 50
180.0
 51
270.0
  0
ARC
  5
B0
330
40
100
AcDbEntity
  8
0012348
  6
Continuous
 62
     7
100
AcDbCircle
 10
147.1280077518
 20
60.4287506361
 30
0.0
 40
0.5000000000000004
100
AcDbArc
 50
0.0
 51
90.0
  0
LINE
  5
B1
330
40
100
AcDbEntity
  8
0012348
  6
Continuous
 62
     7
100
AcDbLine
 10
144.3780077518
 20
60.9287506361
 30
0.0
 11
147.1280077518
 21
60.9287506361
 31
0.0
  0
ARC
  5
B2
330
40
100
AcDbEntity
  8
0012348
  6
Continuous
 62
     7
100
AcDbCircle
 10
144.3780077518
 20
60.4287506361
 30
0.0
 40
0.5000000000000004
100
AcDbArc
 50
90.0
 51
180.0
  0
LINE
  5
B3
330
40
100
AcDbEntity
  8
0012348
  6
Continuous
 62
     7
100
AcDbLine
 10
143.8780077518
 20
154.5513459003
 30
0.0
 11
142.5054124876
 21
156.9287506361
 31
0.0
  0
LINE
  5
B4
330
40
100
AcDbEntity
  8
0012348
  6
Continuous
 62
     7
100
AcDbLine
 10
142.5054124876
 20
56.9287506361
 30
0.0
 11
143.8780077518
 21
59.3061553719
 31
0.0
  0
LINE
  5
B5
330
40
100
AcDbEntity
  8
0012348
  6
Continuous
 62
     7
100
AcDbLine
 10
149.000603016
 20
156.9287506361
 30
0.0
 11
147.6280077518
 21
154.5513459003
 31
0.0
  0
LINE
  5
B6
330
40
100
AcDbEntity
  8
0012348
  6
Continuous
 62
     7
100
AcDbLine
 10
147.6280077518
 20
59.3061553719
 30
0.0
 11
149.000603016
 21
56.9287506361
 31
0.0
  0
LINE
  5
B7
330
40
100
AcDbEntity
  8
0012348
  6
Continuous
 62
     7
100
AcDbLine
 10
154.2530077518
 20
156.9287506361
 30
0.0
 11
149.000603016
 21
156.9287506361
 31
0.0
  0
LINE
  5
B8
330
40
100
AcDbEntity
  8
0012348
  6
Continuous
 62
     7
100
AcDbLine
 10
149.000603016
 20
56.9287506361
 30
0.0
 11
154.2530077518
 21
56.9287506361
 31
0.0
  0
LINE
  5
B9
330
40
100
AcDbEntity
  8
0012348
  6
Continuous
 62
     7
100
AcDbLine
 10
154.7530077518
 20
156.4287506361
 30
0.0
 11
154.2530077518
 21
156.9287506361
 31
0.0
  0
LINE
  5
BA
330
40
100
AcDbEntity
  8
0012348
  6
Continuous
 62
     7
100
AcDbLine
 10
154.2530077518
 20
56.9287506361
 30
0.0
 11
154.7530077518
 21
57.4287506361
 31
0.0
  0
LINE
  5
BB
330
40
100
AcDbEntity
  8
0012348
  6
Continuous
 62
     7
100
AcDbLine
 10
123.4244187864
 20
69.0451800844
 30
0.0
 11
123.9994179134
 21
69.1992506361
 31
0.0
  0
LINE
  5
BC
330
40
100
AcDbEntity
  8
0012348
  6
Continuous
 62
     7
100
AcDbLine
 10
123.9994179134
 20
144.6582506361
 30
0.0
 11
123.4244187864
 21
144.8123211878
 31
0.0
  0
LINE
  5
BD
330
40
100
AcDbEntity
  8
0012348
  6
Continuous
 62
     7
100
AcDbLine
 10
123.9994179134
 20
69.1992506361
 30
0.0
 11
124.8530077518
 21
69.1992506361
 31
0.0
  0
LINE
  5
BE
330
40
100
AcDbEntity
  8
0012348
  6
Continuous
 62
     7
100
AcDbLine
 10
124.8530077518
 20
144.6582506361
 30
0.0
 11
123.9994179134
 21
144.6582506361
 31
0.0
  0
ARC
  5
BF
330
40
100
AcDbEntity
  8
0012348
  6
Continuous
 62
     7
100
AcDbCircle
 10
124.8530077518
 20
68.1992506361
 30
0.0
 40
1.000000000000001
100
AcDbArc
 50
25.8419327632
 51
90.0
  0
ARC
  5
C0
330
40
100
AcDbEntity
  8
0012348
  6
Continuous
 62
     7
100
AcDbCircle
 10
124.8530077518
 20
145.6582506361
 30
0.0
 40
1.0
100
AcDbArc
 50
270.0
 51
334.1580672368
  0
LINE
  5
C1
330
40
100
AcDbEntity
  8
0012348
  6
Continuous
 62
     7
100
AcDbLine
 10
126.2530077518
 20
156.9287506361
 30
0.0
 11
125.7530077518
 21
156.4287506361
 31
0.0
  0
LINE
  5
C2
330
40
100
AcDbEntity
  8
0012348
  6
Continuous
 62
     7
100
AcDbLine
 10
125.7530077518
 20
57.4287506361
 30
0.0
 11
126.2530077518
 21
56.9287506361
 31
0.0
  0
LINE
  5
C3
330
40
100
AcDbEntity
  8
0012348
  6
Continuous
 62
     7
100
AcDbLine
 10
126.2530077518
 20
56.9287506361
 30
0.0
 11
142.5054124876
 21
56.9287506361
 31
0.0
  0
LINE
  5
C4
330
40
100
AcDbEntity
  8
0012348
  6
Continuous
 62
     7
100
AcDbLine
 10
127.7530077518
 20
156.9287506361
 30
0.0
 11
126.2530077518
 21
156.9287506361
 31
0.0
  0
LINE
  5
C5
330
40
100
AcDbEntity
  8
0012348
  6
Continuous
 62
     7
100
AcDbLine
 10
142.5054124876
 20
156.9287506361
 30
0.0
 11
137.737682178
 21
156.9287506361
 31
0.0
  0
ARC
  5
C6
330
40
100
AcDbEntity
  8
0012348
  6
Continuous
 62
     7
100
AcDbCircle
 10
77.7530077518
 20
73.3312490755
 30
0.0
 40
2.000000000000002
100
AcDbArc
 50
180.0
 51
267.1375947739
  0
ARC
  5
C7
330
40
100
AcDbEntity
  8
0012348
  6
Continuous
 62
     7
100
AcDbCircle
 10
77.7530077518
 20
140.5262521966
 30
0.0
 40
2.0
100
AcDbArc
 50
92.8624052261
 51
180.0
  0
LINE
  5
C8
330
40
100
AcDbEntity
  8
0012348
  6
Continuous
 62
     7
100
AcDbLine
 10
123.4244187864
 20
144.8123211878
 30
0.0
 11
77.653132518
 21
142.5237568744
 31
0.0
  0
LINE
  5
C9
330
40
100
AcDbEntity
  8
0012348
  6
Continuous
 62
     7
100
AcDbLine
 10
77.653132518
 20
71.3337443978
 30
0.0
 11
123.4244187864
 21
69.0451800844
 31
0.0
  0
LINE
  5
CA
330
40
100
AcDbEntity
  8
0012348
  6
Continuous
 62
     7
100
AcDbLine
 10
175.1530077518
 20
90.9287506361
 30
0.0
 11
175.7530077518
 21
91.5287506361
 31
0.0
  0
LINE
  5
CB
330
40
100
AcDbEntity
  8
0012348
  6
Continuous
 62
     7
100
AcDbLine
 10
175.7530077518
 20
122.3287506361
 30
0.0
 11
175.1530077518
 21
122.9287506361
 31
0.0
  0
LINE
  5
CC
330
40
100
AcDbEntity
  8
0012348
  6
Continuous
 62
     7
100
AcDbLine
 10
155.5530077518
 20
90.9287506361
 30
0.0
 11
175.1530077518
 21
90.9287506361
 31
0.0
  0
LINE
  5
CD
330
40
100
AcDbEntity
  8
0012348
  6
Continuous
 62
     7
100
AcDbLine
 10
175.1530077518
 20
122.9287506361
 30
0.0
 11
155.5530077518
 21
122.9287506361
 31
0.0
  0
LINE
  5
CE
330
40
100
AcDbEntity
  8
0012348
  6
Continuous
 62
     7
100
AcDbLine
 10
201.0021921685
 20
98.9287506361
 30
0.0
 11
202.1030077518
 21
98.9287506361
 31
0.0
  0
LINE
  5
CF
330
40
100
AcDbEntity
  8
0012348
  6
Continuous
 62
     7
100
AcDbLine
 10
202.1030077518
 20
114.9287506361
 30
0.0
 11
190.7530077518
 21
114.9287506361
 31
0.0
  0
LINE
  5
D0
330
40
100
AcDbEntity
  8
0012348
  6
Continuous
 62
     7
100
AcDbLine
 10
202.1030077518
 20
98.9287506361
 30
0.0
 11
202.7530077518
 21
99.5787506361
 31
0.0
  0
LINE
  5
D1
330
40
100
AcDbEntity
  8
0012348
  6
Continuous
 62
     7
100
AcDbLine
 10
202.7530077518
 20
114.2787506361
 30
0.0
 11
202.1030077518
 21
114.9287506361
 31
0.0
  0
ARC
  5
D2
330
40
100
AcDbEntity
  8
0012348
  6
Continuous
 62
     7
100
AcDbCircle
 10
155.5530077518
 20
123.7287506361
 30
0.0
 40
0.7999999999999986
100
AcDbArc
 50
180.0
 51
270.0
  0
ARC
  5
D3
330
40
100
AcDbEntity
  8
0012348
  6
Continuous
 62
     7
100
AcDbCircle
 10
155.5530077518
 20
90.1287506361
 30
0.0
 40
0.7999999999999986
100
AcDbArc
 50
90.0
 51
180.0
  0
LINE
  5
D4
330
40
100
AcDbEntity
  8
0012348
  6
Continuous
 62
     7
100
AcDbLine
 10
190.7530077518
 20
122.0284195066
 30
0.0
 11
190.7530077518
 21
114.6747173285
 31
0.0
  0
LINE
  5
D5
330
40
100
AcDbEntity
  8
0012348
  6
Continuous
 62
     7
100
AcDbLine
 10
190.7530077518
 20
122.0284195066
 30
0.0
 11
190.7530077518
 21
122.4287506361
 31
0.0
  0
LINE
  5
D6
330
40
100
AcDbEntity
  8
0012348
  6
Continuous
 62
     7
100
AcDbLine
 10
190.2530077518
 20
122.9287506361
 30
0.0
 11
190.2530077518
 21
122.5422482184
 31
0.0
  0
LINE
  5
D7
330
40
100
AcDbEntity
  8
0012348
  6
Continuous
 62
     7
100
AcDbLine
 10
190.2530077518
 20
91.3152530538
 30
0.0
 11
190.2530077518
 21
90.9287506361
 31
0.0
  0
LINE
  5
D8
330
40
100
AcDbEntity
  8
0012348
  6
Continuous
 62
     7
100
AcDbLine
 10
185.2530077518
 20
122.5422482184
 30
0.0
 11
190.2530077518
 21
122.5422482184
 31
0.0
  0
LINE
  5
D9
330
40
100
AcDbEntity
  8
0012348
  6
Continuous
 62
     7
100
AcDbLine
 10
190.2530077518
 20
91.3152530538
 30
0.0
 11
185.2530077518
 21
91.3152530538
 31
0.0
  0
LINE
  5
DA
330
40
100
AcDbEntity
  8
0012348
  6
Continuous
 62
     7
100
AcDbLine
 10
185.2530077518
 20
91.3152530538
 30
0.0
 11
185.2530077518
 21
122.5422482184
 31
0.0
  0
LINE
  5
DB
330
40
100
AcDbEntity
  8
0012348
  6
Continuous
 62
     7
100
AcDbLine
 10
171.2530077518
 20
103.4332258904
 30
0.0
 11
176.2530077518
 21
103.4332258904
 31
0.0
  0
LINE
  5
DC
330
40
100
AcDbEntity
  8
0012348
  6
Continuous
 62
     7
100
AcDbLine
 10
176.2530077518
 20
103.4332258904
 30
0.0
 11
176.2530077518
 21
90.9287506361
 31
0.0
  0
LINE
  5
DD
330
40
100
AcDbEntity
  8
0012348
  6
Continuous
 62
     7
100
AcDbLine
 10
171.2530077518
 20
110.4242753818
 30
0.0
 11
171.2530077518
 21
103.4332258904
 31
0.0
  0
LINE
  5
DE
330
40
100
AcDbEntity
  8
0012348
  6
Continuous
 62
     7
100
AcDbLine
 10
176.2530077518
 20
110.4242753818
 30
0.0
 11
171.2530077518
 21
110.4242753818
 31
0.0
  0
LINE
  5
DF
330
40
100
AcDbEntity
  8
0012348
  6
Continuous
 62
     7
100
AcDbLine
 10
176.2530077518
 20
110.4242753818
 30
0.0
 11
176.2530077518
 21
122.9287506361
 31
0.0
  0
LINE
  5
E0
330
40
100
AcDbEntity
  8
0012348
  6
Continuous
 62
     7
100
AcDbLine
 10
190.2530077518
 20
114.0819868277
 30
0.0
 11
185.7530077518
 21
114.0819868277
 31
0.0
  0
LINE
  5
E1
330
40
100
AcDbEntity
  8
0012348
  6
Continuous
 62
     7
100
AcDbLine
 10
185.7530077518
 20
99.7755144445
 30
0.0
 11
190.2530077518
 21
99.7755144445
 31
0.0
  0
LINE
  5
E2
330
40
100
AcDbEntity
  8
0012348
  6
Continuous
 62
     7
100
AcDbLine
 10
185.7530077518
 20
114.3401070052
 30
0.0
 11
190.2530077518
 21
114.3401070052
 31
0.0
  0
LINE
  5
E3
330
40
100
AcDbEntity
  8
0012348
  6
Continuous
 62
     7
100
AcDbLine
 10
190.2530077518
 20
114.3401070052
 30
0.0
 11
190.2530077518
 21
121.9123438839
 31
0.0
  0
LINE
  5
E4
330
40
100
AcDbEntity
  8
0012348
  6
Continuous
 62
     7
100
AcDbLine
 10
190.2530077518
 20
121.9123438839
 30
0.0
 11
185.7446852566
 21
121.9123438839
 31
0.0
  0
LINE
  5
E5
330
40
100
AcDbEntity
  8
0012348
  6
Continuous
 62
     7
100
AcDbLine
 10
190.2530077518
 20
91.9451573883
 30
0.0
 11
190.2530077518
 21
99.517394267
 31
0.0
  0
LINE
  5
E6
330
40
100
AcDbEntity
  8
0012348
  6
Continuous
 62
     7
100
AcDbLine
 10
190.2530077518
 20
99.517394267
 30
0.0
 11
185.7530077518
 21
99.517394267
 31
0.0
  0
LINE
  5
E7
330
40
100
AcDbEntity
  8
0012348
  6
Continuous
 62
     7
100
AcDbLine
 10
185.7446852566
 20
91.9451573883
 30
0.0
 11
190.2530077518
 21
91.9451573883
 31
0.0
  0
LINE
  5
E8
330
40
100
AcDbEntity
  8
0012348
  6
Continuous
 62
     7
100
AcDbLine
 10
185.7530077518
 20
121.903729768
 30
0.0
 11
185.7530077518
 21
91.9537715042
 31
0.0
  0
LINE
  5
E9
330
40
100
AcDbEntity
  8
0012348
  6
Continuous
 62
     7
100
AcDbLine
 10
175.761330247
 20
102.9287506361
 30
0.0
 11
171.2530077518
 21
102.9287506361
 31
0.0
  0
LINE
  5
EA
330
40
100
AcDbEntity
  8
0012348
  6
Continuous
 62
     7
100
AcDbLine
 10
170.7530077518
 20
103.4287506361
 30
0.0
 11
170.7530077518
 21
110.4287506361
 31
0.0
  0
LINE
  5
EB
330
40
100
AcDbEntity
  8
0012348
  6
Continuous
 62
     7
100
AcDbLine
 10
175.7530077518
 20
102.9287506361
 30
0.0
 11
175.7530077518
 21
91.4287506361
 31
0.0
  0
LINE
  5
EC
330
40
100
AcDbEntity
  8
0012348
  6
Continuous
 62
     7
100
AcDbLine
 10
171.2530077518
 20
110.9287506361
 30
0.0
 11
175.761330247
 21
110.9287506361
 31
0.0
  0
LINE
  5
ED
330
40
100
AcDbEntity
  8
0012348
  6
Continuous
 62
     7
100
AcDbLine
 10
175.7530077518
 20
122.4287506361
 30
0.0
 11
175.7530077518
 21
110.9287506361
 31
0.0
  0
LINE
  5
EE
330
40
100
AcDbEntity
  8
0012348
  6
Continuous
 62
     7
100
AcDbLine
 10
190.7530077518
 20
91.4287506361
 30
0.0
 11
190.7530077518
 21
91.8290817655
 31
0.0
  0
LINE
  5
EF
330
40
100
AcDbEntity
  8
0012348
  6
Continuous
 62
     7
100
AcDbLine
 10
190.7530077518
 20
99.1827839437
 30
0.0
 11
190.7530077518
 21
91.8290817655
 31
0.0
  0
LINE
  5
F0
330
40
100
AcDbEntity
  8
0012348
  6
Continuous
 62
     7
100
AcDbLine
 10
185.7446852566
 20
121.9123438839
 30
0.0
 11
185.7530077518
 21
121.903729768
 31
0.0
  0
LINE
  5
F1
330
40
100
AcDbEntity
  8
0012348
  6
Continuous
 62
     7
100
AcDbLine
 10
185.7530077518
 20
91.9537715042
 30
0.0
 11
185.7446852566
 21
91.9451573883
 31
0.0
  0
LINE
  5
F2
330
40
100
AcDbEntity
  8
0012348
  6
Continuous
 62
     7
100
AcDbLine
 10
190.7530077518
 20
91.8290817655
 30
0.0
 11
190.2530077518
 21
91.9451573883
 31
0.0
  0
LINE
  5
F3
330
40
100
AcDbEntity
  8
0012348
  6
Continuous
 62
     7
100
AcDbLine
 10
190.2530077518
 20
99.517394267
 30
0.0
 11
190.7530077518
 21
99.1827839437
 31
0.0
  0
LINE
  5
F4
330
40
100
AcDbEntity
  8
0012348
  6
Continuous
 62
     7
100
AcDbLine
 10
190.2530077518
 20
91.3152530538
 30
0.0
 11
190.2530077518
 21
91.9451573883
 31
0.0
  0
LINE
  5
F5
330
40
100
AcDbEntity
  8
0012348
  6
Continuous
 62
     7
100
AcDbLine
 10
190.7530077518
 20
91.8290817655
 30
0.0
 11
190.2530077518
 21
91.3152530538
 31
0.0
  0
ELLIPSE
  5
F6
330
40
100
AcDbEntity
  8
0012348
  6
Continuous
 62
     7
100
AcDbEllipse
 10
207.3514751557
 20
87.4247013809
 30
0.0
 11
-22.76435656858152
 21
21.83801285605606
 31
0.0
210
0.0
220
0.0
230
1.0
 40
0.1236972731
 41
0.847061693580068
 42
0.8792329815848035
  0
LINE
  5
F7
330
40
100
AcDbEntity
  8
0012348
  6
Continuous
 62
     7
100
AcDbLine
 10
190.2530077518
 20
99.517394267
 30
0.0
 11
190.2530077518
 21
99.7755144445
 31
0.0
  0
LINE
  5
F8
330
40
100
AcDbEntity
  8
0012348
  6
Continuous
 62
     7
100
AcDbLine
 10
185.2530077518
 20
91.3152530538
 30
0.0
 11
185.7446852566
 21
91.9451573883
 31
0.0
  0
LINE
  5
F9
330
40
100
AcDbEntity
  8
0012348
  6
Continuous
 62
     7
100
AcDbLine
 10
185.2530077518
 20
122.5422482184
 30
0.0
 11
185.7446852566
 21
121.9123438839
 31
0.0
  0
LINE
  5
FA
330
40
100
AcDbEntity
  8
0012348
  6
Continuous
 62
     7
100
AcDbLine
 10
190.2530077518
 20
121.9123438839
 30
0.0
 11
190.7530077518
 21
122.0284195066
 31
0.0
  0
LINE
  5
FB
330
40
100
AcDbEntity
  8
0012348
  6
Continuous
 62
     7
100
AcDbLine
 10
190.2530077518
 20
122.5422482184
 30
0.0
 11
190.2530077518
 21
121.9123438839
 31
0.0
  0
LINE
  5
FC
330
40
100
AcDbEntity
  8
0012348
  6
Continuous
 62
     7
100
AcDbLine
 10
190.2530077518
 20
114.3401070052
 30
0.0
 11
190.2530077518
 21
114.0819868277
 31
0.0
  0
LINE
  5
FD
330
40
100
AcDbEntity
  8
0012348
  6
Continuous
 62
     7
100
AcDbLine
 10
190.7530077518
 20
114.6747173285
 30
0.0
 11
190.2530077518
 21
114.3401070052
 31
0.0
  0
LINE
  5
FE
330
40
100
AcDbEntity
  8
0012348
  6
Continuous
 62
     7
100
AcDbLine
 10
190.2530077518
 20
122.5422482184
 30
0.0
 11
190.7530077518
 21
122.0284195066
 31
0.0
  0
ELLIPSE
  5
FF
330
40
100
AcDbEntity
  8
0012348
  6
Continuous
 62
     7
100
AcDbEllipse
 10
207.3514754239
 20
126.4328000829
 30
0.0
 11
-22.76435684792384
 21
-21.83801308082952
 31
0.0
210
0.0
220
0.0
230
1.0
 40
0.1236972733
 41
-0.8792329774158256
 42
-0.8470616896675045
  0
LINE
  5
100
330
40
100
AcDbEntity
  8
0012348
  6
Continuous
 62
     7
100
AcDbLine
 10
171.2530077518
 20
110.9287506361
 30
0.0
 11
170.7530077518
 21
110.4287506361
 31
0.0
  0
LINE
  5
101
330
40
100
AcDbEntity
  8
0012348
  6
Continuous
 62
     7
100
AcDbLine
 10
171.2530077518
 20
110.4242753818
 30
0.0
 11
170.7530077518
 21
110.4287506361
 31
0.0
  0
LINE
  5
102
330
40
100
AcDbEntity
  8
0012348
  6
Continuous
 62
     7
100
AcDbLine
 10
171.2530077518
 20
110.9287506361
 30
0.0
 11
171.2530077518
 21
110.4242753818
 31
0.0
  0
LINE
  5
103
330
40
100
AcDbEntity
  8
0012348
  6
Continuous
 62
     7
100
AcDbLine
 10
170.7530077518
 20
103.4287506361
 30
0.0
 11
171.2530077518
 21
102.9287506361
 31
0.0
  0
LINE
  5
104
330
40
100
AcDbEntity
  8
0012348
  6
Continuous
 62
     7
100
AcDbLine
 10
171.2530077518
 20
103.4332258904
 30
0.0
 11
170.7530077518
 21
103.4287506361
 31
0.0
  0
LINE
  5
105
330
40
100
AcDbEntity
  8
0012348
  6
Continuous
 62
     7
100
AcDbLine
 10
175.761330247
 20
110.9287506361
 30
0.0
 11
176.2530077518
 21
110.4242753818
 31
0.0
  0
LINE
  5
106
330
40
100
AcDbEntity
  8
0012348
  6
Continuous
 62
     7
100
AcDbLine
 10
171.2530077518
 20
103.4332258904
 30
0.0
 11
171.2530077518
 21
102.9287506361
 31
0.0
  0
LINE
  5
107
330
40
100
AcDbEntity
  8
0012348
  6
Continuous
 62
     7
100
AcDbLine
 10
176.2530077518
 20
103.4332258904
 30
0.0
 11
175.761330247
 21
102.9287506361
 31
0.0
  0
LINE
  5
108
330
40
100
AcDbEntity
  8
0012348
  6
Continuous
 62
     7
100
AcDbLine
 10
176.2530077518
 20
90.9287506361
 30
0.0
 11
190.2530077518
 21
90.9287506361
 31
0.0
  0
LINE
  5
109
330
40
100
AcDbEntity
  8
0012348
  6
Continuous
 62
     7
100
AcDbLine
 10
190.2530077518
 20
122.9287506361
 30
0.0
 11
176.2530077518
 21
122.9287506361
 31
0.0
  0
LINE
  5
10A
330
40
100
AcDbEntity
  8
0012348
  6
Continuous
 62
     7
100
AcDbLine
 10
190.2530077518
 20
90.9287506361
 30
0.0
 11
190.7530077518
 21
91.4287506361
 31
0.0
  0
LINE
  5
10B
330
40
100
AcDbEntity
  8
0012348
  6
Continuous
 62
     7
100
AcDbLine
 10
190.7530077518
 20
122.4287506361
 30
0.0
 11
190.2530077518
 21
122.9287506361
 31
0.0
  0
LINE
  5
10C
330
40
100
AcDbEntity
  8
0012348
  6
Continuous
 62
     7
100
AcDbLine
 10
176.2530077518
 20
122.9287506361
 30
0.0
 11
175.7530077518
 21
122.4287506361
 31
0.0
  0
LINE
  5
10D
330
40
100
AcDbEntity
  8
0012348
  6
Continuous
 62
     7
100
AcDbLine
 10
175.7530077518
 20
91.4287506361
 30
0.0
 11
176.2530077518
 21
90.9287506361
 31
0.0
  0
LINE
  5
10E
330
40
100
AcDbEntity
  8
0012348
  6
Continuous
 62
     7
100
AcDbLine
 10
206.7530077518
 20
116.9287506361
 30
0.0
 11
206.7530077518
 21
116.093902026
 31
0.0
  0
LINE
  5
10F
330
40
100
AcDbEntity
  8
0012348
  6
Continuous
 62
     7
100
AcDbLine
 10
212.7530077518
 20
116.9287506361
 30
0.0
 11
212.7530077518
 21
116.093902026
 31
0.0
  0
LINE
  5
110
330
40
100
AcDbEntity
  8
0012348
  6
Continuous
 62
     7
100
AcDbLine
 10
212.7530077518
 20
110.9287506361
 30
0.0
 11
206.7530077518
 21
110.9287506361
 31
0.0
  0
LINE
  5
111
330
40
100
AcDbEntity
  8
0012348
  6
Continuous
 62
     7
100
AcDbLine
 10
206.7530077518
 20
116.093902026
 30
0.0
 11
212.7530077518
 21
116.093902026
 31
0.0
  0
LINE
  5
112
330
40
100
AcDbEntity
  8
0012348
  6
Continuous
 62
     7
100
AcDbLine
 10
206.7530077518
 20
97.7635992462
 30
0.0
 11
206.7530077518
 21
96.9287506361
 31
0.0
  0
LINE
  5
113
330
40
100
AcDbEntity
  8
0012348
  6
Continuous
 62
     7
100
AcDbLine
 10
212.7530077518
 20
97.7635992462
 30
0.0
 11
212.7530077518
 21
96.9287506361
 31
0.0
  0
LINE
  5
114
330
40
100
AcDbEntity
  8
0012348
  6
Continuous
 62
     7
100
AcDbLine
 10
206.7530077518
 20
102.9287506361
 30
0.0
 11
206.7530077518
 21
110.9287506361
 31
0.0
  0
LINE
  5
115
330
40
100
AcDbEntity
  8
0012348
  6
Continuous
 62
     7
100
AcDbLine
 10
206.7530077518
 20
97.7635992462
 30
0.0
 11
206.7530077518
 21
100.9287506361
 31
0.0
  0
LINE
  5
116
330
40
100
AcDbEntity
  8
0012348
  6
Continuous
 62
     7
100
AcDbLine
 10
212.7530077518
 20
102.9287506361
 30
0.0
 11
212.7530077518
 21
110.9287506361
 31
0.0
  0
LINE
  5
117
330
40
100
AcDbEntity
  8
0012348
  6
Continuous
 62
     7
100
AcDbLine
 10
212.7530077518
 20
97.7635992462
 30
0.0
 11
206.7530077518
 21
97.7635992462
 31
0.0
  0
LINE
  5
118
330
40
100
AcDbEntity
  8
0012348
  6
Continuous
 62
     7
100
AcDbLine
 10
206.7530077518
 20
102.9287506361
 30
0.0
 11
212.7530077518
 21
102.9287506361
 31
0.0
  0
LINE
  5
119
330
40
100
AcDbEntity
  8
0012348
  6
Continuous
 62
     7
100
AcDbLine
 10
212.7530077518
 20
97.7635992462
 30
0.0
 11
212.7530077518
 21
100.9287506361
 31
0.0
  0
LINE
  5
11A
330
40
100
AcDbEntity
  8
0012348
  6
Continuous
 62
     7
100
AcDbLine
 10
206.7530077518
 20
112.9287506361
 30
0.0
 11
206.7530077518
 21
116.093902026
 31
0.0
  0
LINE
  5
11B
330
40
100
AcDbEntity
  8
0012348
  6
Continuous
 62
     7
100
AcDbLine
 10
212.7530077518
 20
112.9287506361
 30
0.0
 11
212.7530077518
 21
116.093902026
 31
0.0
  0
LINE
  5
11C
330
40
100
AcDbEntity
  8
0012348
  6
Continuous
 62
     7
100
AcDbLine
 10
212.7530077518
 20
112.9287506361
 30
0.0
 11
212.7530077518
 21
110.9287506361
 31
0.0
  0
LINE
  5
11D
330
40
100
AcDbEntity
  8
0012348
  6
Continuous
 62
     7
100
AcDbLine
 10
206.7530077518
 20
110.9287506361
 30
0.0
 11
206.7530077518
 21
112.9287506361
 31
0.0
  0
LINE
  5
11E
330
40
100
AcDbEntity
  8
0012348
  6
Continuous
 62
     7
100
AcDbLine
 10
212.7530077518
 20
102.9287506361
 30
0.0
 11
212.7530077518
 21
100.9287506361
 31
0.0
  0
LINE
  5
11F
330
40
100
AcDbEntity
  8
0012348
  6
Continuous
 62
     7
100
AcDbLine
 10
206.7530077518
 20
100.9287506361
 30
0.0
 11
206.7530077518
 21
102.9287506361
 31
0.0
  0
LINE
  5
120
330
40
100
AcDbEntity
  8
0012348
  6
Continuous
 62
     7
100
AcDbLine
 10
202.7530077518
 20
102.9287506361
 30
0.0
 11
205.7530077518
 21
102.9287506361
 31
0.0
  0
LINE
  5
121
330
40
100
AcDbEntity
  8
0012348
  6
Continuous
 62
     7
100
AcDbLine
 10
205.7530077518
 20
110.9287506361
 30
0.0
 11
202.7530077518
 21
110.9287506361
 31
0.0
  0
LINE
  5
122
330
40
100
AcDbEntity
  8
0012348
  6
Continuous
 62
     7
100
AcDbLine
 10
212.7530077518
 20
116.9287506361
 30
0.0
 11
206.7530077518
 21
116.9287506361
 31
0.0
  0
LINE
  5
123
330
40
100
AcDbEntity
  8
0012348
  6
Continuous
 62
     7
100
AcDbLine
 10
206.7530077518
 20
96.9287506361
 30
0.0
 11
212.7530077518
 21
96.9287506361
 31
0.0
  0
ARC
  5
124
330
40
100
AcDbEntity
  8
0012348
  6
Continuous
 62
     7
100
AcDbCircle
 10
205.7530077518
 20
111.9287506361
 30
0.0
 40
1.000000000000001
100
AcDbArc
 50
270.0
 51
0.0
  0
ARC
  5
125
330
40
100
AcDbEntity
  8
0012348
  6
Continuous
 62
     7
100
AcDbCircle
 10
205.7530077518
 20
101.9287506361
 30
0.0
 40
1.0
100
AcDbArc
 50
0.0
 51
90.0
  0
LINE
  5
126
330
40
100
AcDbEntity
  8
0012348
  6
Continuous
 62
     7
100
AcDbLine
 10
205.7530077518
 20
110.9287506361
 30
0.0
 11
205.7530077518
 21
110.1617506361
 31
0.0
  0
LINE
  5
127
330
40
100
AcDbEntity
  8
0012348
  6
Continuous
 62
     7
100
AcDbLine
 10
202.7530077518
 20
110.1617506361
 30
0.0
 11
205.7530077518
 21
110.1617506361
 31
0.0
  0
LINE
  5
128
330
40
100
AcDbEntity
  8
0012348
  6
Continuous
 62
     7
100
AcDbLine
 10
202.7530077518
 20
103.6957506361
 30
0.0
 11
205.7530077518
 21
103.6957506361
 31
0.0
  0
LINE
  5
129
330
40
100
AcDbEntity
  8
0012348
  6
Continuous
 62
     7
100
AcDbLine
 10
205.7530077518
 20
102.9287506361
 30
0.0
 11
205.7530077518
 21
103.6957506361
 31
0.0
  0
LINE
  5
12C
330
40
100
AcDbEntity
  8
DV1_Default
  6
CENTER2
 62
     7
100
AcDbLine
 10
112.5030078059
 20
106.9287506361
 30
0.0
 11
109.0030076978
 21
106.9287506361
 31
0.0
  0
LINE
  5
12D
330
40
100
AcDbEntity
  8
DV1_Default
  6
CENTER2
 62
     7
100
AcDbLine
 10
110.7530077518
 20
108.6787506901
 30
0.0
 11
110.7530077518
 21
105.1787505821
 31
0.0
  0
LINE
  5
12E
330
40
100
AcDbEntity
  8
DV1_Default
  6
CENTER2
 62
     7
100
AcDbLine
 10
114.2530078599
 20
106.9287506361
 30
0.0
 11
118.7530077518
 21
106.9287506361
 31
0.0
  0
LINE
  5
12F
330
40
100
AcDbEntity
  8
DV1_Default
  6
CENTER2
 62
     7
100
AcDbLine
 10
110.7530077518
 20
110.4287507441
 30
0.0
 11
110.7530077518
 21
114.9287506361
 31
0.0
  0
LINE
  5
130
330
40
100
AcDbEntity
  8
DV1_Default
  6
CENTER2
 62
     7
100
AcDbLine
 10
107.2530076438
 20
106.9287506361
 30
0.0
 11
102.7530077518
 21
106.9287506361
 31
0.0
  0
LINE
  5
131
330
40
100
AcDbEntity
  8
DV1_Default
  6
CENTER2
 62
     7
100
AcDbLine
 10
110.7530077518
 20
103.4287505281
 30
0.0
 11
110.7530077518
 21
98.9287506361
 31
0.0
  0
LINE
  5
132
330
40
100
AcDbEntity
  8
DV1_Default
  6
CENTER2
 62
     7
100
AcDbLine
 10
172.5030078059
 20
106.9287506361
 30
0.0
 11
169.0030076978
 21
106.9287506361
 31
0.0
  0
LINE
  5
133
330
40
100
AcDbEntity
  8
DV1_Default
  6
CENTER2
 62
     7
100
AcDbLine
 10
170.7530077518
 20
108.6787506901
 30
0.0
 11
170.7530077518
 21
105.1787505821
 31
0.0
  0
LINE
  5
134
330
40
100
AcDbEntity
  8
DV1_Default
  6
CENTER2
 62
     7
100
AcDbLine
 10
174.2530078599
 20
106.9287506361
 30
0.0
 11
176.7530077518
 21
106.9287506361
 31
0.0
  0
LINE
  5
135
330
40
100
AcDbEntity
  8
DV1_Default
  6
CENTER2
 62
     7
100
AcDbLine
 10
170.7530077518
 20
110.4287507441
 30
0.0
 11
170.7530077518
 21
112.9287506361
 31
0.0
  0
LINE
  5
136
330
40
100
AcDbEntity
  8
DV1_Default
  6
CENTER2
 62
     7
100
AcDbLine
 10
167.2530076438
 20
106.9287506361
 30
0.0
 11
164.7530077518
 21
106.9287506361
 31
0.0
  0
LINE
  5
137
330
40
100
AcDbEntity
  8
DV1_Default
  6
CENTER2
 62
     7
100
AcDbLine
 10
170.7530077518
 20
103.4287505281
 30
0.0
 11
170.7530077518
 21
100.9287506361
 31
0.0
  0
LINE
  5
138
330
40
100
AcDbEntity
  8
DV1_Default
  6
CENTER2
 62
     7
100
AcDbLine
 10
142.5030078059
 20
106.9287506361
 30
0.0
 11
139.0030076978
 21
106.9287506361
 31
0.0
  0
LINE
  5
139
330
40
100
AcDbEntity
  8
DV1_Default
  6
CENTER2
 62
     7
100
AcDbLine
 10
140.7530077518
 20
108.6787506901
 30
0.0
 11
140.7530077518
 21
105.1787505821
 31
0.0
  0
LINE
  5
13A
330
40
100
AcDbEntity
  8
DV1_Default
  6
CENTER2
 62
     7
100
AcDbLine
 10
144.2530078599
 20
106.9287506361
 30
0.0
 11
152.7530077518
 21
106.9287506361
 31
0.0
  0
LINE
  5
13B
330
40
100
AcDbEntity
  8
DV1_Default
  6
CENTER2
 62
     7
100
AcDbLine
 10
140.7530077518
 20
110.4287507441
 30
0.0
 11
140.7530077518
 21
118.9287506361
 31
0.0
  0
LINE
  5
13C
330
40
100
AcDbEntity
  8
DV1_Default
  6
CENTER2
 62
     7
100
AcDbLine
 10
137.2530076438
 20
106.9287506361
 30
0.0
 11
128.7530077518
 21
106.9287506361
 31
0.0
  0
LINE
  5
13D
330
40
100
AcDbEntity
  8
DV1_Default
  6
CENTER2
 62
     7
100
AcDbLine
 10
140.7530077518
 20
103.4287505281
 30
0.0
 11
140.7530077518
 21
94.9287506361
 31
0.0
  0
LINE
  5
13E
330
40
100
AcDbEntity
  8
DV1_Default
  6
CENTER2
 62
     7
100
AcDbLine
 10
83.7530077518
 20
106.9287506361
 30
0.0
 11
214.7530077518
 21
106.9287506361
 31
0.0
  0
ENDBLK
  5
140
330
40
100
AcDbEntity
  8
0
100
AcDbBlockEnd
  0
BLOCK
  5
14A
330
141
100
AcDbEntity
  8
0
100
AcDbBlockBegin
  2
GDimGGroup
 70
     0
 10
0.0
 20
0.0
 30
0.0
  3
GDimGGroup
  1

  0
HATCH
  5
143
330
141
100
AcDbEntity
  8
Default
  6
Continuous
 62
     7
100
AcDbHatch
 10
0.0
 20
0.0
 30
0.0
210
0.0
220
0.0
230
1.0
  2
SOLID
 70
     1
 71
     0
 91
        1
 92
        1
 93
        3
 72
     1
 10
196.8043770293521
 20
111.4287505280569
 11
197.9710437320299
 21
111.4287505280569
 72
     1
 10
197.9710437320299
 20
111.4287505280569
 11
197.387710380691
 21
114.9287506360903
 72
     1
 10
197.387710380691
 20
114.9287506360903
 11
196.8043770293521
 21
111.4287505280569
 97
        0
 75
     0
 76
     1
 98
        0
  0
LINE
  5
144
330
141
100
AcDbEntity
  8
Default
  6
Continuous
 62
     7
100
AcDbLine
 10
202.1030077518
 20
114.9287506361
 30
0.0
 11
195.6377103267
 21
114.9287506361
 31
0.0
  0
LINE
  5
145
330
141
100
AcDbEntity
  8
Default
  6
Continuous
 62
     7
100
AcDbLine
 10
197.3877103807
 20
114.9287506361
 30
0.0
 11
197.3877103807
 21
106.9287502561
 31
0.0
  0
TEXT
  5
147
330
141
100
AcDbEntity
  8
Default
  6
Continuous
 62
     7
100
AcDbText
 10
196.5127103807
 20
100.5499682725
 30
0.0
 40
3.5
  1
O
 50
90.0
  7
SEACAD_Solid_Edge_ISO1_Symbols
 11
193.0127103807
 21
100.5499682725
 31
0.0
100
AcDbText
 73
     3
  0
TEXT
  5
149
330
141
100
AcDbEntity
  8
Default
  6
Continuous
 62
     7
100
AcDbText
 10
196.5127103807
 20
106.6411963427
 30
0.0
 40
3.5
  1
16
 50
90.0
  7
SEACAD_Solid_Edge_ISO
 11
193.0127103807
 21
106.6411963427
 31
0.0
100
AcDbText
 73
     3
  0
ENDBLK
  5
14B
330
141
100
AcDbEntity
  8
0
100
AcDbBlockEnd
  0
BLOCK
  5
155
330
14C
100
AcDbEntity
  8
0
100
AcDbBlockBegin
  2
GDimGGroup1
 70
     0
 10
0.0
 20
0.0
 30
0.0
  3
GDimGGroup1
  1

  0
HATCH
  5
14E
330
14C
100
AcDbEntity
  8
Default
  6
Continuous
 62
     7
100
AcDbHatch
 10
0.0
 20
0.0
 30
0.0
210
0.0
220
0.0
230
1.0
  2
SOLID
 70
     1
 71
     0
 91
        1
 92
        1
 93
        3
 72
     1
 10
182.7526804484553
 20
119.4287505280569
 11
182.1693470971164
 21
122.9287506360903
 72
     1
 10
182.1693470971164
 20
122.9287506360903
 11
181.5860137457775
 21
119.4287505280569
 72
     1
 10
181.5860137457775
 20
119.4287505280569
 11
182.7526804484553
 21
119.4287505280569
 97
        0
 75
     0
 76
     1
 98
        0
  0
HATCH
  5
14F
330
14C
100
AcDbEntity
  8
Default
  6
Continuous
 62
     7
100
AcDbHatch
 10
0.0
 20
0.0
 30
0.0
210
0.0
220
0.0
230
1.0
  2
SOLID
 70
     1
 71
     0
 91
        1
 92
        1
 93
        3
 72
     1
 10
182.7526804484553
 20
94.42874922420528
 11
181.5860137457775
 21
94.42874922420528
 72
     1
 10
181.5860137457775
 20
94.42874922420528
 11
182.1693470971164
 21
90.92874911617186
 72
     1
 10
182.1693470971164
 20
90.92874911617186
 11
182.7526804484553
 21
94.42874922420528
 97
        0
 75
     0
 76
     1
 98
        0
  0
LINE
  5
150
330
14C
100
AcDbEntity
  8
Default
  6
Continuous
 62
     7
100
AcDbLine
 10
176.2530077518
 20
122.9287506361
 30
0.0
 11
183.9193471511
 21
122.9287506361
 31
0.0
  0
LINE
  5
151
330
14C
100
AcDbEntity
  8
Default
  6
Continuous
 62
     7
100
AcDbLine
 10
176.2530077518
 20
90.9287506361
 30
0.0
 11
183.9193471511
 21
90.9287506361
 31
0.0
  0
LINE
  5
152
330
14C
100
AcDbEntity
  8
Default
  6
Continuous
 62
     7
100
AcDbLine
 10
182.1693470971
 20
122.9287506361
 30
0.0
 11
182.1693470971
 21
90.9287491162
 31
0.0
  0
TEXT
  5
153
330
14C
100
AcDbEntity
  8
Default
  6
Continuous
 62
     7
100
AcDbText
 10
181.2943470971
 20
101.8944994774
 30
0.0
 40
3.5
  1
O
 50
90.0
  7
SEACAD_Solid_Edge_ISO1_Symbols
 11
177.7943470971
 21
101.8944994774
 31
0.0
100
AcDbText
 73
     3
  0
TEXT
  5
154
330
14C
100
AcDbEntity
  8
Default
  6
Continuous
 62
     7
100
AcDbText
 10
181.2943470971
 20
107.9857275476
 30
0.0
 40
3.5
  1
32
 50
90.0
  7
SEACAD_Solid_Edge_ISO
 11
177.7943470971
 21
107.9857275476
 31
0.0
100
AcDbText
 73
     3
  0
ENDBLK
  5
156
330
14C
100
AcDbEntity
  8
0
100
AcDbBlockEnd
  0
BLOCK
  5
15F
330
157
100
AcDbEntity
  8
0
100
AcDbBlockBegin
  2
GDimGGroup2
 70
     0
 10
0.0
 20
0.0
 30
0.0
  3
GDimGGroup2
  1

  0
HATCH
  5
159
330
157
100
AcDbEntity
  8
Default
  6
Continuous
 62
     7
100
AcDbHatch
 10
0.0
 20
0.0
 30
0.0
210
0.0
220
0.0
230
1.0
  2
SOLID
 70
     1
 71
     0
 91
        1
 92
        1
 93
        3
 72
     1
 10
224.3695382528133
 20
114.4287507441237
 11
223.2028715501355
 21
114.4287507441237
 72
     1
 10
223.2028715501355
 20
114.4287507441237
 11
223.7862049014744
 21
110.9287506360903
 72
     1
 10
223.7862049014744
 20
110.9287506360903
 11
224.3695382528133
 21
114.4287507441237
 97
        0
 75
     0
 76
     1
 98
        0
  0
HATCH
  5
15A
330
157
100
AcDbEntity
  8
Default
  6
Continuous
 62
     7
100
AcDbHatch
 10
0.0
 20
0.0
 30
0.0
210
0.0
220
0.0
230
1.0
  2
SOLID
 70
     1
 71
     0
 91
        1
 92
        1
 93
        3
 72
     1
 10
224.3695382528133
 20
99.42875052805688
 11
223.7862049014744
 21
102.9287506360903
 72
     1
 10
223.7862049014744
 20
102.9287506360903
 11
223.2028715501355
 21
99.42875052805688
 72
     1
 10
223.2028715501355
 20
99.42875052805688
 11
224.3695382528133
 21
99.42875052805688
 97
        0
 75
     0
 76
     1
 98
        0
  0
LINE
  5
15B
330
157
100
AcDbEntity
  8
Default
  6
Continuous
 62
     7
100
AcDbLine
 10
205.7530077518
 20
110.9287506361
 30
0.0
 11
225.5362049555
 21
110.9287506361
 31
0.0
  0
LINE
  5
15C
330
157
100
AcDbEntity
  8
Default
  6
Continuous
 62
     7
100
AcDbLine
 10
205.7530077518
 20
102.9287506361
 30
0.0
 11
225.5362049555
 21
102.9287506361
 31
0.0
  0
LINE
  5
15D
330
157
100
AcDbEntity
  8
Default
  6
Continuous
 62
     7
100
AcDbLine
 10
223.7862049015
 20
123.5667970423
 30
0.0
 11
223.7862049015
 21
95.9287509714
 31
0.0
  0
TEXT
  5
15E
330
157
100
AcDbEntity
  8
Default
  6
Continuous
 62
     7
100
AcDbText
 10
222.9112049015
 20
116.3599787061
 30
0.0
 40
3.5
  1
M8
 50
90.0
  7
SEACAD_Solid_Edge_ISO
 11
219.4112049015
 21
116.3599787061
 31
0.0
100
AcDbText
 73
     3
  0
ENDBLK
  5
160
330
157
100
AcDbEntity
  8
0
100
AcDbBlockEnd
  0
BLOCK
  5
163
330
162
100
AcDbEntity
  8
0
100
AcDbBlockBegin
  2
_OBLIQUE
 70
     0
 10
0.0
 20
0.0
 30
0.0
  3
_OBLIQUE
  1

  0
LINE
  5
165
330
162
100
AcDbEntity
  8
0
  6
ByBlock
 62
     0
370
    -2
100
AcDbLine
 10
-0.5
 20
-0.5
 30
0.0
 11
0.5
 21
0.5
 31
0.0
  0
ENDBLK
  5
164
330
162
100
AcDbEntity
  8
0
100
AcDbBlockEnd
  0
BLOCK
  5
167
330
166
100
AcDbEntity
  8
0
100
AcDbBlockBegin
  2
_DOT
 70
     0
 10
0.0
 20
0.0
 30
0.0
  3
_DOT
  1

  0
POLYLINE
  5
169
330
166
100
AcDbEntity
  8
0
  6
ByBlock
 62
     0
100
AcDb2dPolyline
 66
     1
 10
0.0
 20
0.0
 30
0.0
 70
     1
 40
0.5
 41
0.5
  0
VERTEX
  5
16B
330
169
100
AcDbEntity
  8
0
  6
ByBlock
 62
     0
100
AcDbVertex
100
AcDb2dVertex
 10
-0.25
 20
0.0
 30
0.0
 42
1.0
  0
VERTEX
  5
16C
330
169
100
AcDbEntity
  8
0
  6
ByBlock
 62
     0
100
AcDbVertex
100
AcDb2dVertex
 10
0.25
 20
0.0
 30
0.0
 42
1.0
  0
SEQEND
  5
16D
330
169
100
AcDbEntity
  8
0
  6
ByBlock
 62
     0
  0
LINE
  5
16A
330
166
100
AcDbEntity
  8
0
  6
ByBlock
 62
     0
370
    -2
100
AcDbLine
 10
-0.5
 20
0.0
 30
0.0
 11
-1.0
 21
0.0
 31
0.0
  0
ENDBLK
  5
168
330
166
100
AcDbEntity
  8
0
100
AcDbBlockEnd
  0
BLOCK
  5
171
330
16E
100
AcDbEntity
  8
0
100
AcDbBlockBegin
  2
_SE_FILLED
 70
     0
 10
0.0
 20
0.0
 30
0.0
  3
_SE_FILLED
  1

  0
SOLID
  5
16F
330
16E
100
AcDbEntity
  8
0
 62
     0
100
AcDbTrace
 10
0.0
 20
0.0
 30
0.0
 11
-1.0
 21
-0.1665
 31
0.0
 12
-1.0
 22
0.1665
 32
0.0
 13
0.0
 23
0.0
 33
0.0
  0
LINE
  5
170
330
16E
100
AcDbEntity
  8
0
 62
     0
100
AcDbLine
 10
0.0
 20
0.0
 30
0.0
 11
-1.0
 21
0.0
 31
0.0
  0
ENDBLK
  5
172
330
16E
100
AcDbEntity
  8
0
100
AcDbBlockEnd
  0
BLOCK
  5
17C
330
175
100
AcDbEntity
  8
0
100
AcDbBlockBegin
  2
DMBLK277
 70
     0
 10
0.0
 20
0.0
 30
0.0
  3
DMBLK277
  1

  0
HATCH
  5
176
330
175
100
AcDbEntity
  8
Default
  6
Continuous
 62
     7
100
AcDbHatch
 10
0.0
 20
0.0
 30
0.0
210
0.0
220
0.0
230
1.0
  2
SOLID
 70
     1
 71
     0
 91
        1
 92
        1
 93
        3
 72
     1
 10
199.2530076438066
 20
151.9097644547964
 11
199.2530076438066
 21
150.7430977521186
 72
     1
 10
199.2530076438066
 20
150.7430977521186
 11
202.75300775184
 21
151.3264311034575
 72
     1
 10
202.75300775184
 20
151.3264311034575
 11
199.2530076438066
 21
151.9097644547964
 97
        0
 75
     0
 76
     1
 98
        0
  0
HATCH
  5
177
330
175
100
AcDbEntity
  8
Default
  6
Continuous
 62
     7
100
AcDbHatch
 10
0.0
 20
0.0
 30
0.0
210
0.0
220
0.0
230
1.0
  2
SOLID
 70
     1
 71
     0
 91
        1
 92
        1
 93
        3
 72
     1
 10
179.2530071595189
 20
151.9097644547964
 11
175.7530070514854
 21
151.3264311034575
 72
     1
 10
175.7530070514854
 20
151.3264311034575
 11
179.2530071595189
 21
150.7430977521186
 72
     1
 10
179.2530071595189
 20
150.7430977521186
 11
179.2530071595189
 21
151.9097644547964
 97
        0
 75
     0
 76
     1
 98
        0
  0
LINE
  5
178
330
175
100
AcDbEntity
  8
Default
  6
Continuous
 62
     7
100
AcDbLine
 10
202.7530077518
 20
114.2787506361
 30
0.0
 11
202.7530077518
 21
153.0764311575
 31
0.0
  0
LINE
  5
179
330
175
100
AcDbEntity
  8
Default
  6
Continuous
 62
     7
100
AcDbLine
 10
175.7530077518
 20
122.4287506361
 30
0.0
 11
175.7530077518
 21
153.0764311575
 31
0.0
  0
LINE
  5
17A
330
175
100
AcDbEntity
  8
Default
  6
Continuous
 62
     7
100
AcDbLine
 10
202.7530077518
 20
151.3264311035
 30
0.0
 11
175.7530070515
 21
151.3264311035
 31
0.0
  0
TEXT
  5
17B
330
175
100
AcDbEntity
  8
Default
  6
Continuous
 62
     7
100
AcDbText
 10
187.0655074017
 20
152.2014311035
 30
0.0
 40
3.5
  1
27
  7
SEACAD_Solid_Edge_ISO
 11
187.0655074017
 21
155.7014311035
 31
0.0
100
AcDbText
 73
     3
  0
ENDBLK
  5
17D
330
175
100
AcDbEntity
  8
0
100
AcDbBlockEnd
  0
BLOCK
  5
186
330
17F
100
AcDbEntity
  8
0
100
AcDbBlockBegin
  2
DMBLK278
 70
     0
 10
0.0
 20
0.0
 30
0.0
  3
DMBLK278
  1

  0
HATCH
  5
180
330
17F
100
AcDbEntity
  8
Default
  6
Continuous
 62
     7
100
AcDbHatch
 10
0.0
 20
0.0
 30
0.0
210
0.0
220
0.0
230
1.0
  2
SOLID
 70
     1
 71
     0
 91
        1
 92
        1
 93
        3
 72
     1
 10
199.2530076438066
 20
160.3097650866056
 11
199.2530076438066
 21
159.1430983839278
 72
     1
 10
199.2530076438066
 20
159.1430983839278
 11
202.75300775184
 21
159.7264317352667
 72
     1
 10
202.75300775184
 20
159.7264317352667
 11
199.2530076438066
 21
160.3097650866056
 97
        0
 75
     0
 76
     1
 98
        0
  0
HATCH
  5
181
330
17F
100
AcDbEntity
  8
Default
  6
Continuous
 62
     7
100
AcDbHatch
 10
0.0
 20
0.0
 30
0.0
210
0.0
220
0.0
230
1.0
  2
SOLID
 70
     1
 71
     0
 91
        1
 92
        1
 93
        3
 72
     1
 10
158.2530074426409
 20
160.3097650866056
 11
154.7530073346075
 21
159.7264317352667
 72
     1
 10
154.7530073346075
 20
159.7264317352667
 11
158.2530074426409
 21
159.1430983839278
 72
     1
 10
158.2530074426409
 20
159.1430983839278
 11
158.2530074426409
 21
160.3097650866056
 97
        0
 75
     0
 76
     1
 98
        0
  0
LINE
  5
182
330
17F
100
AcDbEntity
  8
Default
  6
Continuous
 62
     7
100
AcDbLine
 10
202.7530077518
 20
114.2787506361
 30
0.0
 11
202.7530077518
 21
161.4764317893
 31
0.0
  0
LINE
  5
183
330
17F
100
AcDbEntity
  8
Default
  6
Continuous
 62
     7
100
AcDbLine
 10
154.7530077518
 20
156.4287506361
 30
0.0
 11
154.7530077518
 21
161.4764317893
 31
0.0
  0
LINE
  5
184
330
17F
100
AcDbEntity
  8
Default
  6
Continuous
 62
     7
100
AcDbLine
 10
202.7530077518
 20
159.7264317353
 30
0.0
 11
154.7530073346
 21
159.7264317353
 31
0.0
  0
TEXT
  5
185
330
17F
100
AcDbEntity
  8
Default
  6
Continuous
 62
     7
100
AcDbText
 10
176.6052802705
 20
160.6014317353
 30
0.0
 40
3.5
  1
48
  7
SEACAD_Solid_Edge_ISO
 11
176.6052802705
 21
164.1014317353
 31
0.0
100
AcDbText
 73
     3
  0
ENDBLK
  5
187
330
17F
100
AcDbEntity
  8
0
100
AcDbBlockEnd
  0
BLOCK
  5
190
330
189
100
AcDbEntity
  8
0
100
AcDbBlockBegin
  2
DMBLK279
 70
     0
 10
0.0
 20
0.0
 30
0.0
  3
DMBLK279
  1

  0
HATCH
  5
18A
330
189
100
AcDbEntity
  8
Default
  6
Continuous
 62
     7
100
AcDbHatch
 10
0.0
 20
0.0
 30
0.0
210
0.0
220
0.0
230
1.0
  2
SOLID
 70
     1
 71
     0
 91
        1
 92
        1
 93
        3
 72
     1
 10
199.2530076438066
 20
168.7097657184148
 11
199.2530076438066
 21
167.5430990157371
 72
     1
 10
199.2530076438066
 20
167.5430990157371
 11
202.75300775184
 21
168.1264323670759
 72
     1
 10
202.75300775184
 20
168.1264323670759
 11
199.2530076438066
 21
168.7097657184148
 97
        0
 75
     0
 76
     1
 98
        0
  0
HATCH
  5
18B
330
189
100
AcDbEntity
  8
Default
  6
Continuous
 62
     7
100
AcDbHatch
 10
0.0
 20
0.0
 30
0.0
210
0.0
220
0.0
230
1.0
  2
SOLID
 70
     1
 71
     0
 91
        1
 92
        1
 93
        3
 72
     1
 10
79.25300380675759
 20
168.7097657184148
 11
75.75300369872417
 21
168.1264323670759
 72
     1
 10
75.75300369872417
 20
168.1264323670759
 11
79.25300380675759
 21
167.5430990157371
 72
     1
 10
79.25300380675759
 20
167.5430990157371
 11
79.25300380675759
 21
168.7097657184148
 97
        0
 75
     0
 76
     1
 98
        0
  0
LINE
  5
18C
330
189
100
AcDbEntity
  8
Default
  6
Continuous
 62
     7
100
AcDbLine
 10
202.7530077518
 20
114.2787506361
 30
0.0
 11
202.7530077518
 21
169.8764324211
 31
0.0
  0
LINE
  5
18D
330
189
100
AcDbEntity
  8
Default
  6
Continuous
 62
     7
100
AcDbLine
 10
75.7530077518
 20
130.6680218183
 30
0.0
 11
75.7530077518
 21
169.8764324211
 31
0.0
  0
LINE
  5
18E
330
189
100
AcDbEntity
  8
Default
  6
Continuous
 62
     7
100
AcDbLine
 10
202.7530077518
 20
168.1264323671
 30
0.0
 11
75.7530036987
 21
168.1264323671
 31
0.0
  0
TEXT
  5
18F
330
189
100
AcDbEntity
  8
Default
  6
Continuous
 62
     7
100
AcDbText
 10
136.3495966344
 20
169.0014323671
 30
0.0
 40
3.5
  1
127
  7
SEACAD_Solid_Edge_ISO
 11
136.3495966344
 21
172.5014323671
 31
0.0
100
AcDbText
 73
     3
  0
ENDBLK
  5
191
330
189
100
AcDbEntity
  8
0
100
AcDbBlockEnd
  0
BLOCK
  5
19A
330
193
100
AcDbEntity
  8
0
100
AcDbBlockBegin
  2
DMBLK280
 70
     0
 10
0.0
 20
0.0
 30
0.0
  3
DMBLK280
  1

  0
HATCH
  5
194
330
193
100
AcDbEntity
  8
Default
  6
Continuous
 62
     7
100
AcDbHatch
 10
0.0
 20
0.0
 30
0.0
210
0.0
220
0.0
230
1.0
  2
SOLID
 70
     1
 71
     0
 91
        1
 92
        1
 93
        3
 72
     1
 10
129.2530078598734
 20
46.57265640922828
 11
129.2530078598734
 21
47.73932311190608
 72
     1
 10
129.2530078598734
 20
47.73932311190608
 11
125.75300775184
 21
47.15598976056718
 72
     1
 10
125.75300775184
 20
47.15598976056718
 11
129.2530078598734
 21
46.57265640922828
 97
        0
 75
     0
 76
     1
 98
        0
  0
HATCH
  5
195
330
193
100
AcDbEntity
  8
Default
  6
Continuous
 62
     7
100
AcDbHatch
 10
0.0
 20
0.0
 30
0.0
210
0.0
220
0.0
230
1.0
  2
SOLID
 70
     1
 71
     0
 91
        1
 92
        1
 93
        3
 72
     1
 10
182.2530063027021
 20
46.57265640922828
 11
185.7530064107355
 21
47.15598976056718
 72
     1
 10
185.7530064107355
 20
47.15598976056718
 11
182.2530063027021
 21
47.73932311190608
 72
     1
 10
182.2530063027021
 20
47.73932311190608
 11
182.2530063027021
 21
46.57265640922828
 97
        0
 75
     0
 76
     1
 98
        0
  0
LINE
  5
196
330
193
100
AcDbEntity
  8
Default
  6
Continuous
 62
     7
100
AcDbLine
 10
125.7530077518
 20
57.4287506361
 30
0.0
 11
125.7530077518
 21
45.4059897066
 31
0.0
  0
LINE
  5
197
330
193
100
AcDbEntity
  8
Default
  6
Continuous
 62
     7
100
AcDbLine
 10
185.7530077518
 20
91.9537715042
 30
0.0
 11
185.7530077518
 21
45.4059897066
 31
0.0
  0
LINE
  5
198
330
193
100
AcDbEntity
  8
Default
  6
Continuous
 62
     7
100
AcDbLine
 10
125.7530077518
 20
47.1559897606
 30
0.0
 11
185.7530064107
 21
47.1559897606
 31
0.0
  0
TEXT
  5
199
330
193
100
AcDbEntity
  8
Default
  6
Continuous
 62
     7
100
AcDbText
 10
153.6450525358
 20
48.0309897606
 30
0.0
 40
3.5
  1
60
  7
SEACAD_Solid_Edge_ISO
 11
153.6450525358
 21
51.5309897606
 31
0.0
100
AcDbText
 73
     3
  0
ENDBLK
  5
19B
330
193
100
AcDbEntity
  8
0
100
AcDbBlockEnd
  0
BLOCK
  5
1A4
330
19D
100
AcDbEntity
  8
0
100
AcDbBlockBegin
  2
DMBLK281
 70
     0
 10
0.0
 20
0.0
 30
0.0
  3
DMBLK281
  1

  0
HATCH
  5
19E
330
19D
100
AcDbEntity
  8
Default
  6
Continuous
 62
     7
100
AcDbHatch
 10
0.0
 20
0.0
 30
0.0
210
0.0
220
0.0
230
1.0
  2
SOLID
 70
     1
 71
     0
 91
        1
 92
        1
 93
        3
 72
     1
 10
199.2530076438066
 20
143.5097656856323
 11
199.2530076438066
 21
142.3430989829545
 72
     1
 10
199.2530076438066
 20
142.3430989829545
 11
202.75300775184
 21
142.9264323342934
 72
     1
 10
202.75300775184
 20
142.9264323342934
 11
199.2530076438066
 21
143.5097656856323
 97
        0
 75
     0
 76
     1
 98
        0
  0
HATCH
  5
19F
330
19D
100
AcDbEntity
  8
Default
  6
Continuous
 62
     7
100
AcDbHatch
 10
0.0
 20
0.0
 30
0.0
210
0.0
220
0.0
230
1.0
  2
SOLID
 70
     1
 71
     0
 91
        1
 92
        1
 93
        3
 72
     1
 10
189.2530069360014
 20
143.5097656856323
 11
185.753006827968
 21
142.9264323342934
 72
     1
 10
185.753006827968
 20
142.9264323342934
 11
189.2530069360014
 21
142.3430989829545
 72
     1
 10
189.2530069360014
 20
142.3430989829545
 11
189.2530069360014
 21
143.5097656856323
 97
        0
 75
     0
 76
     1
 98
        0
  0
LINE
  5
1A0
330
19D
100
AcDbEntity
  8
Default
  6
Continuous
 62
     7
100
AcDbLine
 10
202.7530077518
 20
114.2787506361
 30
0.0
 11
202.7530077518
 21
144.6764323883
 31
0.0
  0
LINE
  5
1A1
330
19D
100
AcDbEntity
  8
Default
  6
Continuous
 62
     7
100
AcDbLine
 10
185.7530077518
 20
91.9537715042
 30
0.0
 11
185.7530077518
 21
144.6764323883
 31
0.0
  0
LINE
  5
1A2
330
19D
100
AcDbEntity
  8
Default
  6
Continuous
 62
     7
100
AcDbLine
 10
202.7530077518
 20
142.9264323343
 30
0.0
 11
185.753006828
 21
142.9264323343
 31
0.0
  0
TEXT
  5
1A3
330
19D
100
AcDbEntity
  8
Default
  6
Continuous
 62
     7
100
AcDbText
 10
192.4234618354
 20
143.8014323343
 30
0.0
 40
3.5
  1
17
  7
SEACAD_Solid_Edge_ISO
 11
192.4234618354
 21
147.3014323343
 31
0.0
100
AcDbText
 73
     3
  0
ENDBLK
  5
1A5
330
19D
100
AcDbEntity
  8
0
100
AcDbBlockEnd
  0
BLOCK
  5
1A9
330
1A6
100
AcDbEntity
  8
0
100
AcDbBlockBegin
  2
SEANNOT_GROUP
 70
     0
 10
0.0
 20
0.0
 30
0.0
  3
SEANNOT_GROUP
  1

  0
TEXT
  5
1A8
330
1A6
100
AcDbEntity
  8
Default
  6
Continuous
 62
     7
100
AcDbText
 10
243.1483969886
 20
25.7525109624
 30
0.0
 40
3.5
  1
250041640
  7
SEACAD_Solid_Edge_ANSIB
 11
243.1483969886
 21
29.2525109624
 31
0.0
100
AcDbText
 73
     3
  0
ENDBLK
  5
1AA
330
1A6
100
AcDbEntity
  8
0
100
AcDbBlockEnd
  0
BLOCK
  5
1AE
330
1AB
100
AcDbEntity
  8
0
100
AcDbBlockBegin
  2
SEANNOT_GROUP1
 70
     0
 10
0.0
 20
0.0
 30
0.0
  3
SEANNOT_GROUP1
  1

  0
TEXT
  5
1AD
330
1AB
100
AcDbEntity
  8
Default
  6
Continuous
 62
     7
100
AcDbText
 10
243.1477357349
 20
20.0537100543
 30
0.0
 40
3.5
  1
26.11.2015
  7
SEACAD_Solid_Edge_ANSI
 11
243.1477357349
 21
23.5537100543
 31
0.0
100
AcDbText
 73
     3
  0
ENDBLK
  5
1AF
330
1AB
100
AcDbEntity
  8
0
100
AcDbBlockEnd
  0
BLOCK
  5
1B2
330
1B0
100
AcDbEntity
  8
0
100
AcDbBlockBegin
  2
SEANNOT_GROUP2
 70
     0
 10
0.0
 20
0.0
 30
0.0
  3
SEANNOT_GROUP2
  1

  0
TEXT
  5
1B1
330
1B0
100
AcDbEntity
  8
Default
  6
Continuous
 62
     7
100
AcDbText
 10
243.1795282745
 20
31.5598894014
 30
0.0
 40
3.5
  1
HSK-A100_KFD16x060
 41
0.854
  7
SEACAD_Solid_Edge_ANSIB
 11
243.1795282745
 21
35.0598894014
 31
0.0
100
AcDbText
 73
     3
  0
ENDBLK
  5
1B3
330
1B0
100
AcDbEntity
  8
0
100
AcDbBlockEnd
  0
BLOCK
  5
1B6
330
1B4
100
AcDbEntity
  8
0
100
AcDbBlockBegin
  2
SEANNOT_GROUP3
 70
     0
 10
0.0
 20
0.0
 30
0.0
  3
SEANNOT_GROUP3
  1

  0
TEXT
  5
1B5
330
1B4
100
AcDbEntity
  8
Default
  6
Continuous
 62
     7
100
AcDbText
 10
243.2357917511
 20
14.1955389783
 30
0.0
 40
3.5
  1
1:1
  7
SEACAD_Solid_Edge_ANSI
 11
243.2357917511
 21
17.6955389783
 31
0.0
100
AcDbText
 73
     3
  0
ENDBLK
  5
1B7
330
1B4
100
AcDbEntity
  8
0
100
AcDbBlockEnd
  0
BLOCK
  5
1FE
330
1B8
100
AcDbEntity
  8
0
100
AcDbBlockBegin
  2
Block1
 70
     0
 10
0.0
 20
0.0
 30
0.0
  3
Block1
  1

  0
LINE
  5
1B9
330
1B8
100
AcDbEntity
  8
Default
  6
Continuous
 62
     7
100
AcDbLine
 10
42.3415792923
 20
6.5926277851
 30
0.0
 11
40.225655308
 21
3.525
 31
0.0
  0
LINE
  5
1BA
330
1B8
100
AcDbEntity
  8
Default
  6
Continuous
 62
     7
100
AcDbLine
 10
40.225655308
 20
3.525
 30
0.0
 11
41.2882372215
 21
1.9958060288
 31
0.0
  0
LINE
  5
1BB
330
1B8
100
AcDbEntity
  8
Default
  6
Continuous
 62
     7
100
AcDbLine
 10
41.2882372215
 20
1.9958060288
 30
0.0
 11
40.2556847969
 21
0.5266710354
 31
0.0
  0
LINE
  5
1BC
330
1B8
100
AcDbEntity
  8
Default
  6
Continuous
 62
     7
100
AcDbLine
 10
40.2556847969
 20
0.5266710354
 30
0.0
 11
39.2231323722
 21
2.1459534731
 31
0.0
  0
LINE
  5
1BD
330
1B8
100
AcDbEntity
  8
Default
  6
Continuous
 62
     7
100
AcDbLine
 10
39.2231323722
 20
2.1459534731
 30
0.0
 11
37.7031782438
 21
0.0
 31
0.0
  0
LINE
  5
1BE
330
1B8
100
AcDbEntity
  8
Default
  6
Continuous
 62
     7
100
AcDbLine
 10
37.7031782438
 20
0.0
 30
0.0
 11
35.6265235911
 21
0.0
 31
0.0
  0
LINE
  5
1BF
330
1B8
100
AcDbEntity
  8
Default
  6
Continuous
 62
     7
100
AcDbLine
 10
35.6265235911
 20
0.0
 30
0.0
 11
38.209059633
 21
3.525
 31
0.0
  0
LINE
  5
1C0
330
1B8
100
AcDbEntity
  8
Default
  6
Continuous
 62
     7
100
AcDbLine
 10
38.209059633
 20
3.525
 30
0.0
 11
36.1046854522
 21
6.5926277851
 31
0.0
  0
LINE
  5
1C1
330
1B8
100
AcDbEntity
  8
Default
  6
Continuous
 62
     7
100
AcDbLine
 10
36.1046854522
 20
6.5926277851
 30
0.0
 11
38.209059633
 21
6.5926277851
 31
0.0
  0
LINE
  5
1C2
330
1B8
100
AcDbEntity
  8
Default
  6
Continuous
 62
     7
100
AcDbLine
 10
38.209059633
 20
6.5926277851
 30
0.0
 11
39.2231323722
 21
4.8855668414
 31
0.0
  0
LINE
  5
1C3
330
1B8
100
AcDbEntity
  8
Default
  6
Continuous
 62
     7
100
AcDbLine
 10
39.2231323722
 20
4.8855668414
 30
0.0
 11
40.225655308
 21
6.5926277851
 31
0.0
  0
LINE
  5
1C4
330
1B8
100
AcDbEntity
  8
Default
  6
Continuous
 62
     7
100
AcDbLine
 10
40.225655308
 20
6.5926277851
 30
0.0
 11
42.3415792923
 21
6.5926277851
 31
0.0
  0
SPLINE
  5
1C5
330
1B8
100
AcDbEntity
  8
Default
  6
Continuous
 62
     7
100
AcDbSpline
210
0.0
220
0.0
230
1.0
 70
     8
 71
     3
 72
    13
 73
     9
 74
     0
 42
0.0000000012369638
 43
0.0000000001
 12
1.0
 22
0.0
 32
0.0
 13
1.0
 23
0.0
 33
0.0
 40
0.0
 40
0.0
 40
0.0
 40
0.0
 40
0.9091644120227717
 40
0.9091644120227717
 40
0.9091644120227717
 40
0.9554905618911577
 40
0.9554905618911577
 40
1.0
 40
1.0
 40
1.0
 40
1.0
 10
40.88399410222804
 20
0.427342726081259
 30
0.0
 10
42.29076015727392
 20
2.423148754914811
 30
0.0
 10
43.69752621231979
 20
4.418954783748362
 30
0.0
 10
45.10429226736566
 20
6.414760812581914
 30
0.0
 10
45.18660375034128
 20
6.531537694833034
 30
0.0
 10
45.28446920052424
 20
6.592627785058978
 30
0.0
 10
45.51546526867628
 20
6.592627785058978
 30
0.0
 10
45.61941349934469
 20
6.53256880733945
 30
0.0
 10
45.71181192660551
 20
6.414760812581914
 30
0.0
  0
SPLINE
  5
1C6
330
1B8
100
AcDbEntity
  8
Default
  6
Continuous
 62
     7
100
AcDbSpline
210
0.0
220
0.0
230
1.0
 70
     8
 71
     3
 72
    16
 73
    12
 74
     0
 42
0.0000000006014133
 43
0.0000000001
 12
1.0
 22
0.0
 32
0.0
 13
1.0
 23
0.0
 33
0.0
 40
0.0
 40
0.0
 40
0.0
 40
0.0
 40
0.4418652593848311
 40
0.4418652593848311
 40
0.4418652593848311
 40
0.455090010411123
 40
0.455090010411123
 40
0.4811129075918901
 40
0.4811129075918901
 40
0.4811129075918901
 40
1.0
 40
1.0
 40
1.0
 40
1.0
 10
45.71181192660551
 20
6.414760812581914
 30
0.0
 10
47.11857798165137
 20
4.418954783748362
 30
0.0
 10
48.52534403669725
 20
2.42314875491481
 30
0.0
 10
49.93211009174313
 20
0.427342726081259
 30
0.0
 10
49.98455330475264
 20
0.352940532254955
 30
0.0
 10
50.01295871559633
 20
0.281815203145479
 30
0.0
 10
50.01295871559633
 20
0.0692988204456104
 30
0.0
 10
49.91363040629096
 20
0.0000000000000009
 30
0.0
 10
49.71497378768021
 20
0.0000000000000009
 30
0.0
 10
46.84754259501965
 20
0.0000000000000009
 30
0.0
 10
43.98011140235911
 20
0.0000000000000009
 30
0.0
 10
41.11268020969855
 20
0.0000000000000009
 30
0.0
  0
SPLINE
  5
1C7
330
1B8
100
AcDbEntity
  8
Default
  6
Continuous
 62
     7
100
AcDbSpline
210
0.0
220
0.0
230
1.0
 70
     8
 71
     3
 72
    11
 73
     7
 74
     0
 42
0.0000000141737466
 43
0.0000000001
 12
1.0
 22
0.0
 32
0.0
 13
1.0
 23
0.0
 33
0.0
 40
0.0
 40
0.0
 40
0.0
 40
0.0
 40
0.6560933575639865
 40
0.6560933575639865
 40
0.6560933575639865
 40
1.0
 40
1.0
 40
1.0
 40
1.0
 10
41.11268020969855
 20
0.0000000000000009
 30
0.0
 10
40.90709370904325
 20
0.0000000000000009
 30
0.0
 10
40.80545543905635
 20
0.0739187418086509
 30
0.0
 10
40.80314547837483
 20
0.2194462647444313
 30
0.0
 10
40.80230295367286
 20
0.2725253209688669
 30
0.0
 10
40.83086500655307
 20
0.3418741808650076
 30
0.0
 10
40.88399410222804
 20
0.427342726081259
 30
0.0
  0
LINE
  5
1C8
330
1B8
100
AcDbEntity
  8
Default
  6
Continuous
 62
     7
100
AcDbLine
 10
35.1853211009
 20
6.6087975098
 30
0.0
 11
35.1853211009
 21
0.0
 31
0.0
  0
SPLINE
  5
1C9
330
1B8
100
AcDbEntity
  8
Default
  6
Continuous
 62
     7
100
AcDbSpline
210
0.0
220
0.0
230
1.0
 70
     8
 71
     3
 72
    14
 73
    10
 74
     0
 42
0.0000000052950889
 43
0.0000000001
 12
1.0
 22
0.0
 32
0.0
 13
1.0
 23
0.0
 33
0.0
 40
0.0
 40
0.0
 40
0.0
 40
0.0
 40
0.1210177131110554
 40
0.1210177131110554
 40
0.1210177131110554
 40
0.2419901306838391
 40
0.2419901306838391
 40
0.2419901306838391
 40
1.0
 40
1.0
 40
1.0
 40
1.0
 10
33.47364023591088
 20
6.320052424639582
 30
0.0
 10
33.47364023591088
 20
6.400901048492791
 30
0.0
 10
33.50135976408912
 20
6.467889908256881
 30
0.0
 10
33.55910878112713
 20
6.523328964613368
 30
0.0
 10
33.61680971405436
 20
6.578721860223512
 30
0.0
 10
33.68153669724771
 20
6.608797509829621
 30
0.0
 10
33.76238532110091
 20
6.608797509829621
 30
0.0
 10
34.23669724770642
 20
6.608797509829621
 30
0.0
 10
34.71100917431193
 20
6.608797509829621
 30
0.0
 10
35.18532110091743
 20
6.608797509829621
 30
0.0
  0
LINE
  5
1CA
330
1B8
100
AcDbEntity
  8
Default
  6
Continuous
 62
     7
100
AcDbLine
 10
33.4736402359
 20
0.0
 30
0.0
 11
33.4736402359
 21
6.3200524246
 31
0.0
  0
LINE
  5
1CB
330
1B8
100
AcDbEntity
  8
Default
  6
Continuous
 62
     7
100
AcDbLine
 10
35.1853211009
 20
0.0
 30
0.0
 11
33.4736402359
 21
0.0
 31
0.0
  0
SPLINE
  5
1CC
330
1B8
100
AcDbEntity
  8
Default
  6
Continuous
 62
     7
100
AcDbSpline
210
0.0
220
0.0
230
1.0
 70
     8
 71
     3
 72
    16
 73
    12
 74
     0
 42
0.0000000009758823
 43
0.0000000001
 12
1.0
 22
0.0
 32
0.0
 13
1.0
 23
0.0
 33
0.0
 40
0.0
 40
0.0
 40
0.0
 40
0.0
 40
0.6159054655977501
 40
0.6159054655977501
 40
0.6159054655977501
 40
0.6376683166669079
 40
0.6376683166669079
 40
0.6603379531972834
 40
0.6603379531972834
 40
0.6603379531972834
 40
1.0
 40
1.0
 40
1.0
 40
1.0
 10
28.82137942332896
 20
0.0
 30
0.0
 10
28.82137942332896
 20
2.101294233289646
 30
0.0
 10
28.82137942332896
 20
4.202588466579293
 30
0.0
 10
28.82137942332896
 20
6.303882699868939
 30
0.0
 10
28.82137942332896
 20
6.38473132372215
 30
0.0
 10
28.84909895150721
 20
6.451720183486239
 30
0.0
 10
28.96228702490171
 20
6.564908256880734
 30
0.0
 10
29.02927588466579
 20
6.592627785058978
 30
0.0
 10
29.110124508519
 20
6.592627785058978
 30
0.0
 10
30.26895478374836
 20
6.592627785058978
 30
0.0
 10
31.42778505897771
 20
6.592627785058978
 30
0.0
 10
32.58661533420707
 20
6.592627785058978
 30
0.0
  0
LINE
  5
1CD
330
1B8
100
AcDbEntity
  8
Default
  6
Continuous
 62
     7
100
AcDbLine
 10
30.5399901704
 20
0.0
 30
0.0
 11
28.8213794233
 21
0.0
 31
0.0
  0
LINE
  5
1CE
330
1B8
100
AcDbEntity
  8
Default
  6
Continuous
 62
     7
100
AcDbLine
 10
30.5399901704
 20
2.5848460026
 30
0.0
 11
30.5399901704
 21
0.0
 31
0.0
  0
LINE
  5
1CF
330
1B8
100
AcDbEntity
  8
Default
  6
Continuous
 62
     7
100
AcDbLine
 10
32.4872870249
 20
2.5848460026
 30
0.0
 11
30.5399901704
 21
2.5848460026
 31
0.0
  0
LINE
  5
1D0
330
1B8
100
AcDbEntity
  8
Default
  6
Continuous
 62
     7
100
AcDbLine
 10
32.4872870249
 20
4.0424311927
 30
0.0
 11
32.4872870249
 21
2.5848460026
 31
0.0
  0
LINE
  5
1D1
330
1B8
100
AcDbEntity
  8
Default
  6
Continuous
 62
     7
100
AcDbLine
 10
30.5399901704
 20
4.0424311927
 30
0.0
 11
32.4872870249
 21
4.0424311927
 31
0.0
  0
LINE
  5
1D2
330
1B8
100
AcDbEntity
  8
Default
  6
Continuous
 62
     7
100
AcDbLine
 10
30.5399901704
 20
5.1419724771
 30
0.0
 11
30.5399901704
 21
4.0424311927
 31
0.0
  0
LINE
  5
1D3
330
1B8
100
AcDbEntity
  8
Default
  6
Continuous
 62
     7
100
AcDbLine
 10
32.5866153342
 20
5.1419724771
 30
0.0
 11
30.5399901704
 21
5.1419724771
 31
0.0
  0
LINE
  5
1D4
330
1B8
100
AcDbEntity
  8
Default
  6
Continuous
 62
     7
100
AcDbLine
 10
32.5866153342
 20
6.5926277851
 30
0.0
 11
32.5866153342
 21
5.1419724771
 31
0.0
  0
LINE
  5
1D5
330
1B8
100
AcDbEntity
  8
Default
  6
Continuous
 62
     7
100
AcDbLine
 10
28.0706422018
 20
4.0424311927
 30
0.0
 11
28.0706422018
 21
2.5848460026
 31
0.0
  0
LINE
  5
1D6
330
1B8
100
AcDbEntity
  8
Default
  6
Continuous
 62
     7
100
AcDbLine
 10
25.9362385321
 20
4.0424311927
 30
0.0
 11
28.0706422018
 21
4.0424311927
 31
0.0
  0
LINE
  5
1D7
330
1B8
100
AcDbEntity
  8
Default
  6
Continuous
 62
     7
100
AcDbLine
 10
25.9362385321
 20
2.5848460026
 30
0.0
 11
25.9362385321
 21
4.0424311927
 31
0.0
  0
LINE
  5
1D8
330
1B8
100
AcDbEntity
  8
Default
  6
Continuous
 62
     7
100
AcDbLine
 10
28.0706422018
 20
2.5848460026
 30
0.0
 11
25.9362385321
 21
2.5848460026
 31
0.0
  0
SPLINE
  5
1D9
330
1B8
100
AcDbEntity
  8
Default
  6
Continuous
 62
     7
100
AcDbSpline
210
0.0
220
0.0
230
1.0
 70
    11
 71
     3
 72
    47
 73
    43
 74
     0
 42
0.0000000008494054
 43
0.0000000001
 12
1.0
 22
0.0
 32
0.0
 13
1.0
 23
0.0
 33
0.0
 40
0.0
 40
0.0
 40
0.0
 40
0.0
 40
0.0637917384076936
 40
0.0637917384076936
 40
0.0637917384076936
 40
0.1265834997779105
 40
0.1265834997779105
 40
0.1893752611481286
 40
0.1893752611481286
 40
0.1893752611481286
 40
0.2604081010642026
 40
0.2604081010642026
 40
0.3159741129340349
 40
0.3159741129340349
 40
0.3159741129340349
 40
0.3751091105868484
 40
0.3751091105868484
 40
0.3751091105868484
 40
0.435995169879425
 40
0.435995169879425
 40
0.435995169879425
 40
0.4997689343159713
 40
0.4997689343159713
 40
0.5635426987525196
 40
0.5635426987525196
 40
0.5635426987525196
 40
0.624232315369434
 40
0.624232315369434
 40
0.624232315369434
 40
0.6835869381889372
 40
0.6835869381889372
 40
0.6835869381889372
 40
0.7357943705008892
 40
0.7357943705008892
 40
0.8025337685079206
 40
0.8025337685079206
 40
0.8692731665149518
 40
0.8692731665149518
 40
0.9360125645219831
 40
0.9360125645219831
 40
0.9360125645219831
 40
1.0
 40
1.0
 40
1.0
 40
1.0
 10
21.44336500655308
 20
1.450655307994758
 30
0.0
 10
21.70208060288335
 20
1.450655307994758
 30
0.0
 10
21.94462647444299
 20
1.501474442988205
 30
0.0
 10
22.16869266055046
 20
1.600802752293579
 30
0.0
 10
22.39468942225328
 20
1.700986883770089
 30
0.0
 10
22.5937254259502
 20
1.836418741808651
 30
0.0
 10
22.93097968545217
 20
2.187532765399738
 30
0.0
 10
23.06495740498034
 20
2.395429226736567
 30
0.0
 10
23.15966579292267
 20
2.63335517693316
 30
0.0
 10
23.25469013236262
 20
2.87207485894082
 30
0.0
 10
23.30519331585845
 20
3.132306684141548
 30
0.0
 10
23.30519331585845
 20
3.642807994757537
 30
0.0
 10
23.25668414154652
 20
3.862254259501967
 30
0.0
 10
23.15966579292267
 20
4.074770642201835
 30
0.0
 10
23.06391850987524
 20
4.284502786020031
 30
0.0
 10
22.93097968545217
 20
4.472083879423329
 30
0.0
 10
22.76235255570118
 20
4.636091087811272
 30
0.0
 10
22.59487996078263
 20
4.798975392458079
 30
0.0
 10
22.39506880733945
 20
4.927146133682831
 30
0.0
 10
22.16869266055046
 20
5.021854521625164
 30
0.0
 10
21.94345992894685
 20
5.116084541989939
 30
0.0
 10
21.70208060288335
 20
5.167382044560944
 30
0.0
 10
21.18464941022281
 20
5.167382044560944
 30
0.0
 10
20.94210353866317
 20
5.118872870249017
 30
0.0
 10
20.71572739187418
 20
5.021854521625164
 30
0.0
 10
20.49213912866634
 20
4.926030980250372
 30
0.0
 10
20.29300458715597
 20
4.797788335517694
 30
0.0
 10
20.12437745740498
 20
4.636091087811272
 30
0.0
 10
19.95459636352431
 20
4.473287299158574
 30
0.0
 10
19.82177260812581
 20
4.284977064220183
 30
0.0
 10
19.72244429882045
 20
4.074770642201835
 30
0.0
 10
19.62222370164274
 20
3.86267589003505
 30
0.0
 10
19.57229685452162
 20
3.642807994757537
 30
0.0
 10
19.57229685452162
 20
3.132306684141548
 30
0.0
 10
19.62311598951508
 20
2.871281127129752
 30
0.0
 10
19.82177260812581
 20
2.395429226736567
 30
0.0
 10
19.95575032765399
 20
2.187532765399738
 30
0.0
 10
20.29300458715597
 20
1.836418741808651
 30
0.0
 10
20.49166120576671
 20
1.700131061598952
 30
0.0
 10
20.71572739187418
 20
1.600802752293579
 30
0.0
 10
20.941724153577
 20
1.500618620817073
 30
0.0
 10
21.18464941022281
 20
1.450655307994758
 30
0.0
 10
21.44336500655308
 20
1.450655307994758
 30
0.0
  0
SPLINE
  5
1DA
330
1B8
100
AcDbEntity
  8
Default
  6
Continuous
 62
     7
100
AcDbSpline
210
0.0
220
0.0
230
1.0
 70
    11
 71
     3
 72
    49
 73
    45
 74
     0
 42
0.0000000004385322
 43
0.0000000001
 12
1.0
 22
0.0
 32
0.0
 13
1.0
 23
0.0
 33
0.0
 40
0.0
 40
0.0
 40
0.0
 40
0.0
 40
0.0617996483207596
 40
0.0617996483207596
 40
0.0617996483207596
 40
0.1220737652654132
 40
0.1220737652654132
 40
0.1220737652654132
 40
0.1820249318660078
 40
0.1820249318660078
 40
0.1820249318660078
 40
0.2438982680995642
 40
0.2438982680995642
 40
0.3109516975991858
 40
0.3109516975991858
 40
0.3109516975991858
 40
0.3722543214771952
 40
0.3722543214771952
 40
0.3722543214771952
 40
0.4335172266527087
 40
0.4335172266527087
 40
0.4335172266527087
 40
0.4994898970728853
 40
0.4994898970728853
 40
0.5657506577569065
 40
0.5657506577569065
 40
0.5657506577569065
 40
0.626961718898901
 40
0.626961718898901
 40
0.6886100019061948
 40
0.6886100019061948
 40
0.6886100019061948
 40
0.7556907268882871
 40
0.7556907268882871
 40
0.8175892499404324
 40
0.8175892499404324
 40
0.8175892499404324
 40
0.8774725210786118
 40
0.8774725210786118
 40
0.8774725210786118
 40
0.9379094648157675
 40
0.9379094648157675
 40
0.9379094648157675
 40
1.0
 40
1.0
 40
1.0
 40
1.0
 10
21.44336500655308
 20
6.83055373525557
 30
0.0
 10
21.91919464291449
 20
6.832852429151036
 30
0.0
 10
22.37658912188729
 20
6.745085190039319
 30
0.0
 10
22.81317169069462
 20
6.581077981651377
 30
0.0
 10
23.25051470703607
 20
6.416785102496653
 30
0.0
 10
23.63782765399738
 20
6.181454783748363
 30
0.0
 10
23.97508191349934
 20
5.878849934469201
 30
0.0
 10
24.31246764930903
 20
5.576127116722139
 30
0.0
 10
24.58491153342071
 20
5.218201179554391
 30
0.0
 10
24.78587811271298
 20
4.800098296199214
 30
0.0
 10
24.9863762849025
 20
4.38296991497732
 30
0.0
 10
25.08848296199213
 20
3.926933158584535
 30
0.0
 10
25.08848296199213
 20
2.892070773263434
 30
0.0
 10
24.99839449541284
 20
2.402359108781128
 30
0.0
 10
24.81590760157274
 20
1.958846657929228
 30
0.0
 10
24.63260786737497
 20
1.513358696334639
 30
0.0
 10
24.38163499344692
 20
1.129570773263435
 30
0.0
 10
24.06055045871559
 20
0.8038663171690699
 30
0.0
 10
23.7406207864759
 20
0.4793333402928437
 30
0.0
 10
23.3560124508519
 20
0.2286861074705122
 30
0.0
 10
22.90788007863696
 20
0.0485091743119273
 30
0.0
 10
22.46253572118054
 20
-0.1305468044592142
 30
0.0
 10
21.97234600262123
 20
-0.2194462647444295
 30
0.0
 10
20.91207404980341
 20
-0.2194462647444295
 30
0.0
 10
20.42467234600262
 20
-0.1293577981651364
 30
0.0
 10
19.9788499344692
 20
0.0485091743119273
 30
0.0
 10
19.53023971314575
 20
0.2274883817829441
 30
0.0
 10
19.14495412844037
 20
0.4804718217562263
 30
0.0
 10
18.49585517693316
 20
1.129570773263435
 30
0.0
 10
18.24406946264745
 20
1.513024246395807
 30
0.0
 10
18.06158256880734
 20
1.958846657929228
 30
0.0
 10
17.87990551563201
 20
2.402690597965156
 30
0.0
 10
17.78669724770642
 20
2.892070773263434
 30
0.0
 10
17.78669724770642
 20
3.926933158584535
 30
0.0
 10
17.88833551769332
 20
4.384305373525557
 30
0.0
 10
18.0916120576671
 20
4.800098296199214
 30
0.0
 10
18.2953544565906
 20
5.21684411217912
 30
0.0
 10
18.56284403669725
 20
5.57855504587156
 30
0.0
 10
18.90009829619921
 20
5.878849934469201
 30
0.0
 10
19.23849979910015
 20
6.18016634116182
 30
0.0
 10
19.62773591087812
 20
6.414760812581914
 30
0.0
 10
20.06662844036697
 20
6.581077981651377
 30
0.0
 10
20.50677543450266
 20
6.747870526797538
 30
0.0
 10
20.96520314547837
 20
6.82824377457405
 30
0.0
 10
21.44336500655308
 20
6.83055373525557
 30
0.0
  0
LINE
  5
1DB
330
1B8
100
AcDbEntity
  8
Default
  6
Continuous
 62
     7
100
AcDbLine
 10
15.3335190039
 20
2.3145806029
 30
0.0
 11
13.8343545216
 21
2.3145806029
 31
0.0
  0
SPLINE
  5
1DC
330
1B8
100
AcDbEntity
  8
Default
  6
Continuous
 62
     7
100
AcDbSpline
210
0.0
220
0.0
230
1.0
 70
     8
 71
     3
 72
    43
 73
    39
 74
     0
 42
0.0000000009932047
 43
0.0000000001
 12
1.0
 22
0.0
 32
0.0
 13
1.0
 23
0.0
 33
0.0
 40
0.0
 40
0.0
 40
0.0
 40
0.0
 40
0.0949373847537602
 40
0.0949373847537602
 40
0.0949373847537602
 40
0.1911787086491429
 40
0.1911787086491429
 40
0.2677918678027036
 40
0.2677918678027036
 40
0.2677918678027036
 40
0.3406026976746725
 40
0.3406026976746725
 40
0.3406026976746725
 40
0.4151543081273698
 40
0.4151543081273698
 40
0.4151543081273698
 40
0.4895478942304584
 40
0.4895478942304584
 40
0.5659890102262922
 40
0.5659890102262922
 40
0.6424301262221261
 40
0.6424301262221261
 40
0.6424301262221261
 40
0.714798401889747
 40
0.714798401889747
 40
0.714798401889747
 40
0.7953127750919691
 40
0.7953127750919691
 40
0.8472575319966263
 40
0.8472575319966263
 40
0.8472575319966263
 40
0.898191982468852
 40
0.898191982468852
 40
0.898191982468852
 40
0.9471592991231073
 40
0.9471592991231073
 40
0.9471592991231073
 40
1.0
 40
1.0
 40
1.0
 40
1.0
 10
15.25498034076016
 20
4.25956749672346
 30
0.0
 10
15.1348623853211
 20
4.578342070773264
 30
0.0
 10
14.95468545216252
 20
4.832437745740499
 30
0.0
 10
14.7144495412844
 20
5.024164482306685
 30
0.0
 10
14.47167626156505
 20
5.217916234390401
 30
0.0
 10
14.17622870249017
 20
5.312909567496725
 30
0.0
 10
13.54560943643512
 20
5.312909567496725
 30
0.0
 10
13.30075360419397
 20
5.252850589777196
 30
0.0
 10
13.08361730013106
 20
5.13042267365662
 30
0.0
 10
12.86823374940279
 20
5.008983012075785
 30
0.0
 10
12.69092398427261
 20
4.84629750982962
 30
0.0
 10
12.54770642201835
 20
4.647640891218874
 30
0.0
 10
12.40527884987617
 20
4.450080065344236
 30
0.0
 10
12.29823066841416
 20
4.227228047182176
 30
0.0
 10
12.22662188728703
 20
3.980062254259503
 30
0.0
 10
12.15421681189757
 20
3.730147961786198
 30
0.0
 10
12.11574377457405
 20
3.481110747051115
 30
0.0
 10
12.11574377457405
 20
2.970609436435126
 30
0.0
 10
12.15501310615989
 20
2.721133682830931
 30
0.0
 10
12.30747051114023
 20
2.231422018348625
 30
0.0
 10
12.41834862385321
 20
2.009665792922674
 30
0.0
 10
12.56387614678899
 20
1.815629095674968
 30
0.0
 10
12.7105124508519
 20
1.620114023591089
 30
0.0
 10
12.88958060288335
 20
1.46220511140236
 30
0.0
 10
13.10440694626475
 20
1.344397116644824
 30
0.0
 10
13.32020716906946
 20
1.226055058977723
 30
0.0
 10
13.56870904325033
 20
1.16653014416776
 30
0.0
 10
14.03994102228047
 20
1.16653014416776
 30
0.0
 10
14.21780799475754
 20
1.189629750982963
 30
0.0
 10
14.39105504587156
 20
1.240448885976409
 30
0.0
 10
14.5615512434976
 20
1.290461103946714
 30
0.0
 10
14.7144495412844
 20
1.362876802096987
 30
0.0
 10
14.84842726081258
 20
1.457585190039319
 30
0.0
 10
14.98086470130555
 20
1.551204760042966
 30
0.0
 10
15.08866317169069
 20
1.672411533420708
 30
0.0
 10
15.17644167758847
 20
1.815629095674968
 30
0.0
 10
15.26256022686942
 20
1.956138307659666
 30
0.0
 10
15.31503931847969
 20
2.12285386631717
 30
0.0
 10
15.33351900393184
 20
2.314580602883356
 30
0.0
  0
LINE
  5
1DD
330
1B8
100
AcDbEntity
  8
Default
  6
Continuous
 62
     7
100
AcDbLine
 10
16.8835026212
 20
4.9456258191
 30
0.0
 11
15.2549803408
 21
4.2595674967
 31
0.0
  0
SPLINE
  5
1DE
330
1B8
100
AcDbEntity
  8
Default
  6
Continuous
 62
     7
100
AcDbSpline
210
0.0
220
0.0
230
1.0
 70
     8
 71
     3
 72
    51
 73
    47
 74
     0
 42
0.0000000004766382
 43
0.0000000001
 12
1.0
 22
0.0
 32
0.0
 13
1.0
 23
0.0
 33
0.0
 40
0.0
 40
0.0
 40
0.0
 40
0.0
 40
0.0095402040290222
 40
0.0095402040290222
 40
0.0095402040290222
 40
0.0400756007423482
 40
0.0400756007423482
 40
0.0400756007423482
 40
0.0693620114069116
 40
0.0693620114069116
 40
0.0986484220714753
 40
0.0986484220714753
 40
0.0986484220714753
 40
0.1302632519246672
 40
0.1302632519246672
 40
0.1302632519246672
 40
0.2055179711079718
 40
0.2055179711079718
 40
0.2055179711079718
 40
0.281182745691462
 40
0.281182745691462
 40
0.3511962093102096
 40
0.3511962093102096
 40
0.3511962093102096
 40
0.4149417185613706
 40
0.4149417185613706
 40
0.4149417185613706
 40
0.4786592191897758
 40
0.4786592191897758
 40
0.4786592191897758
 40
0.5478830793697405
 40
0.5478830793697405
 40
0.6199007276287178
 40
0.6199007276287178
 40
0.6199007276287178
 40
0.6846819262147057
 40
0.6846819262147057
 40
0.6846819262147057
 40
0.7494892886116509
 40
0.7494892886116509
 40
0.7494892886116509
 40
0.8193637744922013
 40
0.8193637744922013
 40
0.9096818872461009
 40
0.9096818872461009
 40
1.0
 40
1.0
 40
1.0
 40
1.0
 10
17.14221821756225
 20
3.658977719528179
 30
0.0
 10
17.14221821756225
 20
3.59275884665793
 30
0.0
 10
17.14221821756225
 20
3.526539973787681
 30
0.0
 10
17.14221821756225
 20
3.460321100917432
 30
0.0
 10
17.14221821756225
 20
3.243184796854522
 30
0.0
 10
17.12835845347313
 20
3.030668414154654
 30
0.0
 10
17.11680865006553
 20
2.825081913499345
 30
0.0
 10
17.10526611434193
 20
2.619624777619178
 30
0.0
 10
17.08446920052425
 20
2.41852883355177
 30
0.0
 10
17.01055045871559
 20
2.021215596330276
 30
0.0
 10
16.95742136304062
 20
1.824868938401049
 30
0.0
 10
16.88350262123198
 20
1.633142201834863
 30
0.0
 10
16.80988280520848
 20
1.442190804023907
 30
0.0
 10
16.70563564875491
 20
1.249688728702491
 30
0.0
 10
16.5670380078637
 20
1.057961992136305
 30
0.0
 10
16.23809819736261
 20
0.6029285876097794
 30
0.0
 10
15.84633027522936
 20
0.2679554390563577
 30
0.0
 10
15.37971821756225
 20
0.06467889908257
 30
0.0
 10
14.91226036066398
 20
-0.1389661078830131
 30
0.0
 10
14.40029488859764
 20
-0.2425458715596323
 30
0.0
 10
13.32847313237222
 20
-0.2425458715596323
 30
0.0
 10
12.85262123197903
 20
-0.1593872870249009
 30
0.0
 10
12.41834862385321
 20
0.0092398427260818
 30
0.0
 10
11.9860833240235
 20
0.1770875389365569
 30
0.0
 10
11.61448230668415
 20
0.4157929226736576
 30
0.0
 10
11.30725753604194
 20
0.7183977719528185
 30
0.0
 10
10.99887791762487
 20
1.022140102874894
 30
0.0
 10
10.76210681520315
 20
1.39059633027523
 30
0.0
 10
10.58885976408912
 20
1.822558977719529
 30
0.0
 10
10.41673087643255
 20
2.251733670943243
 30
0.0
 10
10.33245412844037
 20
2.725753604193972
 30
0.0
 10
10.33245412844037
 20
3.776785714285715
 30
0.0
 10
10.41792267365662
 20
4.264187418086501
 30
0.0
 10
10.58885976408912
 20
4.700769986893841
 30
0.0
 10
10.76010389980871
 20
5.138136765961434
 30
0.0
 10
11.00465268676278
 20
5.511566186107471
 30
0.0
 10
11.31880733944954
 20
5.823410878112714
 30
0.0
 10
11.6318070432484
 20
6.134109113501288
 30
0.0
 10
12.00948558322411
 20
6.373181520314549
 30
0.0
 10
12.44837811271297
 20
6.544118610747052
 30
0.0
 10
12.88849518360602
 20
6.715532627831713
 30
0.0
 10
13.37467234600262
 20
6.795904325032767
 30
0.0
 10
14.58740170380079
 20
6.795904325032767
 30
0.0
 10
15.18106159895151
 20
6.643446920052426
 30
0.0
 10
16.20206422018348
 20
6.033617300131063
 30
0.0
 10
16.59937745740498
 20
5.56931520314548
 30
0.0
 10
16.88350262123198
 20
4.945625819134994
 30
0.0
  0
LINE
  5
1DF
330
1B8
100
AcDbEntity
  8
Default
  6
Continuous
 62
     7
100
AcDbLine
 10
13.8343545216
 20
3.6589777195
 30
0.0
 11
17.1422182176
 21
3.6589777195
 31
0.0
  0
LINE
  5
1E0
330
1B8
100
AcDbEntity
  8
Default
  6
Continuous
 62
     7
100
AcDbLine
 10
13.8343545216
 20
2.3145806029
 30
0.0
 11
13.8343545216
 21
3.6589777195
 31
0.0
  0
SPLINE
  5
1E1
330
1B8
100
AcDbEntity
  8
Default
  6
Continuous
 62
     7
100
AcDbSpline
210
0.0
220
0.0
230
1.0
 70
     8
 71
     3
 72
    16
 73
    12
 74
     0
 42
0.000000000976763
 43
0.0000000001
 12
1.0
 22
0.0
 32
0.0
 13
1.0
 23
0.0
 33
0.0
 40
0.0
 40
0.0
 40
0.0
 40
0.0
 40
0.6164577788718584
 40
0.6164577788718584
 40
0.6164577788718584
 40
0.6381328433885463
 40
0.6381328433885463
 40
0.6607110355934293
 40
0.6607110355934293
 40
0.6607110355934293
 40
1.0
 40
1.0
 40
1.0
 40
1.0
 10
6.022067496723459
 20
0.0000000000000018
 30
0.0
 10
6.022067496723459
 20
2.101294233289647
 30
0.0
 10
6.022067496723459
 20
4.202588466579293
 30
0.0
 10
6.022067496723459
 20
6.303882699868939
 30
0.0
 10
6.022067496723459
 20
6.38473132372215
 30
0.0
 10
6.049787024901704
 20
6.451720183486239
 30
0.0
 10
6.162975098296197
 20
6.564908256880734
 30
0.0
 10
6.229963958060289
 20
6.592627785058978
 30
0.0
 10
6.30850262123198
 20
6.592627785058978
 30
0.0
 10
7.465022935779817
 20
6.592627785058978
 30
0.0
 10
8.621543250327658
 20
6.592627785058978
 30
0.0
 10
9.778063564875495
 20
6.592627785058978
 30
0.0
  0
LINE
  5
1E2
330
1B8
100
AcDbEntity
  8
Default
  6
Continuous
 62
     7
100
AcDbLine
 10
9.7780635649
 20
0.0
 30
0.0
 11
6.0220674967
 21
0.0
 31
0.0
  0
LINE
  5
1E3
330
1B8
100
AcDbEntity
  8
Default
  6
Continuous
 62
     7
100
AcDbLine
 10
9.7780635649
 20
1.450655308
 30
0.0
 11
9.7780635649
 21
0.0
 31
0.0
  0
LINE
  5
1E4
330
1B8
100
AcDbEntity
  8
Default
  6
Continuous
 62
     7
100
AcDbLine
 10
7.731438401
 20
1.450655308
 30
0.0
 11
9.7780635649
 21
1.450655308
 31
0.0
  0
LINE
  5
1E5
330
1B8
100
AcDbEntity
  8
Default
  6
Continuous
 62
     7
100
AcDbLine
 10
7.731438401
 20
2.5848460026
 30
0.0
 11
7.731438401
 21
1.450655308
 31
0.0
  0
LINE
  5
1E6
330
1B8
100
AcDbEntity
  8
Default
  6
Continuous
 62
     7
100
AcDbLine
 10
9.6787352556
 20
2.5848460026
 30
0.0
 11
7.731438401
 21
2.5848460026
 31
0.0
  0
LINE
  5
1E7
330
1B8
100
AcDbEntity
  8
Default
  6
Continuous
 62
     7
100
AcDbLine
 10
9.6787352556
 20
4.0424311927
 30
0.0
 11
9.6787352556
 21
2.5848460026
 31
0.0
  0
LINE
  5
1E8
330
1B8
100
AcDbEntity
  8
Default
  6
Continuous
 62
     7
100
AcDbLine
 10
7.731438401
 20
4.0424311927
 30
0.0
 11
9.6787352556
 21
4.0424311927
 31
0.0
  0
LINE
  5
1E9
330
1B8
100
AcDbEntity
  8
Default
  6
Continuous
 62
     7
100
AcDbLine
 10
7.731438401
 20
5.1419724771
 30
0.0
 11
7.731438401
 21
4.0424311927
 31
0.0
  0
LINE
  5
1EA
330
1B8
100
AcDbEntity
  8
Default
  6
Continuous
 62
     7
100
AcDbLine
 10
9.7780635649
 20
5.1419724771
 30
0.0
 11
7.731438401
 21
5.1419724771
 31
0.0
  0
LINE
  5
1EB
330
1B8
100
AcDbEntity
  8
Default
  6
Continuous
 62
     7
100
AcDbLine
 10
9.7780635649
 20
6.5926277851
 30
0.0
 11
9.7780635649
 21
5.1419724771
 31
0.0
  0
LINE
  5
1EC
330
1B8
100
AcDbEntity
  8
Default
  6
Continuous
 62
     7
100
AcDbLine
 10
1.7093709043
 20
5.280570118
 30
0.0
 11
1.7093709043
 21
3.6312581913
 31
0.0
  0
LINE
  5
1ED
330
1B8
100
AcDbEntity
  8
Default
  6
Continuous
 62
     7
100
AcDbLine
 10
1.7093709043
 20
3.6312581913
 30
0.0
 11
1.8803079948
 21
3.6312581913
 31
0.0
  0
SPLINE
  5
1EE
330
1B8
100
AcDbEntity
  8
Default
  6
Continuous
 62
     7
100
AcDbSpline
210
0.0
220
0.0
230
1.0
 70
     8
 71
     3
 72
    29
 73
    25
 74
     0
 42
0.0000000028633018
 43
0.0000000001
 12
1.0
 22
0.0
 32
0.0
 13
1.0
 23
0.0
 33
0.0
 40
0.0
 40
0.0
 40
0.0
 40
0.0
 40
0.1203556671631279
 40
0.1203556671631279
 40
0.1203556671631279
 40
0.2363519504887718
 40
0.2363519504887718
 40
0.2363519504887718
 40
0.3551316836966588
 40
0.3551316836966588
 40
0.4739114169045465
 40
0.4739114169045465
 40
0.5942337440501996
 40
0.5942337440501996
 40
0.7145560711958533
 40
0.7145560711958533
 40
0.7145560711958533
 40
0.8303426976884648
 40
0.8303426976884648
 40
0.8303426976884648
 40
0.9506957818555967
 40
0.9506957818555967
 40
0.9506957818555967
 40
1.0
 40
1.0
 40
1.0
 40
1.0
 10
1.880307994757537
 20
3.631258191349935
 30
0.0
 10
2.018905635648757
 20
3.631258191349935
 30
0.0
 10
2.157503276539977
 20
3.640498034076017
 30
0.0
 10
2.296100917431193
 20
3.661287680209699
 30
0.0
 10
2.436957688573287
 20
3.682416195881014
 30
0.0
 10
2.564056356487548
 20
3.719036697247708
 30
0.0
 10
2.679554390563567
 20
3.776785714285715
 30
0.0
 10
2.795976408912189
 20
3.834996723460025
 30
0.0
 10
2.889760812581915
 20
3.915383355176934
 30
0.0
 10
3.028358453473135
 20
4.132519659239843
 30
0.0
 10
3.063007863695937
 20
4.278047182175624
 30
0.0
 10
3.063007863695937
 20
4.636091087811272
 30
0.0
 10
3.028358453473135
 20
4.779308650065532
 30
0.0
 10
2.889760812581915
 20
4.996444954128441
 30
0.0
 10
2.797362385321101
 20
5.079603538663172
 30
0.0
 10
2.679554390563567
 20
5.13735255570118
 30
0.0
 10
2.564521785639126
 20
5.193741087526886
 30
0.0
 10
2.437008519003932
 20
5.229750982961993
 30
0.0
 10
2.296100917431193
 20
5.250540629095676
 30
0.0
 10
2.157454063805833
 20
5.270996722253517
 30
0.0
 10
2.018905635648757
 20
5.28057011795544
 30
0.0
 10
1.880307994757537
 20
5.28057011795544
 30
0.0
 10
1.823328964613371
 20
5.28057011795544
 30
0.0
 10
1.766349934469201
 20
5.28057011795544
 30
0.0
 10
1.709370904325031
 20
5.28057011795544
 30
0.0
  0
LINE
  5
1EF
330
1B8
100
AcDbEntity
  8
Default
  6
Continuous
 62
     7
100
AcDbLine
 10
1.7093709043
 20
0.0
 30
0.0
 11
0.0
 21
0.0
 31
0.0
  0
LINE
  5
1F0
330
1B8
100
AcDbEntity
  8
Default
  6
Continuous
 62
     7
100
AcDbLine
 10
1.7093709043
 20
2.5340268676
 30
0.0
 11
1.7093709043
 21
0.0
 31
0.0
  0
LINE
  5
1F1
330
1B8
100
AcDbEntity
  8
Default
  6
Continuous
 62
     7
100
AcDbLine
 10
3.3402031455
 20
0.0
 30
0.0
 11
1.7093709043
 21
2.5340268676
 31
0.0
  0
LINE
  5
1F2
330
1B8
100
AcDbEntity
  8
Default
  6
Continuous
 62
     7
100
AcDbLine
 10
5.4769167759
 20
0.0
 30
0.0
 11
3.3402031455
 21
0.0
 31
0.0
  0
LINE
  5
1F3
330
1B8
100
AcDbEntity
  8
Default
  6
Continuous
 62
     7
100
AcDbLine
 10
3.4002621232
 20
2.7003440367
 30
0.0
 11
5.4769167759
 21
0.0
 31
0.0
  0
SPLINE
  5
1F4
330
1B8
100
AcDbEntity
  8
Default
  6
Continuous
 62
     7
100
AcDbSpline
210
0.0
220
0.0
230
1.0
 70
     8
 71
     3
 72
    39
 73
    35
 74
     0
 42
0.0000000006617465
 43
0.0000000001
 12
1.0
 22
0.0
 32
0.0
 13
1.0
 23
0.0
 33
0.0
 40
0.0
 40
0.0
 40
0.0
 40
0.0
 40
0.4184837171182216
 40
0.4184837171182216
 40
0.4184837171182216
 40
0.4329116956232541
 40
0.4329116956232541
 40
0.447940839899329
 40
0.447940839899329
 40
0.447940839899329
 40
0.5989875461512338
 40
0.5989875461512338
 40
0.5989875461512338
 40
0.65983019696195
 40
0.65983019696195
 40
0.65983019696195
 40
0.7141636694202442
 40
0.7141636694202442
 40
0.7141636694202442
 40
0.7672492360561214
 40
0.7672492360561214
 40
0.7672492360561214
 40
0.8311842098663922
 40
0.8311842098663922
 40
0.8732466926363075
 40
0.8732466926363075
 40
0.8732466926363075
 40
0.9147241024096695
 40
0.9147241024096695
 40
0.9147241024096695
 40
0.9560702513872078
 40
0.9560702513872078
 40
0.9560702513872078
 40
1.0
 40
1.0
 40
1.0
 40
1.0
 10
0.0
 20
0.0
 30
0.0
 10
0.0
 20
2.101294233289646
 30
0.0
 10
0.0
 20
4.202588466579293
 30
0.0
 10
0.0
 20
6.303882699868939
 30
0.0
 10
0.0
 20
6.38473132372215
 30
0.0
 10
0.0277195281782454
 20
6.451720183486239
 30
0.0
 10
0.1409076015727422
 20
6.564908256880734
 30
0.0
 10
0.2055865006553077
 20
6.592627785058978
 30
0.0
 10
0.2771952817824364
 20
6.592627785058978
 30
0.0
 10
1.035632372214941
 20
6.592627785058978
 30
0.0
 10
1.794069462647446
 20
6.592627785058977
 30
0.0
 10
2.552506553079947
 20
6.592627785058978
 30
0.0
 10
2.878211009174311
 20
6.592627785058978
 30
0.0
 10
3.180815858453474
 20
6.553358453473132
 30
0.0
 10
3.458011140235911
 20
6.472509829619922
 30
0.0
 10
3.736714364351247
 20
6.39122138925295
 30
0.0
 10
3.977752293577982
 20
6.271543250327655
 30
0.0
 10
4.18333879423329
 20
6.105226081258192
 30
0.0
 10
4.387795784926965
 20
5.939822673056568
 30
0.0
 10
4.550622542595022
 20
5.731012450851901
 30
0.0
 10
4.666120576671034
 20
5.476916775884666
 30
0.0
 10
4.782488801414747
 20
5.220906681448501
 30
0.0
 10
4.839367627785059
 20
4.917906290956751
 30
0.0
 10
4.839367627785059
 20
4.335796199213631
 30
0.0
 10
4.809338138925298
 20
4.116349934469202
 30
0.0
 10
4.744659239842726
 20
3.913073394495413
 30
0.0
 10
4.679525282839784
 20
3.708366672486163
 30
0.0
 10
4.589891874180864
 20
3.520380078636961
 30
0.0
 10
4.467463958060289
 20
3.356372870249018
 30
0.0
 10
4.343928732125118
 20
3.19088228456228
 30
0.0
 10
4.19488859764089
 20
3.049148099606816
 30
0.0
 10
4.014711664482306
 20
2.9336500655308
 30
0.0
 10
3.836171940175813
 20
2.819201524308691
 30
0.0
 10
3.631258191349932
 20
2.739613368283093
 30
0.0
 10
3.400262123197905
 20
2.700344036697248
 30
0.0
  0
HATCH
  5
1F5
330
1B8
100
AcDbEntity
  8
Default
  6
Continuous
 62
     7
100
AcDbHatch
 10
0.0
 20
0.0
 30
0.0
210
0.0
220
0.0
230
1.0
  2
SOLID
 70
     1
 71
     0
 91
        2
 92
        1
 93
        6
 72
     4
 94
        3
 73
     0
 74
     0
 95
       39
 96
       35
 40
0.0
 40
0.0
 40
0.0
 40
0.0
 40
0.0439297486127922
 40
0.0439297486127922
 40
0.0439297486127922
 40
0.0852758975903305
 40
0.0852758975903305
 40
0.0852758975903305
 40
0.1267533073636925
 40
0.1267533073636925
 40
0.1267533073636925
 40
0.1688157901336078
 40
0.1688157901336078
 40
0.2327507639438786
 40
0.2327507639438786
 40
0.2327507639438786
 40
0.2858363305797558
 40
0.2858363305797558
 40
0.2858363305797558
 40
0.34016980303805
 40
0.34016980303805
 40
0.34016980303805
 40
0.4010124538487662
 40
0.4010124538487662
 40
0.4010124538487662
 40
0.552059160100671
 40
0.552059160100671
 40
0.552059160100671
 40
0.5670883043767458
 40
0.5670883043767458
 40
0.5815162828817784
 40
0.5815162828817784
 40
0.5815162828817784
 40
1.0
 40
1.0
 40
1.0
 40
1.0
 10
3.400262123197905
 20
2.700344036697248
 10
3.631258191349932
 20
2.739613368283093
 10
3.836171940175813
 20
2.819201524308691
 10
4.014711664482306
 20
2.9336500655308
 10
4.19488859764089
 20
3.049148099606816
 10
4.343928732125118
 20
3.19088228456228
 10
4.467463958060289
 20
3.356372870249018
 10
4.589891874180864
 20
3.520380078636961
 10
4.679525282839784
 20
3.708366672486163
 10
4.744659239842726
 20
3.913073394495413
 10
4.809338138925298
 20
4.116349934469202
 10
4.839367627785059
 20
4.335796199213631
 10
4.839367627785059
 20
4.917906290956751
 10
4.782488801414747
 20
5.220906681448501
 10
4.666120576671034
 20
5.476916775884666
 10
4.550622542595022
 20
5.731012450851901
 10
4.387795784926965
 20
5.939822673056568
 10
4.18333879423329
 20
6.105226081258192
 10
3.977752293577982
 20
6.271543250327655
 10
3.736714364351247
 20
6.39122138925295
 10
3.458011140235911
 20
6.472509829619922
 10
3.180815858453474
 20
6.553358453473132
 10
2.878211009174311
 20
6.592627785058978
 10
2.552506553079947
 20
6.592627785058978
 10
1.794069462647446
 20
6.592627785058977
 10
1.035632372214941
 20
6.592627785058978
 10
0.2771952817824364
 20
6.592627785058978
 10
0.2055865006553077
 20
6.592627785058978
 10
0.1409076015727422
 20
6.564908256880734
 10
0.0277195281782454
 20
6.451720183486239
 10
0.0
 20
6.38473132372215
 10
0.0
 20
6.303882699868939
 10
0.0
 20
4.202588466579293
 10
0.0
 20
2.101294233289646
 10
0.0
 20
0.0
 72
     1
 10
0.0
 20
0.0
 11
1.709370904325033
 21
0.0000000000000009
 72
     1
 10
1.709370904325031
 20
0.0000000000000009
 11
1.709370904325031
 21
2.534026867627786
 72
     1
 10
1.709370904325031
 20
2.534026867627786
 11
3.340203145478373
 21
0.0000000000000004
 72
     1
 10
3.340203145478373
 20
0.0000000000000009
 11
5.476916775884664
 21
0.0000000000000009
 72
     1
 10
5.476916775884668
 20
0.0000000000000009
 11
3.400262123197905
 21
2.700344036697248
 97
        0
 92
        1
 93
        3
 72
     1
 10
1.709370904325031
 20
5.28057011795544
 11
1.709370904325031
 21
3.631258191349935
 72
     1
 10
1.709370904325031
 20
3.631258191349935
 11
1.880307994757535
 21
3.631258191349935
 72
     4
 94
        3
 73
     0
 74
     0
 95
       29
 96
       25
 40
0.0
 40
0.0
 40
0.0
 40
0.0
 40
0.120355667163128
 40
0.120355667163128
 40
0.120355667163128
 40
0.2363519504887718
 40
0.2363519504887718
 40
0.2363519504887718
 40
0.3551316836966587
 40
0.3551316836966587
 40
0.4739114169045465
 40
0.4739114169045465
 40
0.5942337440501996
 40
0.5942337440501996
 40
0.7145560711958533
 40
0.7145560711958533
 40
0.7145560711958533
 40
0.8303426976884648
 40
0.8303426976884648
 40
0.8303426976884648
 40
0.9506957818555967
 40
0.9506957818555967
 40
0.9506957818555967
 40
1.0
 40
1.0
 40
1.0
 40
1.0
 10
1.880307994757537
 20
3.631258191349935
 10
2.018905635648757
 20
3.631258191349935
 10
2.157503276539977
 20
3.640498034076017
 10
2.296100917431193
 20
3.661287680209699
 10
2.436957688573287
 20
3.682416195881014
 10
2.564056356487548
 20
3.719036697247708
 10
2.679554390563567
 20
3.776785714285715
 10
2.795976408912189
 20
3.834996723460025
 10
2.889760812581915
 20
3.915383355176934
 10
3.028358453473135
 20
4.132519659239843
 10
3.063007863695937
 20
4.278047182175624
 10
3.063007863695937
 20
4.636091087811272
 10
3.028358453473135
 20
4.779308650065532
 10
2.889760812581915
 20
4.996444954128441
 10
2.797362385321101
 20
5.079603538663172
 10
2.679554390563567
 20
5.13735255570118
 10
2.564521785639126
 20
5.193741087526886
 10
2.437008519003932
 20
5.229750982961993
 10
2.296100917431193
 20
5.250540629095676
 10
2.157454063805833
 20
5.270996722253517
 10
2.018905635648757
 20
5.28057011795544
 10
1.880307994757537
 20
5.28057011795544
 10
1.823328964613371
 20
5.28057011795544
 10
1.766349934469201
 20
5.28057011795544
 10
1.709370904325031
 20
5.28057011795544
 97
        0
 75
     0
 76
     1
 98
        0
  0
HATCH
  5
1F6
330
1B8
100
AcDbEntity
  8
Default
  6
Continuous
 62
     7
100
AcDbHatch
 10
0.0
 20
0.0
 30
0.0
210
0.0
220
0.0
230
1.0
  2
SOLID
 70
     1
 71
     0
 91
        1
 92
        1
 93
       11
 72
     4
 94
        3
 73
     0
 74
     0
 95
       16
 96
       12
 40
0.0
 40
0.0
 40
0.0
 40
0.0
 40
0.3392889644065707
 40
0.3392889644065707
 40
0.3392889644065707
 40
0.3618671566114537
 40
0.3618671566114537
 40
0.3835422211281416
 40
0.3835422211281416
 40
0.3835422211281416
 40
1.0
 40
1.0
 40
1.0
 40
1.0
 10
9.778063564875495
 20
6.592627785058978
 10
8.621543250327658
 20
6.592627785058978
 10
7.465022935779817
 20
6.592627785058978
 10
6.30850262123198
 20
6.592627785058978
 10
6.229963958060289
 20
6.592627785058978
 10
6.162975098296197
 20
6.564908256880734
 10
6.049787024901704
 20
6.451720183486239
 10
6.022067496723459
 20
6.38473132372215
 10
6.022067496723459
 20
6.303882699868939
 10
6.022067496723459
 20
4.202588466579293
 10
6.022067496723459
 20
2.101294233289647
 10
6.022067496723459
 20
0.0000000000000018
 72
     1
 10
6.022067496723459
 20
0.0000000000000018
 11
9.778063564875495
 21
0.0000000000000009
 72
     1
 10
9.778063564875495
 20
0.0000000000000009
 11
9.778063564875495
 21
1.450655307994759
 72
     1
 10
9.778063564875495
 20
1.450655307994758
 11
7.731438401048491
 21
1.450655307994758
 72
     1
 10
7.731438401048493
 20
1.450655307994758
 11
7.731438401048493
 21
2.584846002621233
 72
     1
 10
7.731438401048493
 20
2.584846002621233
 11
9.678735255570121
 21
2.584846002621233
 72
     1
 10
9.678735255570121
 20
2.584846002621233
 11
9.678735255570121
 21
4.042431192660551
 72
     1
 10
9.678735255570121
 20
4.042431192660551
 11
7.731438401048493
 21
4.042431192660551
 72
     1
 10
7.731438401048493
 20
4.042431192660551
 11
7.731438401048493
 21
5.141972477064221
 72
     1
 10
7.731438401048493
 20
5.141972477064221
 11
9.778063564875497
 21
5.141972477064221
 72
     1
 10
9.778063564875495
 20
5.141972477064221
 11
9.778063564875495
 21
6.592627785058978
 97
        0
 75
     0
 76
     1
 98
        0
  0
HATCH
  5
1F7
330
1B8
100
AcDbEntity
  8
Default
  6
Continuous
 62
     7
100
AcDbHatch
 10
0.0
 20
0.0
 30
0.0
210
0.0
220
0.0
230
1.0
  2
SOLID
 70
     1
 71
     0
 91
        1
 92
        1
 93
        6
 72
     4
 94
        3
 73
     0
 74
     0
 95
       51
 96
       47
 40
0.0
 40
0.0
 40
0.0
 40
0.0
 40
0.0903181127538991
 40
0.0903181127538991
 40
0.1806362255077987
 40
0.1806362255077987
 40
0.2505107113883491
 40
0.2505107113883491
 40
0.2505107113883491
 40
0.3153180737852943
 40
0.3153180737852943
 40
0.3153180737852943
 40
0.3800992723712822
 40
0.3800992723712822
 40
0.3800992723712822
 40
0.4521169206302595
 40
0.4521169206302595
 40
0.5213407808102242
 40
0.5213407808102242
 40
0.5213407808102242
 40
0.5850582814386294
 40
0.5850582814386294
 40
0.5850582814386294
 40
0.6488037906897904
 40
0.6488037906897904
 40
0.6488037906897904
 40
0.718817254308538
 40
0.718817254308538
 40
0.7944820288920282
 40
0.7944820288920282
 40
0.7944820288920282
 40
0.8697367480753329
 40
0.8697367480753329
 40
0.8697367480753329
 40
0.9013515779285247
 40
0.9013515779285247
 40
0.9013515779285247
 40
0.9306379885930884
 40
0.9306379885930884
 40
0.9599243992576518
 40
0.9599243992576518
 40
0.9599243992576518
 40
0.9904597959709778
 40
0.9904597959709778
 40
0.9904597959709778
 40
1.0
 40
1.0
 40
1.0
 40
1.0
 10
16.88350262123198
 20
4.945625819134994
 10
16.59937745740498
 20
5.56931520314548
 10
16.20206422018348
 20
6.033617300131063
 10
15.18106159895151
 20
6.643446920052426
 10
14.58740170380079
 20
6.795904325032767
 10
13.37467234600262
 20
6.795904325032767
 10
12.88849518360602
 20
6.715532627831713
 10
12.44837811271297
 20
6.544118610747052
 10
12.00948558322411
 20
6.373181520314549
 10
11.6318070432484
 20
6.134109113501288
 10
11.31880733944954
 20
5.823410878112714
 10
11.00465268676278
 20
5.511566186107471
 10
10.76010389980871
 20
5.138136765961434
 10
10.58885976408912
 20
4.700769986893841
 10
10.41792267365662
 20
4.264187418086501
 10
10.33245412844037
 20
3.776785714285715
 10
10.33245412844037
 20
2.725753604193972
 10
10.41673087643255
 20
2.251733670943243
 10
10.58885976408912
 20
1.822558977719529
 10
10.76210681520315
 20
1.39059633027523
 10
10.99887791762487
 20
1.022140102874894
 10
11.30725753604194
 20
0.7183977719528185
 10
11.61448230668415
 20
0.4157929226736576
 10
11.9860833240235
 20
0.1770875389365569
 10
12.41834862385321
 20
0.0092398427260818
 10
12.85262123197903
 20
-0.1593872870249009
 10
13.32847313237222
 20
-0.2425458715596323
 10
14.40029488859764
 20
-0.2425458715596323
 10
14.91226036066398
 20
-0.1389661078830131
 10
15.37971821756225
 20
0.06467889908257
 10
15.84633027522936
 20
0.2679554390563577
 10
16.23809819736261
 20
0.6029285876097794
 10
16.5670380078637
 20
1.057961992136305
 10
16.70563564875491
 20
1.249688728702491
 10
16.80988280520848
 20
1.442190804023907
 10
16.88350262123198
 20
1.633142201834863
 10
16.95742136304062
 20
1.824868938401049
 10
17.01055045871559
 20
2.021215596330276
 10
17.08446920052425
 20
2.41852883355177
 10
17.10526611434193
 20
2.619624777619178
 10
17.11680865006553
 20
2.825081913499345
 10
17.12835845347313
 20
3.030668414154654
 10
17.14221821756225
 20
3.243184796854522
 10
17.14221821756225
 20
3.460321100917432
 10
17.14221821756225
 20
3.526539973787681
 10
17.14221821756225
 20
3.59275884665793
 10
17.14221821756225
 20
3.658977719528179
 72
     1
 10
17.14221821756225
 20
3.658977719528179
 11
13.83435452162517
 21
3.658977719528179
 72
     1
 10
13.83435452162517
 20
3.658977719528179
 11
13.83435452162517
 21
2.314580602883356
 72
     1
 10
13.83435452162517
 20
2.314580602883356
 11
15.33351900393184
 21
2.314580602883356
 72
     4
 94
        3
 73
     0
 74
     0
 95
       43
 96
       39
 40
0.0
 40
0.0
 40
0.0
 40
0.0
 40
0.0528407008768927
 40
0.0528407008768927
 40
0.0528407008768927
 40
0.101808017531148
 40
0.101808017531148
 40
0.101808017531148
 40
0.1527424680033737
 40
0.1527424680033737
 40
0.1527424680033737
 40
0.2046872249080309
 40
0.2046872249080309
 40
0.285201598110253
 40
0.285201598110253
 40
0.285201598110253
 40
0.3575698737778739
 40
0.3575698737778739
 40
0.3575698737778739
 40
0.4340109897737078
 40
0.4340109897737078
 40
0.5104521057695417
 40
0.5104521057695417
 40
0.5848456918726302
 40
0.5848456918726302
 40
0.5848456918726302
 40
0.6593973023253275
 40
0.6593973023253275
 40
0.6593973023253275
 40
0.7322081321972964
 40
0.7322081321972964
 40
0.7322081321972964
 40
0.808821291350857
 40
0.808821291350857
 40
0.9050626152462398
 40
0.9050626152462398
 40
0.9050626152462398
 40
1.0
 40
1.0
 40
1.0
 40
1.0
 10
15.33351900393184
 20
2.314580602883356
 10
15.31503931847969
 20
2.12285386631717
 10
15.26256022686942
 20
1.956138307659666
 10
15.17644167758847
 20
1.815629095674968
 10
15.08866317169069
 20
1.672411533420708
 10
14.98086470130555
 20
1.551204760042966
 10
14.84842726081258
 20
1.457585190039319
 10
14.7144495412844
 20
1.362876802096987
 10
14.5615512434976
 20
1.290461103946714
 10
14.39105504587156
 20
1.240448885976409
 10
14.21780799475754
 20
1.189629750982963
 10
14.03994102228047
 20
1.16653014416776
 10
13.56870904325033
 20
1.16653014416776
 10
13.32020716906946
 20
1.226055058977723
 10
13.10440694626475
 20
1.344397116644824
 10
12.88958060288335
 20
1.46220511140236
 10
12.7105124508519
 20
1.620114023591089
 10
12.56387614678899
 20
1.815629095674968
 10
12.41834862385321
 20
2.009665792922674
 10
12.30747051114023
 20
2.231422018348625
 10
12.15501310615989
 20
2.721133682830931
 10
12.11574377457405
 20
2.970609436435126
 10
12.11574377457405
 20
3.481110747051115
 10
12.15421681189757
 20
3.730147961786198
 10
12.22662188728703
 20
3.980062254259503
 10
12.29823066841416
 20
4.227228047182176
 10
12.40527884987617
 20
4.450080065344236
 10
12.54770642201835
 20
4.647640891218874
 10
12.69092398427261
 20
4.84629750982962
 10
12.86823374940279
 20
5.008983012075785
 10
13.08361730013106
 20
5.13042267365662
 10
13.30075360419397
 20
5.252850589777196
 10
13.54560943643512
 20
5.312909567496725
 10
14.17622870249017
 20
5.312909567496725
 10
14.47167626156505
 20
5.217916234390401
 10
14.7144495412844
 20
5.024164482306685
 10
14.95468545216252
 20
4.832437745740499
 10
15.1348623853211
 20
4.578342070773264
 10
15.25498034076016
 20
4.25956749672346
 72
     1
 10
15.25498034076016
 20
4.25956749672346
 11
16.88350262123198
 21
4.945625819134994
 97
        0
 75
     0
 76
     1
 98
        0
  0
HATCH
  5
1F8
330
1B8
100
AcDbEntity
  8
Default
  6
Continuous
 62
     7
100
AcDbHatch
 10
0.0
 20
0.0
 30
0.0
210
0.0
220
0.0
230
1.0
  2
SOLID
 70
     1
 71
     0
 91
        2
 92
        1
 93
        1
 72
     4
 94
        3
 73
     0
 74
     0
 95
       49
 96
       45
 40
0.0
 40
0.0
 40
0.0
 40
0.0
 40
0.0620905351842325
 40
0.0620905351842325
 40
0.0620905351842325
 40
0.1225274789213882
 40
0.1225274789213882
 40
0.1225274789213882
 40
0.1824107500595676
 40
0.1824107500595676
 40
0.1824107500595676
 40
0.2443092731117129
 40
0.2443092731117129
 40
0.3113899980938052
 40
0.3113899980938052
 40
0.3113899980938052
 40
0.373038281101099
 40
0.373038281101099
 40
0.4342493422430935
 40
0.4342493422430935
 40
0.4342493422430935
 40
0.5005101029271146
 40
0.5005101029271146
 40
0.5664827733472912
 40
0.5664827733472912
 40
0.5664827733472912
 40
0.6277456785228048
 40
0.6277456785228048
 40
0.6277456785228048
 40
0.6890483024008142
 40
0.6890483024008142
 40
0.6890483024008142
 40
0.7561017319004357
 40
0.7561017319004357
 40
0.8179750681339922
 40
0.8179750681339922
 40
0.8179750681339922
 40
0.8779262347345869
 40
0.8779262347345869
 40
0.8779262347345869
 40
0.9382003516792404
 40
0.9382003516792404
 40
0.9382003516792404
 40
1.0
 40
1.0
 40
1.0
 40
1.0
 10
21.44336500655308
 20
6.83055373525557
 10
20.96520314547837
 20
6.82824377457405
 10
20.50677543450266
 20
6.747870526797538
 10
20.06662844036697
 20
6.581077981651377
 10
19.62773591087812
 20
6.414760812581914
 10
19.23849979910015
 20
6.18016634116182
 10
18.90009829619921
 20
5.878849934469201
 10
18.56284403669725
 20
5.57855504587156
 10
18.2953544565906
 20
5.21684411217912
 10
18.0916120576671
 20
4.800098296199214
 10
17.88833551769332
 20
4.384305373525557
 10
17.78669724770642
 20
3.926933158584535
 10
17.78669724770642
 20
2.892070773263434
 10
17.87990551563201
 20
2.402690597965156
 10
18.06158256880734
 20
1.958846657929228
 10
18.24406946264745
 20
1.513024246395807
 10
18.49585517693316
 20
1.129570773263435
 10
19.14495412844037
 20
0.4804718217562263
 10
19.53023971314575
 20
0.2274883817829441
 10
19.9788499344692
 20
0.0485091743119273
 10
20.42467234600262
 20
-0.1293577981651364
 10
20.91207404980341
 20
-0.2194462647444295
 10
21.97234600262123
 20
-0.2194462647444295
 10
22.46253572118054
 20
-0.1305468044592142
 10
22.90788007863696
 20
0.0485091743119273
 10
23.3560124508519
 20
0.2286861074705122
 10
23.7406207864759
 20
0.4793333402928437
 10
24.06055045871559
 20
0.8038663171690699
 10
24.38163499344692
 20
1.129570773263435
 10
24.63260786737497
 20
1.513358696334639
 10
24.81590760157274
 20
1.958846657929228
 10
24.99839449541284
 20
2.402359108781128
 10
25.08848296199213
 20
2.892070773263434
 10
25.08848296199213
 20
3.926933158584535
 10
24.9863762849025
 20
4.38296991497732
 10
24.78587811271298
 20
4.800098296199214
 10
24.58491153342071
 20
5.218201179554391
 10
24.31246764930903
 20
5.576127116722139
 10
23.97508191349934
 20
5.878849934469201
 10
23.63782765399738
 20
6.181454783748363
 10
23.25051470703607
 20
6.416785102496653
 10
22.81317169069462
 20
6.581077981651377
 10
22.37658912188729
 20
6.745085190039319
 10
21.91919464291449
 20
6.832852429151036
 10
21.44336500655308
 20
6.83055373525557
 97
        0
 92
        1
 93
        1
 72
     4
 94
        3
 73
     0
 74
     0
 95
       47
 96
       43
 40
0.0
 40
0.0
 40
0.0
 40
0.0
 40
0.0637917384076936
 40
0.0637917384076936
 40
0.0637917384076936
 40
0.1265834997779105
 40
0.1265834997779105
 40
0.1893752611481285
 40
0.1893752611481285
 40
0.1893752611481285
 40
0.2604081010642026
 40
0.2604081010642026
 40
0.3159741129340349
 40
0.3159741129340349
 40
0.3159741129340349
 40
0.3751091105868485
 40
0.3751091105868485
 40
0.3751091105868485
 40
0.435995169879425
 40
0.435995169879425
 40
0.435995169879425
 40
0.4997689343159712
 40
0.4997689343159712
 40
0.5635426987525196
 40
0.5635426987525196
 40
0.5635426987525196
 40
0.624232315369434
 40
0.624232315369434
 40
0.624232315369434
 40
0.6835869381889372
 40
0.6835869381889372
 40
0.6835869381889372
 40
0.7357943705008892
 40
0.7357943705008892
 40
0.8025337685079206
 40
0.8025337685079206
 40
0.8692731665149518
 40
0.8692731665149518
 40
0.9360125645219831
 40
0.9360125645219831
 40
0.9360125645219831
 40
1.0
 40
1.0
 40
1.0
 40
1.0
 10
21.44336500655308
 20
1.450655307994758
 10
21.70208060288335
 20
1.450655307994758
 10
21.94462647444299
 20
1.501474442988205
 10
22.16869266055046
 20
1.600802752293579
 10
22.39468942225328
 20
1.700986883770089
 10
22.5937254259502
 20
1.836418741808651
 10
22.93097968545217
 20
2.187532765399738
 10
23.06495740498034
 20
2.395429226736567
 10
23.15966579292267
 20
2.63335517693316
 10
23.25469013236262
 20
2.87207485894082
 10
23.30519331585845
 20
3.132306684141548
 10
23.30519331585845
 20
3.642807994757537
 10
23.25668414154652
 20
3.862254259501967
 10
23.15966579292267
 20
4.074770642201835
 10
23.06391850987524
 20
4.284502786020031
 10
22.93097968545217
 20
4.472083879423329
 10
22.76235255570118
 20
4.636091087811272
 10
22.59487996078263
 20
4.798975392458079
 10
22.39506880733945
 20
4.927146133682831
 10
22.16869266055046
 20
5.021854521625164
 10
21.94345992894685
 20
5.116084541989939
 10
21.70208060288335
 20
5.167382044560944
 10
21.18464941022281
 20
5.167382044560944
 10
20.94210353866317
 20
5.118872870249017
 10
20.71572739187418
 20
5.021854521625164
 10
20.49213912866634
 20
4.926030980250372
 10
20.29300458715597
 20
4.797788335517694
 10
20.12437745740498
 20
4.636091087811272
 10
19.95459636352431
 20
4.473287299158574
 10
19.82177260812581
 20
4.284977064220183
 10
19.72244429882045
 20
4.074770642201835
 10
19.62222370164274
 20
3.86267589003505
 10
19.57229685452162
 20
3.642807994757537
 10
19.57229685452162
 20
3.132306684141548
 10
19.62311598951508
 20
2.871281127129752
 10
19.82177260812581
 20
2.395429226736567
 10
19.95575032765399
 20
2.187532765399738
 10
20.29300458715597
 20
1.836418741808651
 10
20.49166120576671
 20
1.700131061598952
 10
20.71572739187418
 20
1.600802752293579
 10
20.941724153577
 20
1.500618620817073
 10
21.18464941022281
 20
1.450655307994758
 10
21.44336500655308
 20
1.450655307994758
 97
        0
 75
     0
 76
     1
 98
        0
  0
HATCH
  5
1F9
330
1B8
100
AcDbEntity
  8
Default
  6
Continuous
 62
     7
100
AcDbHatch
 10
0.0
 20
0.0
 30
0.0
210
0.0
220
0.0
230
1.0
  2
SOLID
 70
     1
 71
     0
 91
        1
 92
        1
 93
        4
 72
     1
 10
28.07064220183486
 20
2.584846002621233
 11
28.07064220183486
 21
4.042431192660551
 72
     1
 10
28.07064220183486
 20
4.042431192660551
 11
25.93623853211009
 21
4.042431192660551
 72
     1
 10
25.93623853211009
 20
4.042431192660551
 11
25.93623853211009
 21
2.584846002621233
 72
     1
 10
25.93623853211009
 20
2.584846002621233
 11
28.07064220183486
 21
2.584846002621233
 97
        0
 75
     0
 76
     1
 98
        0
  0
HATCH
  5
1FA
330
1B8
100
AcDbEntity
  8
Default
  6
Continuous
 62
     7
100
AcDbHatch
 10
0.0
 20
0.0
 30
0.0
210
0.0
220
0.0
230
1.0
  2
SOLID
 70
     1
 71
     0
 91
        1
 92
        1
 93
        9
 72
     4
 94
        3
 73
     0
 74
     0
 95
       16
 96
       12
 40
0.0
 40
0.0
 40
0.0
 40
0.0
 40
0.3396620468027166
 40
0.3396620468027166
 40
0.3396620468027166
 40
0.3623316833330921
 40
0.3623316833330921
 40
0.3840945344022499
 40
0.3840945344022499
 40
0.3840945344022499
 40
1.0
 40
1.0
 40
1.0
 40
1.0
 10
32.58661533420707
 20
6.592627785058978
 10
31.42778505897771
 20
6.592627785058978
 10
30.26895478374836
 20
6.592627785058978
 10
29.110124508519
 20
6.592627785058978
 10
29.02927588466579
 20
6.592627785058978
 10
28.96228702490171
 20
6.564908256880734
 10
28.84909895150721
 20
6.451720183486239
 10
28.82137942332896
 20
6.38473132372215
 10
28.82137942332896
 20
6.303882699868939
 10
28.82137942332896
 20
4.202588466579293
 10
28.82137942332896
 20
2.101294233289646
 10
28.82137942332896
 20
0.0
 72
     1
 10
28.82137942332896
 20
0.0
 11
30.53999017038007
 21
0.0000000000000009
 72
     1
 10
30.53999017038007
 20
0.0000000000000009
 11
30.53999017038007
 21
2.584846002621234
 72
     1
 10
30.53999017038007
 20
2.584846002621234
 11
32.4872870249017
 21
2.584846002621233
 72
     1
 10
32.4872870249017
 20
2.584846002621233
 11
32.4872870249017
 21
4.042431192660551
 72
     1
 10
32.4872870249017
 20
4.042431192660551
 11
30.53999017038007
 21
4.042431192660551
 72
     1
 10
30.53999017038007
 20
4.042431192660551
 11
30.53999017038007
 21
5.141972477064221
 72
     1
 10
30.53999017038007
 20
5.141972477064221
 11
32.58661533420707
 21
5.141972477064221
 72
     1
 10
32.58661533420707
 20
5.141972477064221
 11
32.58661533420707
 21
6.592627785058978
 97
        0
 75
     0
 76
     1
 98
        0
  0
HATCH
  5
1FB
330
1B8
100
AcDbEntity
  8
Default
  6
Continuous
 62
     7
100
AcDbHatch
 10
0.0
 20
0.0
 30
0.0
210
0.0
220
0.0
230
1.0
  2
SOLID
 70
     1
 71
     0
 91
        1
 92
        1
 93
        4
 72
     4
 94
        3
 73
     0
 74
     0
 95
       14
 96
       10
 40
0.0
 40
0.0
 40
0.0
 40
0.0
 40
0.7580098693161609
 40
0.7580098693161609
 40
0.7580098693161609
 40
0.8789822868889446
 40
0.8789822868889446
 40
0.8789822868889446
 40
1.0
 40
1.0
 40
1.0
 40
1.0
 10
35.18532110091743
 20
6.608797509829621
 10
34.71100917431193
 20
6.608797509829621
 10
34.23669724770642
 20
6.608797509829621
 10
33.76238532110091
 20
6.608797509829621
 10
33.68153669724771
 20
6.608797509829621
 10
33.61680971405436
 20
6.578721860223512
 10
33.55910878112713
 20
6.523328964613368
 10
33.50135976408912
 20
6.467889908256881
 10
33.47364023591088
 20
6.400901048492791
 10
33.47364023591088
 20
6.320052424639582
 72
     1
 10
33.47364023591088
 20
6.320052424639582
 11
33.47364023591088
 21
0.0000000000000009
 72
     1
 10
33.47364023591088
 20
0.0000000000000009
 11
35.18532110091743
 21
0.0000000000000009
 72
     1
 10
35.18532110091743
 20
0.0000000000000009
 11
35.18532110091743
 21
6.608797509829621
 97
        0
 75
     0
 76
     1
 98
        0
  0
HATCH
  5
1FC
330
1B8
100
AcDbEntity
  8
Default
  6
Continuous
 62
     7
100
AcDbHatch
 10
0.0
 20
0.0
 30
0.0
210
0.0
220
0.0
230
1.0
  2
SOLID
 70
     1
 71
     0
 91
        1
 92
        1
 93
       12
 72
     1
 10
39.22313237221493
 20
4.885566841415466
 11
38.20905963302751
 21
6.592627785058978
 72
     1
 10
38.20905963302752
 20
6.592627785058978
 11
36.10468545216251
 21
6.592627785058978
 72
     1
 10
36.10468545216251
 20
6.592627785058978
 11
38.20905963302751
 21
3.525
 72
     1
 10
38.20905963302752
 20
3.525000000000001
 11
35.62652359108781
 21
0.0000000000000013
 72
     1
 10
35.6265235910878
 20
0.0000000000000009
 11
37.70317824377457
 21
0.0000000000000009
 72
     1
 10
37.70317824377457
 20
0.0000000000000009
 11
39.22313237221493
 21
2.145953473132373
 72
     1
 10
39.22313237221493
 20
2.145953473132373
 11
40.25568479685452
 21
0.5266710353866326
 72
     1
 10
40.25568479685452
 20
0.5266710353866322
 11
41.28823722149409
 21
1.995806028833553
 72
     1
 10
41.28823722149409
 20
1.995806028833553
 11
40.22565530799475
 21
3.525000000000001
 72
     1
 10
40.22565530799475
 20
3.525000000000001
 11
42.34157929226736
 21
6.592627785058978
 72
     1
 10
42.34157929226736
 20
6.592627785058978
 11
40.22565530799475
 21
6.592627785058978
 72
     1
 10
40.22565530799475
 20
6.592627785058978
 11
39.22313237221493
 21
4.885566841415466
 97
        0
 75
     0
 76
     1
 98
        0
  0
HATCH
  5
1FD
330
1B8
100
AcDbEntity
  8
Default
  6
Continuous
 62
     7
100
AcDbHatch
 10
0.0
 20
0.0
 30
0.0
210
0.0
220
0.0
230
1.0
  2
SOLID
 70
     1
 71
     0
 91
        1
 92
        1
 93
        3
 72
     4
 94
        3
 73
     0
 74
     0
 95
       13
 96
        9
 40
0.0
 40
0.0
 40
0.0
 40
0.0
 40
0.0445094381088423
 40
0.0445094381088423
 40
0.0908355879772283
 40
0.0908355879772283
 40
0.0908355879772283
 40
1.0
 40
1.0
 40
1.0
 40
1.0
 10
45.71181192660551
 20
6.414760812581914
 10
45.61941349934469
 20
6.53256880733945
 10
45.51546526867628
 20
6.592627785058978
 10
45.28446920052424
 20
6.592627785058978
 10
45.18660375034128
 20
6.531537694833034
 10
45.10429226736566
 20
6.414760812581914
 10
43.69752621231979
 20
4.418954783748362
 10
42.29076015727392
 20
2.423148754914811
 10
40.88399410222804
 20
0.427342726081259
 72
     4
 94
        3
 73
     0
 74
     0
 95
       11
 96
        7
 40
0.0
 40
0.0
 40
0.0
 40
0.0
 40
0.3439066424360135
 40
0.3439066424360135
 40
0.3439066424360135
 40
1.0
 40
1.0
 40
1.0
 40
1.0
 10
40.88399410222804
 20
0.427342726081259
 10
40.83086500655307
 20
0.3418741808650076
 10
40.80230295367286
 20
0.2725253209688669
 10
40.80314547837483
 20
0.2194462647444313
 10
40.80545543905635
 20
0.0739187418086509
 10
40.90709370904325
 20
0.0000000000000009
 10
41.11268020969855
 20
0.0000000000000009
 72
     4
 94
        3
 73
     0
 74
     0
 95
       16
 96
       12
 40
0.0
 40
0.0
 40
0.0
 40
0.0
 40
0.5188870924081099
 40
0.5188870924081099
 40
0.5188870924081099
 40
0.544909989588877
 40
0.544909989588877
 40
0.5581347406151689
 40
0.5581347406151689
 40
0.5581347406151689
 40
1.0
 40
1.0
 40
1.0
 40
1.0
 10
41.11268020969855
 20
0.0000000000000009
 10
43.98011140235911
 20
0.0000000000000009
 10
46.84754259501965
 20
0.0000000000000009
 10
49.71497378768021
 20
0.0000000000000009
 10
49.91363040629096
 20
0.0000000000000009
 10
50.01295871559633
 20
0.0692988204456104
 10
50.01295871559633
 20
0.281815203145479
 10
49.98455330475264
 20
0.352940532254955
 10
49.93211009174313
 20
0.427342726081259
 10
48.52534403669725
 20
2.42314875491481
 10
47.11857798165137
 20
4.418954783748362
 10
45.71181192660551
 20
6.414760812581914
 97
        0
 75
     0
 76
     1
 98
        0
  0
ENDBLK
  5
1FF
330
1B8
100
AcDbEntity
  8
0
100
AcDbBlockEnd
  0
BLOCK
  5
209
330
200
100
AcDbEntity
  8
0
100
AcDbBlockBegin
  2
RF-Massblatt_2016
 70
     0
 10
0.0
 20
0.0
 30
0.0
  3
RF-Massblatt_2016
  1

  0
MTEXT
  5
201
102
{ACAD_XDICTIONARY
360
213
102
}
330
200
100
AcDbEntity
  8
Default
100
AcDbMText
 10
15.2206856049
 20
34.8070876502
 30
0.0
 40
2.5
 41
48.9706096033
 71
     1
 72
     1
  3
{\fVectora Com 45 Light|b1||i0||c0|p34;\C7;\H2.5;\W1.;REGO-FIX AG\P}{\fVectora Com 45 Light|b0||i0||c0|p34;\C7;\H2.5;\W1.;Obermattweg 60\P}{\fVectora Com 45 Light|b0||i0||c0|p34;\C7;\H2.5;\W1.;4456 Tenniken / Switzerland\P}{\fVectora Com 45 Light|b0
  3
||i0||c0|p34;\C7;\H2.5;\W1.;\P}{\fVectora Com 45 Light|b0||i0||c0|p34;\C7;\H2.5;\W1.;P +41 61 976 14 66\P}{\fVectora Com 45 Light|b0||i0||c0|p34;\C7;\H2.5;\W1.;F +41 61 976 14 14\P}{\fVectora Com 45 Light|b1||i0||c0|p34;\C7;\H2.5;\W1.;www.rego-fix.c
  1
om}
 73
     1
 44
1.0
1001
ACAD
1000
ACAD_MTEXT_DEFINED_HEIGHT_BEGIN
1070
    46
1040
31.3191355437
1000
ACAD_MTEXT_DEFINED_HEIGHT_END
  0
MTEXT
  5
202
102
{ACAD_XDICTIONARY
360
215
102
}
330
200
100
AcDbEntity
  8
Default
100
AcDbMText
 10
90.3836341545
 20
34.4892285804
 30
0.0
 40
2.5
 41
104.0282149141
 71
     1
 72
     1
  3
{\fSolid Edge ISO|b0||i0||c0|p34;\C7;\H2.;\W1.;This is a non-controlled copy. All information given herein is subject to change without notice\P}{\fSolid Edge ISO|b0||i0||c0|p34;\C7;\H2.;\W1.;\P}{\fSolid Edge ISO|b0||i0||c0|p34;\C7;\H2.;\W1.;The inf
  3
ormation given herein has been carefully checked and is believed to be correct. REGO-FIX,\P}{\fSolid Edge ISO|b0||i0||c0|p34;\C7;\H2.;\W1.;however, assumes no responsibility or liability for any errors, inaccuracies or omissions that may appear\P}{\
  3
fSolid Edge ISO|b0||i0||c0|p34;\C7;\H2.;\W1.;in this drawing\P}{\fSolid Edge ISO|b0||i0||c0|p34;\C7;\H2.;\W1.;\P}{\fSolid Edge ISO|b0||i0||c0|p34;\C7;\H2.;\W1.;This document is subject to copyright laws. No part of this document may be reproduced or
  3
 transmitted\P}{\fSolid Edge ISO|b0||i0||c0|p34;\C7;\H2.;\W1.;in any form or any means, electronic or mechanic, for any purpose, without the express written permission\P}{\fSolid Edge ISO|b0||i0||c0|p34;\C7;\H2.;\W1.;of REGO-FIX\P}{\fSolid Edge ISO|
  1
b0||i0||c0|p34;\C7;\H1.5;\W1.;\P}
 73
     1
 44
1.0
1001
ACAD
1000
ACAD_MTEXT_DEFINED_HEIGHT_BEGIN
1070
    46
1040
38.4545554545
1000
ACAD_MTEXT_DEFINED_HEIGHT_END
  0
INSERT
  5
203
330
200
100
AcDbEntity
  8
Default
100
AcDbBlockReference
  2
SEANNOT_GROUP
 10
0.0
 20
0.0
 30
0.0
  0
INSERT
  5
204
330
200
100
AcDbEntity
  8
Default
100
AcDbBlockReference
  2
SEANNOT_GROUP1
 10
0.0
 20
0.0
 30
0.0
  0
MTEXT
  5
205
102
{ACAD_XDICTIONARY
360
217
102
}
330
200
100
AcDbEntity
  8
Default
100
AcDbMText
 10
217.2215553864
 20
34.8066733186
 30
0.0
 40
2.5
 41
21.9442899415
 71
     1
 72
     1
  3
{\fVectora Com 45 Light|b0||i0||c0|p34;\C7;\H3.5;\W1.;Type :\P}{\fVectora Com 45 Light|b0||i0||c0|p34;\C7;\H3.5;\W1.;Part No. :\P}{\fVectora Com 45 Light|b0||i0||c0|p34;\C7;\H3.5;\W1.;Date : \P}{\fVectora Com 45 Light|b0||i0||c0|p34;\C7;\H3.5;\W1.;S
  1
cale :}
 73
     1
 44
1.0
1001
ACAD
1000
ACAD_MTEXT_DEFINED_HEIGHT_BEGIN
1070
    46
1040
27.3913143478
1000
ACAD_MTEXT_DEFINED_HEIGHT_END
  0
INSERT
  5
206
330
200
100
AcDbEntity
  8
Default
100
AcDbBlockReference
  2
SEANNOT_GROUP2
 10
0.0
 20
0.0
 30
0.0
  0
INSERT
  5
207
330
200
100
AcDbEntity
  8
Default
100
AcDbBlockReference
  2
SEANNOT_GROUP3
 10
0.0
 20
0.0
 30
0.0
  0
INSERT
  5
208
330
200
100
AcDbEntity
  8
Default
 62
     7
100
AcDbBlockReference
  2
Block1
 10
227.000440997
 20
183.1186606679
 30
0.0
  0
ENDBLK
  5
20A
330
200
100
AcDbEntity
  8
0
100
AcDbBlockEnd
  0
ENDSEC
  0
SECTION
  2
ENTITIES
  0
INSERT
  5
41
330
1F
100
AcDbEntity
  8
Default
100
AcDbBlockReference
  2
SE
 10
0.0
 20
0.0
 30
0.0
  0
INSERT
  5
142
330
1F
100
AcDbEntity
  8
Default
100
AcDbBlockReference
  2
GDimGGroup
 10
0.0
 20
0.0
 30
0.0
  0
INSERT
  5
14D
330
1F
100
AcDbEntity
  8
Default
100
AcDbBlockReference
  2
GDimGGroup1
 10
0.0
 20
0.0
 30
0.0
  0
INSERT
  5
158
330
1F
100
AcDbEntity
  8
Default
100
AcDbBlockReference
  2
GDimGGroup2
 10
0.0
 20
0.0
 30
0.0
  0
DIMENSION
  5
174
330
1F
100
AcDbEntity
  8
Default
  6
Continuous
 62
     7
100
AcDbDimension
  2
DMBLK277
 10
175.7530077518
 20
151.3264311035
 30
0.0
 11
189.2530074017
 21
151.3264311035
 31
0.0
 70
   160
  1
\A1;<>
 71
     5
 42
-1.0
  3
DIN
100
AcDbAlignedDimension
 13
202.7530077518
 23
114.2787506361
 33
0.0
 14
175.7530077518
 24
122.4287506361
 34
0.0
100
AcDbRotatedDimension
  0
DIMENSION
  5
17E
330
1F
100
AcDbEntity
  8
Default
  6
Continuous
 62
     7
100
AcDbDimension
  2
DMBLK278
 10
154.7530077518
 20
159.7264317353
 30
0.0
 11
178.7530075432
 21
159.7264317353
 31
0.0
 70
   160
  1
\A1;<>
 71
     5
 42
-1.0
  3
DIN
100
AcDbAlignedDimension
 13
202.7530077518
 23
114.2787506361
 33
0.0
 14
154.7530077518
 24
156.4287506361
 34
0.0
100
AcDbRotatedDimension
  0
DIMENSION
  5
188
330
1F
100
AcDbEntity
  8
Default
  6
Continuous
 62
     7
100
AcDbDimension
  2
DMBLK279
 10
75.7530077518
 20
168.1264323671
 30
0.0
 11
139.2530057253
 21
168.1264323671
 31
0.0
 70
   160
  1
\A1;<>
 71
     5
 42
-1.0
  3
DIN
100
AcDbAlignedDimension
 13
202.7530077518
 23
114.2787506361
 33
0.0
 14
75.7530077518
 24
130.6680218183
 34
0.0
100
AcDbRotatedDimension
  0
DIMENSION
  5
192
330
1F
100
AcDbEntity
  8
Default
  6
Continuous
 62
     7
100
AcDbDimension
  2
DMBLK280
 10
185.7530077518
 20
47.1559897606
 30
0.0
 11
155.7530070813
 21
47.1559897606
 31
0.0
 70
   160
  1
\A1;<>
 71
     5
 42
-1.0
  3
DIN
100
AcDbAlignedDimension
 13
125.7530077518
 23
57.4287506361
 33
0.0
 14
185.7530077518
 24
91.9537715042
 34
0.0
100
AcDbRotatedDimension
  0
DIMENSION
  5
19C
330
1F
100
AcDbEntity
  8
Default
  6
Continuous
 62
     7
100
AcDbDimension
  2
DMBLK281
 10
185.7530077518
 20
142.9264323343
 30
0.0
 11
194.2530072899
 21
142.9264323343
 31
0.0
 70
   160
  1
\A1;<>
 71
     5
 42
-1.0
  3
DIN
100
AcDbAlignedDimension
 13
202.7530077518
 23
114.2787506361
 33
0.0
 14
185.7530077518
 24
91.9537715042
 34
0.0
100
AcDbRotatedDimension
  0
INSERT
  5
20B
330
1F
100
AcDbEntity
  8
Default
 62
     7
100
AcDbBlockReference
  2
RF-Massblatt_2016
 10
0.0
 20
0.0
 30
0.0
  0
ENDSEC
  0
SECTION
  2
OBJECTS
  0
DICTIONARY
  5
C
330
0
100
AcDbDictionary
281
     1
  3
ACAD_GROUP
350
D
  3
ACAD_LAYOUT
350
1A
  3
ACAD_MATERIAL
350
3B
  3
ACAD_MLEADERSTYLE
350
20E
  3
ACAD_MLINESTYLE
350
17
  3
ACAD_PLOTSETTINGS
350
19
  3
ACAD_PLOTSTYLENAME
350
E
  3
ACAD_VISUALSTYLE
350
2A
  3
AcDbVariableDictionary
350
20C
  0
DICTIONARY
  5
213
330
201
100
AcDbDictionary
280
     1
281
     1
  3
ACAD_MTEXT_RT
360
214
  0
DICTIONARY
  5
215
330
202
100
AcDbDictionary
280
     1
281
     1
  3
ACAD_MTEXT_RT
360
216
  0
DICTIONARY
  5
217
330
205
100
AcDbDictionary
280
     1
281
     1
  3
ACAD_MTEXT_RT
360
218
  0
DICTIONARY
  5
D
102
{ACAD_REACTORS
330
C
102
}
330
C
100
AcDbDictionary
281
     1
  0
DICTIONARY
  5
1A
102
{ACAD_REACTORS
330
C
102
}
330
C
100
AcDbDictionary
281
     1
  3
Layout1
350
1E
  3
Model
350
22
  0
DICTIONARY
  5
3B
102
{ACAD_REACTORS
330
C
102
}
330
C
100
AcDbDictionary
281
     1
  3
ByBlock
350
3D
  3
ByLayer
350
3C
  3
Global
350
3E
  0
DICTIONARY
  5
20E
102
{ACAD_REACTORS
330
C
102
}
330
C
100
AcDbDictionary
281
     1
  0
DICTIONARY
  5
17
102
{ACAD_REACTORS
330
C
102
}
330
C
100
AcDbDictionary
281
     1
  3
Standard
350
18
  0
DICTIONARY
  5
19
102
{ACAD_REACTORS
330
C
102
}
330
C
100
AcDbDictionary
281
     1
  0
ACDBDICTIONARYWDFLT
  5
E
102
{ACAD_REACTORS
330
C
102
}
330
C
100
AcDbDictionary
281
     1
  3
Normal
350
F
100
AcDbDictionaryWithDefault
340
F
  0
DICTIONARY
  5
2A
102
{ACAD_REACTORS
330
C
102
}
330
C
100
AcDbDictionary
281
     1
  3
2dWireframe
350
2F
  3
3D Hidden
350
31
  3
3dWireframe
350
30
  3
Basic
350
32
  3
Brighten
350
36
  3
ColorChange
350
3A
  3
Conceptual
350
34
  3
Dim
350
35
  3
Facepattern
350
39
  3
Flat
350
2B
  3
FlatWithEdges
350
2C
  3
Gouraud
350
2D
  3
GouraudWithEdges
350
2E
  3
Linepattern
350
38
  3
Realistic
350
33
  3
Thicken
350
37
  0
DICTIONARY
  5
20C
102
{ACAD_REACTORS
330
C
102
}
330
C
100
AcDbDictionary
281
     1
  3
DIMASSOC
350
211
  3
HIDETEXT
350
212
  3
PSOLHEIGHT
350
210
  3
PSOLWIDTH
350
20F
  0
XRECORD
  5
214
102
{ACAD_REACTORS
330
213
102
}
330
213
100
AcDbXrecord
280
     1
 40
10118767.0
  1
\pxsm1.;{\fVectora Com 45 Light|b1||i0||c0|p34;\C7;\H2.5;\W1.;REGO-FIX AG\P}{\fVectora Com 45 Light|b0||i0||c0|p34;\C7;\H2.5;\W1.;Obermattweg 60\P}{\fVectora Com 45 Light|b0||i0||c0|p34;\C7;\H2.5;\W1.;4456 Tenniken / Switzerland\P}{\fVectora Com 45 L
  1
ight|b0||i0||c0|p34;\C7;\H2.5;\W1.;\P}{\fVectora Com 45 Light|b0||i0||c0|p34;\C7;\H2.5;\W1.;P +41 61 976 14 66\P}{\fVectora Com 45 Light|b0||i0||c0|p34;\C7;\H2.5;\W1.;F +41 61 976 14 14\P}{\fVectora Com 45 Light|b1||i0||c0|p34;\C7;\H2.5;\W1.;www.rego
  1
-fix.com}
  0
XRECORD
  5
216
102
{ACAD_REACTORS
330
215
102
}
330
215
100
AcDbXrecord
280
     1
 40
47111022.0
  1
\pxsm1.;{\fSolid Edge ISO|b0||i0||c0|p34;\C7;\H2.;\W1.;This is a non-controlled copy. All information given herein is subject to change without notice\P}{\fSolid Edge ISO|b0||i0||c0|p34;\C7;\H2.;\W1.;\P}{\fSolid Edge ISO|b0||i0||c0|p34;\C7;\H2.;\W1.;
  1
The information given herein has been carefully checked and is believed to be correct. REGO-FIX,\P}{\fSolid Edge ISO|b0||i0||c0|p34;\C7;\H2.;\W1.;however, assumes no responsibility or liability for any errors, inaccuracies or omissions that may appea
  1
r\P}{\fSolid Edge ISO|b0||i0||c0|p34;\C7;\H2.;\W1.;in this drawing\P}{\fSolid Edge ISO|b0||i0||c0|p34;\C7;\H2.;\W1.;\P}{\fSolid Edge ISO|b0||i0||c0|p34;\C7;\H2.;\W1.;This document is subject to copyright laws. No part of this document may be reproduc
  1
ed or transmitted\P}{\fSolid Edge ISO|b0||i0||c0|p34;\C7;\H2.;\W1.;in any form or any means, electronic or mechanic, for any purpose, without the express written permission\P}{\fSolid Edge ISO|b0||i0||c0|p34;\C7;\H2.;\W1.;of REGO-FIX\P}{\fSolid Edge 
  1
ISO|b0||i0||c0|p34;\C7;\H1.5;\W1.;\P}
  0
XRECORD
  5
218
102
{ACAD_REACTORS
330
217
102
}
330
217
100
AcDbXrecord
280
     1
 40
2697483.0
  1
\pxsm1.;{\fVectora Com 45 Light|b0||i0||c0|p34;\C7;\H3.5;\W1.;Type :\P}{\fVectora Com 45 Light|b0||i0||c0|p34;\C7;\H3.5;\W1.;Part No. :\P}{\fVectora Com 45 Light|b0||i0||c0|p34;\C7;\H3.5;\W1.;Date : \P}{\fVectora Com 45 Light|b0||i0||c0|p34;\C7;\H3.5
  1
;\W1.;Scale :}
  0
LAYOUT
  5
1E
102
{ACAD_REACTORS
330
1A
102
}
330
1A
100
AcDbPlotSettings
  1

  2
none_device
  4

  6

 40
0.0
 41
0.0
 42
0.0
 43
0.0
 44
0.0
 45
0.0
 46
0.0
 47
0.0
 48
0.0
 49
0.0
140
0.0
141
0.0
142
1.0
143
1.0
 70
   688
 72
     0
 73
     0
 74
     5
  7

 75
    16
147
1.0
148
0.0
149
0.0
100
AcDbLayout
  1
Layout1
 70
     1
 71
     1
 10
0.0
 20
0.0
 11
297.0
 21
210.0
 12
0.0
 22
0.0
 32
0.0
 14
0.0
 24
0.0
 34
0.0
 15
297.0
 25
210.0
 35
0.0
146
0.0
 13
0.0
 23
0.0
 33
0.0
 16
1.0
 26
0.0
 36
0.0
 17
0.0
 27
1.0
 37
0.0
 76
     0
330
1B
  0
LAYOUT
  5
22
102
{ACAD_REACTORS
330
1A
102
}
330
1A
100
AcDbPlotSettings
  1

  2
none_device
  4

  6

 40
0.0
 41
0.0
 42
0.0
 43
0.0
 44
0.0
 45
0.0
 46
0.0
 47
0.0
 48
0.0
 49
0.0
140
0.0
141
0.0
142
1.0
143
1.0
 70
  1712
 72
     0
 73
     0
 74
     0
  7

 75
     0
147
1.0
148
0.0
149
0.0
100
AcDbLayout
  1
Model
 70
     1
 71
     0
 10
0.0
 20
0.0
 11
297.0
 21
210.0
 12
0.0
 22
0.0
 32
0.0
 14
0.0
 24
0.0
 34
0.0
 15
297.0
 25
210.0
 35
0.0
146
0.0
 13
0.0
 23
0.0
 33
0.0
 16
1.0
 26
0.0
 36
0.0
 17
0.0
 27
1.0
 37
0.0
 76
     0
330
1F
331
29
  0
MATERIAL
  5
3D
102
{ACAD_REACTORS
330
3B
102
}
102
{ACAD_XDICTIONARY
360
23B
102
}
330
3B
100
AcDbMaterial
  1
ByBlock
  0
MATERIAL
  5
3C
102
{ACAD_REACTORS
330
3B
102
}
102
{ACAD_XDICTIONARY
360
239
102
}
330
3B
100
AcDbMaterial
  1
ByLayer
  0
MATERIAL
  5
3E
102
{ACAD_REACTORS
330
3B
102
}
102
{ACAD_XDICTIONARY
360
23D
102
}
330
3B
100
AcDbMaterial
  1
Global
  0
MLINESTYLE
  5
18
102
{ACAD_REACTORS
330
17
102
}
330
17
100
AcDbMlineStyle
  2
Standard
 70
     0
  3

 62
   256
 51
90.0
 52
90.0
 71
     2
 49
0.5
 62
   256
  6
BYLAYER
 49
-0.5
 62
   256
  6
BYLAYER
  0
ACDBPLACEHOLDER
  5
F
102
{ACAD_REACTORS
330
E
102
}
330
E
  0
VISUALSTYLE
  5
2F
102
{ACAD_REACTORS
330
2A
102
}
102
{ACAD_XDICTIONARY
360
221
102
}
330
2A
100
AcDbVisualStyle
  2
2dWireframe
 70
     4
 71
     0
 72
     2
 73
     0
 90
        0
 40
-0.6
 41
-30.0
 62
     5
 63
     7
 74
     1
 91
        4
 64
     7
 65
   257
 75
     1
175
     1
 42
1.0
 92
        0
 66
   257
 43
1.0
 76
     1
 77
     6
 78
     2
 67
     7
 79
     5
170
     0
171
     0
290
     0
174
     0
 93
        1
 44
0.0
173
     0
291
     0
 45
0.0
1001
ACAD
1000
AcDbSavedByObjectVersion
1070
     0
  0
VISUALSTYLE
  5
31
102
{ACAD_REACTORS
330
2A
102
}
102
{ACAD_XDICTIONARY
360
225
102
}
330
2A
100
AcDbVisualStyle
  2
3D Hidden
 70
     6
 71
     1
 72
     2
 73
     2
 90
        0
 40
-0.6
 41
-30.0
 62
     5
 63
     7
 74
     2
 91
        2
 64
     7
 65
   257
 75
     2
175
     1
 42
40.0
 92
        0
 66
   257
 43
1.0
 76
     1
 77
     6
 78
     2
 67
     7
 79
     3
170
     0
171
     0
290
     0
174
     0
 93
        1
 44
0.0
173
     0
291
     0
 45
0.0
1001
ACAD
1000
AcDbSavedByObjectVersion
1070
     0
  0
VISUALSTYLE
  5
30
102
{ACAD_REACTORS
330
2A
102
}
102
{ACAD_XDICTIONARY
360
223
102
}
330
2A
100
AcDbVisualStyle
  2
3dWireframe
 70
     5
 71
     0
 72
     2
 73
     0
 90
        0
 40
-0.6
 41
-30.0
 62
     5
 63
     7
 74
     1
 91
        4
 64
     7
 65
   257
 75
     1
175
     1
 42
1.0
 92
        0
 66
   257
 43
1.0
 76
     1
 77
     6
 78
     2
 67
     7
 79
     5
170
     0
171
     0
290
     0
174
     0
 93
        1
 44
0.0
173
     0
291
     0
 45
0.0
1001
ACAD
1000
AcDbSavedByObjectVersion
1070
     0
  0
VISUALSTYLE
  5
32
102
{ACAD_REACTORS
330
2A
102
}
102
{ACAD_XDICTIONARY
360
227
102
}
330
2A
100
AcDbVisualStyle
  2
Basic
 70
     7
 71
     1
 72
     0
 73
     1
 90
        0
 40
-0.6
 41
-30.0
 62
     5
 63
     7
 74
     0
 91
        4
 64
     7
 65
   257
 75
     1
175
     1
 42
1.0
 92
        8
 66
     7
 43
1.0
 76
     1
 77
     6
 78
     2
 67
     7
 79
     5
170
     0
171
     0
290
     0
174
     0
 93
        1
 44
0.0
173
     0
291
     1
 45
0.0
1001
ACAD
1000
AcDbSavedByObjectVersion
1070
     0
  0
VISUALSTYLE
  5
36
102
{ACAD_REACTORS
330
2A
102
}
102
{ACAD_XDICTIONARY
360
22F
102
}
330
2A
100
AcDbVisualStyle
  2
Brighten
 70
    12
 71
     2
 72
     2
 73
     0
 90
        0
 40
-0.6
 41
-30.0
 62
     5
 63
     7
 74
     1
 91
        4
 64
     7
 65
   257
 75
     1
175
     1
 42
1.0
 92
        8
 66
     7
 43
1.0
 76
     1
 77
     6
 78
     2
 67
     7
 79
     5
170
     0
171
     0
290
     0
174
     0
 93
        1
 44
50.0
173
     0
291
     1
 45
0.0
1001
ACAD
1000
AcDbSavedByObjectVersion
1070
     0
  0
VISUALSTYLE
  5
3A
102
{ACAD_REACTORS
330
2A
102
}
102
{ACAD_XDICTIONARY
360
237
102
}
330
2A
100
AcDbVisualStyle
  2
ColorChange
 70
    16
 71
     2
 72
     2
 73
     3
 90
        0
 40
-0.6
 41
-30.0
 62
     5
 63
     8
 74
     1
 91
        4
 64
     7
 65
   257
 75
     1
175
     1
 42
1.0
 92
        8
 66
     8
 43
1.0
 76
     1
 77
     6
 78
     2
 67
     7
 79
     5
170
     0
171
     0
290
     0
174
     0
 93
        1
 44
0.0
173
     0
291
     1
 45
0.0
1001
ACAD
1000
AcDbSavedByObjectVersion
1070
     0
  0
VISUALSTYLE
  5
34
102
{ACAD_REACTORS
330
2A
102
}
102
{ACAD_XDICTIONARY
360
22B
102
}
330
2A
100
AcDbVisualStyle
  2
Conceptual
 70
     9
 71
     3
 72
     2
 73
     0
 90
        0
 40
-0.6
 41
-30.0
 62
     5
 63
     7
 74
     2
 91
        2
 64
     7
 65
   257
 75
     1
175
     1
 42
40.0
 92
        8
 66
     7
 43
1.0
 76
     1
 77
     6
 78
     2
 67
     7
 79
     3
170
     0
171
     0
290
     0
174
     0
 93
        1
 44
0.0
173
     0
291
     0
 45
0.0
1001
ACAD
1000
AcDbSavedByObjectVersion
1070
     0
  0
VISUALSTYLE
  5
35
102
{ACAD_REACTORS
330
2A
102
}
102
{ACAD_XDICTIONARY
360
22D
102
}
330
2A
100
AcDbVisualStyle
  2
Dim
 70
    11
 71
     2
 72
     2
 73
     0
 90
        0
 40
-0.6
 41
-30.0
 62
     5
 63
     7
 74
     1
 91
        4
 64
     7
 65
   257
 75
     1
175
     1
 42
1.0
 92
        8
 66
     7
 43
1.0
 76
     1
 77
     6
 78
     2
 67
     7
 79
     5
170
     0
171
     0
290
     0
174
     0
 93
        1
 44
-50.0
173
     0
291
     1
 45
0.0
1001
ACAD
1000
AcDbSavedByObjectVersion
1070
     0
  0
VISUALSTYLE
  5
39
102
{ACAD_REACTORS
330
2A
102
}
102
{ACAD_XDICTIONARY
360
235
102
}
330
2A
100
AcDbVisualStyle
  2
Facepattern
 70
    15
 71
     2
 72
     2
 73
     0
 90
        0
 40
-0.6
 41
-30.0
 62
     5
 63
     7
 74
     1
 91
        4
 64
     7
 65
   257
 75
     1
175
     1
 42
1.0
 92
        8
 66
     7
 43
1.0
 76
     1
 77
     6
 78
     2
 67
     7
 79
     5
170
     0
171
     0
290
     0
174
     0
 93
        1
 44
0.0
173
     0
291
     1
 45
0.0
1001
ACAD
1000
AcDbSavedByObjectVersion
1070
     0
  0
VISUALSTYLE
  5
2B
102
{ACAD_REACTORS
330
2A
102
}
102
{ACAD_XDICTIONARY
360
219
102
}
330
2A
100
AcDbVisualStyle
  2
Flat
 70
     0
 71
     2
 72
     1
 73
     1
 90
        2
 40
-0.6
 41
30.0
 62
     5
 63
     7
 74
     0
 91
        4
 64
     7
 65
   257
 75
     1
175
     1
 42
1.0
 92
        8
 66
     7
 43
1.0
 76
     1
 77
     6
 78
     2
 67
     7
 79
     5
170
     0
171
     0
290
     0
174
     0
 93
       13
 44
0.0
173
     0
291
     1
 45
0.0
1001
ACAD
1000
AcDbSavedByObjectVersion
1070
     0
  0
VISUALSTYLE
  5
2C
102
{ACAD_REACTORS
330
2A
102
}
102
{ACAD_XDICTIONARY
360
21B
102
}
330
2A
100
AcDbVisualStyle
  2
FlatWithEdges
 70
     1
 71
     2
 72
     1
 73
     1
 90
        2
 40
-0.6
 41
30.0
 62
     5
 63
     7
 74
     1
 91
        4
 64
     7
 65
   257
 75
     1
175
     1
 42
1.0
 92
        0
 66
   257
 43
1.0
 76
     1
 77
     6
 78
     2
 67
     7
 79
     5
170
     0
171
     0
290
     0
174
     0
 93
       13
 44
0.0
173
     0
291
     1
 45
0.0
1001
ACAD
1000
AcDbSavedByObjectVersion
1070
     0
  0
VISUALSTYLE
  5
2D
102
{ACAD_REACTORS
330
2A
102
}
102
{ACAD_XDICTIONARY
360
21D
102
}
330
2A
100
AcDbVisualStyle
  2
Gouraud
 70
     2
 71
     2
 72
     2
 73
     1
 90
        2
 40
-0.6
 41
30.0
 62
     5
 63
     7
 74
     0
 91
        4
 64
     7
 65
   257
 75
     1
175
     1
 42
1.0
 92
        0
 66
     7
 43
1.0
 76
     1
 77
     6
 78
     2
 67
     7
 79
     5
170
     0
171
     0
290
     0
174
     0
 93
       13
 44
0.0
173
     0
291
     1
 45
0.0
1001
ACAD
1000
AcDbSavedByObjectVersion
1070
     0
  0
VISUALSTYLE
  5
2E
102
{ACAD_REACTORS
330
2A
102
}
102
{ACAD_XDICTIONARY
360
21F
102
}
330
2A
100
AcDbVisualStyle
  2
GouraudWithEdges
 70
     3
 71
     2
 72
     2
 73
     1
 90
        2
 40
-0.6
 41
30.0
 62
     5
 63
     7
 74
     1
 91
        4
 64
     7
 65
   257
 75
     1
175
     1
 42
1.0
 92
        0
 66
   257
 43
1.0
 76
     1
 77
     6
 78
     2
 67
     7
 79
     5
170
     0
171
     0
290
     0
174
     0
 93
       13
 44
0.0
173
     0
291
     1
 45
0.0
1001
ACAD
1000
AcDbSavedByObjectVersion
1070
     0
  0
VISUALSTYLE
  5
38
102
{ACAD_REACTORS
330
2A
102
}
102
{ACAD_XDICTIONARY
360
233
102
}
330
2A
100
AcDbVisualStyle
  2
Linepattern
 70
    14
 71
     2
 72
     2
 73
     0
 90
        0
 40
-0.6
 41
-30.0
 62
     5
 63
     7
 74
     1
 91
        4
 64
     7
 65
   257
 75
     7
175
     7
 42
1.0
 92
        8
 66
     7
 43
1.0
 76
     1
 77
     6
 78
     2
 67
     7
 79
     5
170
     0
171
     0
290
     0
174
     0
 93
        1
 44
0.0
173
     0
291
     1
 45
0.0
1001
ACAD
1000
AcDbSavedByObjectVersion
1070
     0
  0
VISUALSTYLE
  5
33
102
{ACAD_REACTORS
330
2A
102
}
102
{ACAD_XDICTIONARY
360
229
102
}
330
2A
100
AcDbVisualStyle
  2
Realistic
 70
     8
 71
     2
 72
     2
 73
     0
 90
        0
 40
-0.6
 41
-30.0
 62
     5
 63
     7
 74
     1
 91
        0
 64
     7
 65
   257
 75
     1
175
     1
 42
1.0
 92
        8
 66
     8
 43
1.0
 76
     1
 77
     6
 78
     2
 67
     7
 79
     5
170
     0
171
     0
290
     0
174
     0
 93
       13
 44
0.0
173
     0
291
     0
 45
0.0
1001
ACAD
1000
AcDbSavedByObjectVersion
1070
     0
  0
VISUALSTYLE
  5
37
102
{ACAD_REACTORS
330
2A
102
}
102
{ACAD_XDICTIONARY
360
231
102
}
330
2A
100
AcDbVisualStyle
  2
Thicken
 70
    13
 71
     2
 72
     2
 73
     0
 90
        0
 40
-0.6
 41
-30.0
 62
     5
 63
     7
 74
     1
 91
        4
 64
     7
 65
   257
 75
     1
175
     1
 42
1.0
 92
       12
 66
     7
 43
1.0
 76
     1
 77
     6
 78
     2
 67
     7
 79
     5
170
     0
171
     0
290
     0
174
     0
 93
        1
 44
0.0
173
     0
291
     1
 45
0.0
1001
ACAD
1000
AcDbSavedByObjectVersion
1070
     0
  0
DICTIONARYVAR
  5
211
102
{ACAD_REACTORS
330
20C
102
}
330
20C
100
DictionaryVariables
280
     0
  1
2
  0
DICTIONARYVAR
  5
212
102
{ACAD_REACTORS
330
20C
102
}
330
20C
100
DictionaryVariables
280
     0
  1
1
  0
DICTIONARYVAR
  5
210
102
{ACAD_REACTORS
330
20C
102
}
330
20C
100
DictionaryVariables
280
     0
  1
80.000000
  0
DICTIONARYVAR
  5
20F
102
{ACAD_REACTORS
330
20C
102
}
330
20C
100
DictionaryVariables
280
     0
  1
5.000000
  0
DICTIONARY
  5
23B
330
3D
100
AcDbDictionary
280
     1
281
     1
  3
ACAD_XREC_ROUNDTRIP
360
23C
  0
DICTIONARY
  5
239
330
3C
100
AcDbDictionary
280
     1
281
     1
  3
ACAD_XREC_ROUNDTRIP
360
23A
  0
DICTIONARY
  5
23D
330
3E
100
AcDbDictionary
280
     1
281
     1
  3
ACAD_XREC_ROUNDTRIP
360
23E
  0
DICTIONARY
  5
221
330
2F
100
AcDbDictionary
280
     1
281
     1
  3
ACAD_XREC_ROUNDTRIP
360
222
  0
DICTIONARY
  5
225
330
31
100
AcDbDictionary
280
     1
281
     1
  3
ACAD_XREC_ROUNDTRIP
360
226
  0
DICTIONARY
  5
223
330
30
100
AcDbDictionary
280
     1
281
     1
  3
ACAD_XREC_ROUNDTRIP
360
224
  0
DICTIONARY
  5
227
330
32
100
AcDbDictionary
280
     1
281
     1
  3
ACAD_XREC_ROUNDTRIP
360
228
  0
DICTIONARY
  5
22F
330
36
100
AcDbDictionary
280
     1
281
     1
  3
ACAD_XREC_ROUNDTRIP
360
230
  0
DICTIONARY
  5
237
330
3A
100
AcDbDictionary
280
     1
281
     1
  3
ACAD_XREC_ROUNDTRIP
360
238
  0
DICTIONARY
  5
22B
330
34
100
AcDbDictionary
280
     1
281
     1
  3
ACAD_XREC_ROUNDTRIP
360
22C
  0
DICTIONARY
  5
22D
330
35
100
AcDbDictionary
280
     1
281
     1
  3
ACAD_XREC_ROUNDTRIP
360
22E
  0
DICTIONARY
  5
235
330
39
100
AcDbDictionary
280
     1
281
     1
  3
ACAD_XREC_ROUNDTRIP
360
236
  0
DICTIONARY
  5
219
330
2B
100
AcDbDictionary
280
     1
281
     1
  3
ACAD_XREC_ROUNDTRIP
360
21A
  0
DICTIONARY
  5
21B
330
2C
100
AcDbDictionary
280
     1
281
     1
  3
ACAD_XREC_ROUNDTRIP
360
21C
  0
DICTIONARY
  5
21D
330
2D
100
AcDbDictionary
280
     1
281
     1
  3
ACAD_XREC_ROUNDTRIP
360
21E
  0
DICTIONARY
  5
21F
330
2E
100
AcDbDictionary
280
     1
281
     1
  3
ACAD_XREC_ROUNDTRIP
360
220
  0
DICTIONARY
  5
233
330
38
100
AcDbDictionary
280
     1
281
     1
  3
ACAD_XREC_ROUNDTRIP
360
234
  0
DICTIONARY
  5
229
330
33
100
AcDbDictionary
280
     1
281
     1
  3
ACAD_XREC_ROUNDTRIP
360
22A
  0
DICTIONARY
  5
231
330
37
100
AcDbDictionary
280
     1
281
     1
  3
ACAD_XREC_ROUNDTRIP
360
232
  0
XRECORD
  5
23C
102
{ACAD_REACTORS
330
23B
102
}
330
23B
100
AcDbXrecord
280
     1
102
MATERIAL
148
0.0
149
0.0
149
0.0
 93
        0
 94
      127
282
     0
 72
     1
 77
     1
171
     1
175
     1
179
     1
273
     0
  0
XRECORD
  5
23A
102
{ACAD_REACTORS
330
239
102
}
330
239
100
AcDbXrecord
280
     1
102
MATERIAL
148
0.0
149
0.0
149
0.0
 93
        0
 94
      127
282
     0
 72
     1
 77
     1
171
     1
175
     1
179
     1
273
     0
  0
XRECORD
  5
23E
102
{ACAD_REACTORS
330
23D
102
}
330
23D
100
AcDbXrecord
280
     1
102
MATERIAL
148
0.0
149
0.0
149
0.0
 93
        0
 94
      127
282
     0
 72
     1
 77
     1
171
     1
175
     1
179
     1
273
     0
  0
XRECORD
  5
222
102
{ACAD_REACTORS
330
221
102
}
330
221
100
AcDbXrecord
280
     1
102
RTVSPropertyOp0
 70
     1
102
RTVSPropertyOp1
 70
     1
102
RTVSPropertyOp2
 70
     1
102
RTVSPropertyOp3
 70
     1
102
RTVSPropertyOp4
 70
     1
102
RTVSPropertyOp5
 70
     1
102
RTVSPropertyOp6
 70
     1
102
RTVSPropertyOp7
 70
     1
102
RTVSPropertyOp8
 70
     1
102
RTVSPropertyOp9
 70
     1
102
RTVSPropertyOp10
 70
     1
102
RTVSPropertyOp11
 70
     1
102
RTVSPropertyOp12
 70
     1
102
RTVSPropertyOp13
 70
     1
102
RTVSPropertyOp14
 70
     1
102
RTVSPropertyOp15
 70
     1
102
RTVSPropertyOp16
 70
     1
102
RTVSPropertyOp17
 70
     1
102
RTVSPropertyOp18
 70
     1
102
RTVSPropertyOp19
 70
     1
102
RTVSPropertyOp20
 70
     1
102
RTVSPropertyOp21
 70
     1
102
RTVSPropertyOp22
 70
     1
102
RTVSPropertyOp23
 70
     1
102
RTVSPropertyOp24
 70
     1
102
RTVSPropertyOp25
 70
     1
102
RTVSPropertyOp26
 70
     1
102
RTVSPropertyOp27
 70
     1
102
RTVSPropertyOp28
 70
     1
102
RTVSPropertyOp29
 70
     1
102
RTVSPropertyOp30
 70
     1
102
RTVSPropertyOp31
 70
     1
102
RTVSPropertyOp32
 70
     1
  0
XRECORD
  5
226
102
{ACAD_REACTORS
330
225
102
}
330
225
100
AcDbXrecord
280
     1
102
RTVSPropertyOp0
 70
     1
102
RTVSPropertyOp1
 70
     1
102
RTVSPropertyOp2
 70
     1
102
RTVSPropertyOp3
 70
     1
102
RTVSPropertyOp4
 70
     1
102
RTVSPropertyOp5
 70
     1
102
RTVSPropertyOp6
 70
     1
102
RTVSPropertyOp7
 70
     1
102
RTVSPropertyOp8
 70
     1
102
RTVSPropertyOp9
 70
     1
102
RTVSPropertyOp10
 70
     1
102
RTVSPropertyOp11
 70
     1
102
RTVSPropertyOp12
 70
     1
102
RTVSPropertyOp13
 70
     1
102
RTVSPropertyOp14
 70
     1
102
RTVSPropertyOp15
 70
     1
102
RTVSPropertyOp16
 70
     1
102
RTVSPropertyOp17
 70
     1
102
RTVSPropertyOp18
 70
     1
102
RTVSPropertyOp19
 70
     1
102
RTVSPropertyOp20
 70
     1
102
RTVSPropertyOp21
 70
     1
102
RTVSPropertyOp22
 70
     1
102
RTVSPropertyOp23
 70
     1
102
RTVSPropertyOp24
 70
     1
102
RTVSPropertyOp25
 70
     1
102
RTVSPropertyOp26
 70
     1
102
RTVSPropertyOp27
 70
     1
102
RTVSPropertyOp28
 70
     1
102
RTVSPropertyOp29
 70
     1
102
RTVSPropertyOp30
 70
     1
102
RTVSPropertyOp31
 70
     1
102
RTVSPropertyOp32
 70
     1
  0
XRECORD
  5
224
102
{ACAD_REACTORS
330
223
102
}
330
223
100
AcDbXrecord
280
     1
102
RTVSPropertyOp0
 70
     1
102
RTVSPropertyOp1
 70
     1
102
RTVSPropertyOp2
 70
     1
102
RTVSPropertyOp3
 70
     1
102
RTVSPropertyOp4
 70
     1
102
RTVSPropertyOp5
 70
     1
102
RTVSPropertyOp6
 70
     1
102
RTVSPropertyOp7
 70
     1
102
RTVSPropertyOp8
 70
     1
102
RTVSPropertyOp9
 70
     1
102
RTVSPropertyOp10
 70
     1
102
RTVSPropertyOp11
 70
     1
102
RTVSPropertyOp12
 70
     1
102
RTVSPropertyOp13
 70
     1
102
RTVSPropertyOp14
 70
     1
102
RTVSPropertyOp15
 70
     1
102
RTVSPropertyOp16
 70
     1
102
RTVSPropertyOp17
 70
     1
102
RTVSPropertyOp18
 70
     1
102
RTVSPropertyOp19
 70
     1
102
RTVSPropertyOp20
 70
     1
102
RTVSPropertyOp21
 70
     1
102
RTVSPropertyOp22
 70
     1
102
RTVSPropertyOp23
 70
     1
102
RTVSPropertyOp24
 70
     1
102
RTVSPropertyOp25
 70
     1
102
RTVSPropertyOp26
 70
     1
102
RTVSPropertyOp27
 70
     1
102
RTVSPropertyOp28
 70
     1
102
RTVSPropertyOp29
 70
     1
102
RTVSPropertyOp30
 70
     1
102
RTVSPropertyOp31
 70
     1
102
RTVSPropertyOp32
 70
     1
  0
XRECORD
  5
228
102
{ACAD_REACTORS
330
227
102
}
330
227
100
AcDbXrecord
280
     1
102
RTVSPropertyOp0
 70
     1
102
RTVSPropertyOp1
 70
     1
102
RTVSPropertyOp2
 70
     1
102
RTVSPropertyOp3
 70
     1
102
RTVSPropertyOp4
 70
     1
102
RTVSPropertyOp5
 70
     1
102
RTVSPropertyOp6
 70
     1
102
RTVSPropertyOp7
 70
     1
102
RTVSPropertyOp8
 70
     1
102
RTVSPropertyOp9
 70
     1
102
RTVSPropertyOp10
 70
     1
102
RTVSPropertyOp11
 70
     1
102
RTVSPropertyOp12
 70
     1
102
RTVSPropertyOp13
 70
     1
102
RTVSPropertyOp14
 70
     1
102
RTVSPropertyOp15
 70
     1
102
RTVSPropertyOp16
 70
     1
102
RTVSPropertyOp17
 70
     1
102
RTVSPropertyOp18
 70
     1
102
RTVSPropertyOp19
 70
     1
102
RTVSPropertyOp20
 70
     1
102
RTVSPropertyOp21
 70
     1
102
RTVSPropertyOp22
 70
     1
102
RTVSPropertyOp23
 70
     1
102
RTVSPropertyOp24
 70
     1
102
RTVSPropertyOp25
 70
     1
102
RTVSPropertyOp26
 70
     1
102
RTVSPropertyOp27
 70
     1
102
RTVSPropertyOp28
 70
     1
102
RTVSPropertyOp29
 70
     1
102
RTVSPropertyOp30
 70
     1
102
RTVSPropertyOp31
 70
     1
102
RTVSPropertyOp32
 70
     1
  0
XRECORD
  5
230
102
{ACAD_REACTORS
330
22F
102
}
330
22F
100
AcDbXrecord
280
     1
102
RTVSPropertyOp0
 70
     1
102
RTVSPropertyOp1
 70
     1
102
RTVSPropertyOp2
 70
     1
102
RTVSPropertyOp3
 70
     1
102
RTVSPropertyOp4
 70
     1
102
RTVSPropertyOp5
 70
     1
102
RTVSPropertyOp6
 70
     1
102
RTVSPropertyOp7
 70
     1
102
RTVSPropertyOp8
 70
     1
102
RTVSPropertyOp9
 70
     1
102
RTVSPropertyOp10
 70
     1
102
RTVSPropertyOp11
 70
     1
102
RTVSPropertyOp12
 70
     1
102
RTVSPropertyOp13
 70
     1
102
RTVSPropertyOp14
 70
     1
102
RTVSPropertyOp15
 70
     1
102
RTVSPropertyOp16
 70
     1
102
RTVSPropertyOp17
 70
     1
102
RTVSPropertyOp18
 70
     1
102
RTVSPropertyOp19
 70
     1
102
RTVSPropertyOp20
 70
     1
102
RTVSPropertyOp21
 70
     1
102
RTVSPropertyOp22
 70
     1
102
RTVSPropertyOp23
 70
     1
102
RTVSPropertyOp24
 70
     1
102
RTVSPropertyOp25
 70
     1
102
RTVSPropertyOp26
 70
     1
102
RTVSPropertyOp27
 70
     1
102
RTVSPropertyOp28
 70
     1
102
RTVSPropertyOp29
 70
     1
102
RTVSPropertyOp30
 70
     1
102
RTVSPropertyOp31
 70
     1
102
RTVSPropertyOp32
 70
     1
  0
XRECORD
  5
238
102
{ACAD_REACTORS
330
237
102
}
330
237
100
AcDbXrecord
280
     1
102
RTVSPropertyOp0
 70
     1
102
RTVSPropertyOp1
 70
     1
102
RTVSPropertyOp2
 70
     1
102
RTVSPropertyOp3
 70
     1
102
RTVSPropertyOp4
 70
     1
102
RTVSPropertyOp5
 70
     1
102
RTVSPropertyOp6
 70
     1
102
RTVSPropertyOp7
 70
     1
102
RTVSPropertyOp8
 70
     1
102
RTVSPropertyOp9
 70
     1
102
RTVSPropertyOp10
 70
     1
102
RTVSPropertyOp11
 70
     1
102
RTVSPropertyOp12
 70
     1
102
RTVSPropertyOp13
 70
     1
102
RTVSPropertyOp14
 70
     1
102
RTVSPropertyOp15
 70
     1
102
RTVSPropertyOp16
 70
     1
102
RTVSPropertyOp17
 70
     1
102
RTVSPropertyOp18
 70
     1
102
RTVSPropertyOp19
 70
     1
102
RTVSPropertyOp20
 70
     1
102
RTVSPropertyOp21
 70
     1
102
RTVSPropertyOp22
 70
     1
102
RTVSPropertyOp23
 70
     1
102
RTVSPropertyOp24
 70
     1
102
RTVSPropertyOp25
 70
     1
102
RTVSPropertyOp26
 70
     1
102
RTVSPropertyOp27
 70
     1
102
RTVSPropertyOp28
 70
     1
102
RTVSPropertyOp29
 70
     1
102
RTVSPropertyOp30
 70
     1
102
RTVSPropertyOp31
 70
     1
102
RTVSPropertyOp32
 70
     1
  0
XRECORD
  5
22C
102
{ACAD_REACTORS
330
22B
102
}
330
22B
100
AcDbXrecord
280
     1
102
RTVSPropertyOp0
 70
     1
102
RTVSPropertyOp1
 70
     1
102
RTVSPropertyOp2
 70
     1
102
RTVSPropertyOp3
 70
     1
102
RTVSPropertyOp4
 70
     1
102
RTVSPropertyOp5
 70
     1
102
RTVSPropertyOp6
 70
     1
102
RTVSPropertyOp7
 70
     1
102
RTVSPropertyOp8
 70
     1
102
RTVSPropertyOp9
 70
     1
102
RTVSPropertyOp10
 70
     1
102
RTVSPropertyOp11
 70
     1
102
RTVSPropertyOp12
 70
     1
102
RTVSPropertyOp13
 70
     1
102
RTVSPropertyOp14
 70
     1
102
RTVSPropertyOp15
 70
     1
102
RTVSPropertyOp16
 70
     1
102
RTVSPropertyOp17
 70
     1
102
RTVSPropertyOp18
 70
     1
102
RTVSPropertyOp19
 70
     1
102
RTVSPropertyOp20
 70
     1
102
RTVSPropertyOp21
 70
     1
102
RTVSPropertyOp22
 70
     1
102
RTVSPropertyOp23
 70
     1
102
RTVSPropertyOp24
 70
     1
102
RTVSPropertyOp25
 70
     1
102
RTVSPropertyOp26
 70
     1
102
RTVSPropertyOp27
 70
     1
102
RTVSPropertyOp28
 70
     1
102
RTVSPropertyOp29
 70
     1
102
RTVSPropertyOp30
 70
     1
102
RTVSPropertyOp31
 70
     1
102
RTVSPropertyOp32
 70
     1
  0
XRECORD
  5
22E
102
{ACAD_REACTORS
330
22D
102
}
330
22D
100
AcDbXrecord
280
     1
102
RTVSPropertyOp0
 70
     1
102
RTVSPropertyOp1
 70
     1
102
RTVSPropertyOp2
 70
     1
102
RTVSPropertyOp3
 70
     1
102
RTVSPropertyOp4
 70
     1
102
RTVSPropertyOp5
 70
     1
102
RTVSPropertyOp6
 70
     1
102
RTVSPropertyOp7
 70
     1
102
RTVSPropertyOp8
 70
     1
102
RTVSPropertyOp9
 70
     1
102
RTVSPropertyOp10
 70
     1
102
RTVSPropertyOp11
 70
     1
102
RTVSPropertyOp12
 70
     1
102
RTVSPropertyOp13
 70
     1
102
RTVSPropertyOp14
 70
     1
102
RTVSPropertyOp15
 70
     1
102
RTVSPropertyOp16
 70
     1
102
RTVSPropertyOp17
 70
     1
102
RTVSPropertyOp18
 70
     1
102
RTVSPropertyOp19
 70
     1
102
RTVSPropertyOp20
 70
     1
102
RTVSPropertyOp21
 70
     1
102
RTVSPropertyOp22
 70
     1
102
RTVSPropertyOp23
 70
     1
102
RTVSPropertyOp24
 70
     1
102
RTVSPropertyOp25
 70
     1
102
RTVSPropertyOp26
 70
     1
102
RTVSPropertyOp27
 70
     1
102
RTVSPropertyOp28
 70
     1
102
RTVSPropertyOp29
 70
     1
102
RTVSPropertyOp30
 70
     1
102
RTVSPropertyOp31
 70
     1
102
RTVSPropertyOp32
 70
     1
  0
XRECORD
  5
236
102
{ACAD_REACTORS
330
235
102
}
330
235
100
AcDbXrecord
280
     1
102
RTVSPropertyOp0
 70
     1
102
RTVSPropertyOp1
 70
     1
102
RTVSPropertyOp2
 70
     1
102
RTVSPropertyOp3
 70
     1
102
RTVSPropertyOp4
 70
     1
102
RTVSPropertyOp5
 70
     1
102
RTVSPropertyOp6
 70
     1
102
RTVSPropertyOp7
 70
     1
102
RTVSPropertyOp8
 70
     1
102
RTVSPropertyOp9
 70
     1
102
RTVSPropertyOp10
 70
     1
102
RTVSPropertyOp11
 70
     1
102
RTVSPropertyOp12
 70
     1
102
RTVSPropertyOp13
 70
     1
102
RTVSPropertyOp14
 70
     1
102
RTVSPropertyOp15
 70
     1
102
RTVSPropertyOp16
 70
     1
102
RTVSPropertyOp17
 70
     1
102
RTVSPropertyOp18
 70
     1
102
RTVSPropertyOp19
 70
     1
102
RTVSPropertyOp20
 70
     1
102
RTVSPropertyOp21
 70
     1
102
RTVSPropertyOp22
 70
     1
102
RTVSPropertyOp23
 70
     1
102
RTVSPropertyOp24
 70
     1
102
RTVSPropertyOp25
 70
     1
102
RTVSPropertyOp26
 70
     1
102
RTVSPropertyOp27
 70
     1
102
RTVSPropertyOp28
 70
     1
102
RTVSPropertyOp29
 70
     1
102
RTVSPropertyOp30
 70
     1
102
RTVSPropertyOp31
 70
     1
102
RTVSPropertyOp32
 70
     1
  0
XRECORD
  5
21A
102
{ACAD_REACTORS
330
219
102
}
330
219
100
AcDbXrecord
280
     1
102
RTVSPropertyOp0
 70
     1
102
RTVSPropertyOp1
 70
     1
102
RTVSPropertyOp2
 70
     1
102
RTVSPropertyOp3
 70
     1
102
RTVSPropertyOp4
 70
     1
102
RTVSPropertyOp5
 70
     1
102
RTVSPropertyOp6
 70
     1
102
RTVSPropertyOp7
 70
     1
102
RTVSPropertyOp8
 70
     1
102
RTVSPropertyOp9
 70
     1
102
RTVSPropertyOp10
 70
     1
102
RTVSPropertyOp11
 70
     1
102
RTVSPropertyOp12
 70
     1
102
RTVSPropertyOp13
 70
     1
102
RTVSPropertyOp14
 70
     1
102
RTVSPropertyOp15
 70
     1
102
RTVSPropertyOp16
 70
     1
102
RTVSPropertyOp17
 70
     1
102
RTVSPropertyOp18
 70
     1
102
RTVSPropertyOp19
 70
     1
102
RTVSPropertyOp20
 70
     1
102
RTVSPropertyOp21
 70
     1
102
RTVSPropertyOp22
 70
     1
102
RTVSPropertyOp23
 70
     1
102
RTVSPropertyOp24
 70
     1
102
RTVSPropertyOp25
 70
     1
102
RTVSPropertyOp26
 70
     1
102
RTVSPropertyOp27
 70
     1
102
RTVSPropertyOp28
 70
     1
102
RTVSPropertyOp29
 70
     1
102
RTVSPropertyOp30
 70
     1
102
RTVSPropertyOp31
 70
     1
102
RTVSPropertyOp32
 70
     1
  0
XRECORD
  5
21C
102
{ACAD_REACTORS
330
21B
102
}
330
21B
100
AcDbXrecord
280
     1
102
RTVSPropertyOp0
 70
     1
102
RTVSPropertyOp1
 70
     1
102
RTVSPropertyOp2
 70
     1
102
RTVSPropertyOp3
 70
     1
102
RTVSPropertyOp4
 70
     1
102
RTVSPropertyOp5
 70
     1
102
RTVSPropertyOp6
 70
     1
102
RTVSPropertyOp7
 70
     1
102
RTVSPropertyOp8
 70
     1
102
RTVSPropertyOp9
 70
     1
102
RTVSPropertyOp10
 70
     1
102
RTVSPropertyOp11
 70
     1
102
RTVSPropertyOp12
 70
     1
102
RTVSPropertyOp13
 70
     1
102
RTVSPropertyOp14
 70
     1
102
RTVSPropertyOp15
 70
     1
102
RTVSPropertyOp16
 70
     1
102
RTVSPropertyOp17
 70
     1
102
RTVSPropertyOp18
 70
     1
102
RTVSPropertyOp19
 70
     1
102
RTVSPropertyOp20
 70
     1
102
RTVSPropertyOp21
 70
     1
102
RTVSPropertyOp22
 70
     1
102
RTVSPropertyOp23
 70
     1
102
RTVSPropertyOp24
 70
     1
102
RTVSPropertyOp25
 70
     1
102
RTVSPropertyOp26
 70
     1
102
RTVSPropertyOp27
 70
     1
102
RTVSPropertyOp28
 70
     1
102
RTVSPropertyOp29
 70
     1
102
RTVSPropertyOp30
 70
     1
102
RTVSPropertyOp31
 70
     1
102
RTVSPropertyOp32
 70
     1
  0
XRECORD
  5
21E
102
{ACAD_REACTORS
330
21D
102
}
330
21D
100
AcDbXrecord
280
     1
102
RTVSPropertyOp0
 70
     1
102
RTVSPropertyOp1
 70
     1
102
RTVSPropertyOp2
 70
     1
102
RTVSPropertyOp3
 70
     1
102
RTVSPropertyOp4
 70
     1
102
RTVSPropertyOp5
 70
     1
102
RTVSPropertyOp6
 70
     1
102
RTVSPropertyOp7
 70
     1
102
RTVSPropertyOp8
 70
     1
102
RTVSPropertyOp9
 70
     1
102
RTVSPropertyOp10
 70
     1
102
RTVSPropertyOp11
 70
     1
102
RTVSPropertyOp12
 70
     1
102
RTVSPropertyOp13
 70
     1
102
RTVSPropertyOp14
 70
     1
102
RTVSPropertyOp15
 70
     1
102
RTVSPropertyOp16
 70
     1
102
RTVSPropertyOp17
 70
     1
102
RTVSPropertyOp18
 70
     1
102
RTVSPropertyOp19
 70
     1
102
RTVSPropertyOp20
 70
     1
102
RTVSPropertyOp21
 70
     1
102
RTVSPropertyOp22
 70
     1
102
RTVSPropertyOp23
 70
     1
102
RTVSPropertyOp24
 70
     1
102
RTVSPropertyOp25
 70
     1
102
RTVSPropertyOp26
 70
     1
102
RTVSPropertyOp27
 70
     1
102
RTVSPropertyOp28
 70
     1
102
RTVSPropertyOp29
 70
     1
102
RTVSPropertyOp30
 70
     1
102
RTVSPropertyOp31
 70
     1
102
RTVSPropertyOp32
 70
     1
  0
XRECORD
  5
220
102
{ACAD_REACTORS
330
21F
102
}
330
21F
100
AcDbXrecord
280
     1
102
RTVSPropertyOp0
 70
     1
102
RTVSPropertyOp1
 70
     1
102
RTVSPropertyOp2
 70
     1
102
RTVSPropertyOp3
 70
     1
102
RTVSPropertyOp4
 70
     1
102
RTVSPropertyOp5
 70
     1
102
RTVSPropertyOp6
 70
     1
102
RTVSPropertyOp7
 70
     1
102
RTVSPropertyOp8
 70
     1
102
RTVSPropertyOp9
 70
     1
102
RTVSPropertyOp10
 70
     1
102
RTVSPropertyOp11
 70
     1
102
RTVSPropertyOp12
 70
     1
102
RTVSPropertyOp13
 70
     1
102
RTVSPropertyOp14
 70
     1
102
RTVSPropertyOp15
 70
     1
102
RTVSPropertyOp16
 70
     1
102
RTVSPropertyOp17
 70
     1
102
RTVSPropertyOp18
 70
     1
102
RTVSPropertyOp19
 70
     1
102
RTVSPropertyOp20
 70
     1
102
RTVSPropertyOp21
 70
     1
102
RTVSPropertyOp22
 70
     1
102
RTVSPropertyOp23
 70
     1
102
RTVSPropertyOp24
 70
     1
102
RTVSPropertyOp25
 70
     1
102
RTVSPropertyOp26
 70
     1
102
RTVSPropertyOp27
 70
     1
102
RTVSPropertyOp28
 70
     1
102
RTVSPropertyOp29
 70
     1
102
RTVSPropertyOp30
 70
     1
102
RTVSPropertyOp31
 70
     1
102
RTVSPropertyOp32
 70
     1
  0
XRECORD
  5
234
102
{ACAD_REACTORS
330
233
102
}
330
233
100
AcDbXrecord
280
     1
102
RTVSPropertyOp0
 70
     1
102
RTVSPropertyOp1
 70
     1
102
RTVSPropertyOp2
 70
     1
102
RTVSPropertyOp3
 70
     1
102
RTVSPropertyOp4
 70
     1
102
RTVSPropertyOp5
 70
     1
102
RTVSPropertyOp6
 70
     1
102
RTVSPropertyOp7
 70
     1
102
RTVSPropertyOp8
 70
     1
102
RTVSPropertyOp9
 70
     1
102
RTVSPropertyOp10
 70
     1
102
RTVSPropertyOp11
 70
     1
102
RTVSPropertyOp12
 70
     1
102
RTVSPropertyOp13
 70
     1
102
RTVSPropertyOp14
 70
     1
102
RTVSPropertyOp15
 70
     1
102
RTVSPropertyOp16
 70
     1
102
RTVSPropertyOp17
 70
     1
102
RTVSPropertyOp18
 70
     1
102
RTVSPropertyOp19
 70
     1
102
RTVSPropertyOp20
 70
     1
102
RTVSPropertyOp21
 70
     1
102
RTVSPropertyOp22
 70
     1
102
RTVSPropertyOp23
 70
     1
102
RTVSPropertyOp24
 70
     1
102
RTVSPropertyOp25
 70
     1
102
RTVSPropertyOp26
 70
     1
102
RTVSPropertyOp27
 70
     1
102
RTVSPropertyOp28
 70
     1
102
RTVSPropertyOp29
 70
     1
102
RTVSPropertyOp30
 70
     1
102
RTVSPropertyOp31
 70
     1
102
RTVSPropertyOp32
 70
     1
  0
XRECORD
  5
22A
102
{ACAD_REACTORS
330
229
102
}
330
229
100
AcDbXrecord
280
     1
102
RTVSPropertyOp0
 70
     1
102
RTVSPropertyOp1
 70
     1
102
RTVSPropertyOp2
 70
     1
102
RTVSPropertyOp3
 70
     1
102
RTVSPropertyOp4
 70
     1
102
RTVSPropertyOp5
 70
     1
102
RTVSPropertyOp6
 70
     1
102
RTVSPropertyOp7
 70
     1
102
RTVSPropertyOp8
 70
     1
102
RTVSPropertyOp9
 70
     1
102
RTVSPropertyOp10
 70
     1
102
RTVSPropertyOp11
 70
     1
102
RTVSPropertyOp12
 70
     1
102
RTVSPropertyOp13
 70
     1
102
RTVSPropertyOp14
 70
     1
102
RTVSPropertyOp15
 70
     1
102
RTVSPropertyOp16
 70
     1
102
RTVSPropertyOp17
 70
     1
102
RTVSPropertyOp18
 70
     1
102
RTVSPropertyOp19
 70
     1
102
RTVSPropertyOp20
 70
     1
102
RTVSPropertyOp21
 70
     1
102
RTVSPropertyOp22
 70
     1
102
RTVSPropertyOp23
 70
     1
102
RTVSPropertyOp24
 70
     1
102
RTVSPropertyOp25
 70
     1
102
RTVSPropertyOp26
 70
     1
102
RTVSPropertyOp27
 70
     1
102
RTVSPropertyOp28
 70
     1
102
RTVSPropertyOp29
 70
     1
102
RTVSPropertyOp30
 70
     1
102
RTVSPropertyOp31
 70
     1
102
RTVSPropertyOp32
 70
     1
  0
XRECORD
  5
232
102
{ACAD_REACTORS
330
231
102
}
330
231
100
AcDbXrecord
280
     1
102
RTVSPropertyOp0
 70
     1
102
RTVSPropertyOp1
 70
     1
102
RTVSPropertyOp2
 70
     1
102
RTVSPropertyOp3
 70
     1
102
RTVSPropertyOp4
 70
     1
102
RTVSPropertyOp5
 70
     1
102
RTVSPropertyOp6
 70
     1
102
RTVSPropertyOp7
 70
     1
102
RTVSPropertyOp8
 70
     1
102
RTVSPropertyOp9
 70
     1
102
RTVSPropertyOp10
 70
     1
102
RTVSPropertyOp11
 70
     1
102
RTVSPropertyOp12
 70
     1
102
RTVSPropertyOp13
 70
     1
102
RTVSPropertyOp14
 70
     1
102
RTVSPropertyOp15
 70
     1
102
RTVSPropertyOp16
 70
     1
102
RTVSPropertyOp17
 70
     1
102
RTVSPropertyOp18
 70
     1
102
RTVSPropertyOp19
 70
     1
102
RTVSPropertyOp20
 70
     1
102
RTVSPropertyOp21
 70
     1
102
RTVSPropertyOp22
 70
     1
102
RTVSPropertyOp23
 70
     1
102
RTVSPropertyOp24
 70
     1
102
RTVSPropertyOp25
 70
     1
102
RTVSPropertyOp26
 70
     1
102
RTVSPropertyOp27
 70
     1
102
RTVSPropertyOp28
 70
     1
102
RTVSPropertyOp29
 70
     1
102
RTVSPropertyOp30
 70
     1
102
RTVSPropertyOp31
 70
     1
102
RTVSPropertyOp32
 70
     1
  0
ENDSEC
  0
EOF
