  0
SECTION
  2
HEADER
  9
$ACADVER
  1
AC1015
  9
$ACADMAINTVER
 70
     6
  9
$DWGCODEPAGE
  3
ANSI_1252
  9
$INSBASE
 10
0.0
 20
0.0
 30
0.0
  9
$EXTMIN
 10
0.0
 20
0.0
 30
0.0
  9
$EXTMAX
 10
297.0
 20
210.0
 30
0.0
  9
$LIMMIN
 10
0.0
 20
0.0
  9
$LIMMAX
 10
297.0
 20
210.0
  9
$ORTHOMODE
 70
     0
  9
$REGENMODE
 70
     1
  9
$FILLMODE
 70
     1
  9
$QTEXTMODE
 70
     0
  9
$MIRRTEXT
 70
     1
  9
$LTSCALE
 40
1.0
  9
$ATTMODE
 70
     1
  9
$TEXTSIZE
 40
2.5
  9
$TRACEWID
 40
1.0
  9
$TEXTSTYLE
  7
Standard
  9
$CLAYER
  8
0
  9
$CELTYPE
  6
ByLayer
  9
$CECOLOR
 62
   256
  9
$CELTSCALE
 40
1.0
  9
$DISPSILH
 70
     0
  9
$DIMSCALE
 40
1.0
  9
$DIMASZ
 40
2.5
  9
$DIMEXO
 40
0.625
  9
$DIMDLI
 40
3.75
  9
$DIMRND
 40
0.0
  9
$DIMDLE
 40
0.0
  9
$DIMEXE
 40
1.25
  9
$DIMTP
 40
0.0
  9
$DIMTM
 40
0.0
  9
$DIMTXT
 40
2.5
  9
$DIMCEN
 40
2.5
  9
$DIMTSZ
 40
0.0
  9
$DIMTOL
 70
     0
  9
$DIMLIM
 70
     0
  9
$DIMTIH
 70
     0
  9
$DIMTOH
 70
     0
  9
$DIMSE1
 70
     0
  9
$DIMSE2
 70
     0
  9
$DIMTAD
 70
     1
  9
$DIMZIN
 70
     8
  9
$DIMBLK
  1

  9
$DIMASO
 70
     1
  9
$DIMSHO
 70
     1
  9
$DIMPOST
  1

  9
$DIMAPOST
  1

  9
$DIMALT
 70
     0
  9
$DIMALTD
 70
     3
  9
$DIMALTF
 40
0.0393700787
  9
$DIMLFAC
 40
1.0
  9
$DIMTOFL
 70
     1
  9
$DIMTVP
 40
0.0
  9
$DIMTIX
 70
     0
  9
$DIMSOXD
 70
     0
  9
$DIMSAH
 70
     0
  9
$DIMBLK1
  1

  9
$DIMBLK2
  1

  9
$DIMSTYLE
  2
ISO-25
  9
$DIMCLRD
 70
     0
  9
$DIMCLRE
 70
     0
  9
$DIMCLRT
 70
     0
  9
$DIMTFAC
 40
1.0
  9
$DIMGAP
 40
0.625
  9
$DIMJUST
 70
     0
  9
$DIMSD1
 70
     0
  9
$DIMSD2
 70
     0
  9
$DIMTOLJ
 70
     0
  9
$DIMTZIN
 70
     8
  9
$DIMALTZ
 70
     0
  9
$DIMALTTZ
 70
     0
  9
$DIMUPT
 70
     0
  9
$DIMDEC
 70
     2
  9
$DIMTDEC
 70
     2
  9
$DIMALTU
 70
     2
  9
$DIMALTTD
 70
     3
  9
$DIMTXSTY
  7
Standard
  9
$DIMAUNIT
 70
     0
  9
$DIMADEC
 70
     0
  9
$DIMALTRND
 40
0.0
  9
$DIMAZIN
 70
     0
  9
$DIMDSEP
 70
    44
  9
$DIMATFIT
 70
     3
  9
$DIMFRAC
 70
     0
  9
$DIMLDRBLK
  1

  9
$DIMLUNIT
 70
     2
  9
$DIMLWD
 70
    -2
  9
$DIMLWE
 70
    -2
  9
$DIMTMOVE
 70
     0
  9
$LUNITS
 70
     2
  9
$LUPREC
 70
     4
  9
$SKETCHINC
 40
1.0
  9
$FILLETRAD
 40
10.0
  9
$AUNITS
 70
     0
  9
$AUPREC
 70
     0
  9
$MENU
  1
.
  9
$ELEVATION
 40
0.0
  9
$PELEVATION
 40
0.0
  9
$THICKNESS
 40
0.0
  9
$LIMCHECK
 70
     0
  9
$CHAMFERA
 40
10.0
  9
$CHAMFERB
 40
10.0
  9
$CHAMFERC
 40
20.0
  9
$CHAMFERD
 40
0.0
  9
$SKPOLY
 70
     0
  9
$TDCREATE
 40
2457353.626968692
  9
$TDUCREATE
 40
2457353.585302026
  9
$TDUPDATE
 40
2457353.626969896
  9
$TDUUPDATE
 40
2457353.585303229
  9
$TDINDWG
 40
0.0000000116
  9
$TDUSRTIMER
 40
0.0000000116
  9
$USRTIMER
 70
     1
  9
$ANGBASE
 50
0.0
  9
$ANGDIR
 70
     0
  9
$PDMODE
 70
     0
  9
$PDSIZE
 40
0.0
  9
$PLINEWID
 40
0.0
  9
$SPLFRAME
 70
     0
  9
$SPLINETYPE
 70
     6
  9
$SPLINESEGS
 70
     8
  9
$HANDSEED
  5
263
  9
$SURFTAB1
 70
     6
  9
$SURFTAB2
 70
     6
  9
$SURFTYPE
 70
     6
  9
$SURFU
 70
     6
  9
$SURFV
 70
     6
  9
$UCSBASE
  2

  9
$UCSNAME
  2

  9
$UCSORG
 10
0.0
 20
0.0
 30
0.0
  9
$UCSXDIR
 10
1.0
 20
0.0
 30
0.0
  9
$UCSYDIR
 10
0.0
 20
1.0
 30
0.0
  9
$UCSORTHOREF
  2

  9
$UCSORTHOVIEW
 70
     0
  9
$UCSORGTOP
 10
0.0
 20
0.0
 30
0.0
  9
$UCSORGBOTTOM
 10
0.0
 20
0.0
 30
0.0
  9
$UCSORGLEFT
 10
0.0
 20
0.0
 30
0.0
  9
$UCSORGRIGHT
 10
0.0
 20
0.0
 30
0.0
  9
$UCSORGFRONT
 10
0.0
 20
0.0
 30
0.0
  9
$UCSORGBACK
 10
0.0
 20
0.0
 30
0.0
  9
$PUCSBASE
  2

  9
$PUCSNAME
  2

  9
$PUCSORG
 10
0.0
 20
0.0
 30
0.0
  9
$PUCSXDIR
 10
1.0
 20
0.0
 30
0.0
  9
$PUCSYDIR
 10
0.0
 20
1.0
 30
0.0
  9
$PUCSORTHOREF
  2

  9
$PUCSORTHOVIEW
 70
     0
  9
$PUCSORGTOP
 10
0.0
 20
0.0
 30
0.0
  9
$PUCSORGBOTTOM
 10
0.0
 20
0.0
 30
0.0
  9
$PUCSORGLEFT
 10
0.0
 20
0.0
 30
0.0
  9
$PUCSORGRIGHT
 10
0.0
 20
0.0
 30
0.0
  9
$PUCSORGFRONT
 10
0.0
 20
0.0
 30
0.0
  9
$PUCSORGBACK
 10
0.0
 20
0.0
 30
0.0
  9
$USERI1
 70
     0
  9
$USERI2
 70
     0
  9
$USERI3
 70
     0
  9
$USERI4
 70
     0
  9
$USERI5
 70
     0
  9
$USERR1
 40
0.0
  9
$USERR2
 40
0.0
  9
$USERR3
 40
0.0
  9
$USERR4
 40
0.0
  9
$USERR5
 40
0.0
  9
$WORLDVIEW
 70
     1
  9
$SHADEDGE
 70
     3
  9
$SHADEDIF
 70
    70
  9
$TILEMODE
 70
     1
  9
$MAXACTVP
 70
    64
  9
$PINSBASE
 10
0.0
 20
0.0
 30
0.0
  9
$PLIMCHECK
 70
     0
  9
$PEXTMIN
 10
0.0
 20
0.0
 30
0.0
  9
$PEXTMAX
 10
297.0
 20
210.0
 30
0.0
  9
$PLIMMIN
 10
0.0
 20
0.0
  9
$PLIMMAX
 10
297.0
 20
210.0
  9
$UNITMODE
 70
     0
  9
$VISRETAIN
 70
     1
  9
$PLINEGEN
 70
     0
  9
$PSLTSCALE
 70
     1
  9
$TREEDEPTH
 70
  3020
  9
$CMLSTYLE
  2
Standard
  9
$CMLJUST
 70
     0
  9
$CMLSCALE
 40
20.0
  9
$PROXYGRAPHICS
 70
     1
  9
$MEASUREMENT
 70
     1
  9
$CELWEIGHT
370
    -1
  9
$ENDCAPS
280
     0
  9
$JOINSTYLE
280
     0
  9
$LWDISPLAY
290
     0
  9
$INSUNITS
 70
     4
  9
$HYPERLINKBASE
  1

  9
$STYLESHEET
  1

  9
$XEDIT
290
     1
  9
$CEPSNTYPE
380
     0
  9
$PSTYLEMODE
290
     1
  9
$FINGERPRINTGUID
  2
{5E5DA572-A88C-49DA-AEA7-68A2857F61A2}
  9
$VERSIONGUID
  2
{FAEB1C32-E019-11D5-929B-00C0DF256EC4}
  9
$EXTNAMES
290
     1
  9
$PSVPSCALE
 40
0.0
  9
$OLESTARTUP
290
     0
  0
ENDSEC
  0
SECTION
  2
CLASSES
  0
CLASS
  1
ACDBDICTIONARYWDFLT
  2
AcDbDictionaryWithDefault
  3
ObjectDBX Classes
 90
        0
280
     0
281
     0
  0
CLASS
  1
VISUALSTYLE
  2
AcDbVisualStyle
  3
ObjectDBX Classes
 90
     4095
280
     0
281
     0
  0
CLASS
  1
MATERIAL
  2
AcDbMaterial
  3
ObjectDBX Classes
 90
     1153
280
     0
281
     0
  0
CLASS
  1
DICTIONARYVAR
  2
AcDbDictionaryVar
  3
ObjectDBX Classes
 90
        0
280
     0
281
     0
  0
CLASS
  1
ACDBPLACEHOLDER
  2
AcDbPlaceHolder
  3
ObjectDBX Classes
 90
        0
280
     0
281
     0
  0
CLASS
  1
LAYOUT
  2
AcDbLayout
  3
ObjectDBX Classes
 90
        0
280
     0
281
     0
  0
ENDSEC
  0
SECTION
  2
TABLES
  0
TABLE
  2
VPORT
  5
8
330
0
100
AcDbSymbolTable
 70
     1
  0
VPORT
  5
29
330
8
100
AcDbSymbolTableRecord
100
AcDbViewportTableRecord
  2
*Active
 70
     0
 10
0.0
 20
0.0
 11
1.0
 21
1.0
 12
344.1869158879
 22
148.5
 13
0.0
 23
0.0
 14
10.0
 24
10.0
 15
10.0
 25
10.0
 16
0.0
 26
0.0
 36
1.0
 17
0.0
 27
0.0
 37
0.0
 40
297.0
 41
1.9729729729
 42
50.0
 43
0.0
 44
0.0
 50
0.0
 51
0.0
 71
     0
 72
   100
 73
     1
 74
     3
 75
     0
 76
     0
 77
     0
 78
     0
281
     0
 65
     1
110
0.0
120
0.0
130
0.0
111
1.0
121
0.0
131
0.0
112
0.0
122
1.0
132
0.0
 79
     0
146
0.0
  0
ENDTAB
  0
TABLE
  2
LTYPE
  5
5
330
0
100
AcDbSymbolTable
 70
     2
  0
LTYPE
  5
14
330
5
100
AcDbSymbolTableRecord
100
AcDbLinetypeTableRecord
  2
ByBlock
 70
     0
  3

 72
    65
 73
     0
 40
0.0
  0
LTYPE
  5
15
330
5
100
AcDbSymbolTableRecord
100
AcDbLinetypeTableRecord
  2
ByLayer
 70
     0
  3

 72
    65
 73
     0
 40
0.0
  0
LTYPE
  5
16
330
5
100
AcDbSymbolTableRecord
100
AcDbLinetypeTableRecord
  2
Continuous
 70
     0
  3
Solid line
 72
    65
 73
     0
 40
0.0
  0
LTYPE
  5
13A
330
5
100
AcDbSymbolTableRecord
100
AcDbLinetypeTableRecord
  2
CENTER2
 70
     0
  3
Center (.5x) ___ _ ___ _ ___ _ ___ _ ___ _ ___
 72
    65
 73
     4
 40
28.575
 49
19.05
 74
     4
 75
     0
340
0
 46
0.0
 50
0.0
 44
0.0
 45
0.0
 49
-3.175
 74
     4
 75
     0
340
0
 46
0.0
 50
0.0
 44
0.0
 45
0.0
 49
3.175
 74
     4
 75
     0
340
0
 46
0.0
 50
0.0
 44
0.0
 45
0.0
 49
-3.175
 74
     4
 75
     0
340
0
 46
0.0
 50
0.0
 44
0.0
 45
0.0
  0
ENDTAB
  0
TABLE
  2
LAYER
  5
2
330
0
100
AcDbSymbolTable
 70
     4
  0
LAYER
  5
10
330
2
100
AcDbSymbolTableRecord
100
AcDbLayerTableRecord
  2
0
 70
     0
 62
     7
  6
Continuous
370
    -3
390
F
  0
LAYER
  5
3F
330
2
100
AcDbSymbolTableRecord
100
AcDbLayerTableRecord
  2
Default
 70
     0
 62
     7
  6
Continuous
370
    -3
390
F
  0
LAYER
  5
42
330
2
100
AcDbSymbolTableRecord
100
AcDbLayerTableRecord
  2
0012363
 70
     0
 62
     7
  6
Continuous
370
    -3
390
F
  0
LAYER
  5
139
330
2
100
AcDbSymbolTableRecord
100
AcDbLayerTableRecord
  2
DV1_Default
 70
     0
 62
     7
  6
Continuous
370
    -3
390
F
  0
ENDTAB
  0
TABLE
  2
STYLE
  5
3
330
0
100
AcDbSymbolTable
 70
     5
  0
STYLE
  5
11
330
3
100
AcDbSymbolTableRecord
100
AcDbTextStyleTableRecord
  2
Standard
 70
     0
 40
0.0
 41
1.0
 50
0.0
 71
     0
 42
2.5
  3
txt
  4

  0
STYLE
  5
155
330
3
100
AcDbSymbolTableRecord
100
AcDbTextStyleTableRecord
  2
SEACAD_Solid_Edge_ISO1_Symbols
 70
     0
 40
0.0
 41
1.0
 50
0.0
 71
     0
 42
0.2
  3
semeci1.ttf
  4

1001
ACAD
1000
Solid Edge ISO1 Symbols
1071
        0
  0
STYLE
  5
157
330
3
100
AcDbSymbolTableRecord
100
AcDbTextStyleTableRecord
  2
SEACAD_Solid_Edge_ISO
 70
     0
 40
0.0
 41
1.0
 50
0.0
 71
     0
 42
0.2
  3
seiso.ttf
  4

1001
ACAD
1000
Solid Edge ISO
1071
        0
  0
STYLE
  5
1CB
330
3
100
AcDbSymbolTableRecord
100
AcDbTextStyleTableRecord
  2
SEACAD_Solid_Edge_ANSIB
 70
     0
 40
0.0
 41
1.0
 50
0.0
 71
     0
 42
0.2
  3
seansbd.ttf
  4

1001
ACAD
1000
Solid Edge ANSI
1071
 33554432
  0
STYLE
  5
1D0
330
3
100
AcDbSymbolTableRecord
100
AcDbTextStyleTableRecord
  2
SEACAD_Solid_Edge_ANSI
 70
     0
 40
0.0
 41
1.0
 50
0.0
 71
     0
 42
0.2
  3
seans.ttf
  4

1001
ACAD
1000
Solid Edge ANSI
1071
        0
  0
ENDTAB
  0
TABLE
  2
VIEW
  5
6
330
0
100
AcDbSymbolTable
 70
     0
  0
ENDTAB
  0
TABLE
  2
UCS
  5
7
330
0
100
AcDbSymbolTable
 70
     0
  0
ENDTAB
  0
TABLE
  2
APPID
  5
9
330
0
100
AcDbSymbolTable
 70
     1
  0
APPID
  5
12
330
9
100
AcDbSymbolTableRecord
100
AcDbRegAppTableRecord
  2
ACAD
 70
     0
  0
ENDTAB
  0
TABLE
  2
DIMSTYLE
  5
A
330
0
100
AcDbSymbolTable
 70
     3
100
AcDbDimStyleTable
  0
DIMSTYLE
105
27
330
A
100
AcDbSymbolTableRecord
100
AcDbDimStyleTableRecord
  2
ISO-25
 70
     0
 41
2.5
 42
0.625
 43
3.75
 44
1.25
 73
     0
 74
     0
 77
     1
 78
     8
140
2.5
141
2.5
143
0.0393700787
147
0.625
171
     3
172
     1
178
     0
271
     2
272
     2
274
     3
278
    44
283
     0
284
     8
340
11
  0
DIMSTYLE
105
170
330
A
100
AcDbSymbolTableRecord
100
AcDbDimStyleTableRecord
  2
Standard
 70
     0
178
     0
340
11
  0
DIMSTYLE
105
182
102
{ACAD_REACTORS
330
183
330
18D
330
197
330
1A1
330
1B6
330
1C0
102
}
330
A
100
AcDbSymbolTableRecord
100
AcDbDimStyleTableRecord
  2
DIN
 70
     0
 41
3.5
 42
0.0
 44
1.75
 73
     0
 74
     0
 77
     1
 78
     8
140
3.5
141
1.75
147
1.75
172
     1
173
     1
178
     0
179
     3
271
     3
272
     3
278
    44
284
     8
340
157
343
17D
344
17D
  0
ENDTAB
  0
TABLE
  2
BLOCK_RECORD
  5
1
330
0
100
AcDbSymbolTable
 70
    21
  0
BLOCK_RECORD
  5
1F
330
1
100
AcDbSymbolTableRecord
100
AcDbBlockTableRecord
  2
*Model_Space
340
22
  0
BLOCK_RECORD
  5
1B
330
1
100
AcDbSymbolTableRecord
100
AcDbBlockTableRecord
  2
*Paper_Space
340
1E
  0
BLOCK_RECORD
  5
40
330
1
100
AcDbSymbolTableRecord
100
AcDbBlockTableRecord
  2
SE
340
0
102
{BLKREFS
331
41
102
}
  0
BLOCK_RECORD
  5
150
330
1
100
AcDbSymbolTableRecord
100
AcDbBlockTableRecord
  2
GDimGGroup
340
0
102
{BLKREFS
331
151
102
}
  0
BLOCK_RECORD
  5
15B
330
1
100
AcDbSymbolTableRecord
100
AcDbBlockTableRecord
  2
GDimGGroup1
340
0
102
{BLKREFS
331
15C
102
}
  0
BLOCK_RECORD
  5
166
330
1
100
AcDbSymbolTableRecord
100
AcDbBlockTableRecord
  2
GDimGGroup2
340
0
102
{BLKREFS
331
167
102
}
  0
BLOCK_RECORD
  5
171
330
1
100
AcDbSymbolTableRecord
100
AcDbBlockTableRecord
  2
_OBLIQUE
340
0
  0
BLOCK_RECORD
  5
175
330
1
100
AcDbSymbolTableRecord
100
AcDbBlockTableRecord
  2
_DOT
340
0
  0
BLOCK_RECORD
  5
17D
330
1
100
AcDbSymbolTableRecord
100
AcDbBlockTableRecord
  2
_SE_FILLED
340
0
  0
BLOCK_RECORD
  5
184
330
1
100
AcDbSymbolTableRecord
100
AcDbBlockTableRecord
  2
DMBLK302
340
0
  0
BLOCK_RECORD
  5
18E
330
1
100
AcDbSymbolTableRecord
100
AcDbBlockTableRecord
  2
DMBLK303
340
0
  0
BLOCK_RECORD
  5
198
330
1
100
AcDbSymbolTableRecord
100
AcDbBlockTableRecord
  2
DMBLK304
340
0
  0
BLOCK_RECORD
  5
1A2
330
1
100
AcDbSymbolTableRecord
100
AcDbBlockTableRecord
  2
DMBLK305
340
0
  0
BLOCK_RECORD
  5
1AB
330
1
100
AcDbSymbolTableRecord
100
AcDbBlockTableRecord
  2
GDimGGroup3
340
0
102
{BLKREFS
331
1AC
102
}
  0
BLOCK_RECORD
  5
1B7
330
1
100
AcDbSymbolTableRecord
100
AcDbBlockTableRecord
  2
DMBLK306
340
0
  0
BLOCK_RECORD
  5
1C1
330
1
100
AcDbSymbolTableRecord
100
AcDbBlockTableRecord
  2
DMBLK307
340
0
  0
BLOCK_RECORD
  5
1CA
330
1
100
AcDbSymbolTableRecord
100
AcDbBlockTableRecord
  2
SEANNOT_GROUP
340
0
102
{BLKREFS
331
227
102
}
  0
BLOCK_RECORD
  5
1CF
330
1
100
AcDbSymbolTableRecord
100
AcDbBlockTableRecord
  2
SEANNOT_GROUP1
340
0
102
{BLKREFS
331
228
102
}
  0
BLOCK_RECORD
  5
1D4
330
1
100
AcDbSymbolTableRecord
100
AcDbBlockTableRecord
  2
SEANNOT_GROUP2
340
0
102
{BLKREFS
331
22A
102
}
  0
BLOCK_RECORD
  5
1D8
330
1
100
AcDbSymbolTableRecord
100
AcDbBlockTableRecord
  2
SEANNOT_GROUP3
340
0
102
{BLKREFS
331
22B
102
}
  0
BLOCK_RECORD
  5
1DC
330
1
100
AcDbSymbolTableRecord
100
AcDbBlockTableRecord
  2
Block1
340
0
102
{BLKREFS
331
22C
102
}
  0
BLOCK_RECORD
  5
224
330
1
100
AcDbSymbolTableRecord
100
AcDbBlockTableRecord
  2
RF-Massblatt_2016
340
0
102
{BLKREFS
331
22F
102
}
  0
ENDTAB
  0
ENDSEC
  0
SECTION
  2
BLOCKS
  0
BLOCK
  5
20
330
1F
100
AcDbEntity
  8
0
100
AcDbBlockBegin
  2
*Model_Space
 70
     0
 10
0.0
 20
0.0
 30
0.0
  3
*Model_Space
  1

  0
ENDBLK
  5
21
330
1F
100
AcDbEntity
  8
0
100
AcDbBlockEnd
  0
BLOCK
  5
1C
330
1B
100
AcDbEntity
 67
     1
  8
0
100
AcDbBlockBegin
  2
*Paper_Space
 70
     0
 10
0.0
 20
0.0
 30
0.0
  3
*Paper_Space
  1

  0
ENDBLK
  5
1D
330
1B
100
AcDbEntity
 67
     1
  8
0
100
AcDbBlockEnd
  0
BLOCK
  5
14E
330
40
100
AcDbEntity
  8
0
100
AcDbBlockBegin
  2
SE
 70
     0
 10
0.0
 20
0.0
 30
0.0
  3
SE
  1

  0
LINE
  5
43
330
40
100
AcDbEntity
  8
0012363
  6
Continuous
 62
     7
100
AcDbLine
 10
69.3590948874
 20
91.9143435593
 30
0.0
 11
62.8590948874
 21
91.9143435593
 31
0.0
  0
ARC
  5
44
330
40
100
AcDbEntity
  8
0012363
  6
Continuous
 62
     7
100
AcDbCircle
 10
69.3590948874
 20
93.9143435593
 30
0.0
 40
2.000000000000002
100
AcDbArc
 50
270.0
 51
0.0
  0
LINE
  5
45
330
40
100
AcDbEntity
  8
0012363
  6
Continuous
 62
     7
100
AcDbLine
 10
69.3590948874
 20
111.9343435593
 30
0.0
 11
62.8590948874
 21
111.9343435593
 31
0.0
  0
ARC
  5
46
330
40
100
AcDbEntity
  8
0012363
  6
Continuous
 62
     7
100
AcDbCircle
 10
69.3590948874
 20
109.9343435593
 30
0.0
 40
2.0
100
AcDbArc
 50
0.0
 51
90.0
  0
CIRCLE
  5
47
330
40
100
AcDbEntity
  8
0012363
  6
Continuous
 62
     7
100
AcDbCircle
 10
96.3590948874
 20
101.9243435593
 30
0.0
 40
5.999999999999993
  0
LINE
  5
48
330
40
100
AcDbEntity
  8
0012363
  6
Continuous
 62
     7
100
AcDbLine
 10
61.3590948874
 20
90.4143435593
 30
0.0
 11
61.3590948874
 21
88.0433027553
 31
0.0
  0
LINE
  5
49
330
40
100
AcDbEntity
  8
0012363
  6
Continuous
 62
     7
100
AcDbLine
 10
61.3590948874
 20
90.4143435593
 30
0.0
 11
62.8590948874
 21
91.9143435593
 31
0.0
  0
LINE
  5
4A
330
40
100
AcDbEntity
  8
0012363
  6
Continuous
 62
     7
100
AcDbLine
 10
62.8590948874
 20
91.9143435593
 30
0.0
 11
62.8590948874
 21
87.0042850424
 31
0.0
  0
LINE
  5
4B
330
40
100
AcDbEntity
  8
0012363
  6
Continuous
 62
     7
100
AcDbLine
 10
61.3590948874
 20
113.4343435593
 30
0.0
 11
62.8590948874
 21
111.9343435593
 31
0.0
  0
LINE
  5
4C
330
40
100
AcDbEntity
  8
0012363
  6
Continuous
 62
     7
100
AcDbLine
 10
62.8590948874
 20
111.9343435593
 30
0.0
 11
62.8590948874
 21
116.8444020763
 31
0.0
  0
LINE
  5
4D
330
40
100
AcDbEntity
  8
0012363
  6
Continuous
 62
     7
100
AcDbLine
 10
61.3590948874
 20
113.4343435593
 30
0.0
 11
61.3590948874
 21
115.8053843633
 31
0.0
  0
LINE
  5
4E
330
40
100
AcDbEntity
  8
0012363
  6
Continuous
 62
     7
100
AcDbLine
 10
129.4840948874
 20
111.9243435593
 30
0.0
 11
129.9840948874
 21
111.9243435593
 31
0.0
  0
LINE
  5
4F
330
40
100
AcDbEntity
  8
0012363
  6
Continuous
 62
     7
100
AcDbLine
 10
129.9840948874
 20
111.9243435593
 30
0.0
 11
132.7340948874
 21
111.9243435593
 31
0.0
  0
LINE
  5
50
330
40
100
AcDbEntity
  8
0012363
  6
Continuous
 62
     7
100
AcDbLine
 10
132.7340948874
 20
111.9243435593
 30
0.0
 11
133.2340948874
 21
111.9243435593
 31
0.0
  0
LINE
  5
51
330
40
100
AcDbEntity
  8
0012363
  6
Continuous
 62
     7
100
AcDbLine
 10
133.2340948874
 20
91.9243435593
 30
0.0
 11
132.7340948874
 21
91.9243435593
 31
0.0
  0
LINE
  5
52
330
40
100
AcDbEntity
  8
0012363
  6
Continuous
 62
     7
100
AcDbLine
 10
132.7340948874
 20
91.9243435593
 30
0.0
 11
129.9840948874
 21
91.9243435593
 31
0.0
  0
LINE
  5
53
330
40
100
AcDbEntity
  8
0012363
  6
Continuous
 62
     7
100
AcDbLine
 10
129.9840948874
 20
91.9243435593
 30
0.0
 11
129.4840948874
 21
91.9243435593
 31
0.0
  0
LINE
  5
54
330
40
100
AcDbEntity
  8
0012363
  6
Continuous
 62
     7
100
AcDbLine
 10
140.3590948874
 20
111.9243435593
 30
0.0
 11
140.3590948874
 21
91.9243435593
 31
0.0
  0
LINE
  5
55
330
40
100
AcDbEntity
  8
0012363
  6
Continuous
 62
     7
100
AcDbLine
 10
129.4840948874
 20
70.4243435593
 30
0.0
 11
129.9840948874
 21
70.4243435593
 31
0.0
  0
LINE
  5
56
330
40
100
AcDbEntity
  8
0012363
  6
Continuous
 62
     7
100
AcDbLine
 10
129.9840948874
 20
70.4243435593
 30
0.0
 11
132.7340948874
 21
70.4243435593
 31
0.0
  0
LINE
  5
57
330
40
100
AcDbEntity
  8
0012363
  6
Continuous
 62
     7
100
AcDbLine
 10
132.7340948874
 20
70.4243435593
 30
0.0
 11
133.2340948874
 21
70.4243435593
 31
0.0
  0
LINE
  5
58
330
40
100
AcDbEntity
  8
0012363
  6
Continuous
 62
     7
100
AcDbLine
 10
140.3590948874
 20
70.4243435593
 30
0.0
 11
140.3590948874
 21
63.7405773752
 31
0.0
  0
LINE
  5
59
330
40
100
AcDbEntity
  8
0012363
  6
Continuous
 62
     7
100
AcDbLine
 10
133.2340948874
 20
66.2079386493
 30
0.0
 11
133.2340948874
 21
67.7190808063
 31
0.0
  0
SPLINE
  5
5A
330
40
100
AcDbEntity
  8
0012363
  6
Continuous
 62
     7
100
AcDbSpline
210
0.0
220
0.0
230
1.0
 70
     8
 71
     3
 72
    12
 73
     8
 74
     0
 42
0.0000000105735813
 43
0.0000000001
 12
1.0
 22
0.0
 32
0.0
 13
1.0
 23
0.0
 33
0.0
 40
0.0
 40
0.0
 40
0.0
 40
0.0
 40
0.5000000000000029
 40
0.5000000000000029
 40
0.7500000000000014
 40
0.7500000000000014
 40
1.0
 40
1.0
 40
1.0
 40
1.0
 10
133.2340948874325
 20
67.71908080633513
 30
0.0
 10
133.2340948874325
 20
67.87510373209912
 30
0.0
 10
133.1963836963383
 20
68.03104103276559
 30
0.0
 10
133.0720836146242
 20
68.22912251873814
 30
0.0
 10
133.0188630740992
 20
68.28857554589293
 30
0.0
 10
132.8887729277841
 20
68.3758212070496
 30
0.0
 10
132.8121459159717
 20
68.40196297558585
 30
0.0
 10
132.7340948874325
 20
68.40196297558589
 30
0.0
  0
LINE
  5
5B
330
40
100
AcDbEntity
  8
0012363
  6
Continuous
 62
     7
100
AcDbLine
 10
132.7340948874
 20
68.4019629756
 30
0.0
 11
129.9840948874
 21
68.4019629756
 31
0.0
  0
SPLINE
  5
5C
330
40
100
AcDbEntity
  8
0012363
  6
Continuous
 62
     7
100
AcDbSpline
210
0.0
220
0.0
230
1.0
 70
     8
 71
     3
 72
    12
 73
     8
 74
     0
 42
0.000000010574829
 43
0.0000000001
 12
1.0
 22
0.0
 32
0.0
 13
1.0
 23
0.0
 33
0.0
 40
0.0
 40
0.0
 40
0.0
 40
0.0
 40
0.2499999999999985
 40
0.2499999999999985
 40
0.499999999999997
 40
0.499999999999997
 40
1.0
 40
1.0
 40
1.0
 40
1.0
 10
129.9840948874325
 20
68.4019629755858
 30
0.0
 10
129.906380597356
 20
68.40196297558577
 30
0.0
 10
129.8286689520668
 20
68.37543538135277
 30
0.0
 10
129.6991254161395
 20
68.2883239480813
 30
0.0
 10
129.6459037731607
 20
68.22878031248521
 30
0.0
 10
129.5223561523537
 20
68.03195695645559
 30
0.0
 10
129.4840948874325
 20
67.8744037790186
 30
0.0
 10
129.4840948874325
 20
67.71908080633513
 30
0.0
  0
LINE
  5
5D
330
40
100
AcDbEntity
  8
0012363
  6
Continuous
 62
     7
100
AcDbLine
 10
129.4840948874
 20
67.7190808063
 30
0.0
 11
129.4840948874
 21
66.2079386493
 31
0.0
  0
SPLINE
  5
5E
330
40
100
AcDbEntity
  8
0012363
  6
Continuous
 62
     7
100
AcDbSpline
210
0.0
220
0.0
230
1.0
 70
     8
 71
     3
 72
     8
 73
     4
 74
     0
 42
0.000000012241591
 43
0.0000000001
 12
1.0
 22
0.0
 32
0.0
 13
1.0
 23
0.0
 33
0.0
 40
0.0
 40
0.0
 40
0.0
 40
0.0
 40
1.0
 40
1.0
 40
1.0
 40
1.0
 10
139.8590948874325
 20
63.09458692860141
 30
0.0
 10
140.0261042051042
 20
63.30964019208191
 30
0.0
 10
140.1927777894909
 20
63.52497013763575
 30
0.0
 10
140.3590948874325
 20
63.7405773752357
 30
0.0
  0
LINE
  5
5F
330
40
100
AcDbEntity
  8
0012363
  6
Continuous
 62
     7
100
AcDbLine
 10
134.6066901516
 20
63.0945869286
 30
0.0
 11
139.8590948874
 21
63.0945869286
 31
0.0
  0
SPLINE
  5
60
330
40
100
AcDbEntity
  8
0012363
  6
Continuous
 62
     7
100
AcDbSpline
210
0.0
220
0.0
230
1.0
 70
     8
 71
     3
 72
     8
 73
     4
 74
     0
 42
0.0000000029389786
 43
0.0000000001
 12
1.0
 22
0.0
 32
0.0
 13
1.0
 23
0.0
 33
0.0
 40
0.0
 40
0.0
 40
0.0
 40
0.0
 40
1.0
 40
1.0
 40
1.0
 40
1.0
 10
133.2340948874325
 20
66.20793864928216
 30
0.0
 10
133.6846925547144
 20
65.16731213336213
 30
0.0
 10
134.142651210841
 20
64.12953936182278
 30
0.0
 10
134.6066901516241
 20
63.09458692860141
 30
0.0
  0
SPLINE
  5
61
330
40
100
AcDbEntity
  8
0012363
  6
Continuous
 62
     7
100
AcDbSpline
210
0.0
220
0.0
230
1.0
 70
     8
 71
     3
 72
     8
 73
     4
 74
     0
 42
0.0000000029389786
 43
0.0000000001
 12
1.0
 22
0.0
 32
0.0
 13
1.0
 23
0.0
 33
0.0
 40
0.0
 40
0.0
 40
0.0
 40
0.0
 40
1.0
 40
1.0
 40
1.0
 40
1.0
 10
128.1114996232408
 20
63.09458692860141
 30
0.0
 10
128.575538564024
 20
64.12953936182278
 30
0.0
 10
129.0334972201506
 20
65.16731213336213
 30
0.0
 10
129.4840948874325
 20
66.20793864928216
 30
0.0
  0
LINE
  5
62
330
40
100
AcDbEntity
  8
0012363
  6
Continuous
 62
     7
100
AcDbLine
 10
129.4840948874
 20
111.9243435593
 30
0.0
 11
128.1114996232
 21
111.9243435593
 31
0.0
  0
LINE
  5
63
330
40
100
AcDbEntity
  8
0012363
  6
Continuous
 62
     7
100
AcDbLine
 10
128.1114996232
 20
111.9243435593
 30
0.0
 11
128.1114996232
 21
151.9243435593
 31
0.0
  0
LINE
  5
64
330
40
100
AcDbEntity
  8
0012363
  6
Continuous
 62
     7
100
AcDbLine
 10
128.1114996232
 20
63.0945869286
 30
0.0
 11
128.1114996232
 21
51.9243435593
 31
0.0
  0
LINE
  5
65
330
40
100
AcDbEntity
  8
0012363
  6
Continuous
 62
     7
100
AcDbLine
 10
128.1114996232
 20
70.4243435593
 30
0.0
 11
128.1114996232
 21
91.9243435593
 31
0.0
  0
LINE
  5
66
330
40
100
AcDbEntity
  8
0012363
  6
Continuous
 62
     7
100
AcDbLine
 10
128.1114996232
 20
91.9243435593
 30
0.0
 11
129.4840948874
 21
91.9243435593
 31
0.0
  0
LINE
  5
67
330
40
100
AcDbEntity
  8
0012363
  6
Continuous
 62
     7
100
AcDbLine
 10
129.4840948874
 20
70.4243435593
 30
0.0
 11
128.1114996232
 21
70.4243435593
 31
0.0
  0
LINE
  5
68
330
40
100
AcDbEntity
  8
0012363
  6
Continuous
 62
     7
100
AcDbLine
 10
134.6066901516
 20
111.9243435593
 30
0.0
 11
133.2340948874
 21
111.9243435593
 31
0.0
  0
LINE
  5
69
330
40
100
AcDbEntity
  8
0012363
  6
Continuous
 62
     7
100
AcDbLine
 10
133.2340948874
 20
111.9243435593
 30
0.0
 11
133.2340948874
 21
149.5469388235
 31
0.0
  0
LINE
  5
6A
330
40
100
AcDbEntity
  8
0012363
  6
Continuous
 62
     7
100
AcDbLine
 10
133.2340948874
 20
66.2079386493
 30
0.0
 11
133.2340948874
 21
54.3017482951
 31
0.0
  0
LINE
  5
6B
330
40
100
AcDbEntity
  8
0012363
  6
Continuous
 62
     7
100
AcDbLine
 10
133.2340948874
 20
70.4243435593
 30
0.0
 11
133.2340948874
 21
91.9243435593
 31
0.0
  0
LINE
  5
6C
330
40
100
AcDbEntity
  8
0012363
  6
Continuous
 62
     7
100
AcDbLine
 10
133.2340948874
 20
91.9243435593
 30
0.0
 11
134.6066901516
 21
91.9243435593
 31
0.0
  0
LINE
  5
6D
330
40
100
AcDbEntity
  8
0012363
  6
Continuous
 62
     7
100
AcDbLine
 10
134.6066901516
 20
70.4243435593
 30
0.0
 11
133.2340948874
 21
70.4243435593
 31
0.0
  0
LINE
  5
6E
330
40
100
AcDbEntity
  8
0012363
  6
Continuous
 62
     7
100
AcDbLine
 10
139.8590948874
 20
111.9243435593
 30
0.0
 11
134.6066901516
 21
111.9243435593
 31
0.0
  0
LINE
  5
6F
330
40
100
AcDbEntity
  8
0012363
  6
Continuous
 62
     7
100
AcDbLine
 10
134.6066901516
 20
111.9243435593
 30
0.0
 11
134.6066901516
 21
151.9243435593
 31
0.0
  0
LINE
  5
70
330
40
100
AcDbEntity
  8
0012363
  6
Continuous
 62
     7
100
AcDbLine
 10
134.6066901516
 20
63.0945869286
 30
0.0
 11
134.6066901516
 21
51.9243435593
 31
0.0
  0
LINE
  5
71
330
40
100
AcDbEntity
  8
0012363
  6
Continuous
 62
     7
100
AcDbLine
 10
134.6066901516
 20
70.4243435593
 30
0.0
 11
134.6066901516
 21
91.9243435593
 31
0.0
  0
LINE
  5
72
330
40
100
AcDbEntity
  8
0012363
  6
Continuous
 62
     7
100
AcDbLine
 10
134.6066901516
 20
91.9243435593
 30
0.0
 11
139.8590948874
 21
91.9243435593
 31
0.0
  0
LINE
  5
73
330
40
100
AcDbEntity
  8
0012363
  6
Continuous
 62
     7
100
AcDbLine
 10
139.8590948874
 20
70.4243435593
 30
0.0
 11
134.6066901516
 21
70.4243435593
 31
0.0
  0
LINE
  5
74
330
40
100
AcDbEntity
  8
0012363
  6
Continuous
 62
     7
100
AcDbLine
 10
140.3590948874
 20
111.9243435593
 30
0.0
 11
139.8590948874
 21
111.9243435593
 31
0.0
  0
LINE
  5
75
330
40
100
AcDbEntity
  8
0012363
  6
Continuous
 62
     7
100
AcDbLine
 10
139.8590948874
 20
111.9243435593
 30
0.0
 11
139.8590948874
 21
151.9243435593
 31
0.0
  0
LINE
  5
76
330
40
100
AcDbEntity
  8
0012363
  6
Continuous
 62
     7
100
AcDbLine
 10
139.8590948874
 20
63.0945869286
 30
0.0
 11
139.8590948874
 21
51.9243435593
 31
0.0
  0
LINE
  5
77
330
40
100
AcDbEntity
  8
0012363
  6
Continuous
 62
     7
100
AcDbLine
 10
139.8590948874
 20
70.4243435593
 30
0.0
 11
139.8590948874
 21
91.9243435593
 31
0.0
  0
LINE
  5
78
330
40
100
AcDbEntity
  8
0012363
  6
Continuous
 62
     7
100
AcDbLine
 10
139.8590948874
 20
91.9243435593
 30
0.0
 11
140.3590948874
 21
91.9243435593
 31
0.0
  0
LINE
  5
79
330
40
100
AcDbEntity
  8
0012363
  6
Continuous
 62
     7
100
AcDbLine
 10
140.3590948874
 20
70.4243435593
 30
0.0
 11
139.8590948874
 21
70.4243435593
 31
0.0
  0
LINE
  5
7A
330
40
100
AcDbEntity
  8
0012363
  6
Continuous
 62
     7
100
AcDbLine
 10
128.1114996232
 20
111.9243435593
 30
0.0
 11
126.3590948874
 21
111.9243435593
 31
0.0
  0
ARC
  5
7B
330
40
100
AcDbEntity
  8
0012363
  6
Continuous
 62
     7
100
AcDbCircle
 10
126.3590948874
 20
101.9243435593
 30
0.0
 40
10.0
100
AcDbArc
 50
90.0
 51
270.0
  0
LINE
  5
7C
330
40
100
AcDbEntity
  8
0012363
  6
Continuous
 62
     7
100
AcDbLine
 10
126.3590948874
 20
91.9243435593
 30
0.0
 11
128.1114996232
 21
91.9243435593
 31
0.0
  0
LINE
  5
7D
330
40
100
AcDbEntity
  8
0012363
  6
Continuous
 62
     7
100
AcDbLine
 10
128.1114996232
 20
70.4243435593
 30
0.0
 11
125.9959927466
 21
70.4243435593
 31
0.0
  0
ARC
  5
7E
330
40
100
AcDbEntity
  8
0012363
  6
Continuous
 62
     7
100
AcDbCircle
 10
125.9959927466
 20
60.4243435593
 30
0.0
 40
10.00000000000001
100
AcDbArc
 50
90.0
 51
164.5127260012
  0
LINE
  5
7F
330
40
100
AcDbEntity
  8
0012363
  6
Continuous
 62
     7
100
AcDbLine
 10
116.3590948874
 20
63.0945869286
 30
0.0
 11
128.1114996232
 21
63.0945869286
 31
0.0
  0
ARC
  5
80
330
40
100
AcDbEntity
  8
0012363
  6
Continuous
 62
     7
100
AcDbCircle
 10
118.3590948866
 20
201.6831736047
 30
0.0
 40
50.00941078914368
100
AcDbArc
 50
264.2619131484
 51
275.7380864647
  0
LINE
  5
81
330
40
100
AcDbEntity
  8
0012363
  6
Continuous
 62
     7
100
AcDbLine
 10
111.8590948874
 20
51.9243435593
 30
0.0
 11
111.8590948874
 21
151.9243435593
 31
0.0
  0
LINE
  5
82
330
40
100
AcDbEntity
  8
0012363
  6
Continuous
 62
     7
100
AcDbLine
 10
140.3590948874
 20
70.4243435593
 30
0.0
 11
140.3590948874
 21
91.9243435593
 31
0.0
  0
LINE
  5
83
330
40
100
AcDbEntity
  8
0012363
  6
Continuous
 62
     7
100
AcDbLine
 10
140.3590948874
 20
111.9243435593
 30
0.0
 11
140.3590948874
 21
151.4243435593
 31
0.0
  0
LINE
  5
84
330
40
100
AcDbEntity
  8
0012363
  6
Continuous
 62
     7
100
AcDbLine
 10
140.3590948874
 20
63.7405773752
 30
0.0
 11
140.3590948874
 21
52.4243435593
 31
0.0
  0
LINE
  5
85
330
40
100
AcDbEntity
  8
0012363
  6
Continuous
 62
     7
100
AcDbLine
 10
109.6055050489
 20
64.1948435593
 30
0.0
 11
109.6055050489
 21
139.6538435593
 31
0.0
  0
LINE
  5
86
330
40
100
AcDbEntity
  8
0012363
  6
Continuous
 62
     7
100
AcDbLine
 10
111.3590948874
 20
52.4243435593
 30
0.0
 11
111.3590948874
 21
151.4243435593
 31
0.0
  0
LINE
  5
87
330
40
100
AcDbEntity
  8
0012363
  6
Continuous
 62
     7
100
AcDbLine
 10
129.4840948874
 20
111.9243435593
 30
0.0
 11
129.4840948874
 21
149.5469388235
 31
0.0
  0
LINE
  5
88
330
40
100
AcDbEntity
  8
0012363
  6
Continuous
 62
     7
100
AcDbLine
 10
129.4840948874
 20
66.2079386493
 30
0.0
 11
129.4840948874
 21
54.3017482951
 31
0.0
  0
LINE
  5
89
330
40
100
AcDbEntity
  8
0012363
  6
Continuous
 62
     7
100
AcDbLine
 10
129.4840948874
 20
70.4243435593
 30
0.0
 11
129.4840948874
 21
91.9243435593
 31
0.0
  0
LINE
  5
8A
330
40
100
AcDbEntity
  8
0012363
  6
Continuous
 62
     7
100
AcDbLine
 10
109.030505922
 20
139.807914111
 30
0.0
 11
109.030505922
 21
64.0407730076
 31
0.0
  0
SPLINE
  5
8B
330
40
100
AcDbEntity
  8
0012363
  6
Continuous
 62
     7
100
AcDbSpline
210
0.0
220
0.0
230
1.0
 70
     8
 71
     3
 72
    20
 73
    16
 74
     0
 42
0.0000000028588564
 43
0.0000000001
 12
1.0
 22
0.0
 32
0.0
 13
1.0
 23
0.0
 33
0.0
 40
0.0
 40
0.0
 40
0.0
 40
0.0
 40
0.2500000000000038
 40
0.2500000000000038
 40
0.3750000000000058
 40
0.3750000000000058
 40
0.4375000000000048
 40
0.4375000000000048
 40
0.5000000000000039
 40
0.5000000000000039
 40
0.6250000000000029
 40
0.6250000000000029
 40
0.7500000000000019
 40
0.7500000000000019
 40
1.0
 40
1.0
 40
1.0
 40
1.0
 10
62.85909488742026
 20
87.00428504235171
 30
0.0
 10
62.70377870296517
 20
86.76082828624298
 30
0.0
 10
62.5496286874304
 20
86.52804348238705
 30
0.0
 10
62.29833877156654
 20
86.23139852692245
 30
0.0
 10
62.21233032256384
 20
86.13775974145527
 30
0.0
 10
62.05801261334879
 20
86.06261612764628
 30
0.0
 10
61.99866762921771
 20
86.05125299967685
 30
0.0
 10
61.88296792909303
 20
86.09490234088729
 30
0.0
 10
61.82889702334774
 20
86.14927465532493
 30
0.0
 10
61.69693760324895
 20
86.33761117376899
 30
0.0
 10
61.63706339954149
 20
86.490206992898
 30
0.0
 10
61.53431599409548
 20
86.79318798971973
 30
0.0
 10
61.49360594721455
 20
86.947576635531
 30
0.0
 10
61.39435878109478
 20
87.41378284659928
 30
0.0
 10
61.35909488743246
 20
87.73210957689372
 30
0.0
 10
61.35909488743246
 20
88.04330275534707
 30
0.0
  0
ARC
  5
8C
330
40
100
AcDbEntity
  8
0012363
  6
Continuous
 62
     7
100
AcDbCircle
 10
63.4050881934
 20
87.8402889164
 30
0.0
 40
0.9985044654895177
100
AcDbArc
 50
236.851486352
 51
261.5997689438
  0
LINE
  5
8D
330
40
100
AcDbEntity
  8
0012363
  6
Continuous
 62
     7
100
AcDbLine
 10
61.3590948874
 20
88.0433027553
 30
0.0
 11
61.3590948874
 21
68.3268419988
 31
0.0
  0
LINE
  5
8E
330
40
100
AcDbEntity
  8
0012363
  6
Continuous
 62
     7
100
AcDbLine
 10
61.3590948874
 20
115.8053843633
 30
0.0
 11
61.3590948874
 21
135.5218451199
 31
0.0
  0
SPLINE
  5
8F
330
40
100
AcDbEntity
  8
0012363
  6
Continuous
 62
     7
100
AcDbSpline
210
0.0
220
0.0
230
1.0
 70
    11
 71
     3
 72
    28
 73
    24
 74
     0
 42
0.000000000221298
 43
0.0000000001
 12
1.0
 22
0.0
 32
0.0
 13
1.0
 23
0.0
 33
0.0
 40
0.0
 40
0.0
 40
0.0
 40
0.0
 40
0.125
 40
0.125
 40
0.25
 40
0.25
 40
0.3125
 40
0.3125
 40
0.375
 40
0.375
 40
0.4375
 40
0.4375
 40
0.5
 40
0.5
 40
0.625
 40
0.625
 40
0.75
 40
0.75
 40
0.875
 40
0.875
 40
0.9375
 40
0.9375
 40
1.0
 40
1.0
 40
1.0
 40
1.0
 10
91.02430875565689
 20
97.63058519101179
 30
0.0
 10
92.27266055734212
 20
96.23880773742736
 30
0.0
 10
94.06196528238127
 20
95.394533591959
 30
0.0
 10
97.73375355311245
 20
95.02346384002979
 30
0.0
 10
99.64885421091765
 20
95.49724805695779
 30
0.0
 10
101.9081146941735
 20
97.05213421796276
 30
0.0
 10
102.5743470900594
 20
97.72086249767338
 30
0.0
 10
103.5743580584967
 20
99.25566895026036
 30
0.0
 10
103.9189074993436
 20
100.1415928691971
 30
0.0
 10
104.1810256617855
 20
101.9746557807203
 30
0.0
 10
104.099404635722
 20
102.9251100227985
 30
0.0
 10
103.5287056339496
 20
104.6992677353252
 30
0.0
 10
103.0470415576621
 20
105.5116125739661
 30
0.0
 10
101.202942033974
 20
107.5639042442021
 30
0.0
 10
99.43377860406095
 20
108.4246954880579
 30
0.0
 10
95.75784359142366
 20
108.8361648081581
 30
0.0
 10
93.8406885687635
 20
108.3905868833802
 30
0.0
 10
90.7752649164901
 20
106.2919341801298
 30
0.0
 10
89.66330847468188
 20
104.6293225531767
 30
0.0
 10
89.2756339538798
 20
101.86165450128
 30
0.0
 10
89.35936673842356
 20
100.9132869067646
 30
0.0
 10
89.9210481899089
 20
99.14973577161092
 30
0.0
 10
90.40013285481426
 20
98.326473917804
 30
0.0
 10
91.02430875565689
 20
97.63058519101179
 30
0.0
  0
ARC
  5
90
330
40
100
AcDbEntity
  8
0012363
  6
Continuous
 62
     7
100
AcDbCircle
 10
54.8413675042
 20
15.4978298913
 30
0.0
 40
71.84948646202153
100
AcDbArc
 50
78.3426983036
 51
83.271800769
  0
LINE
  5
91
330
40
100
AcDbEntity
  8
0012363
  6
Continuous
 62
     7
100
AcDbLine
 10
71.3590948874
 20
89.5065166385
 30
0.0
 11
71.3590948874
 21
114.3421704802
 31
0.0
  0
ARC
  5
92
330
40
100
AcDbEntity
  8
0012363
  6
Continuous
 62
     7
100
AcDbCircle
 10
54.8413675042
 20
188.3508572273
 30
0.0
 40
71.84948646200142
100
AcDbArc
 50
276.728199231
 51
281.6573016964
  0
SPLINE
  5
93
330
40
100
AcDbEntity
  8
0012363
  6
Continuous
 62
     7
100
AcDbSpline
210
0.0
220
0.0
230
1.0
 70
     8
 71
     3
 72
    20
 73
    16
 74
     0
 42
0.0000000022415878
 43
0.0000000001
 12
1.0
 22
0.0
 32
0.0
 13
1.0
 23
0.0
 33
0.0
 40
0.0
 40
0.0
 40
0.0
 40
0.0
 40
0.0625000000000001
 40
0.0625000000000001
 40
0.1250000000000001
 40
0.1250000000000001
 40
0.2500000000000001
 40
0.2500000000000001
 40
0.3750000000000001
 40
0.3750000000000001
 40
0.5
 40
0.5
 40
0.75
 40
0.75
 40
1.0
 40
1.0
 40
1.0
 40
1.0
 10
69.35909488743249
 20
117.9833626259047
 30
0.0
 10
69.45786560507658
 20
118.0051517098806
 30
0.0
 10
69.56115732593736
 20
117.9947345520842
 30
0.0
 10
69.74567350331031
 20
117.9254230784974
 30
0.0
 10
69.82587199869855
 20
117.8721443166549
 30
0.0
 10
70.04828607780217
 20
117.6933195212992
 30
0.0
 10
70.16835916596484
 20
117.553755654415
 30
0.0
 10
70.3929177768777
 20
117.262418074924
 30
0.0
 10
70.49533189372073
 20
117.1084767475877
 30
0.0
 10
70.68314926743695
 20
116.7946419087615
 30
0.0
 10
70.76879892458058
 20
116.6339892719148
 30
0.0
 10
71.00302120330018
 20
116.1414452928408
 30
0.0
 10
71.12932696707622
 20
115.7991645789155
 30
0.0
 10
71.30879750695414
 20
115.0804168442006
 30
0.0
 10
71.35909488743248
 20
114.7147136426808
 30
0.0
 10
71.35909488743249
 20
114.3421704801662
 30
0.0
  0
SPLINE
  5
94
330
40
100
AcDbEntity
  8
0012363
  6
Continuous
 62
     7
100
AcDbSpline
210
0.0
220
0.0
230
1.0
 70
     8
 71
     3
 72
    14
 73
    10
 74
     0
 42
0.0000000022257299
 43
0.0000000001
 12
1.0
 22
0.0
 32
0.0
 13
1.0
 23
0.0
 33
0.0
 40
0.0
 40
0.0
 40
0.0
 40
0.0
 40
0.5000000000000001
 40
0.5000000000000001
 40
0.7499999999999992
 40
0.7499999999999992
 40
0.8749999999999997
 40
0.8749999999999997
 40
1.0
 40
1.0
 40
1.0
 40
1.0
 10
71.35909488743249
 20
89.50651663845234
 30
0.0
 10
71.35909488743249
 20
88.76088622847969
 30
0.0
 10
71.15863133799161
 20
88.03424334572841
 30
0.0
 10
70.69048340175722
 20
87.05012384232295
 30
0.0
 10
70.50642173650321
 20
86.73351715113849
 30
0.0
 10
70.16769224496836
 20
86.29407097752109
 30
0.0
 10
70.04548546734813
 20
86.15281042935027
 30
0.0
 10
69.75180263909672
 20
85.91729802826487
 30
0.0
 10
69.55573566082755
 20
85.82194501317957
 30
0.0
 10
69.35909488743218
 20
85.86532449271395
 30
0.0
  0
ARC
  5
95
330
40
100
AcDbEntity
  8
0012363
  6
Continuous
 62
     7
100
AcDbCircle
 10
63.4043398787
 20
116.0103708119
 30
0.0
 40
0.9964438019999106
100
AcDbArc
 50
98.3742343891
 51
123.1745103152
  0
SPLINE
  5
96
330
40
100
AcDbEntity
  8
0012363
  6
Continuous
 62
     7
100
AcDbSpline
210
0.0
220
0.0
230
1.0
 70
     8
 71
     3
 72
    20
 73
    16
 74
     0
 42
0.0000000028588564
 43
0.0000000001
 12
1.0
 22
0.0
 32
0.0
 13
1.0
 23
0.0
 33
0.0
 40
0.0
 40
0.0
 40
0.0
 40
0.0
 40
0.2500000000000125
 40
0.2500000000000125
 40
0.3750000000000179
 40
0.3750000000000179
 40
0.4375000000000185
 40
0.4375000000000185
 40
0.5000000000000191
 40
0.5000000000000191
 40
0.6250000000000147
 40
0.6250000000000147
 40
0.7500000000000101
 40
0.7500000000000101
 40
1.0
 40
1.0
 40
1.0
 40
1.0
 10
62.85909488742026
 20
116.8444020762668
 30
0.0
 10
62.70377870296517
 20
117.0878588323755
 30
0.0
 10
62.5496286874304
 20
117.3206436362315
 30
0.0
 10
62.29833877156651
 20
117.6172885916961
 30
0.0
 10
62.21233032256381
 20
117.7109273771633
 30
0.0
 10
62.05801261334876
 20
117.7860709909723
 30
0.0
 10
61.99866762921767
 20
117.7974341189417
 30
0.0
 10
61.88296792909299
 20
117.7537847777312
 30
0.0
 10
61.82889702334771
 20
117.6994124632936
 30
0.0
 10
61.69693760324893
 20
117.5110759448495
 30
0.0
 10
61.63706339954149
 20
117.3584801257205
 30
0.0
 10
61.53431599409549
 20
117.0554991288987
 30
0.0
 10
61.49360594721453
 20
116.9011104830875
 30
0.0
 10
61.39435878109479
 20
116.4349042720192
 30
0.0
 10
61.35909488743248
 20
116.1165775417247
 30
0.0
 10
61.35909488743246
 20
115.8053843632714
 30
0.0
  0
LINE
  5
97
330
40
100
AcDbEntity
  8
0012363
  6
Continuous
 62
     7
100
AcDbLine
 10
220.7090948874
 20
76.9243435593
 30
0.0
 11
220.7090948874
 21
126.9243435593
 31
0.0
  0
ARC
  5
98
330
40
100
AcDbEntity
  8
0012363
  6
Continuous
 62
     7
100
AcDbCircle
 10
166.3590948874
 20
101.9243435593
 30
0.0
 40
9.000000000000005
100
AcDbArc
 50
90.0
 51
270.0
  0
LINE
  5
99
330
40
100
AcDbEntity
  8
0012363
  6
Continuous
 62
     7
100
AcDbLine
 10
174.7590948874
 20
110.9243435593
 30
0.0
 11
166.3590948874
 21
110.9243435593
 31
0.0
  0
LINE
  5
9A
330
40
100
AcDbEntity
  8
0012363
  6
Continuous
 62
     7
100
AcDbLine
 10
166.3590948874
 20
92.9243435593
 30
0.0
 11
174.7590948874
 21
92.9243435593
 31
0.0
  0
LINE
  5
9B
330
40
100
AcDbEntity
  8
0012363
  6
Continuous
 62
     7
100
AcDbLine
 10
174.7590948874
 20
56.9243435593
 30
0.0
 11
174.7590948874
 21
91.9469679937
 31
0.0
  0
LINE
  5
9C
330
40
100
AcDbEntity
  8
0012363
  6
Continuous
 62
     7
100
AcDbLine
 10
174.7590948874
 20
146.9243435593
 30
0.0
 11
174.7590948874
 21
111.9017191249
 31
0.0
  0
LINE
  5
9D
330
40
100
AcDbEntity
  8
0012363
  6
Continuous
 62
     7
100
AcDbLine
 10
174.7590948874
 20
91.9469679937
 30
0.0
 11
166.3590948874
 21
91.9469679937
 31
0.0
  0
LINE
  5
9E
330
40
100
AcDbEntity
  8
0012363
  6
Continuous
 62
     7
100
AcDbLine
 10
166.3590948874
 20
111.9017191249
 30
0.0
 11
174.7590948874
 21
111.9017191249
 31
0.0
  0
ARC
  5
9F
330
40
100
AcDbEntity
  8
0012363
  6
Continuous
 62
     7
100
AcDbCircle
 10
166.41809422
 20
101.7749136508
 30
0.0
 40
9.828122748484157
100
AcDbArc
 50
193.3987508842
 51
269.6560448889
  0
LINE
  5
A0
330
40
100
AcDbEntity
  8
0012363
  6
Continuous
 62
     7
100
AcDbLine
 10
221.3590948874
 20
126.2743435593
 30
0.0
 11
221.3590948874
 21
77.5743435593
 31
0.0
  0
SPLINE
  5
A1
330
40
100
AcDbEntity
  8
0012363
  6
Continuous
 62
     7
100
AcDbSpline
210
0.0
220
0.0
230
1.0
 70
     8
 71
     3
 72
     8
 73
     4
 74
     0
 42
0.0000000005228034
 43
0.0000000001
 12
1.0
 22
0.0
 32
0.0
 13
1.0
 23
0.0
 33
0.0
 40
0.0
 40
0.0
 40
0.0
 40
0.0
 40
0.0332725214901236
 40
0.0332725214901236
 40
0.0332725214901236
 40
0.0332725214901236
 10
175.3251830929958
 20
111.4904317648726
 30
0.0
 10
175.3147235296147
 20
111.2785427879468
 30
0.0
 10
175.3045765953346
 20
111.0666440389955
 30
0.0
 10
175.2947469659296
 20
110.8547353718651
 30
0.0
  0
SPLINE
  5
A2
330
40
100
AcDbEntity
  8
0012363
  6
Continuous
 62
     7
100
AcDbSpline
210
0.0
220
0.0
230
1.0
 70
     8
 71
     3
 72
     8
 73
     4
 74
     0
 42
0.0000000005219527
 43
0.0000000001
 12
1.0
 22
0.0
 32
0.0
 13
1.0
 23
0.0
 33
0.0
 40
0.9668313266460897
 40
0.9668313266460897
 40
0.9668313266460897
 40
0.9668313266460897
 40
1.0
 40
1.0
 40
1.0
 40
1.0
 10
175.2947933359227
 20
92.99300055819597
 30
0.0
 10
175.3046083344329
 20
92.78139764994724
 30
0.0
 10
175.3147397925284
 20
92.56981487789976
 30
0.0
 10
175.3251830929958
 20
92.35825535374595
 30
0.0
  0
LINE
  5
A3
330
40
100
AcDbEntity
  8
0012363
  6
Continuous
 62
     7
100
AcDbLine
 10
175.3590948874
 20
92.3243435593
 30
0.0
 11
174.7590948874
 21
92.9243435593
 31
0.0
  0
LINE
  5
A4
330
40
100
AcDbEntity
  8
0012363
  6
Continuous
 62
     7
100
AcDbLine
 10
174.7590948874
 20
91.9469679937
 30
0.0
 11
174.7590948874
 21
92.9243435593
 31
0.0
  0
LINE
  5
A5
330
40
100
AcDbEntity
  8
0012363
  6
Continuous
 62
     7
100
AcDbLine
 10
175.3590948874
 20
92.0799996679
 30
0.0
 11
174.7590948874
 21
91.9469679937
 31
0.0
  0
LINE
  5
A6
330
40
100
AcDbEntity
  8
0012363
  6
Continuous
 62
     7
100
AcDbLine
 10
166.3590948874
 20
91.9469679937
 30
0.0
 11
166.3590948874
 21
92.9243435593
 31
0.0
  0
LINE
  5
A7
330
40
100
AcDbEntity
  8
0012363
  6
Continuous
 62
     7
100
AcDbLine
 10
166.3590948874
 20
111.9017191249
 30
0.0
 11
166.3590948874
 21
110.9243435593
 31
0.0
  0
LINE
  5
A8
330
40
100
AcDbEntity
  8
0012363
  6
Continuous
 62
     7
100
AcDbLine
 10
174.7590948874
 20
110.9243435593
 30
0.0
 11
175.3590948874
 21
111.5243435593
 31
0.0
  0
LINE
  5
A9
330
40
100
AcDbEntity
  8
0012363
  6
Continuous
 62
     7
100
AcDbLine
 10
174.7590948874
 20
111.9017191249
 30
0.0
 11
174.7590948874
 21
110.9243435593
 31
0.0
  0
LINE
  5
AA
330
40
100
AcDbEntity
  8
0012363
  6
Continuous
 62
     7
100
AcDbLine
 10
174.7590948874
 20
111.9017191249
 30
0.0
 11
175.3590948874
 21
111.7686874507
 31
0.0
  0
ARC
  5
AB
330
40
100
AcDbEntity
  8
0012363
  6
Continuous
 62
     7
100
AcDbCircle
 10
212.3603469141
 20
53.4554352584
 30
0.0
 40
24.28654987627559
100
AcDbArc
 50
75.0905340055
 51
94.8437326321
  0
LINE
  5
AC
330
40
100
AcDbEntity
  8
0012363
  6
Continuous
 62
     7
100
AcDbLine
 10
210.3100487107
 20
77.6550213603
 30
0.0
 11
199.2659428732
 21
77.6550213603
 31
0.0
  0
LINE
  5
AD
330
40
100
AcDbEntity
  8
0012363
  6
Continuous
 62
     7
100
AcDbLine
 10
175.3590948874
 20
92.0799996679
 30
0.0
 11
175.3590948874
 21
92.3243435593
 31
0.0
  0
LINE
  5
AE
330
40
100
AcDbEntity
  8
0012363
  6
Continuous
 62
     7
100
AcDbLine
 10
175.3590948874
 20
92.0799996679
 30
0.0
 11
175.3590948874
 21
57.5243435593
 31
0.0
  0
LINE
  5
AF
330
40
100
AcDbEntity
  8
0012363
  6
Continuous
 62
     7
100
AcDbLine
 10
175.3590948874
 20
111.5243435593
 30
0.0
 11
175.3590948874
 21
111.7686874507
 31
0.0
  0
LINE
  5
B0
330
40
100
AcDbEntity
  8
0012363
  6
Continuous
 62
     7
100
AcDbLine
 10
175.3590948874
 20
111.7686874507
 30
0.0
 11
175.3590948874
 21
146.3243435593
 31
0.0
  0
LINE
  5
B1
330
40
100
AcDbEntity
  8
0012363
  6
Continuous
 62
     7
100
AcDbLine
 10
156.3590948874
 20
57.4243435593
 30
0.0
 11
156.3590948874
 21
146.4243435593
 31
0.0
  0
ARC
  5
B2
330
40
100
AcDbEntity
  8
0012363
  6
Continuous
 62
     7
100
AcDbCircle
 10
166.4102850783
 20
102.0861703589
 30
0.0
 40
9.815682248985578
100
AcDbArc
 50
90.2988070632
 51
166.7162838931
  0
LINE
  5
B3
330
40
100
AcDbEntity
  8
0012363
  6
Continuous
 62
     7
100
AcDbLine
 10
156.8590948874
 20
56.9243437655
 30
0.0
 11
156.8590948874
 21
99.4870022715
 31
0.0
  0
LINE
  5
B4
330
40
100
AcDbEntity
  8
0012363
  6
Continuous
 62
     7
100
AcDbLine
 10
156.8590948874
 20
146.9243433532
 30
0.0
 11
156.8590948874
 21
104.3530825645
 31
0.0
  0
ARC
  5
B5
330
40
100
AcDbEntity
  8
0012363
  6
Continuous
 62
     7
100
AcDbCircle
 10
176.5669396505
 20
101.9205492827
 30
0.0
 40
19.85784320093674
100
AcDbArc
 50
172.9972705666
 51
187.0087550762
  0
ARC
  5
B6
330
40
100
AcDbEntity
  8
0012363
  6
Continuous
 62
     7
100
AcDbCircle
 10
132.7340948874
 20
148.4243435593
 30
0.0
 40
0.5000000000000004
100
AcDbArc
 50
270.0
 51
0.0
  0
LINE
  5
B7
330
40
100
AcDbEntity
  8
0012363
  6
Continuous
 62
     7
100
AcDbLine
 10
132.7340948874
 20
147.9243435593
 30
0.0
 11
129.9840948874
 21
147.9243435593
 31
0.0
  0
ARC
  5
B8
330
40
100
AcDbEntity
  8
0012363
  6
Continuous
 62
     7
100
AcDbCircle
 10
129.9840948874
 20
148.4243435593
 30
0.0
 40
0.5000000000000004
100
AcDbArc
 50
180.0
 51
270.0
  0
ARC
  5
B9
330
40
100
AcDbEntity
  8
0012363
  6
Continuous
 62
     7
100
AcDbCircle
 10
132.7340948874
 20
55.4243435593
 30
0.0
 40
0.5000000000000004
100
AcDbArc
 50
0.0
 51
90.0
  0
LINE
  5
BA
330
40
100
AcDbEntity
  8
0012363
  6
Continuous
 62
     7
100
AcDbLine
 10
129.9840948874
 20
55.9243435593
 30
0.0
 11
132.7340948874
 21
55.9243435593
 31
0.0
  0
ARC
  5
BB
330
40
100
AcDbEntity
  8
0012363
  6
Continuous
 62
     7
100
AcDbCircle
 10
129.9840948874
 20
55.4243435593
 30
0.0
 40
0.5000000000000004
100
AcDbArc
 50
90.0
 51
180.0
  0
LINE
  5
BC
330
40
100
AcDbEntity
  8
0012363
  6
Continuous
 62
     7
100
AcDbLine
 10
129.4840948874
 20
149.5469388235
 30
0.0
 11
128.1114996232
 21
151.9243435593
 31
0.0
  0
LINE
  5
BD
330
40
100
AcDbEntity
  8
0012363
  6
Continuous
 62
     7
100
AcDbLine
 10
128.1114996232
 20
51.9243435593
 30
0.0
 11
129.4840948874
 21
54.3017482951
 31
0.0
  0
LINE
  5
BE
330
40
100
AcDbEntity
  8
0012363
  6
Continuous
 62
     7
100
AcDbLine
 10
134.6066901516
 20
151.9243435593
 30
0.0
 11
133.2340948874
 21
149.5469388235
 31
0.0
  0
LINE
  5
BF
330
40
100
AcDbEntity
  8
0012363
  6
Continuous
 62
     7
100
AcDbLine
 10
133.2340948874
 20
54.3017482951
 30
0.0
 11
134.6066901516
 21
51.9243435593
 31
0.0
  0
LINE
  5
C0
330
40
100
AcDbEntity
  8
0012363
  6
Continuous
 62
     7
100
AcDbLine
 10
139.8590948874
 20
151.9243435593
 30
0.0
 11
134.6066901516
 21
151.9243435593
 31
0.0
  0
LINE
  5
C1
330
40
100
AcDbEntity
  8
0012363
  6
Continuous
 62
     7
100
AcDbLine
 10
134.6066901516
 20
51.9243435593
 30
0.0
 11
139.8590948874
 21
51.9243435593
 31
0.0
  0
LINE
  5
C2
330
40
100
AcDbEntity
  8
0012363
  6
Continuous
 62
     7
100
AcDbLine
 10
140.3590948874
 20
151.4243435593
 30
0.0
 11
139.8590948874
 21
151.9243435593
 31
0.0
  0
LINE
  5
C3
330
40
100
AcDbEntity
  8
0012363
  6
Continuous
 62
     7
100
AcDbLine
 10
139.8590948874
 20
51.9243435593
 30
0.0
 11
140.3590948874
 21
52.4243435593
 31
0.0
  0
LINE
  5
C4
330
40
100
AcDbEntity
  8
0012363
  6
Continuous
 62
     7
100
AcDbLine
 10
109.030505922
 20
64.0407730076
 30
0.0
 11
109.6055050489
 21
64.1948435593
 31
0.0
  0
LINE
  5
C5
330
40
100
AcDbEntity
  8
0012363
  6
Continuous
 62
     7
100
AcDbLine
 10
109.6055050489
 20
139.6538435593
 30
0.0
 11
109.030505922
 21
139.807914111
 31
0.0
  0
LINE
  5
C6
330
40
100
AcDbEntity
  8
0012363
  6
Continuous
 62
     7
100
AcDbLine
 10
109.6055050489
 20
64.1948435593
 30
0.0
 11
110.4590948874
 21
64.1948435593
 31
0.0
  0
LINE
  5
C7
330
40
100
AcDbEntity
  8
0012363
  6
Continuous
 62
     7
100
AcDbLine
 10
110.4590948874
 20
139.6538435593
 30
0.0
 11
109.6055050489
 21
139.6538435593
 31
0.0
  0
ARC
  5
C8
330
40
100
AcDbEntity
  8
0012363
  6
Continuous
 62
     7
100
AcDbCircle
 10
110.4590948874
 20
63.1948435593
 30
0.0
 40
1.000000000000001
100
AcDbArc
 50
25.8419327632
 51
90.0
  0
ARC
  5
C9
330
40
100
AcDbEntity
  8
0012363
  6
Continuous
 62
     7
100
AcDbCircle
 10
110.4590948874
 20
140.6538435593
 30
0.0
 40
1.0
100
AcDbArc
 50
270.0
 51
334.1580672368
  0
LINE
  5
CA
330
40
100
AcDbEntity
  8
0012363
  6
Continuous
 62
     7
100
AcDbLine
 10
111.8590948874
 20
151.9243435593
 30
0.0
 11
111.3590948874
 21
151.4243435593
 31
0.0
  0
LINE
  5
CB
330
40
100
AcDbEntity
  8
0012363
  6
Continuous
 62
     7
100
AcDbLine
 10
111.3590948874
 20
52.4243435593
 30
0.0
 11
111.8590948874
 21
51.9243435593
 31
0.0
  0
LINE
  5
CC
330
40
100
AcDbEntity
  8
0012363
  6
Continuous
 62
     7
100
AcDbLine
 10
111.8590948874
 20
51.9243435593
 30
0.0
 11
128.1114996232
 21
51.9243435593
 31
0.0
  0
LINE
  5
CD
330
40
100
AcDbEntity
  8
0012363
  6
Continuous
 62
     7
100
AcDbLine
 10
113.3590948874
 20
151.9243435593
 30
0.0
 11
111.8590948874
 21
151.9243435593
 31
0.0
  0
LINE
  5
CE
330
40
100
AcDbEntity
  8
0012363
  6
Continuous
 62
     7
100
AcDbLine
 10
128.1114996232
 20
151.9243435593
 30
0.0
 11
123.3437693136
 21
151.9243435593
 31
0.0
  0
ARC
  5
CF
330
40
100
AcDbEntity
  8
0012363
  6
Continuous
 62
     7
100
AcDbCircle
 10
63.3590948874
 20
68.3268419988
 30
0.0
 40
2.000000000000002
100
AcDbArc
 50
180.0
 51
267.1375947739
  0
ARC
  5
D0
330
40
100
AcDbEntity
  8
0012363
  6
Continuous
 62
     7
100
AcDbCircle
 10
63.3590948874
 20
135.5218451199
 30
0.0
 40
2.0
100
AcDbArc
 50
92.8624052261
 51
180.0
  0
LINE
  5
D1
330
40
100
AcDbEntity
  8
0012363
  6
Continuous
 62
     7
100
AcDbLine
 10
109.030505922
 20
139.807914111
 30
0.0
 11
63.2592196535
 21
137.5193497976
 31
0.0
  0
LINE
  5
D2
330
40
100
AcDbEntity
  8
0012363
  6
Continuous
 62
     7
100
AcDbLine
 10
63.2592196535
 20
66.329337321
 30
0.0
 11
109.030505922
 21
64.0407730076
 31
0.0
  0
LINE
  5
D3
330
40
100
AcDbEntity
  8
0012363
  6
Continuous
 62
     7
100
AcDbLine
 10
174.7590948874
 20
56.9243435593
 30
0.0
 11
175.3590948874
 21
57.5243435593
 31
0.0
  0
LINE
  5
D4
330
40
100
AcDbEntity
  8
0012363
  6
Continuous
 62
     7
100
AcDbLine
 10
175.3590948874
 20
146.3243435593
 30
0.0
 11
174.7590948874
 21
146.9243435593
 31
0.0
  0
LINE
  5
D5
330
40
100
AcDbEntity
  8
0012363
  6
Continuous
 62
     7
100
AcDbLine
 10
156.8590948874
 20
56.9243435593
 30
0.0
 11
174.7590948874
 21
56.9243435593
 31
0.0
  0
LINE
  5
D6
330
40
100
AcDbEntity
  8
0012363
  6
Continuous
 62
     7
100
AcDbLine
 10
218.6013081382
 20
76.9243435593
 30
0.0
 11
220.7090948874
 21
76.9243435593
 31
0.0
  0
LINE
  5
D7
330
40
100
AcDbEntity
  8
0012363
  6
Continuous
 62
     7
100
AcDbLine
 10
220.7090948874
 20
126.9243435593
 30
0.0
 11
199.94485502
 21
126.9243435593
 31
0.0
  0
LINE
  5
D8
330
40
100
AcDbEntity
  8
0012363
  6
Continuous
 62
     7
100
AcDbLine
 10
220.7090948874
 20
76.9243435593
 30
0.0
 11
221.3590948874
 21
77.5743435593
 31
0.0
  0
LINE
  5
D9
330
40
100
AcDbEntity
  8
0012363
  6
Continuous
 62
     7
100
AcDbLine
 10
221.3590948874
 20
126.2743435593
 30
0.0
 11
220.7090948874
 21
126.9243435593
 31
0.0
  0
LINE
  5
DA
330
40
100
AcDbEntity
  8
0012363
  6
Continuous
 62
     7
100
AcDbLine
 10
141.1590948874
 20
58.9243435593
 30
0.0
 11
155.5590948874
 21
58.9243435593
 31
0.0
  0
LINE
  5
DB
330
40
100
AcDbEntity
  8
0012363
  6
Continuous
 62
     7
100
AcDbLine
 10
155.5590948874
 20
144.9243435593
 30
0.0
 11
141.1590948874
 21
144.9243435593
 31
0.0
  0
ARC
  5
DC
330
40
100
AcDbEntity
  8
0012363
  6
Continuous
 62
     7
100
AcDbCircle
 10
141.1590948874
 20
145.7243435593
 30
0.0
 40
0.800000000000002
100
AcDbArc
 50
180.0
 51
270.0
  0
ARC
  5
DD
330
40
100
AcDbEntity
  8
0012363
  6
Continuous
 62
     7
100
AcDbCircle
 10
141.1590948874
 20
58.1243435593
 30
0.0
 40
0.7999999999999986
100
AcDbArc
 50
90.0
 51
180.0
  0
ARC
  5
DE
330
40
100
AcDbEntity
  8
0012363
  6
Continuous
 62
     7
100
AcDbCircle
 10
155.5590948874
 20
58.1243435593
 30
0.0
 40
0.800000000000002
100
AcDbArc
 50
0.0
 51
90.0
  0
ARC
  5
DF
330
40
100
AcDbEntity
  8
0012363
  6
Continuous
 62
     7
100
AcDbCircle
 10
155.5590948874
 20
145.7243435593
 30
0.0
 40
0.800000000000002
100
AcDbArc
 50
270.0
 51
0.0
  0
LINE
  5
E0
330
40
100
AcDbEntity
  8
0012363
  6
Continuous
 62
     7
100
AcDbLine
 10
174.7590948874
 20
146.9243435593
 30
0.0
 11
156.8590948874
 21
146.9243435593
 31
0.0
  0
LINE
  5
E1
330
40
100
AcDbEntity
  8
0012363
  6
Continuous
 62
     7
100
AcDbLine
 10
156.8590948874
 20
146.9243435593
 30
0.0
 11
156.3590948874
 21
146.4243435593
 31
0.0
  0
LINE
  5
E2
330
40
100
AcDbEntity
  8
0012363
  6
Continuous
 62
     7
100
AcDbLine
 10
156.3590948874
 20
57.4243435593
 30
0.0
 11
156.8590948874
 21
56.9243435593
 31
0.0
  0
LINE
  5
E3
330
40
100
AcDbEntity
  8
0012363
  6
Continuous
 62
     7
100
AcDbLine
 10
200.3590948874
 20
144.7902974155
 30
0.0
 11
200.3590948874
 21
127.3701683642
 31
0.0
  0
LINE
  5
E4
330
40
100
AcDbEntity
  8
0012363
  6
Continuous
 62
     7
100
AcDbLine
 10
200.3590948874
 20
144.7902974155
 30
0.0
 11
200.3590948874
 21
145.4243435593
 31
0.0
  0
LINE
  5
E5
330
40
100
AcDbEntity
  8
0012363
  6
Continuous
 62
     7
100
AcDbLine
 10
198.8590948874
 20
146.3171852675
 30
0.0
 11
198.8590948874
 21
146.9243435593
 31
0.0
  0
LINE
  5
E6
330
40
100
AcDbEntity
  8
0012363
  6
Continuous
 62
     7
100
AcDbLine
 10
198.8590948874
 20
57.5315018511
 30
0.0
 11
198.8590948874
 21
56.9243435593
 31
0.0
  0
LINE
  5
E7
330
40
100
AcDbEntity
  8
0012363
  6
Continuous
 62
     7
100
AcDbLine
 10
189.8590948874
 20
146.3171852675
 30
0.0
 11
198.8590948874
 21
146.3171852675
 31
0.0
  0
LINE
  5
E8
330
40
100
AcDbEntity
  8
0012363
  6
Continuous
 62
     7
100
AcDbLine
 10
198.8590948874
 20
57.5315018511
 30
0.0
 11
189.8590948874
 21
57.5315018511
 31
0.0
  0
LINE
  5
E9
330
40
100
AcDbEntity
  8
0012363
  6
Continuous
 62
     7
100
AcDbLine
 10
189.8590948874
 20
57.5315018511
 30
0.0
 11
189.8590948874
 21
146.3171852675
 31
0.0
  0
LINE
  5
EA
330
40
100
AcDbEntity
  8
0012363
  6
Continuous
 62
     7
100
AcDbLine
 10
167.8590948874
 20
94.5571456477
 30
0.0
 11
176.8590948874
 21
94.5571456477
 31
0.0
  0
LINE
  5
EB
330
40
100
AcDbEntity
  8
0012363
  6
Continuous
 62
     7
100
AcDbLine
 10
176.8590948874
 20
56.9243435593
 30
0.0
 11
176.8590948874
 21
94.5571456477
 31
0.0
  0
LINE
  5
EC
330
40
100
AcDbEntity
  8
0012363
  6
Continuous
 62
     7
100
AcDbLine
 10
167.8590948874
 20
109.291541471
 30
0.0
 11
167.8590948874
 21
94.5571456477
 31
0.0
  0
LINE
  5
ED
330
40
100
AcDbEntity
  8
0012363
  6
Continuous
 62
     7
100
AcDbLine
 10
176.8590948874
 20
109.291541471
 30
0.0
 11
167.8590948874
 21
109.291541471
 31
0.0
  0
LINE
  5
EE
330
40
100
AcDbEntity
  8
0012363
  6
Continuous
 62
     7
100
AcDbLine
 10
176.8590948874
 20
109.291541471
 30
0.0
 11
176.8590948874
 21
146.9243435593
 31
0.0
  0
LINE
  5
EF
330
40
100
AcDbEntity
  8
0012363
  6
Continuous
 62
     7
100
AcDbLine
 10
198.8590948874
 20
125.7557964509
 30
0.0
 11
191.3590948874
 21
125.7557964509
 31
0.0
  0
LINE
  5
F0
330
40
100
AcDbEntity
  8
0012363
  6
Continuous
 62
     7
100
AcDbLine
 10
191.3590948874
 20
78.0928906677
 30
0.0
 11
198.8590948874
 21
78.0928906677
 31
0.0
  0
LINE
  5
F1
330
40
100
AcDbEntity
  8
0012363
  6
Continuous
 62
     7
100
AcDbLine
 10
191.3590948874
 20
126.7412016727
 30
0.0
 11
198.8590948874
 21
126.7412016727
 31
0.0
  0
LINE
  5
F2
330
40
100
AcDbEntity
  8
0012363
  6
Continuous
 62
     7
100
AcDbLine
 10
198.8590948874
 20
126.7412016727
 30
0.0
 11
198.8590948874
 21
144.5090435214
 31
0.0
  0
LINE
  5
F3
330
40
100
AcDbEntity
  8
0012363
  6
Continuous
 62
     7
100
AcDbLine
 10
198.8590948874
 20
144.5090435214
 30
0.0
 11
191.3543058308
 21
144.5090435214
 31
0.0
  0
LINE
  5
F4
330
40
100
AcDbEntity
  8
0012363
  6
Continuous
 62
     7
100
AcDbLine
 10
198.8590948874
 20
59.3396435972
 30
0.0
 11
198.8590948874
 21
77.1074854459
 31
0.0
  0
LINE
  5
F5
330
40
100
AcDbEntity
  8
0012363
  6
Continuous
 62
     7
100
AcDbLine
 10
198.8590948874
 20
77.1074854459
 30
0.0
 11
191.3590948874
 21
77.1074854459
 31
0.0
  0
LINE
  5
F6
330
40
100
AcDbEntity
  8
0012363
  6
Continuous
 62
     7
100
AcDbLine
 10
191.3543058308
 20
59.3396435972
 30
0.0
 11
198.8590948874
 21
59.3396435972
 31
0.0
  0
LINE
  5
F7
330
40
100
AcDbEntity
  8
0012363
  6
Continuous
 62
     7
100
AcDbLine
 10
191.3590948874
 20
144.5041509802
 30
0.0
 11
191.3590948874
 21
59.3445361384
 31
0.0
  0
LINE
  5
F8
330
40
100
AcDbEntity
  8
0012363
  6
Continuous
 62
     7
100
AcDbLine
 10
175.3638839441
 20
93.0243435593
 30
0.0
 11
167.8590948874
 21
93.0243435593
 31
0.0
  0
LINE
  5
F9
330
40
100
AcDbEntity
  8
0012363
  6
Continuous
 62
     7
100
AcDbLine
 10
166.3590948874
 20
94.5243435593
 30
0.0
 11
166.3590948874
 21
109.3243435593
 31
0.0
  0
LINE
  5
FA
330
40
100
AcDbEntity
  8
0012363
  6
Continuous
 62
     7
100
AcDbLine
 10
175.3590948874
 20
92.3243435593
 30
0.0
 11
175.3590948874
 21
93.0243435593
 31
0.0
  0
LINE
  5
FB
330
40
100
AcDbEntity
  8
0012363
  6
Continuous
 62
     7
100
AcDbLine
 10
167.8590948874
 20
110.8243435593
 30
0.0
 11
175.3638839441
 21
110.8243435593
 31
0.0
  0
LINE
  5
FC
330
40
100
AcDbEntity
  8
0012363
  6
Continuous
 62
     7
100
AcDbLine
 10
175.3590948874
 20
111.5243435593
 30
0.0
 11
175.3590948874
 21
110.8243435593
 31
0.0
  0
LINE
  5
FD
330
40
100
AcDbEntity
  8
0012363
  6
Continuous
 62
     7
100
AcDbLine
 10
200.3590948874
 20
58.4243435593
 30
0.0
 11
200.3590948874
 21
59.0583897031
 31
0.0
  0
LINE
  5
FE
330
40
100
AcDbEntity
  8
0012363
  6
Continuous
 62
     7
100
AcDbLine
 10
200.3590948874
 20
76.4785187544
 30
0.0
 11
200.3590948874
 21
59.0583897031
 31
0.0
  0
LINE
  5
FF
330
40
100
AcDbEntity
  8
0012363
  6
Continuous
 62
     7
100
AcDbLine
 10
191.3543058308
 20
144.5090435214
 30
0.0
 11
191.3590948874
 21
144.5041509802
 31
0.0
  0
LINE
  5
100
330
40
100
AcDbEntity
  8
0012363
  6
Continuous
 62
     7
100
AcDbLine
 10
191.3590948874
 20
59.3445361384
 30
0.0
 11
191.3543058308
 21
59.3396435972
 31
0.0
  0
LINE
  5
101
330
40
100
AcDbEntity
  8
0012363
  6
Continuous
 62
     7
100
AcDbLine
 10
200.3590948874
 20
59.0583897031
 30
0.0
 11
198.8590948874
 21
59.3396435972
 31
0.0
  0
LINE
  5
102
330
40
100
AcDbEntity
  8
0012363
  6
Continuous
 62
     7
100
AcDbLine
 10
198.8590948874
 20
77.1074854459
 30
0.0
 11
200.3590948874
 21
76.4785187544
 31
0.0
  0
LINE
  5
103
330
40
100
AcDbEntity
  8
0012363
  6
Continuous
 62
     7
100
AcDbLine
 10
198.8590948874
 20
57.5315018511
 30
0.0
 11
198.8590948874
 21
59.3396435972
 31
0.0
  0
LINE
  5
104
330
40
100
AcDbEntity
  8
0012363
  6
Continuous
 62
     7
100
AcDbLine
 10
200.3590948874
 20
59.0583897031
 30
0.0
 11
198.8590948874
 21
57.5315018511
 31
0.0
  0
LINE
  5
105
330
40
100
AcDbEntity
  8
0012363
  6
Continuous
 62
     7
100
AcDbLine
 10
198.8590948874
 20
78.0928906677
 30
0.0
 11
200.3590948874
 21
76.4785187544
 31
0.0
  0
LINE
  5
106
330
40
100
AcDbEntity
  8
0012363
  6
Continuous
 62
     7
100
AcDbLine
 10
198.8590948874
 20
77.1074854459
 30
0.0
 11
198.8590948874
 21
78.0928906677
 31
0.0
  0
LINE
  5
107
330
40
100
AcDbEntity
  8
0012363
  6
Continuous
 62
     7
100
AcDbLine
 10
189.8590948874
 20
57.5315018511
 30
0.0
 11
191.3543058308
 21
59.3396435972
 31
0.0
  0
LINE
  5
108
330
40
100
AcDbEntity
  8
0012363
  6
Continuous
 62
     7
100
AcDbLine
 10
189.8590948874
 20
146.3171852675
 30
0.0
 11
191.3543058308
 21
144.5090435214
 31
0.0
  0
LINE
  5
109
330
40
100
AcDbEntity
  8
0012363
  6
Continuous
 62
     7
100
AcDbLine
 10
198.8590948874
 20
144.5090435214
 30
0.0
 11
200.3590948874
 21
144.7902974155
 31
0.0
  0
LINE
  5
10A
330
40
100
AcDbEntity
  8
0012363
  6
Continuous
 62
     7
100
AcDbLine
 10
198.8590948874
 20
146.3171852675
 30
0.0
 11
198.8590948874
 21
144.5090435214
 31
0.0
  0
LINE
  5
10B
330
40
100
AcDbEntity
  8
0012363
  6
Continuous
 62
     7
100
AcDbLine
 10
198.8590948874
 20
126.7412016727
 30
0.0
 11
198.8590948874
 21
125.7557964509
 31
0.0
  0
LINE
  5
10C
330
40
100
AcDbEntity
  8
0012363
  6
Continuous
 62
     7
100
AcDbLine
 10
200.3590948874
 20
127.3701683642
 30
0.0
 11
198.8590948874
 21
126.7412016727
 31
0.0
  0
LINE
  5
10D
330
40
100
AcDbEntity
  8
0012363
  6
Continuous
 62
     7
100
AcDbLine
 10
198.8590948874
 20
146.3171852675
 30
0.0
 11
200.3590948874
 21
144.7902974155
 31
0.0
  0
LINE
  5
10E
330
40
100
AcDbEntity
  8
0012363
  6
Continuous
 62
     7
100
AcDbLine
 10
200.3590948874
 20
127.3701683642
 30
0.0
 11
198.8590948874
 21
125.7557964509
 31
0.0
  0
LINE
  5
10F
330
40
100
AcDbEntity
  8
0012363
  6
Continuous
 62
     7
100
AcDbLine
 10
167.8590948874
 20
110.8243435593
 30
0.0
 11
166.3590948874
 21
109.3243435593
 31
0.0
  0
LINE
  5
110
330
40
100
AcDbEntity
  8
0012363
  6
Continuous
 62
     7
100
AcDbLine
 10
167.8590948874
 20
109.291541471
 30
0.0
 11
166.3590948874
 21
109.3243435593
 31
0.0
  0
LINE
  5
111
330
40
100
AcDbEntity
  8
0012363
  6
Continuous
 62
     7
100
AcDbLine
 10
167.8590948874
 20
110.8243435593
 30
0.0
 11
167.8590948874
 21
109.291541471
 31
0.0
  0
LINE
  5
112
330
40
100
AcDbEntity
  8
0012363
  6
Continuous
 62
     7
100
AcDbLine
 10
166.3590948874
 20
94.5243435593
 30
0.0
 11
167.8590948874
 21
93.0243435593
 31
0.0
  0
LINE
  5
113
330
40
100
AcDbEntity
  8
0012363
  6
Continuous
 62
     7
100
AcDbLine
 10
167.8590948874
 20
94.5571456477
 30
0.0
 11
166.3590948874
 21
94.5243435593
 31
0.0
  0
LINE
  5
114
330
40
100
AcDbEntity
  8
0012363
  6
Continuous
 62
     7
100
AcDbLine
 10
175.3638839441
 20
110.8243435593
 30
0.0
 11
176.8590948874
 21
109.291541471
 31
0.0
  0
LINE
  5
115
330
40
100
AcDbEntity
  8
0012363
  6
Continuous
 62
     7
100
AcDbLine
 10
167.8590948874
 20
94.5571456477
 30
0.0
 11
167.8590948874
 21
93.0243435593
 31
0.0
  0
LINE
  5
116
330
40
100
AcDbEntity
  8
0012363
  6
Continuous
 62
     7
100
AcDbLine
 10
176.8590948874
 20
94.5571456477
 30
0.0
 11
175.3638839441
 21
93.0243435593
 31
0.0
  0
LINE
  5
117
330
40
100
AcDbEntity
  8
0012363
  6
Continuous
 62
     7
100
AcDbLine
 10
176.8590948874
 20
56.9243435593
 30
0.0
 11
198.8590948874
 21
56.9243435593
 31
0.0
  0
LINE
  5
118
330
40
100
AcDbEntity
  8
0012363
  6
Continuous
 62
     7
100
AcDbLine
 10
198.8590948874
 20
146.9243435593
 30
0.0
 11
176.8590948874
 21
146.9243435593
 31
0.0
  0
LINE
  5
119
330
40
100
AcDbEntity
  8
0012363
  6
Continuous
 62
     7
100
AcDbLine
 10
198.8590948874
 20
56.9243435593
 30
0.0
 11
200.3590948874
 21
58.4243435593
 31
0.0
  0
LINE
  5
11A
330
40
100
AcDbEntity
  8
0012363
  6
Continuous
 62
     7
100
AcDbLine
 10
200.3590948874
 20
145.4243435593
 30
0.0
 11
198.8590948874
 21
146.9243435593
 31
0.0
  0
LINE
  5
11B
330
40
100
AcDbEntity
  8
0012363
  6
Continuous
 62
     7
100
AcDbLine
 10
176.8590948874
 20
146.9243435593
 30
0.0
 11
175.3590948874
 21
145.4243435593
 31
0.0
  0
LINE
  5
11C
330
40
100
AcDbEntity
  8
0012363
  6
Continuous
 62
     7
100
AcDbLine
 10
175.3590948874
 20
58.4243435593
 30
0.0
 11
176.8590948874
 21
56.9243435593
 31
0.0
  0
LINE
  5
11D
330
40
100
AcDbEntity
  8
0012363
  6
Continuous
 62
     7
100
AcDbLine
 10
229.3590948874
 20
125.5516582607
 30
0.0
 11
229.3590948874
 21
128.4243435593
 31
0.0
  0
LINE
  5
11E
330
40
100
AcDbEntity
  8
0012363
  6
Continuous
 62
     7
100
AcDbLine
 10
241.3590948874
 20
128.4243435593
 30
0.0
 11
241.3590948874
 21
125.5516582607
 31
0.0
  0
LINE
  5
11F
330
40
100
AcDbEntity
  8
0012363
  6
Continuous
 62
     7
100
AcDbLine
 10
241.3590948874
 20
113.9243435593
 30
0.0
 11
229.3590948874
 21
113.9243435593
 31
0.0
  0
LINE
  5
120
330
40
100
AcDbEntity
  8
0012363
  6
Continuous
 62
     7
100
AcDbLine
 10
229.3590948874
 20
125.5516582607
 30
0.0
 11
241.3590948874
 21
125.5516582607
 31
0.0
  0
LINE
  5
121
330
40
100
AcDbEntity
  8
0012363
  6
Continuous
 62
     7
100
AcDbLine
 10
229.3590948874
 20
75.4243435593
 30
0.0
 11
229.3590948874
 21
78.2970288579
 31
0.0
  0
LINE
  5
122
330
40
100
AcDbEntity
  8
0012363
  6
Continuous
 62
     7
100
AcDbLine
 10
241.3590948874
 20
75.4243435593
 30
0.0
 11
241.3590948874
 21
78.2970288579
 31
0.0
  0
LINE
  5
123
330
40
100
AcDbEntity
  8
0012363
  6
Continuous
 62
     7
100
AcDbLine
 10
229.3590948874
 20
89.9243435593
 30
0.0
 11
229.3590948874
 21
113.9243435593
 31
0.0
  0
LINE
  5
124
330
40
100
AcDbEntity
  8
0012363
  6
Continuous
 62
     7
100
AcDbLine
 10
229.3590948874
 20
78.2970288579
 30
0.0
 11
229.3590948874
 21
82.9243435593
 31
0.0
  0
LINE
  5
125
330
40
100
AcDbEntity
  8
0012363
  6
Continuous
 62
     7
100
AcDbLine
 10
241.3590948874
 20
89.9243435593
 30
0.0
 11
241.3590948874
 21
113.9243435593
 31
0.0
  0
LINE
  5
126
330
40
100
AcDbEntity
  8
0012363
  6
Continuous
 62
     7
100
AcDbLine
 10
241.3590948874
 20
78.2970288579
 30
0.0
 11
229.3590948874
 21
78.2970288579
 31
0.0
  0
LINE
  5
127
330
40
100
AcDbEntity
  8
0012363
  6
Continuous
 62
     7
100
AcDbLine
 10
229.3590948874
 20
89.9243435593
 30
0.0
 11
241.3590948874
 21
89.9243435593
 31
0.0
  0
LINE
  5
128
330
40
100
AcDbEntity
  8
0012363
  6
Continuous
 62
     7
100
AcDbLine
 10
241.3590948874
 20
78.2970288579
 30
0.0
 11
241.3590948874
 21
82.9243435593
 31
0.0
  0
LINE
  5
129
330
40
100
AcDbEntity
  8
0012363
  6
Continuous
 62
     7
100
AcDbLine
 10
229.3590948874
 20
120.9243435593
 30
0.0
 11
229.3590948874
 21
125.5516582607
 31
0.0
  0
LINE
  5
12A
330
40
100
AcDbEntity
  8
0012363
  6
Continuous
 62
     7
100
AcDbLine
 10
241.3590948874
 20
120.9243435593
 30
0.0
 11
241.3590948874
 21
125.5516582607
 31
0.0
  0
LINE
  5
12B
330
40
100
AcDbEntity
  8
0012363
  6
Continuous
 62
     7
100
AcDbLine
 10
241.3590948874
 20
120.9243435593
 30
0.0
 11
241.3590948874
 21
113.9243435593
 31
0.0
  0
LINE
  5
12C
330
40
100
AcDbEntity
  8
0012363
  6
Continuous
 62
     7
100
AcDbLine
 10
229.3590948874
 20
113.9243435593
 30
0.0
 11
229.3590948874
 21
120.9243435593
 31
0.0
  0
LINE
  5
12D
330
40
100
AcDbEntity
  8
0012363
  6
Continuous
 62
     7
100
AcDbLine
 10
241.3590948874
 20
89.9243435593
 30
0.0
 11
241.3590948874
 21
82.9243435593
 31
0.0
  0
LINE
  5
12E
330
40
100
AcDbEntity
  8
0012363
  6
Continuous
 62
     7
100
AcDbLine
 10
229.3590948874
 20
82.9243435593
 30
0.0
 11
229.3590948874
 21
89.9243435593
 31
0.0
  0
LINE
  5
12F
330
40
100
AcDbEntity
  8
0012363
  6
Continuous
 62
     7
100
AcDbLine
 10
221.3590948874
 20
89.9243435593
 30
0.0
 11
226.8590948874
 21
89.9243435593
 31
0.0
  0
LINE
  5
130
330
40
100
AcDbEntity
  8
0012363
  6
Continuous
 62
     7
100
AcDbLine
 10
226.8590948874
 20
113.9243435593
 30
0.0
 11
221.3590948874
 21
113.9243435593
 31
0.0
  0
LINE
  5
131
330
40
100
AcDbEntity
  8
0012363
  6
Continuous
 62
     7
100
AcDbLine
 10
241.3590948874
 20
128.4243435593
 30
0.0
 11
229.3590948874
 21
128.4243435593
 31
0.0
  0
LINE
  5
132
330
40
100
AcDbEntity
  8
0012363
  6
Continuous
 62
     7
100
AcDbLine
 10
229.3590948874
 20
75.4243435593
 30
0.0
 11
241.3590948874
 21
75.4243435593
 31
0.0
  0
ARC
  5
133
330
40
100
AcDbEntity
  8
0012363
  6
Continuous
 62
     7
100
AcDbCircle
 10
226.8590948874
 20
116.4243435593
 30
0.0
 40
2.500000000000002
100
AcDbArc
 50
270.0
 51
0.0
  0
ARC
  5
134
330
40
100
AcDbEntity
  8
0012363
  6
Continuous
 62
     7
100
AcDbCircle
 10
226.8590948874
 20
87.4243435593
 30
0.0
 40
2.5
100
AcDbArc
 50
0.0
 51
90.0
  0
LINE
  5
135
330
40
100
AcDbEntity
  8
0012363
  6
Continuous
 62
     7
100
AcDbLine
 10
226.8590948874
 20
113.9243435593
 30
0.0
 11
226.8590948874
 21
112.0838435593
 31
0.0
  0
LINE
  5
136
330
40
100
AcDbEntity
  8
0012363
  6
Continuous
 62
     7
100
AcDbLine
 10
221.3590948874
 20
112.0838435593
 30
0.0
 11
226.8590948874
 21
112.0838435593
 31
0.0
  0
LINE
  5
137
330
40
100
AcDbEntity
  8
0012363
  6
Continuous
 62
     7
100
AcDbLine
 10
221.3590948874
 20
91.7648435593
 30
0.0
 11
226.8590948874
 21
91.7648435593
 31
0.0
  0
LINE
  5
138
330
40
100
AcDbEntity
  8
0012363
  6
Continuous
 62
     7
100
AcDbLine
 10
226.8590948874
 20
89.9243435593
 30
0.0
 11
226.8590948874
 21
91.7648435593
 31
0.0
  0
LINE
  5
13B
330
40
100
AcDbEntity
  8
DV1_Default
  6
CENTER2
 62
     7
100
AcDbLine
 10
98.1090949414
 20
101.9243435593
 30
0.0
 11
94.6090948334
 21
101.9243435593
 31
0.0
  0
LINE
  5
13C
330
40
100
AcDbEntity
  8
DV1_Default
  6
CENTER2
 62
     7
100
AcDbLine
 10
96.3590948874
 20
103.6743436133
 30
0.0
 11
96.3590948874
 21
100.1743435053
 31
0.0
  0
LINE
  5
13D
330
40
100
AcDbEntity
  8
DV1_Default
  6
CENTER2
 62
     7
100
AcDbLine
 10
99.8590949955
 20
101.9243435593
 30
0.0
 11
104.3590948874
 21
101.9243435593
 31
0.0
  0
LINE
  5
13E
330
40
100
AcDbEntity
  8
DV1_Default
  6
CENTER2
 62
     7
100
AcDbLine
 10
96.3590948874
 20
105.4243436673
 30
0.0
 11
96.3590948874
 21
109.9243435593
 31
0.0
  0
LINE
  5
13F
330
40
100
AcDbEntity
  8
DV1_Default
  6
CENTER2
 62
     7
100
AcDbLine
 10
92.8590947794
 20
101.9243435593
 30
0.0
 11
88.3590948874
 21
101.9243435593
 31
0.0
  0
LINE
  5
140
330
40
100
AcDbEntity
  8
DV1_Default
  6
CENTER2
 62
     7
100
AcDbLine
 10
96.3590948874
 20
98.4243434513
 30
0.0
 11
96.3590948874
 21
93.9243435593
 31
0.0
  0
LINE
  5
141
330
40
100
AcDbEntity
  8
DV1_Default
  6
CENTER2
 62
     7
100
AcDbLine
 10
128.1090949414
 20
101.9243435593
 30
0.0
 11
124.6090948334
 21
101.9243435593
 31
0.0
  0
LINE
  5
142
330
40
100
AcDbEntity
  8
DV1_Default
  6
CENTER2
 62
     7
100
AcDbLine
 10
126.3590948874
 20
103.6743436133
 30
0.0
 11
126.3590948874
 21
100.1743435053
 31
0.0
  0
LINE
  5
143
330
40
100
AcDbEntity
  8
DV1_Default
  6
CENTER2
 62
     7
100
AcDbLine
 10
129.8590949955
 20
101.9243435593
 30
0.0
 11
138.3590948874
 21
101.9243435593
 31
0.0
  0
LINE
  5
144
330
40
100
AcDbEntity
  8
DV1_Default
  6
CENTER2
 62
     7
100
AcDbLine
 10
126.3590948874
 20
105.4243436673
 30
0.0
 11
126.3590948874
 21
113.9243435593
 31
0.0
  0
LINE
  5
145
330
40
100
AcDbEntity
  8
DV1_Default
  6
CENTER2
 62
     7
100
AcDbLine
 10
122.8590947794
 20
101.9243435593
 30
0.0
 11
114.3590948874
 21
101.9243435593
 31
0.0
  0
LINE
  5
146
330
40
100
AcDbEntity
  8
DV1_Default
  6
CENTER2
 62
     7
100
AcDbLine
 10
126.3590948874
 20
98.4243434513
 30
0.0
 11
126.3590948874
 21
89.9243435593
 31
0.0
  0
LINE
  5
147
330
40
100
AcDbEntity
  8
DV1_Default
  6
CENTER2
 62
     7
100
AcDbLine
 10
69.3590948874
 20
101.9243435593
 30
0.0
 11
243.3590948874
 21
101.9243435593
 31
0.0
  0
LINE
  5
148
330
40
100
AcDbEntity
  8
DV1_Default
  6
CENTER2
 62
     7
100
AcDbLine
 10
168.1090949414
 20
101.9243435593
 30
0.0
 11
164.6090948334
 21
101.9243435593
 31
0.0
  0
LINE
  5
149
330
40
100
AcDbEntity
  8
DV1_Default
  6
CENTER2
 62
     7
100
AcDbLine
 10
166.3590948874
 20
103.6743436133
 30
0.0
 11
166.3590948874
 21
100.1743435053
 31
0.0
  0
LINE
  5
14A
330
40
100
AcDbEntity
  8
DV1_Default
  6
CENTER2
 62
     7
100
AcDbLine
 10
169.8590949955
 20
101.9243435593
 30
0.0
 11
177.3590948874
 21
101.9243435593
 31
0.0
  0
LINE
  5
14B
330
40
100
AcDbEntity
  8
DV1_Default
  6
CENTER2
 62
     7
100
AcDbLine
 10
166.3590948874
 20
105.4243436673
 30
0.0
 11
166.3590948874
 21
112.9243435593
 31
0.0
  0
LINE
  5
14C
330
40
100
AcDbEntity
  8
DV1_Default
  6
CENTER2
 62
     7
100
AcDbLine
 10
162.8590947794
 20
101.9243435593
 30
0.0
 11
155.3590948874
 21
101.9243435593
 31
0.0
  0
LINE
  5
14D
330
40
100
AcDbEntity
  8
DV1_Default
  6
CENTER2
 62
     7
100
AcDbLine
 10
166.3590948874
 20
98.4243434513
 30
0.0
 11
166.3590948874
 21
90.9243435593
 31
0.0
  0
ENDBLK
  5
14F
330
40
100
AcDbEntity
  8
0
100
AcDbBlockEnd
  0
BLOCK
  5
159
330
150
100
AcDbEntity
  8
0
100
AcDbBlockBegin
  2
GDimGGroup
 70
     0
 10
0.0
 20
0.0
 30
0.0
  3
GDimGGroup
  1

  0
HATCH
  5
152
330
150
100
AcDbEntity
  8
Default
  6
Continuous
 62
     7
100
AcDbHatch
 10
0.0
 20
0.0
 30
0.0
210
0.0
220
0.0
230
1.0
  2
SOLID
 70
     1
 71
     0
 91
        1
 92
        1
 93
        3
 72
     1
 10
211.4522467802316
 20
123.4243434512758
 11
210.8689134288927
 21
126.9243435593093
 72
     1
 10
210.8689134288927
 20
126.9243435593093
 11
210.2855800775538
 21
123.4243434512758
 72
     1
 10
210.2855800775538
 20
123.4243434512758
 11
211.4522467802316
 21
123.4243434512758
 97
        0
 75
     0
 76
     1
 98
        0
  0
LINE
  5
153
330
150
100
AcDbEntity
  8
Default
  6
Continuous
 62
     7
100
AcDbLine
 10
199.2341910769
 20
126.9243435593
 30
0.0
 11
212.6189134829
 21
126.9243435593
 31
0.0
  0
LINE
  5
154
330
150
100
AcDbEntity
  8
Default
  6
Continuous
 62
     7
100
AcDbLine
 10
210.8689134289
 20
126.9243435593
 30
0.0
 11
210.8689134289
 21
108.4227842869
 31
0.0
  0
TEXT
  5
156
330
150
100
AcDbEntity
  8
Default
  6
Continuous
 62
     7
100
AcDbText
 10
209.9939134289
 20
109.6477837461
 30
0.0
 40
3.5
  1
O
 50
90.0
  7
SEACAD_Solid_Edge_ISO1_Symbols
 11
206.4939134289
 21
109.6477837461
 31
0.0
100
AcDbText
 73
     3
  0
TEXT
  5
158
330
150
100
AcDbEntity
  8
Default
  6
Continuous
 62
     7
100
AcDbText
 10
209.9939134289
 20
115.7390118162
 30
0.0
 40
3.5
  1
50
 50
90.0
  7
SEACAD_Solid_Edge_ISO
 11
206.4939134289
 21
115.7390118162
 31
0.0
100
AcDbText
 73
     3
  0
ENDBLK
  5
15A
330
150
100
AcDbEntity
  8
0
100
AcDbBlockEnd
  0
BLOCK
  5
164
330
15B
100
AcDbEntity
  8
0
100
AcDbBlockBegin
  2
GDimGGroup1
 70
     0
 10
0.0
 20
0.0
 30
0.0
  3
GDimGGroup1
  1

  0
HATCH
  5
15D
330
15B
100
AcDbEntity
  8
Default
  6
Continuous
 62
     7
100
AcDbHatch
 10
0.0
 20
0.0
 30
0.0
210
0.0
220
0.0
230
1.0
  2
SOLID
 70
     1
 71
     0
 91
        1
 92
        1
 93
        3
 72
     1
 10
183.3587675840477
 20
143.4243434512759
 11
182.7754342327088
 21
146.9243435593093
 72
     1
 10
182.7754342327088
 20
146.9243435593093
 11
182.19210088137
 21
143.4243434512759
 72
     1
 10
182.19210088137
 20
143.4243434512759
 11
183.3587675840477
 21
143.4243434512759
 97
        0
 75
     0
 76
     1
 98
        0
  0
HATCH
  5
15E
330
15B
100
AcDbEntity
  8
Default
  6
Continuous
 62
     7
100
AcDbHatch
 10
0.0
 20
0.0
 30
0.0
210
0.0
220
0.0
230
1.0
  2
SOLID
 70
     1
 71
     0
 91
        1
 92
        1
 93
        3
 72
     1
 10
183.3587675840477
 20
60.42434009106401
 11
182.19210088137
 21
60.42434009106401
 72
     1
 10
182.19210088137
 20
60.42434009106401
 11
182.7754342327088
 21
56.92433998303059
 72
     1
 10
182.7754342327088
 20
56.92433998303059
 11
183.3587675840477
 21
60.42434009106401
 97
        0
 75
     0
 76
     1
 98
        0
  0
LINE
  5
15F
330
15B
100
AcDbEntity
  8
Default
  6
Continuous
 62
     7
100
AcDbLine
 10
176.8590948874
 20
146.9243435593
 30
0.0
 11
184.5254342867
 21
146.9243435593
 31
0.0
  0
LINE
  5
160
330
15B
100
AcDbEntity
  8
Default
  6
Continuous
 62
     7
100
AcDbLine
 10
176.8590948874
 20
56.9243435593
 30
0.0
 11
184.5254342867
 21
56.9243435593
 31
0.0
  0
LINE
  5
161
330
15B
100
AcDbEntity
  8
Default
  6
Continuous
 62
     7
100
AcDbLine
 10
182.7754342327
 20
146.9243435593
 30
0.0
 11
182.7754342327
 21
56.924339983
 31
0.0
  0
TEXT
  5
162
330
15B
100
AcDbEntity
  8
Default
  6
Continuous
 62
     7
100
AcDbText
 10
181.9004342327
 20
96.7707731906
 30
0.0
 40
3.5
  1
O
 50
90.0
  7
SEACAD_Solid_Edge_ISO1_Symbols
 11
178.4004342327
 21
96.7707731906
 31
0.0
100
AcDbText
 73
     3
  0
TEXT
  5
163
330
15B
100
AcDbEntity
  8
Default
  6
Continuous
 62
     7
100
AcDbText
 10
181.9004342327
 20
102.8620012608
 30
0.0
 40
3.5
  1
90
 50
90.0
  7
SEACAD_Solid_Edge_ISO
 11
178.4004342327
 21
102.8620012608
 31
0.0
100
AcDbText
 73
     3
  0
ENDBLK
  5
165
330
15B
100
AcDbEntity
  8
0
100
AcDbBlockEnd
  0
BLOCK
  5
16E
330
166
100
AcDbEntity
  8
0
100
AcDbBlockBegin
  2
GDimGGroup2
 70
     0
 10
0.0
 20
0.0
 30
0.0
  3
GDimGGroup2
  1

  0
HATCH
  5
168
330
166
100
AcDbEntity
  8
Default
  6
Continuous
 62
     7
100
AcDbHatch
 10
0.0
 20
0.0
 30
0.0
210
0.0
220
0.0
230
1.0
  2
SOLID
 70
     1
 71
     0
 91
        1
 92
        1
 93
        3
 72
     1
 10
255.1483677253942
 20
110.4243434512758
 11
254.5650343740553
 21
113.9243435593093
 72
     1
 10
254.5650343740553
 20
113.9243435593093
 11
253.9817010227164
 21
110.4243434512758
 72
     1
 10
253.9817010227164
 20
110.4243434512758
 11
255.1483677253942
 21
110.4243434512758
 97
        0
 75
     0
 76
     1
 98
        0
  0
HATCH
  5
169
330
166
100
AcDbEntity
  8
Default
  6
Continuous
 62
     7
100
AcDbHatch
 10
0.0
 20
0.0
 30
0.0
210
0.0
220
0.0
230
1.0
  2
SOLID
 70
     1
 71
     0
 91
        1
 92
        1
 93
        3
 72
     1
 10
255.1483677253942
 20
93.42434345872643
 11
253.9817010227164
 21
93.42434345872643
 72
     1
 10
253.9817010227164
 20
93.42434345872643
 11
254.5650343740553
 21
89.92434335069301
 72
     1
 10
254.5650343740553
 20
89.92434335069301
 11
255.1483677253942
 21
93.42434345872643
 97
        0
 75
     0
 76
     1
 98
        0
  0
LINE
  5
16A
330
166
100
AcDbEntity
  8
Default
  6
Continuous
 62
     7
100
AcDbLine
 10
226.8590948874
 20
113.9243435593
 30
0.0
 11
256.3150344281
 21
113.9243435593
 31
0.0
  0
LINE
  5
16B
330
166
100
AcDbEntity
  8
Default
  6
Continuous
 62
     7
100
AcDbLine
 10
226.8590948874
 20
89.9243435593
 30
0.0
 11
256.3150344281
 21
89.9243435593
 31
0.0
  0
LINE
  5
16C
330
166
100
AcDbEntity
  8
Default
  6
Continuous
 62
     7
100
AcDbLine
 10
254.5650343741
 20
113.9243435593
 30
0.0
 11
254.5650343741
 21
89.9243433507
 31
0.0
  0
TEXT
  5
16D
330
166
100
AcDbEntity
  8
Default
  6
Continuous
 62
     7
100
AcDbText
 10
253.6900343741
 20
97.9391161823
 30
0.0
 40
3.5
  1
M24
 50
90.0
  7
SEACAD_Solid_Edge_ISO
 11
250.1900343741
 21
97.9391161823
 31
0.0
100
AcDbText
 73
     3
  0
ENDBLK
  5
16F
330
166
100
AcDbEntity
  8
0
100
AcDbBlockEnd
  0
BLOCK
  5
172
330
171
100
AcDbEntity
  8
0
100
AcDbBlockBegin
  2
_OBLIQUE
 70
     0
 10
0.0
 20
0.0
 30
0.0
  3
_OBLIQUE
  1

  0
LINE
  5
174
330
171
100
AcDbEntity
  8
0
  6
ByBlock
 62
     0
370
    -2
100
AcDbLine
 10
-0.5
 20
-0.5
 30
0.0
 11
0.5
 21
0.5
 31
0.0
  0
ENDBLK
  5
173
330
171
100
AcDbEntity
  8
0
100
AcDbBlockEnd
  0
BLOCK
  5
176
330
175
100
AcDbEntity
  8
0
100
AcDbBlockBegin
  2
_DOT
 70
     0
 10
0.0
 20
0.0
 30
0.0
  3
_DOT
  1

  0
POLYLINE
  5
178
330
175
100
AcDbEntity
  8
0
  6
ByBlock
 62
     0
100
AcDb2dPolyline
 66
     1
 10
0.0
 20
0.0
 30
0.0
 70
     1
 40
0.5
 41
0.5
  0
VERTEX
  5
17A
330
178
100
AcDbEntity
  8
0
  6
ByBlock
 62
     0
100
AcDbVertex
100
AcDb2dVertex
 10
-0.25
 20
0.0
 30
0.0
 42
1.0
  0
VERTEX
  5
17B
330
178
100
AcDbEntity
  8
0
  6
ByBlock
 62
     0
100
AcDbVertex
100
AcDb2dVertex
 10
0.25
 20
0.0
 30
0.0
 42
1.0
  0
SEQEND
  5
17C
330
178
100
AcDbEntity
  8
0
  6
ByBlock
 62
     0
  0
LINE
  5
179
330
175
100
AcDbEntity
  8
0
  6
ByBlock
 62
     0
370
    -2
100
AcDbLine
 10
-0.5
 20
0.0
 30
0.0
 11
-1.0
 21
0.0
 31
0.0
  0
ENDBLK
  5
177
330
175
100
AcDbEntity
  8
0
100
AcDbBlockEnd
  0
BLOCK
  5
180
330
17D
100
AcDbEntity
  8
0
100
AcDbBlockBegin
  2
_SE_FILLED
 70
     0
 10
0.0
 20
0.0
 30
0.0
  3
_SE_FILLED
  1

  0
SOLID
  5
17E
330
17D
100
AcDbEntity
  8
0
 62
     0
100
AcDbTrace
 10
0.0
 20
0.0
 30
0.0
 11
-1.0
 21
-0.1665
 31
0.0
 12
-1.0
 22
0.1665
 32
0.0
 13
0.0
 23
0.0
 33
0.0
  0
LINE
  5
17F
330
17D
100
AcDbEntity
  8
0
 62
     0
100
AcDbLine
 10
0.0
 20
0.0
 30
0.0
 11
-1.0
 21
0.0
 31
0.0
  0
ENDBLK
  5
181
330
17D
100
AcDbEntity
  8
0
100
AcDbBlockEnd
  0
BLOCK
  5
18B
330
184
100
AcDbEntity
  8
0
100
AcDbBlockBegin
  2
DMBLK302
 70
     0
 10
0.0
 20
0.0
 30
0.0
  3
DMBLK302
  1

  0
HATCH
  5
185
330
184
100
AcDbEntity
  8
Default
  6
Continuous
 62
     7
100
AcDbHatch
 10
0.0
 20
0.0
 30
0.0
210
0.0
220
0.0
230
1.0
  2
SOLID
 70
     1
 71
     0
 91
        1
 92
        1
 93
        3
 72
     1
 10
217.8590947793991
 20
159.3704869918917
 11
217.8590947793991
 21
158.2038202892139
 72
     1
 10
217.8590947793991
 20
158.2038202892139
 11
221.3590948874325
 21
158.7871536405528
 72
     1
 10
221.3590948874325
 20
158.7871536405528
 11
217.8590947793991
 21
159.3704869918917
 97
        0
 75
     0
 76
     1
 98
        0
  0
HATCH
  5
186
330
184
100
AcDbEntity
  8
Default
  6
Continuous
 62
     7
100
AcDbHatch
 10
0.0
 20
0.0
 30
0.0
210
0.0
220
0.0
230
1.0
  2
SOLID
 70
     1
 71
     0
 91
        1
 92
        1
 93
        3
 72
     1
 10
178.8590949060589
 20
159.3704869918917
 11
175.3590947980255
 21
158.7871536405528
 72
     1
 10
175.3590947980255
 20
158.7871536405528
 11
178.8590949060589
 21
158.2038202892139
 72
     1
 10
178.8590949060589
 20
158.2038202892139
 11
178.8590949060589
 21
159.3704869918917
 97
        0
 75
     0
 76
     1
 98
        0
  0
LINE
  5
187
330
184
100
AcDbEntity
  8
Default
  6
Continuous
 62
     7
100
AcDbLine
 10
221.3590948874
 20
126.2743435593
 30
0.0
 11
221.3590948874
 21
160.5371536946
 31
0.0
  0
LINE
  5
188
330
184
100
AcDbEntity
  8
Default
  6
Continuous
 62
     7
100
AcDbLine
 10
175.3590948874
 20
145.4243435593
 30
0.0
 11
175.3590948874
 21
160.5371536946
 31
0.0
  0
LINE
  5
189
330
184
100
AcDbEntity
  8
Default
  6
Continuous
 62
     7
100
AcDbLine
 10
221.3590948874
 20
158.7871536406
 30
0.0
 11
175.359094798
 21
158.7871536406
 31
0.0
  0
TEXT
  5
18A
330
184
100
AcDbEntity
  8
Default
  6
Continuous
 62
     7
100
AcDbText
 10
196.2511402973
 20
159.6621536406
 30
0.0
 40
3.5
  1
46
  7
SEACAD_Solid_Edge_ISO
 11
196.2511402973
 21
163.1621536406
 31
0.0
100
AcDbText
 73
     3
  0
ENDBLK
  5
18C
330
184
100
AcDbEntity
  8
0
100
AcDbBlockEnd
  0
BLOCK
  5
195
330
18E
100
AcDbEntity
  8
0
100
AcDbBlockBegin
  2
DMBLK303
 70
     0
 10
0.0
 20
0.0
 30
0.0
  3
DMBLK303
  1

  0
HATCH
  5
18F
330
18E
100
AcDbEntity
  8
Default
  6
Continuous
 62
     7
100
AcDbHatch
 10
0.0
 20
0.0
 30
0.0
210
0.0
220
0.0
230
1.0
  2
SOLID
 70
     1
 71
     0
 91
        1
 92
        1
 93
        3
 72
     1
 10
217.8590947793991
 20
176.1704882555101
 11
217.8590947793991
 21
175.0038215528323
 72
     1
 10
217.8590947793991
 20
175.0038215528323
 11
221.3590948874325
 21
175.5871549041712
 72
     1
 10
221.3590948874325
 20
175.5871549041712
 11
217.8590947793991
 21
176.1704882555101
 97
        0
 75
     0
 76
     1
 98
        0
  0
HATCH
  5
190
330
18E
100
AcDbEntity
  8
Default
  6
Continuous
 62
     7
100
AcDbHatch
 10
0.0
 20
0.0
 30
0.0
210
0.0
220
0.0
230
1.0
  2
SOLID
 70
     1
 71
     0
 91
        1
 92
        1
 93
        3
 72
     1
 10
143.8590947570473
 20
176.1704882555101
 11
140.3590946490139
 21
175.5871549041712
 72
     1
 10
140.3590946490139
 20
175.5871549041712
 11
143.8590947570473
 21
175.0038215528323
 72
     1
 10
143.8590947570473
 20
175.0038215528323
 11
143.8590947570473
 21
176.1704882555101
 97
        0
 75
     0
 76
     1
 98
        0
  0
LINE
  5
191
330
18E
100
AcDbEntity
  8
Default
  6
Continuous
 62
     7
100
AcDbLine
 10
221.3590948874
 20
126.2743435593
 30
0.0
 11
221.3590948874
 21
177.3371549582
 31
0.0
  0
LINE
  5
192
330
18E
100
AcDbEntity
  8
Default
  6
Continuous
 62
     7
100
AcDbLine
 10
140.3590948874
 20
151.4243435593
 30
0.0
 11
140.3590948874
 21
177.3371549582
 31
0.0
  0
LINE
  5
193
330
18E
100
AcDbEntity
  8
Default
  6
Continuous
 62
     7
100
AcDbLine
 10
221.3590948874
 20
175.5871549042
 30
0.0
 11
140.359094649
 21
175.5871549042
 31
0.0
  0
TEXT
  5
194
330
18E
100
AcDbEntity
  8
Default
  6
Continuous
 62
     7
100
AcDbText
 10
179.0295493137
 20
176.4621549042
 30
0.0
 40
3.5
  1
81
  7
SEACAD_Solid_Edge_ISO
 11
179.0295493137
 21
179.9621549042
 31
0.0
100
AcDbText
 73
     3
  0
ENDBLK
  5
196
330
18E
100
AcDbEntity
  8
0
100
AcDbBlockEnd
  0
BLOCK
  5
19F
330
198
100
AcDbEntity
  8
0
100
AcDbBlockBegin
  2
DMBLK304
 70
     0
 10
0.0
 20
0.0
 30
0.0
  3
DMBLK304
  1

  0
HATCH
  5
199
330
198
100
AcDbEntity
  8
Default
  6
Continuous
 62
     7
100
AcDbHatch
 10
0.0
 20
0.0
 30
0.0
210
0.0
220
0.0
230
1.0
  2
SOLID
 70
     1
 71
     0
 91
        1
 92
        1
 93
        3
 72
     1
 10
217.8590947793991
 20
184.5704888873194
 11
217.8590947793991
 21
183.4038221846416
 72
     1
 10
217.8590947793991
 20
183.4038221846416
 11
221.3590948874325
 21
183.9871555359805
 72
     1
 10
221.3590948874325
 20
183.9871555359805
 11
217.8590947793991
 21
184.5704888873194
 97
        0
 75
     0
 76
     1
 98
        0
  0
HATCH
  5
19A
330
198
100
AcDbEntity
  8
Default
  6
Continuous
 62
     7
100
AcDbHatch
 10
0.0
 20
0.0
 30
0.0
210
0.0
220
0.0
230
1.0
  2
SOLID
 70
     1
 71
     0
 91
        1
 92
        1
 93
        3
 72
     1
 10
64.8590985717446
 20
184.5704888873194
 11
61.35909846371118
 21
183.9871555359805
 72
     1
 10
61.35909846371118
 20
183.9871555359805
 11
64.85909857174461
 21
183.4038221846416
 72
     1
 10
64.8590985717446
 20
183.4038221846416
 11
64.8590985717446
 21
184.5704888873194
 97
        0
 75
     0
 76
     1
 98
        0
  0
LINE
  5
19B
330
198
100
AcDbEntity
  8
Default
  6
Continuous
 62
     7
100
AcDbLine
 10
221.3590948874
 20
126.2743435593
 30
0.0
 11
221.3590948874
 21
185.73715559
 31
0.0
  0
LINE
  5
19C
330
198
100
AcDbEntity
  8
Default
  6
Continuous
 62
     7
100
AcDbLine
 10
61.3590948874
 20
125.6636147416
 30
0.0
 11
61.3590948874
 21
185.73715559
 31
0.0
  0
LINE
  5
19D
330
198
100
AcDbEntity
  8
Default
  6
Continuous
 62
     7
100
AcDbLine
 10
221.3590948874
 20
183.987155536
 30
0.0
 11
61.3590984637
 21
183.987155536
 31
0.0
  0
TEXT
  5
19E
330
198
100
AcDbEntity
  8
Default
  6
Continuous
 62
     7
100
AcDbText
 10
138.5352330392
 20
184.862155536
 30
0.0
 40
3.5
  1
160
  7
SEACAD_Solid_Edge_ISO
 11
138.5352330392
 21
188.362155536
 31
0.0
100
AcDbText
 73
     3
  0
ENDBLK
  5
1A0
330
198
100
AcDbEntity
  8
0
100
AcDbBlockEnd
  0
BLOCK
  5
1A9
330
1A2
100
AcDbEntity
  8
0
100
AcDbBlockBegin
  2
DMBLK305
 70
     0
 10
0.0
 20
0.0
 30
0.0
  3
DMBLK305
  1

  0
HATCH
  5
1A3
330
1A2
100
AcDbEntity
  8
Default
  6
Continuous
 62
     7
100
AcDbHatch
 10
0.0
 20
0.0
 30
0.0
210
0.0
220
0.0
230
1.0
  2
SOLID
 70
     1
 71
     0
 91
        1
 92
        1
 93
        3
 72
     1
 10
114.8590949954659
 20
41.56824933244724
 11
114.8590949954659
 21
42.73491603512504
 72
     1
 10
114.8590949954659
 20
42.73491603512504
 11
111.3590948874325
 21
42.15158268378614
 72
     1
 10
111.3590948874325
 20
42.15158268378614
 11
114.8590949954659
 21
41.56824933244724
 97
        0
 75
     0
 76
     1
 98
        0
  0
HATCH
  5
1A4
330
1A2
100
AcDbEntity
  8
Default
  6
Continuous
 62
     7
100
AcDbHatch
 10
0.0
 20
0.0
 30
0.0
210
0.0
220
0.0
230
1.0
  2
SOLID
 70
     1
 71
     0
 91
        1
 92
        1
 93
        3
 72
     1
 10
187.8590929912597
 20
41.56824933244724
 11
191.3590930992931
 21
42.15158268378614
 72
     1
 10
191.3590930992931
 20
42.15158268378614
 11
187.8590929912597
 21
42.73491603512504
 72
     1
 10
187.8590929912597
 20
42.73491603512504
 11
187.8590929912597
 21
41.56824933244724
 97
        0
 75
     0
 76
     1
 98
        0
  0
LINE
  5
1A5
330
1A2
100
AcDbEntity
  8
Default
  6
Continuous
 62
     7
100
AcDbLine
 10
111.3590948874
 20
52.4243435593
 30
0.0
 11
111.3590948874
 21
40.4015826298
 31
0.0
  0
LINE
  5
1A6
330
1A2
100
AcDbEntity
  8
Default
  6
Continuous
 62
     7
100
AcDbLine
 10
191.3590948874
 20
59.3445361384
 30
0.0
 11
191.3590948874
 21
40.4015826298
 31
0.0
  0
LINE
  5
1A7
330
1A2
100
AcDbEntity
  8
Default
  6
Continuous
 62
     7
100
AcDbLine
 10
111.3590948874
 20
42.1515826838
 30
0.0
 11
191.3590930993
 21
42.1515826838
 31
0.0
  0
TEXT
  5
1A8
330
1A2
100
AcDbEntity
  8
Default
  6
Continuous
 62
     7
100
AcDbText
 10
149.2113667206
 20
43.0265826838
 30
0.0
 40
3.5
  1
80
  7
SEACAD_Solid_Edge_ISO
 11
149.2113667206
 21
46.5265826838
 31
0.0
100
AcDbText
 73
     3
  0
ENDBLK
  5
1AA
330
1A2
100
AcDbEntity
  8
0
100
AcDbBlockEnd
  0
BLOCK
  5
1B4
330
1AB
100
AcDbEntity
  8
0
100
AcDbBlockBegin
  2
GDimGGroup3
 70
     0
 10
0.0
 20
0.0
 30
0.0
  3
GDimGGroup3
  1

  0
HATCH
  5
1AD
330
1AB
100
AcDbEntity
  8
Default
  6
Continuous
 62
     7
100
AcDbHatch
 10
0.0
 20
0.0
 30
0.0
210
0.0
220
0.0
230
1.0
  2
SOLID
 70
     1
 71
     0
 91
        1
 92
        1
 93
        3
 72
     1
 10
150.2321599379997
 20
141.4243434512759
 11
149.6488265866608
 21
144.9243435593093
 72
     1
 10
149.6488265866608
 20
144.9243435593093
 11
149.0654932353219
 21
141.4243434512759
 72
     1
 10
149.0654932353219
 20
141.4243434512759
 11
150.2321599379997
 21
141.4243434512759
 97
        0
 75
     0
 76
     1
 98
        0
  0
HATCH
  5
1AE
330
1AB
100
AcDbEntity
  8
Default
  6
Continuous
 62
     7
100
AcDbHatch
 10
0.0
 20
0.0
 30
0.0
210
0.0
220
0.0
230
1.0
  2
SOLID
 70
     1
 71
     0
 91
        1
 92
        1
 93
        3
 72
     1
 10
150.2321599379997
 20
62.4243407467151
 11
149.0654932353219
 21
62.4243407467151
 72
     1
 10
149.0654932353219
 20
62.4243407467151
 11
149.6488265866608
 21
58.92434063868168
 72
     1
 10
149.6488265866608
 20
58.92434063868168
 11
150.2321599379997
 21
62.4243407467151
 97
        0
 75
     0
 76
     1
 98
        0
  0
LINE
  5
1AF
330
1AB
100
AcDbEntity
  8
Default
  6
Continuous
 62
     7
100
AcDbLine
 10
141.1590948874
 20
144.9243435593
 30
0.0
 11
151.3988266407
 21
144.9243435593
 31
0.0
  0
LINE
  5
1B0
330
1AB
100
AcDbEntity
  8
Default
  6
Continuous
 62
     7
100
AcDbLine
 10
141.1590948874
 20
58.9243435593
 30
0.0
 11
151.3988266407
 21
58.9243435593
 31
0.0
  0
LINE
  5
1B1
330
1AB
100
AcDbEntity
  8
Default
  6
Continuous
 62
     7
100
AcDbLine
 10
149.6488265867
 20
144.9243435593
 30
0.0
 11
149.6488265867
 21
58.9243406387
 31
0.0
  0
TEXT
  5
1B2
330
1AB
100
AcDbEntity
  8
Default
  6
Continuous
 62
     7
100
AcDbText
 10
148.7738265867
 20
96.6912280639
 30
0.0
 40
3.5
  1
O
 50
90.0
  7
SEACAD_Solid_Edge_ISO1_Symbols
 11
145.2738265867
 21
96.6912280639
 31
0.0
100
AcDbText
 73
     3
  0
TEXT
  5
1B3
330
1AB
100
AcDbEntity
  8
Default
  6
Continuous
 62
     7
100
AcDbText
 10
148.7738265867
 20
102.7824561341
 30
0.0
 40
3.5
  1
86
 50
90.0
  7
SEACAD_Solid_Edge_ISO
 11
145.2738265867
 21
102.7824561341
 31
0.0
100
AcDbText
 73
     3
  0
ENDBLK
  5
1B5
330
1AB
100
AcDbEntity
  8
0
100
AcDbBlockEnd
  0
BLOCK
  5
1BE
330
1B7
100
AcDbEntity
  8
0
100
AcDbBlockBegin
  2
DMBLK306
 70
     0
 10
0.0
 20
0.0
 30
0.0
  3
DMBLK306
  1

  0
HATCH
  5
1B8
330
1B7
100
AcDbEntity
  8
Default
  6
Continuous
 62
     7
100
AcDbHatch
 10
0.0
 20
0.0
 30
0.0
210
0.0
220
0.0
230
1.0
  2
SOLID
 70
     1
 71
     0
 91
        1
 92
        1
 93
        3
 72
     1
 10
217.8590947793991
 20
167.7704876237009
 11
217.8590947793991
 21
166.6038209210231
 72
     1
 10
217.8590947793991
 20
166.6038209210231
 11
221.3590948874325
 21
167.187154272362
 72
     1
 10
221.3590948874325
 20
167.187154272362
 11
217.8590947793991
 21
167.7704876237009
 97
        0
 75
     0
 76
     1
 98
        0
  0
HATCH
  5
1B9
330
1B7
100
AcDbEntity
  8
Default
  6
Continuous
 62
     7
100
AcDbHatch
 10
0.0
 20
0.0
 30
0.0
210
0.0
220
0.0
230
1.0
  2
SOLID
 70
     1
 71
     0
 91
        1
 92
        1
 93
        3
 72
     1
 10
159.8590973796517
 20
167.7704876237009
 11
156.3590972716183
 21
167.187154272362
 72
     1
 10
156.3590972716183
 20
167.187154272362
 11
159.8590973796517
 21
166.6038209210231
 72
     1
 10
159.8590973796517
 20
166.6038209210231
 11
159.8590973796517
 21
167.7704876237009
 97
        0
 75
     0
 76
     1
 98
        0
  0
LINE
  5
1BA
330
1B7
100
AcDbEntity
  8
Default
  6
Continuous
 62
     7
100
AcDbLine
 10
221.3590948874
 20
126.2743435593
 30
0.0
 11
221.3590948874
 21
168.9371543264
 31
0.0
  0
LINE
  5
1BB
330
1B7
100
AcDbEntity
  8
Default
  6
Continuous
 62
     7
100
AcDbLine
 10
156.3590948874
 20
146.4243435593
 30
0.0
 11
156.3590948874
 21
168.9371543264
 31
0.0
  0
LINE
  5
1BC
330
1B7
100
AcDbEntity
  8
Default
  6
Continuous
 62
     7
100
AcDbLine
 10
221.3590948874
 20
167.1871542724
 30
0.0
 11
156.3590972716
 21
167.1871542724
 31
0.0
  0
TEXT
  5
1BD
330
1B7
100
AcDbEntity
  8
Default
  6
Continuous
 62
     7
100
AcDbText
 10
186.7909142613
 20
168.0621542724
 30
0.0
 40
3.5
  1
65
  7
SEACAD_Solid_Edge_ISO
 11
186.7909142613
 21
171.5621542724
 31
0.0
100
AcDbText
 73
     3
  0
ENDBLK
  5
1BF
330
1B7
100
AcDbEntity
  8
0
100
AcDbBlockEnd
  0
BLOCK
  5
1C8
330
1C1
100
AcDbEntity
  8
0
100
AcDbBlockBegin
  2
DMBLK307
 70
     0
 10
0.0
 20
0.0
 30
0.0
  3
DMBLK307
  1

  0
HATCH
  5
1C2
330
1C1
100
AcDbEntity
  8
Default
  6
Continuous
 62
     7
100
AcDbHatch
 10
0.0
 20
0.0
 30
0.0
210
0.0
220
0.0
230
1.0
  2
SOLID
 70
     1
 71
     0
 91
        1
 92
        1
 93
        3
 72
     1
 10
217.8590947793991
 20
150.9704863600824
 11
217.8590947793991
 21
149.8038196574046
 72
     1
 10
217.8590947793991
 20
149.8038196574046
 11
221.3590948874325
 21
150.3871530087435
 72
     1
 10
221.3590948874325
 20
150.3871530087435
 11
217.8590947793991
 21
150.9704863600824
 97
        0
 75
     0
 76
     1
 98
        0
  0
HATCH
  5
1C3
330
1C1
100
AcDbEntity
  8
Default
  6
Continuous
 62
     7
100
AcDbHatch
 10
0.0
 20
0.0
 30
0.0
210
0.0
220
0.0
230
1.0
  2
SOLID
 70
     1
 71
     0
 91
        1
 92
        1
 93
        3
 72
     1
 10
194.8590956660182
 20
150.9704863600824
 11
191.3590955579847
 21
150.3871530087435
 72
     1
 10
191.3590955579847
 20
150.3871530087435
 11
194.8590956660182
 21
149.8038196574046
 72
     1
 10
194.8590956660182
 20
149.8038196574046
 11
194.8590956660182
 21
150.9704863600824
 97
        0
 75
     0
 76
     1
 98
        0
  0
LINE
  5
1C4
330
1C1
100
AcDbEntity
  8
Default
  6
Continuous
 62
     7
100
AcDbLine
 10
221.3590948874
 20
126.2743435593
 30
0.0
 11
221.3590948874
 21
152.1371530628
 31
0.0
  0
LINE
  5
1C5
330
1C1
100
AcDbEntity
  8
Default
  6
Continuous
 62
     7
100
AcDbLine
 10
191.3590948874
 20
144.5041509802
 30
0.0
 11
191.3590948874
 21
152.1371530628
 31
0.0
  0
LINE
  5
1C6
330
1C1
100
AcDbEntity
  8
Default
  6
Continuous
 62
     7
100
AcDbLine
 10
221.3590948874
 20
150.3871530087
 30
0.0
 11
191.359095558
 21
150.3871530087
 31
0.0
  0
TEXT
  5
1C7
330
1C1
100
AcDbEntity
  8
Default
  6
Continuous
 62
     7
100
AcDbText
 10
204.4102315863
 20
151.2621530087
 30
0.0
 40
3.5
  1
30
  7
SEACAD_Solid_Edge_ISO
 11
204.4102315863
 21
154.7621530087
 31
0.0
100
AcDbText
 73
     3
  0
ENDBLK
  5
1C9
330
1C1
100
AcDbEntity
  8
0
100
AcDbBlockEnd
  0
BLOCK
  5
1CD
330
1CA
100
AcDbEntity
  8
0
100
AcDbBlockBegin
  2
SEANNOT_GROUP
 70
     0
 10
0.0
 20
0.0
 30
0.0
  3
SEANNOT_GROUP
  1

  0
TEXT
  5
1CC
330
1CA
100
AcDbEntity
  8
Default
  6
Continuous
 62
     7
100
AcDbText
 10
243.1483969886
 20
25.7525109624
 30
0.0
 40
3.5
  1
250045060
  7
SEACAD_Solid_Edge_ANSIB
 11
243.1483969886
 21
29.2525109624
 31
0.0
100
AcDbText
 73
     3
  0
ENDBLK
  5
1CE
330
1CA
100
AcDbEntity
  8
0
100
AcDbBlockEnd
  0
BLOCK
  5
1D2
330
1CF
100
AcDbEntity
  8
0
100
AcDbBlockBegin
  2
SEANNOT_GROUP1
 70
     0
 10
0.0
 20
0.0
 30
0.0
  3
SEANNOT_GROUP1
  1

  0
TEXT
  5
1D1
330
1CF
100
AcDbEntity
  8
Default
  6
Continuous
 62
     7
100
AcDbText
 10
243.1477357349
 20
20.0537100543
 30
0.0
 40
3.5
  1
26.11.2015
  7
SEACAD_Solid_Edge_ANSI
 11
243.1477357349
 21
23.5537100543
 31
0.0
100
AcDbText
 73
     3
  0
ENDBLK
  5
1D3
330
1CF
100
AcDbEntity
  8
0
100
AcDbBlockEnd
  0
BLOCK
  5
1D6
330
1D4
100
AcDbEntity
  8
0
100
AcDbBlockBegin
  2
SEANNOT_GROUP2
 70
     0
 10
0.0
 20
0.0
 30
0.0
  3
SEANNOT_GROUP2
  1

  0
TEXT
  5
1D5
330
1D4
100
AcDbEntity
  8
Default
  6
Continuous
 62
     7
100
AcDbText
 10
243.1795282745
 20
31.5598894014
 30
0.0
 40
3.5
  1
HSK-A100_KFD50x080
 41
0.854
  7
SEACAD_Solid_Edge_ANSIB
 11
243.1795282745
 21
35.0598894014
 31
0.0
100
AcDbText
 73
     3
  0
ENDBLK
  5
1D7
330
1D4
100
AcDbEntity
  8
0
100
AcDbBlockEnd
  0
BLOCK
  5
1DA
330
1D8
100
AcDbEntity
  8
0
100
AcDbBlockBegin
  2
SEANNOT_GROUP3
 70
     0
 10
0.0
 20
0.0
 30
0.0
  3
SEANNOT_GROUP3
  1

  0
TEXT
  5
1D9
330
1D8
100
AcDbEntity
  8
Default
  6
Continuous
 62
     7
100
AcDbText
 10
243.2357917511
 20
14.1955389783
 30
0.0
 40
3.5
  1
1:1
  7
SEACAD_Solid_Edge_ANSI
 11
243.2357917511
 21
17.6955389783
 31
0.0
100
AcDbText
 73
     3
  0
ENDBLK
  5
1DB
330
1D8
100
AcDbEntity
  8
0
100
AcDbBlockEnd
  0
BLOCK
  5
222
330
1DC
100
AcDbEntity
  8
0
100
AcDbBlockBegin
  2
Block1
 70
     0
 10
0.0
 20
0.0
 30
0.0
  3
Block1
  1

  0
LINE
  5
1DD
330
1DC
100
AcDbEntity
  8
Default
  6
Continuous
 62
     7
100
AcDbLine
 10
42.3415792923
 20
6.5926277851
 30
0.0
 11
40.225655308
 21
3.525
 31
0.0
  0
LINE
  5
1DE
330
1DC
100
AcDbEntity
  8
Default
  6
Continuous
 62
     7
100
AcDbLine
 10
40.225655308
 20
3.525
 30
0.0
 11
41.2882372215
 21
1.9958060288
 31
0.0
  0
LINE
  5
1DF
330
1DC
100
AcDbEntity
  8
Default
  6
Continuous
 62
     7
100
AcDbLine
 10
41.2882372215
 20
1.9958060288
 30
0.0
 11
40.2556847969
 21
0.5266710354
 31
0.0
  0
LINE
  5
1E0
330
1DC
100
AcDbEntity
  8
Default
  6
Continuous
 62
     7
100
AcDbLine
 10
40.2556847969
 20
0.5266710354
 30
0.0
 11
39.2231323722
 21
2.1459534731
 31
0.0
  0
LINE
  5
1E1
330
1DC
100
AcDbEntity
  8
Default
  6
Continuous
 62
     7
100
AcDbLine
 10
39.2231323722
 20
2.1459534731
 30
0.0
 11
37.7031782438
 21
0.0
 31
0.0
  0
LINE
  5
1E2
330
1DC
100
AcDbEntity
  8
Default
  6
Continuous
 62
     7
100
AcDbLine
 10
37.7031782438
 20
0.0
 30
0.0
 11
35.6265235911
 21
0.0
 31
0.0
  0
LINE
  5
1E3
330
1DC
100
AcDbEntity
  8
Default
  6
Continuous
 62
     7
100
AcDbLine
 10
35.6265235911
 20
0.0
 30
0.0
 11
38.209059633
 21
3.525
 31
0.0
  0
LINE
  5
1E4
330
1DC
100
AcDbEntity
  8
Default
  6
Continuous
 62
     7
100
AcDbLine
 10
38.209059633
 20
3.525
 30
0.0
 11
36.1046854522
 21
6.5926277851
 31
0.0
  0
LINE
  5
1E5
330
1DC
100
AcDbEntity
  8
Default
  6
Continuous
 62
     7
100
AcDbLine
 10
36.1046854522
 20
6.5926277851
 30
0.0
 11
38.209059633
 21
6.5926277851
 31
0.0
  0
LINE
  5
1E6
330
1DC
100
AcDbEntity
  8
Default
  6
Continuous
 62
     7
100
AcDbLine
 10
38.209059633
 20
6.5926277851
 30
0.0
 11
39.2231323722
 21
4.8855668414
 31
0.0
  0
LINE
  5
1E7
330
1DC
100
AcDbEntity
  8
Default
  6
Continuous
 62
     7
100
AcDbLine
 10
39.2231323722
 20
4.8855668414
 30
0.0
 11
40.225655308
 21
6.5926277851
 31
0.0
  0
LINE
  5
1E8
330
1DC
100
AcDbEntity
  8
Default
  6
Continuous
 62
     7
100
AcDbLine
 10
40.225655308
 20
6.5926277851
 30
0.0
 11
42.3415792923
 21
6.5926277851
 31
0.0
  0
SPLINE
  5
1E9
330
1DC
100
AcDbEntity
  8
Default
  6
Continuous
 62
     7
100
AcDbSpline
210
0.0
220
0.0
230
1.0
 70
     8
 71
     3
 72
    13
 73
     9
 74
     0
 42
0.0000000012369638
 43
0.0000000001
 12
1.0
 22
0.0
 32
0.0
 13
1.0
 23
0.0
 33
0.0
 40
0.0
 40
0.0
 40
0.0
 40
0.0
 40
0.9091644120227717
 40
0.9091644120227717
 40
0.9091644120227717
 40
0.9554905618911577
 40
0.9554905618911577
 40
1.0
 40
1.0
 40
1.0
 40
1.0
 10
40.88399410222804
 20
0.427342726081259
 30
0.0
 10
42.29076015727392
 20
2.423148754914811
 30
0.0
 10
43.69752621231979
 20
4.418954783748362
 30
0.0
 10
45.10429226736566
 20
6.414760812581914
 30
0.0
 10
45.18660375034128
 20
6.531537694833034
 30
0.0
 10
45.28446920052424
 20
6.592627785058978
 30
0.0
 10
45.51546526867628
 20
6.592627785058978
 30
0.0
 10
45.61941349934469
 20
6.53256880733945
 30
0.0
 10
45.71181192660551
 20
6.414760812581914
 30
0.0
  0
SPLINE
  5
1EA
330
1DC
100
AcDbEntity
  8
Default
  6
Continuous
 62
     7
100
AcDbSpline
210
0.0
220
0.0
230
1.0
 70
     8
 71
     3
 72
    16
 73
    12
 74
     0
 42
0.0000000006014133
 43
0.0000000001
 12
1.0
 22
0.0
 32
0.0
 13
1.0
 23
0.0
 33
0.0
 40
0.0
 40
0.0
 40
0.0
 40
0.0
 40
0.4418652593848311
 40
0.4418652593848311
 40
0.4418652593848311
 40
0.455090010411123
 40
0.455090010411123
 40
0.4811129075918901
 40
0.4811129075918901
 40
0.4811129075918901
 40
1.0
 40
1.0
 40
1.0
 40
1.0
 10
45.71181192660551
 20
6.414760812581914
 30
0.0
 10
47.11857798165137
 20
4.418954783748362
 30
0.0
 10
48.52534403669725
 20
2.42314875491481
 30
0.0
 10
49.93211009174313
 20
0.427342726081259
 30
0.0
 10
49.98455330475264
 20
0.352940532254955
 30
0.0
 10
50.01295871559633
 20
0.281815203145479
 30
0.0
 10
50.01295871559633
 20
0.0692988204456104
 30
0.0
 10
49.91363040629096
 20
0.0000000000000009
 30
0.0
 10
49.71497378768021
 20
0.0000000000000009
 30
0.0
 10
46.84754259501965
 20
0.0000000000000009
 30
0.0
 10
43.98011140235911
 20
0.0000000000000009
 30
0.0
 10
41.11268020969855
 20
0.0000000000000009
 30
0.0
  0
SPLINE
  5
1EB
330
1DC
100
AcDbEntity
  8
Default
  6
Continuous
 62
     7
100
AcDbSpline
210
0.0
220
0.0
230
1.0
 70
     8
 71
     3
 72
    11
 73
     7
 74
     0
 42
0.0000000141737466
 43
0.0000000001
 12
1.0
 22
0.0
 32
0.0
 13
1.0
 23
0.0
 33
0.0
 40
0.0
 40
0.0
 40
0.0
 40
0.0
 40
0.6560933575639865
 40
0.6560933575639865
 40
0.6560933575639865
 40
1.0
 40
1.0
 40
1.0
 40
1.0
 10
41.11268020969855
 20
0.0000000000000009
 30
0.0
 10
40.90709370904325
 20
0.0000000000000009
 30
0.0
 10
40.80545543905635
 20
0.0739187418086509
 30
0.0
 10
40.80314547837483
 20
0.2194462647444313
 30
0.0
 10
40.80230295367286
 20
0.2725253209688669
 30
0.0
 10
40.83086500655307
 20
0.3418741808650076
 30
0.0
 10
40.88399410222804
 20
0.427342726081259
 30
0.0
  0
LINE
  5
1EC
330
1DC
100
AcDbEntity
  8
Default
  6
Continuous
 62
     7
100
AcDbLine
 10
35.1853211009
 20
6.6087975098
 30
0.0
 11
35.1853211009
 21
0.0
 31
0.0
  0
SPLINE
  5
1ED
330
1DC
100
AcDbEntity
  8
Default
  6
Continuous
 62
     7
100
AcDbSpline
210
0.0
220
0.0
230
1.0
 70
     8
 71
     3
 72
    14
 73
    10
 74
     0
 42
0.0000000052950889
 43
0.0000000001
 12
1.0
 22
0.0
 32
0.0
 13
1.0
 23
0.0
 33
0.0
 40
0.0
 40
0.0
 40
0.0
 40
0.0
 40
0.1210177131110554
 40
0.1210177131110554
 40
0.1210177131110554
 40
0.2419901306838391
 40
0.2419901306838391
 40
0.2419901306838391
 40
1.0
 40
1.0
 40
1.0
 40
1.0
 10
33.47364023591088
 20
6.320052424639582
 30
0.0
 10
33.47364023591088
 20
6.400901048492791
 30
0.0
 10
33.50135976408912
 20
6.467889908256881
 30
0.0
 10
33.55910878112713
 20
6.523328964613368
 30
0.0
 10
33.61680971405436
 20
6.578721860223512
 30
0.0
 10
33.68153669724771
 20
6.608797509829621
 30
0.0
 10
33.76238532110091
 20
6.608797509829621
 30
0.0
 10
34.23669724770642
 20
6.608797509829621
 30
0.0
 10
34.71100917431193
 20
6.608797509829621
 30
0.0
 10
35.18532110091743
 20
6.608797509829621
 30
0.0
  0
LINE
  5
1EE
330
1DC
100
AcDbEntity
  8
Default
  6
Continuous
 62
     7
100
AcDbLine
 10
33.4736402359
 20
0.0
 30
0.0
 11
33.4736402359
 21
6.3200524246
 31
0.0
  0
LINE
  5
1EF
330
1DC
100
AcDbEntity
  8
Default
  6
Continuous
 62
     7
100
AcDbLine
 10
35.1853211009
 20
0.0
 30
0.0
 11
33.4736402359
 21
0.0
 31
0.0
  0
SPLINE
  5
1F0
330
1DC
100
AcDbEntity
  8
Default
  6
Continuous
 62
     7
100
AcDbSpline
210
0.0
220
0.0
230
1.0
 70
     8
 71
     3
 72
    16
 73
    12
 74
     0
 42
0.0000000009758823
 43
0.0000000001
 12
1.0
 22
0.0
 32
0.0
 13
1.0
 23
0.0
 33
0.0
 40
0.0
 40
0.0
 40
0.0
 40
0.0
 40
0.6159054655977501
 40
0.6159054655977501
 40
0.6159054655977501
 40
0.6376683166669079
 40
0.6376683166669079
 40
0.6603379531972834
 40
0.6603379531972834
 40
0.6603379531972834
 40
1.0
 40
1.0
 40
1.0
 40
1.0
 10
28.82137942332896
 20
0.0
 30
0.0
 10
28.82137942332896
 20
2.101294233289646
 30
0.0
 10
28.82137942332896
 20
4.202588466579293
 30
0.0
 10
28.82137942332896
 20
6.303882699868939
 30
0.0
 10
28.82137942332896
 20
6.38473132372215
 30
0.0
 10
28.84909895150721
 20
6.451720183486239
 30
0.0
 10
28.96228702490171
 20
6.564908256880734
 30
0.0
 10
29.02927588466579
 20
6.592627785058978
 30
0.0
 10
29.110124508519
 20
6.592627785058978
 30
0.0
 10
30.26895478374836
 20
6.592627785058978
 30
0.0
 10
31.42778505897771
 20
6.592627785058978
 30
0.0
 10
32.58661533420707
 20
6.592627785058978
 30
0.0
  0
LINE
  5
1F1
330
1DC
100
AcDbEntity
  8
Default
  6
Continuous
 62
     7
100
AcDbLine
 10
30.5399901704
 20
0.0
 30
0.0
 11
28.8213794233
 21
0.0
 31
0.0
  0
LINE
  5
1F2
330
1DC
100
AcDbEntity
  8
Default
  6
Continuous
 62
     7
100
AcDbLine
 10
30.5399901704
 20
2.5848460026
 30
0.0
 11
30.5399901704
 21
0.0
 31
0.0
  0
LINE
  5
1F3
330
1DC
100
AcDbEntity
  8
Default
  6
Continuous
 62
     7
100
AcDbLine
 10
32.4872870249
 20
2.5848460026
 30
0.0
 11
30.5399901704
 21
2.5848460026
 31
0.0
  0
LINE
  5
1F4
330
1DC
100
AcDbEntity
  8
Default
  6
Continuous
 62
     7
100
AcDbLine
 10
32.4872870249
 20
4.0424311927
 30
0.0
 11
32.4872870249
 21
2.5848460026
 31
0.0
  0
LINE
  5
1F5
330
1DC
100
AcDbEntity
  8
Default
  6
Continuous
 62
     7
100
AcDbLine
 10
30.5399901704
 20
4.0424311927
 30
0.0
 11
32.4872870249
 21
4.0424311927
 31
0.0
  0
LINE
  5
1F6
330
1DC
100
AcDbEntity
  8
Default
  6
Continuous
 62
     7
100
AcDbLine
 10
30.5399901704
 20
5.1419724771
 30
0.0
 11
30.5399901704
 21
4.0424311927
 31
0.0
  0
LINE
  5
1F7
330
1DC
100
AcDbEntity
  8
Default
  6
Continuous
 62
     7
100
AcDbLine
 10
32.5866153342
 20
5.1419724771
 30
0.0
 11
30.5399901704
 21
5.1419724771
 31
0.0
  0
LINE
  5
1F8
330
1DC
100
AcDbEntity
  8
Default
  6
Continuous
 62
     7
100
AcDbLine
 10
32.5866153342
 20
6.5926277851
 30
0.0
 11
32.5866153342
 21
5.1419724771
 31
0.0
  0
LINE
  5
1F9
330
1DC
100
AcDbEntity
  8
Default
  6
Continuous
 62
     7
100
AcDbLine
 10
28.0706422018
 20
4.0424311927
 30
0.0
 11
28.0706422018
 21
2.5848460026
 31
0.0
  0
LINE
  5
1FA
330
1DC
100
AcDbEntity
  8
Default
  6
Continuous
 62
     7
100
AcDbLine
 10
25.9362385321
 20
4.0424311927
 30
0.0
 11
28.0706422018
 21
4.0424311927
 31
0.0
  0
LINE
  5
1FB
330
1DC
100
AcDbEntity
  8
Default
  6
Continuous
 62
     7
100
AcDbLine
 10
25.9362385321
 20
2.5848460026
 30
0.0
 11
25.9362385321
 21
4.0424311927
 31
0.0
  0
LINE
  5
1FC
330
1DC
100
AcDbEntity
  8
Default
  6
Continuous
 62
     7
100
AcDbLine
 10
28.0706422018
 20
2.5848460026
 30
0.0
 11
25.9362385321
 21
2.5848460026
 31
0.0
  0
SPLINE
  5
1FD
330
1DC
100
AcDbEntity
  8
Default
  6
Continuous
 62
     7
100
AcDbSpline
210
0.0
220
0.0
230
1.0
 70
    11
 71
     3
 72
    47
 73
    43
 74
     0
 42
0.0000000008494054
 43
0.0000000001
 12
1.0
 22
0.0
 32
0.0
 13
1.0
 23
0.0
 33
0.0
 40
0.0
 40
0.0
 40
0.0
 40
0.0
 40
0.0637917384076936
 40
0.0637917384076936
 40
0.0637917384076936
 40
0.1265834997779105
 40
0.1265834997779105
 40
0.1893752611481286
 40
0.1893752611481286
 40
0.1893752611481286
 40
0.2604081010642026
 40
0.2604081010642026
 40
0.3159741129340349
 40
0.3159741129340349
 40
0.3159741129340349
 40
0.3751091105868484
 40
0.3751091105868484
 40
0.3751091105868484
 40
0.435995169879425
 40
0.435995169879425
 40
0.435995169879425
 40
0.4997689343159713
 40
0.4997689343159713
 40
0.5635426987525196
 40
0.5635426987525196
 40
0.5635426987525196
 40
0.624232315369434
 40
0.624232315369434
 40
0.624232315369434
 40
0.6835869381889372
 40
0.6835869381889372
 40
0.6835869381889372
 40
0.7357943705008892
 40
0.7357943705008892
 40
0.8025337685079206
 40
0.8025337685079206
 40
0.8692731665149518
 40
0.8692731665149518
 40
0.9360125645219831
 40
0.9360125645219831
 40
0.9360125645219831
 40
1.0
 40
1.0
 40
1.0
 40
1.0
 10
21.44336500655308
 20
1.450655307994758
 30
0.0
 10
21.70208060288335
 20
1.450655307994758
 30
0.0
 10
21.94462647444299
 20
1.501474442988205
 30
0.0
 10
22.16869266055046
 20
1.600802752293579
 30
0.0
 10
22.39468942225328
 20
1.700986883770089
 30
0.0
 10
22.5937254259502
 20
1.836418741808651
 30
0.0
 10
22.93097968545217
 20
2.187532765399738
 30
0.0
 10
23.06495740498034
 20
2.395429226736567
 30
0.0
 10
23.15966579292267
 20
2.63335517693316
 30
0.0
 10
23.25469013236262
 20
2.87207485894082
 30
0.0
 10
23.30519331585845
 20
3.132306684141548
 30
0.0
 10
23.30519331585845
 20
3.642807994757537
 30
0.0
 10
23.25668414154652
 20
3.862254259501967
 30
0.0
 10
23.15966579292267
 20
4.074770642201835
 30
0.0
 10
23.06391850987524
 20
4.284502786020031
 30
0.0
 10
22.93097968545217
 20
4.472083879423329
 30
0.0
 10
22.76235255570118
 20
4.636091087811272
 30
0.0
 10
22.59487996078263
 20
4.798975392458079
 30
0.0
 10
22.39506880733945
 20
4.927146133682831
 30
0.0
 10
22.16869266055046
 20
5.021854521625164
 30
0.0
 10
21.94345992894685
 20
5.116084541989939
 30
0.0
 10
21.70208060288335
 20
5.167382044560944
 30
0.0
 10
21.18464941022281
 20
5.167382044560944
 30
0.0
 10
20.94210353866317
 20
5.118872870249017
 30
0.0
 10
20.71572739187418
 20
5.021854521625164
 30
0.0
 10
20.49213912866634
 20
4.926030980250372
 30
0.0
 10
20.29300458715597
 20
4.797788335517694
 30
0.0
 10
20.12437745740498
 20
4.636091087811272
 30
0.0
 10
19.95459636352431
 20
4.473287299158574
 30
0.0
 10
19.82177260812581
 20
4.284977064220183
 30
0.0
 10
19.72244429882045
 20
4.074770642201835
 30
0.0
 10
19.62222370164274
 20
3.86267589003505
 30
0.0
 10
19.57229685452162
 20
3.642807994757537
 30
0.0
 10
19.57229685452162
 20
3.132306684141548
 30
0.0
 10
19.62311598951508
 20
2.871281127129752
 30
0.0
 10
19.82177260812581
 20
2.395429226736567
 30
0.0
 10
19.95575032765399
 20
2.187532765399738
 30
0.0
 10
20.29300458715597
 20
1.836418741808651
 30
0.0
 10
20.49166120576671
 20
1.700131061598952
 30
0.0
 10
20.71572739187418
 20
1.600802752293579
 30
0.0
 10
20.941724153577
 20
1.500618620817073
 30
0.0
 10
21.18464941022281
 20
1.450655307994758
 30
0.0
 10
21.44336500655308
 20
1.450655307994758
 30
0.0
  0
SPLINE
  5
1FE
330
1DC
100
AcDbEntity
  8
Default
  6
Continuous
 62
     7
100
AcDbSpline
210
0.0
220
0.0
230
1.0
 70
    11
 71
     3
 72
    49
 73
    45
 74
     0
 42
0.0000000004385322
 43
0.0000000001
 12
1.0
 22
0.0
 32
0.0
 13
1.0
 23
0.0
 33
0.0
 40
0.0
 40
0.0
 40
0.0
 40
0.0
 40
0.0617996483207596
 40
0.0617996483207596
 40
0.0617996483207596
 40
0.1220737652654132
 40
0.1220737652654132
 40
0.1220737652654132
 40
0.1820249318660078
 40
0.1820249318660078
 40
0.1820249318660078
 40
0.2438982680995642
 40
0.2438982680995642
 40
0.3109516975991858
 40
0.3109516975991858
 40
0.3109516975991858
 40
0.3722543214771952
 40
0.3722543214771952
 40
0.3722543214771952
 40
0.4335172266527087
 40
0.4335172266527087
 40
0.4335172266527087
 40
0.4994898970728853
 40
0.4994898970728853
 40
0.5657506577569065
 40
0.5657506577569065
 40
0.5657506577569065
 40
0.626961718898901
 40
0.626961718898901
 40
0.6886100019061948
 40
0.6886100019061948
 40
0.6886100019061948
 40
0.7556907268882871
 40
0.7556907268882871
 40
0.8175892499404324
 40
0.8175892499404324
 40
0.8175892499404324
 40
0.8774725210786118
 40
0.8774725210786118
 40
0.8774725210786118
 40
0.9379094648157675
 40
0.9379094648157675
 40
0.9379094648157675
 40
1.0
 40
1.0
 40
1.0
 40
1.0
 10
21.44336500655308
 20
6.83055373525557
 30
0.0
 10
21.91919464291449
 20
6.832852429151036
 30
0.0
 10
22.37658912188729
 20
6.745085190039319
 30
0.0
 10
22.81317169069462
 20
6.581077981651377
 30
0.0
 10
23.25051470703607
 20
6.416785102496653
 30
0.0
 10
23.63782765399738
 20
6.181454783748363
 30
0.0
 10
23.97508191349934
 20
5.878849934469201
 30
0.0
 10
24.31246764930903
 20
5.576127116722139
 30
0.0
 10
24.58491153342071
 20
5.218201179554391
 30
0.0
 10
24.78587811271298
 20
4.800098296199214
 30
0.0
 10
24.9863762849025
 20
4.38296991497732
 30
0.0
 10
25.08848296199213
 20
3.926933158584535
 30
0.0
 10
25.08848296199213
 20
2.892070773263434
 30
0.0
 10
24.99839449541284
 20
2.402359108781128
 30
0.0
 10
24.81590760157274
 20
1.958846657929228
 30
0.0
 10
24.63260786737497
 20
1.513358696334639
 30
0.0
 10
24.38163499344692
 20
1.129570773263435
 30
0.0
 10
24.06055045871559
 20
0.8038663171690699
 30
0.0
 10
23.7406207864759
 20
0.4793333402928437
 30
0.0
 10
23.3560124508519
 20
0.2286861074705122
 30
0.0
 10
22.90788007863696
 20
0.0485091743119273
 30
0.0
 10
22.46253572118054
 20
-0.1305468044592142
 30
0.0
 10
21.97234600262123
 20
-0.2194462647444295
 30
0.0
 10
20.91207404980341
 20
-0.2194462647444295
 30
0.0
 10
20.42467234600262
 20
-0.1293577981651364
 30
0.0
 10
19.9788499344692
 20
0.0485091743119273
 30
0.0
 10
19.53023971314575
 20
0.2274883817829441
 30
0.0
 10
19.14495412844037
 20
0.4804718217562263
 30
0.0
 10
18.49585517693316
 20
1.129570773263435
 30
0.0
 10
18.24406946264745
 20
1.513024246395807
 30
0.0
 10
18.06158256880734
 20
1.958846657929228
 30
0.0
 10
17.87990551563201
 20
2.402690597965156
 30
0.0
 10
17.78669724770642
 20
2.892070773263434
 30
0.0
 10
17.78669724770642
 20
3.926933158584535
 30
0.0
 10
17.88833551769332
 20
4.384305373525557
 30
0.0
 10
18.0916120576671
 20
4.800098296199214
 30
0.0
 10
18.2953544565906
 20
5.21684411217912
 30
0.0
 10
18.56284403669725
 20
5.57855504587156
 30
0.0
 10
18.90009829619921
 20
5.878849934469201
 30
0.0
 10
19.23849979910015
 20
6.18016634116182
 30
0.0
 10
19.62773591087812
 20
6.414760812581914
 30
0.0
 10
20.06662844036697
 20
6.581077981651377
 30
0.0
 10
20.50677543450266
 20
6.747870526797538
 30
0.0
 10
20.96520314547837
 20
6.82824377457405
 30
0.0
 10
21.44336500655308
 20
6.83055373525557
 30
0.0
  0
LINE
  5
1FF
330
1DC
100
AcDbEntity
  8
Default
  6
Continuous
 62
     7
100
AcDbLine
 10
15.3335190039
 20
2.3145806029
 30
0.0
 11
13.8343545216
 21
2.3145806029
 31
0.0
  0
SPLINE
  5
200
330
1DC
100
AcDbEntity
  8
Default
  6
Continuous
 62
     7
100
AcDbSpline
210
0.0
220
0.0
230
1.0
 70
     8
 71
     3
 72
    43
 73
    39
 74
     0
 42
0.0000000009932047
 43
0.0000000001
 12
1.0
 22
0.0
 32
0.0
 13
1.0
 23
0.0
 33
0.0
 40
0.0
 40
0.0
 40
0.0
 40
0.0
 40
0.0949373847537602
 40
0.0949373847537602
 40
0.0949373847537602
 40
0.1911787086491429
 40
0.1911787086491429
 40
0.2677918678027036
 40
0.2677918678027036
 40
0.2677918678027036
 40
0.3406026976746725
 40
0.3406026976746725
 40
0.3406026976746725
 40
0.4151543081273698
 40
0.4151543081273698
 40
0.4151543081273698
 40
0.4895478942304584
 40
0.4895478942304584
 40
0.5659890102262922
 40
0.5659890102262922
 40
0.6424301262221261
 40
0.6424301262221261
 40
0.6424301262221261
 40
0.714798401889747
 40
0.714798401889747
 40
0.714798401889747
 40
0.7953127750919691
 40
0.7953127750919691
 40
0.8472575319966263
 40
0.8472575319966263
 40
0.8472575319966263
 40
0.898191982468852
 40
0.898191982468852
 40
0.898191982468852
 40
0.9471592991231073
 40
0.9471592991231073
 40
0.9471592991231073
 40
1.0
 40
1.0
 40
1.0
 40
1.0
 10
15.25498034076016
 20
4.25956749672346
 30
0.0
 10
15.1348623853211
 20
4.578342070773264
 30
0.0
 10
14.95468545216252
 20
4.832437745740499
 30
0.0
 10
14.7144495412844
 20
5.024164482306685
 30
0.0
 10
14.47167626156505
 20
5.217916234390401
 30
0.0
 10
14.17622870249017
 20
5.312909567496725
 30
0.0
 10
13.54560943643512
 20
5.312909567496725
 30
0.0
 10
13.30075360419397
 20
5.252850589777196
 30
0.0
 10
13.08361730013106
 20
5.13042267365662
 30
0.0
 10
12.86823374940279
 20
5.008983012075785
 30
0.0
 10
12.69092398427261
 20
4.84629750982962
 30
0.0
 10
12.54770642201835
 20
4.647640891218874
 30
0.0
 10
12.40527884987617
 20
4.450080065344236
 30
0.0
 10
12.29823066841416
 20
4.227228047182176
 30
0.0
 10
12.22662188728703
 20
3.980062254259503
 30
0.0
 10
12.15421681189757
 20
3.730147961786198
 30
0.0
 10
12.11574377457405
 20
3.481110747051115
 30
0.0
 10
12.11574377457405
 20
2.970609436435126
 30
0.0
 10
12.15501310615989
 20
2.721133682830931
 30
0.0
 10
12.30747051114023
 20
2.231422018348625
 30
0.0
 10
12.41834862385321
 20
2.009665792922674
 30
0.0
 10
12.56387614678899
 20
1.815629095674968
 30
0.0
 10
12.7105124508519
 20
1.620114023591089
 30
0.0
 10
12.88958060288335
 20
1.46220511140236
 30
0.0
 10
13.10440694626475
 20
1.344397116644824
 30
0.0
 10
13.32020716906946
 20
1.226055058977723
 30
0.0
 10
13.56870904325033
 20
1.16653014416776
 30
0.0
 10
14.03994102228047
 20
1.16653014416776
 30
0.0
 10
14.21780799475754
 20
1.189629750982963
 30
0.0
 10
14.39105504587156
 20
1.240448885976409
 30
0.0
 10
14.5615512434976
 20
1.290461103946714
 30
0.0
 10
14.7144495412844
 20
1.362876802096987
 30
0.0
 10
14.84842726081258
 20
1.457585190039319
 30
0.0
 10
14.98086470130555
 20
1.551204760042966
 30
0.0
 10
15.08866317169069
 20
1.672411533420708
 30
0.0
 10
15.17644167758847
 20
1.815629095674968
 30
0.0
 10
15.26256022686942
 20
1.956138307659666
 30
0.0
 10
15.31503931847969
 20
2.12285386631717
 30
0.0
 10
15.33351900393184
 20
2.314580602883356
 30
0.0
  0
LINE
  5
201
330
1DC
100
AcDbEntity
  8
Default
  6
Continuous
 62
     7
100
AcDbLine
 10
16.8835026212
 20
4.9456258191
 30
0.0
 11
15.2549803408
 21
4.2595674967
 31
0.0
  0
SPLINE
  5
202
330
1DC
100
AcDbEntity
  8
Default
  6
Continuous
 62
     7
100
AcDbSpline
210
0.0
220
0.0
230
1.0
 70
     8
 71
     3
 72
    51
 73
    47
 74
     0
 42
0.0000000004766382
 43
0.0000000001
 12
1.0
 22
0.0
 32
0.0
 13
1.0
 23
0.0
 33
0.0
 40
0.0
 40
0.0
 40
0.0
 40
0.0
 40
0.0095402040290222
 40
0.0095402040290222
 40
0.0095402040290222
 40
0.0400756007423482
 40
0.0400756007423482
 40
0.0400756007423482
 40
0.0693620114069116
 40
0.0693620114069116
 40
0.0986484220714753
 40
0.0986484220714753
 40
0.0986484220714753
 40
0.1302632519246672
 40
0.1302632519246672
 40
0.1302632519246672
 40
0.2055179711079718
 40
0.2055179711079718
 40
0.2055179711079718
 40
0.281182745691462
 40
0.281182745691462
 40
0.3511962093102096
 40
0.3511962093102096
 40
0.3511962093102096
 40
0.4149417185613706
 40
0.4149417185613706
 40
0.4149417185613706
 40
0.4786592191897758
 40
0.4786592191897758
 40
0.4786592191897758
 40
0.5478830793697405
 40
0.5478830793697405
 40
0.6199007276287178
 40
0.6199007276287178
 40
0.6199007276287178
 40
0.6846819262147057
 40
0.6846819262147057
 40
0.6846819262147057
 40
0.7494892886116509
 40
0.7494892886116509
 40
0.7494892886116509
 40
0.8193637744922013
 40
0.8193637744922013
 40
0.9096818872461009
 40
0.9096818872461009
 40
1.0
 40
1.0
 40
1.0
 40
1.0
 10
17.14221821756225
 20
3.658977719528179
 30
0.0
 10
17.14221821756225
 20
3.59275884665793
 30
0.0
 10
17.14221821756225
 20
3.526539973787681
 30
0.0
 10
17.14221821756225
 20
3.460321100917432
 30
0.0
 10
17.14221821756225
 20
3.243184796854522
 30
0.0
 10
17.12835845347313
 20
3.030668414154654
 30
0.0
 10
17.11680865006553
 20
2.825081913499345
 30
0.0
 10
17.10526611434193
 20
2.619624777619178
 30
0.0
 10
17.08446920052425
 20
2.41852883355177
 30
0.0
 10
17.01055045871559
 20
2.021215596330276
 30
0.0
 10
16.95742136304062
 20
1.824868938401049
 30
0.0
 10
16.88350262123198
 20
1.633142201834863
 30
0.0
 10
16.80988280520848
 20
1.442190804023907
 30
0.0
 10
16.70563564875491
 20
1.249688728702491
 30
0.0
 10
16.5670380078637
 20
1.057961992136305
 30
0.0
 10
16.23809819736261
 20
0.6029285876097794
 30
0.0
 10
15.84633027522936
 20
0.2679554390563577
 30
0.0
 10
15.37971821756225
 20
0.06467889908257
 30
0.0
 10
14.91226036066398
 20
-0.1389661078830131
 30
0.0
 10
14.40029488859764
 20
-0.2425458715596323
 30
0.0
 10
13.32847313237222
 20
-0.2425458715596323
 30
0.0
 10
12.85262123197903
 20
-0.1593872870249009
 30
0.0
 10
12.41834862385321
 20
0.0092398427260818
 30
0.0
 10
11.9860833240235
 20
0.1770875389365569
 30
0.0
 10
11.61448230668415
 20
0.4157929226736576
 30
0.0
 10
11.30725753604194
 20
0.7183977719528185
 30
0.0
 10
10.99887791762487
 20
1.022140102874894
 30
0.0
 10
10.76210681520315
 20
1.39059633027523
 30
0.0
 10
10.58885976408912
 20
1.822558977719529
 30
0.0
 10
10.41673087643255
 20
2.251733670943243
 30
0.0
 10
10.33245412844037
 20
2.725753604193972
 30
0.0
 10
10.33245412844037
 20
3.776785714285715
 30
0.0
 10
10.41792267365662
 20
4.264187418086501
 30
0.0
 10
10.58885976408912
 20
4.700769986893841
 30
0.0
 10
10.76010389980871
 20
5.138136765961434
 30
0.0
 10
11.00465268676278
 20
5.511566186107471
 30
0.0
 10
11.31880733944954
 20
5.823410878112714
 30
0.0
 10
11.6318070432484
 20
6.134109113501288
 30
0.0
 10
12.00948558322411
 20
6.373181520314549
 30
0.0
 10
12.44837811271297
 20
6.544118610747052
 30
0.0
 10
12.88849518360602
 20
6.715532627831713
 30
0.0
 10
13.37467234600262
 20
6.795904325032767
 30
0.0
 10
14.58740170380079
 20
6.795904325032767
 30
0.0
 10
15.18106159895151
 20
6.643446920052426
 30
0.0
 10
16.20206422018348
 20
6.033617300131063
 30
0.0
 10
16.59937745740498
 20
5.56931520314548
 30
0.0
 10
16.88350262123198
 20
4.945625819134994
 30
0.0
  0
LINE
  5
203
330
1DC
100
AcDbEntity
  8
Default
  6
Continuous
 62
     7
100
AcDbLine
 10
13.8343545216
 20
3.6589777195
 30
0.0
 11
17.1422182176
 21
3.6589777195
 31
0.0
  0
LINE
  5
204
330
1DC
100
AcDbEntity
  8
Default
  6
Continuous
 62
     7
100
AcDbLine
 10
13.8343545216
 20
2.3145806029
 30
0.0
 11
13.8343545216
 21
3.6589777195
 31
0.0
  0
SPLINE
  5
205
330
1DC
100
AcDbEntity
  8
Default
  6
Continuous
 62
     7
100
AcDbSpline
210
0.0
220
0.0
230
1.0
 70
     8
 71
     3
 72
    16
 73
    12
 74
     0
 42
0.000000000976763
 43
0.0000000001
 12
1.0
 22
0.0
 32
0.0
 13
1.0
 23
0.0
 33
0.0
 40
0.0
 40
0.0
 40
0.0
 40
0.0
 40
0.6164577788718584
 40
0.6164577788718584
 40
0.6164577788718584
 40
0.6381328433885463
 40
0.6381328433885463
 40
0.6607110355934293
 40
0.6607110355934293
 40
0.6607110355934293
 40
1.0
 40
1.0
 40
1.0
 40
1.0
 10
6.022067496723459
 20
0.0000000000000018
 30
0.0
 10
6.022067496723459
 20
2.101294233289647
 30
0.0
 10
6.022067496723459
 20
4.202588466579293
 30
0.0
 10
6.022067496723459
 20
6.303882699868939
 30
0.0
 10
6.022067496723459
 20
6.38473132372215
 30
0.0
 10
6.049787024901704
 20
6.451720183486239
 30
0.0
 10
6.162975098296197
 20
6.564908256880734
 30
0.0
 10
6.229963958060289
 20
6.592627785058978
 30
0.0
 10
6.30850262123198
 20
6.592627785058978
 30
0.0
 10
7.465022935779817
 20
6.592627785058978
 30
0.0
 10
8.621543250327658
 20
6.592627785058978
 30
0.0
 10
9.778063564875495
 20
6.592627785058978
 30
0.0
  0
LINE
  5
206
330
1DC
100
AcDbEntity
  8
Default
  6
Continuous
 62
     7
100
AcDbLine
 10
9.7780635649
 20
0.0
 30
0.0
 11
6.0220674967
 21
0.0
 31
0.0
  0
LINE
  5
207
330
1DC
100
AcDbEntity
  8
Default
  6
Continuous
 62
     7
100
AcDbLine
 10
9.7780635649
 20
1.450655308
 30
0.0
 11
9.7780635649
 21
0.0
 31
0.0
  0
LINE
  5
208
330
1DC
100
AcDbEntity
  8
Default
  6
Continuous
 62
     7
100
AcDbLine
 10
7.731438401
 20
1.450655308
 30
0.0
 11
9.7780635649
 21
1.450655308
 31
0.0
  0
LINE
  5
209
330
1DC
100
AcDbEntity
  8
Default
  6
Continuous
 62
     7
100
AcDbLine
 10
7.731438401
 20
2.5848460026
 30
0.0
 11
7.731438401
 21
1.450655308
 31
0.0
  0
LINE
  5
20A
330
1DC
100
AcDbEntity
  8
Default
  6
Continuous
 62
     7
100
AcDbLine
 10
9.6787352556
 20
2.5848460026
 30
0.0
 11
7.731438401
 21
2.5848460026
 31
0.0
  0
LINE
  5
20B
330
1DC
100
AcDbEntity
  8
Default
  6
Continuous
 62
     7
100
AcDbLine
 10
9.6787352556
 20
4.0424311927
 30
0.0
 11
9.6787352556
 21
2.5848460026
 31
0.0
  0
LINE
  5
20C
330
1DC
100
AcDbEntity
  8
Default
  6
Continuous
 62
     7
100
AcDbLine
 10
7.731438401
 20
4.0424311927
 30
0.0
 11
9.6787352556
 21
4.0424311927
 31
0.0
  0
LINE
  5
20D
330
1DC
100
AcDbEntity
  8
Default
  6
Continuous
 62
     7
100
AcDbLine
 10
7.731438401
 20
5.1419724771
 30
0.0
 11
7.731438401
 21
4.0424311927
 31
0.0
  0
LINE
  5
20E
330
1DC
100
AcDbEntity
  8
Default
  6
Continuous
 62
     7
100
AcDbLine
 10
9.7780635649
 20
5.1419724771
 30
0.0
 11
7.731438401
 21
5.1419724771
 31
0.0
  0
LINE
  5
20F
330
1DC
100
AcDbEntity
  8
Default
  6
Continuous
 62
     7
100
AcDbLine
 10
9.7780635649
 20
6.5926277851
 30
0.0
 11
9.7780635649
 21
5.1419724771
 31
0.0
  0
LINE
  5
210
330
1DC
100
AcDbEntity
  8
Default
  6
Continuous
 62
     7
100
AcDbLine
 10
1.7093709043
 20
5.280570118
 30
0.0
 11
1.7093709043
 21
3.6312581913
 31
0.0
  0
LINE
  5
211
330
1DC
100
AcDbEntity
  8
Default
  6
Continuous
 62
     7
100
AcDbLine
 10
1.7093709043
 20
3.6312581913
 30
0.0
 11
1.8803079948
 21
3.6312581913
 31
0.0
  0
SPLINE
  5
212
330
1DC
100
AcDbEntity
  8
Default
  6
Continuous
 62
     7
100
AcDbSpline
210
0.0
220
0.0
230
1.0
 70
     8
 71
     3
 72
    29
 73
    25
 74
     0
 42
0.0000000028633018
 43
0.0000000001
 12
1.0
 22
0.0
 32
0.0
 13
1.0
 23
0.0
 33
0.0
 40
0.0
 40
0.0
 40
0.0
 40
0.0
 40
0.1203556671631279
 40
0.1203556671631279
 40
0.1203556671631279
 40
0.2363519504887718
 40
0.2363519504887718
 40
0.2363519504887718
 40
0.3551316836966588
 40
0.3551316836966588
 40
0.4739114169045465
 40
0.4739114169045465
 40
0.5942337440501996
 40
0.5942337440501996
 40
0.7145560711958533
 40
0.7145560711958533
 40
0.7145560711958533
 40
0.8303426976884648
 40
0.8303426976884648
 40
0.8303426976884648
 40
0.9506957818555967
 40
0.9506957818555967
 40
0.9506957818555967
 40
1.0
 40
1.0
 40
1.0
 40
1.0
 10
1.880307994757537
 20
3.631258191349935
 30
0.0
 10
2.018905635648757
 20
3.631258191349935
 30
0.0
 10
2.157503276539977
 20
3.640498034076017
 30
0.0
 10
2.296100917431193
 20
3.661287680209699
 30
0.0
 10
2.436957688573287
 20
3.682416195881014
 30
0.0
 10
2.564056356487548
 20
3.719036697247708
 30
0.0
 10
2.679554390563567
 20
3.776785714285715
 30
0.0
 10
2.795976408912189
 20
3.834996723460025
 30
0.0
 10
2.889760812581915
 20
3.915383355176934
 30
0.0
 10
3.028358453473135
 20
4.132519659239843
 30
0.0
 10
3.063007863695937
 20
4.278047182175624
 30
0.0
 10
3.063007863695937
 20
4.636091087811272
 30
0.0
 10
3.028358453473135
 20
4.779308650065532
 30
0.0
 10
2.889760812581915
 20
4.996444954128441
 30
0.0
 10
2.797362385321101
 20
5.079603538663172
 30
0.0
 10
2.679554390563567
 20
5.13735255570118
 30
0.0
 10
2.564521785639126
 20
5.193741087526886
 30
0.0
 10
2.437008519003932
 20
5.229750982961993
 30
0.0
 10
2.296100917431193
 20
5.250540629095676
 30
0.0
 10
2.157454063805833
 20
5.270996722253517
 30
0.0
 10
2.018905635648757
 20
5.28057011795544
 30
0.0
 10
1.880307994757537
 20
5.28057011795544
 30
0.0
 10
1.823328964613371
 20
5.28057011795544
 30
0.0
 10
1.766349934469201
 20
5.28057011795544
 30
0.0
 10
1.709370904325031
 20
5.28057011795544
 30
0.0
  0
LINE
  5
213
330
1DC
100
AcDbEntity
  8
Default
  6
Continuous
 62
     7
100
AcDbLine
 10
1.7093709043
 20
0.0
 30
0.0
 11
0.0
 21
0.0
 31
0.0
  0
LINE
  5
214
330
1DC
100
AcDbEntity
  8
Default
  6
Continuous
 62
     7
100
AcDbLine
 10
1.7093709043
 20
2.5340268676
 30
0.0
 11
1.7093709043
 21
0.0
 31
0.0
  0
LINE
  5
215
330
1DC
100
AcDbEntity
  8
Default
  6
Continuous
 62
     7
100
AcDbLine
 10
3.3402031455
 20
0.0
 30
0.0
 11
1.7093709043
 21
2.5340268676
 31
0.0
  0
LINE
  5
216
330
1DC
100
AcDbEntity
  8
Default
  6
Continuous
 62
     7
100
AcDbLine
 10
5.4769167759
 20
0.0
 30
0.0
 11
3.3402031455
 21
0.0
 31
0.0
  0
LINE
  5
217
330
1DC
100
AcDbEntity
  8
Default
  6
Continuous
 62
     7
100
AcDbLine
 10
3.4002621232
 20
2.7003440367
 30
0.0
 11
5.4769167759
 21
0.0
 31
0.0
  0
SPLINE
  5
218
330
1DC
100
AcDbEntity
  8
Default
  6
Continuous
 62
     7
100
AcDbSpline
210
0.0
220
0.0
230
1.0
 70
     8
 71
     3
 72
    39
 73
    35
 74
     0
 42
0.0000000006617465
 43
0.0000000001
 12
1.0
 22
0.0
 32
0.0
 13
1.0
 23
0.0
 33
0.0
 40
0.0
 40
0.0
 40
0.0
 40
0.0
 40
0.4184837171182216
 40
0.4184837171182216
 40
0.4184837171182216
 40
0.4329116956232541
 40
0.4329116956232541
 40
0.447940839899329
 40
0.447940839899329
 40
0.447940839899329
 40
0.5989875461512338
 40
0.5989875461512338
 40
0.5989875461512338
 40
0.65983019696195
 40
0.65983019696195
 40
0.65983019696195
 40
0.7141636694202442
 40
0.7141636694202442
 40
0.7141636694202442
 40
0.7672492360561214
 40
0.7672492360561214
 40
0.7672492360561214
 40
0.8311842098663922
 40
0.8311842098663922
 40
0.8732466926363075
 40
0.8732466926363075
 40
0.8732466926363075
 40
0.9147241024096695
 40
0.9147241024096695
 40
0.9147241024096695
 40
0.9560702513872078
 40
0.9560702513872078
 40
0.9560702513872078
 40
1.0
 40
1.0
 40
1.0
 40
1.0
 10
0.0
 20
0.0
 30
0.0
 10
0.0
 20
2.101294233289646
 30
0.0
 10
0.0
 20
4.202588466579293
 30
0.0
 10
0.0
 20
6.303882699868939
 30
0.0
 10
0.0
 20
6.38473132372215
 30
0.0
 10
0.0277195281782454
 20
6.451720183486239
 30
0.0
 10
0.1409076015727422
 20
6.564908256880734
 30
0.0
 10
0.2055865006553077
 20
6.592627785058978
 30
0.0
 10
0.2771952817824364
 20
6.592627785058978
 30
0.0
 10
1.035632372214941
 20
6.592627785058978
 30
0.0
 10
1.794069462647446
 20
6.592627785058977
 30
0.0
 10
2.552506553079947
 20
6.592627785058978
 30
0.0
 10
2.878211009174311
 20
6.592627785058978
 30
0.0
 10
3.180815858453474
 20
6.553358453473132
 30
0.0
 10
3.458011140235911
 20
6.472509829619922
 30
0.0
 10
3.736714364351247
 20
6.39122138925295
 30
0.0
 10
3.977752293577982
 20
6.271543250327655
 30
0.0
 10
4.18333879423329
 20
6.105226081258192
 30
0.0
 10
4.387795784926965
 20
5.939822673056568
 30
0.0
 10
4.550622542595022
 20
5.731012450851901
 30
0.0
 10
4.666120576671034
 20
5.476916775884666
 30
0.0
 10
4.782488801414747
 20
5.220906681448501
 30
0.0
 10
4.839367627785059
 20
4.917906290956751
 30
0.0
 10
4.839367627785059
 20
4.335796199213631
 30
0.0
 10
4.809338138925298
 20
4.116349934469202
 30
0.0
 10
4.744659239842726
 20
3.913073394495413
 30
0.0
 10
4.679525282839784
 20
3.708366672486163
 30
0.0
 10
4.589891874180864
 20
3.520380078636961
 30
0.0
 10
4.467463958060289
 20
3.356372870249018
 30
0.0
 10
4.343928732125118
 20
3.19088228456228
 30
0.0
 10
4.19488859764089
 20
3.049148099606816
 30
0.0
 10
4.014711664482306
 20
2.9336500655308
 30
0.0
 10
3.836171940175813
 20
2.819201524308691
 30
0.0
 10
3.631258191349932
 20
2.739613368283093
 30
0.0
 10
3.400262123197905
 20
2.700344036697248
 30
0.0
  0
HATCH
  5
219
330
1DC
100
AcDbEntity
  8
Default
  6
Continuous
 62
     7
100
AcDbHatch
 10
0.0
 20
0.0
 30
0.0
210
0.0
220
0.0
230
1.0
  2
SOLID
 70
     1
 71
     0
 91
        2
 92
        1
 93
        6
 72
     4
 94
        3
 73
     0
 74
     0
 95
       39
 96
       35
 40
0.0
 40
0.0
 40
0.0
 40
0.0
 40
0.0439297486127922
 40
0.0439297486127922
 40
0.0439297486127922
 40
0.0852758975903305
 40
0.0852758975903305
 40
0.0852758975903305
 40
0.1267533073636925
 40
0.1267533073636925
 40
0.1267533073636925
 40
0.1688157901336078
 40
0.1688157901336078
 40
0.2327507639438786
 40
0.2327507639438786
 40
0.2327507639438786
 40
0.2858363305797558
 40
0.2858363305797558
 40
0.2858363305797558
 40
0.34016980303805
 40
0.34016980303805
 40
0.34016980303805
 40
0.4010124538487662
 40
0.4010124538487662
 40
0.4010124538487662
 40
0.552059160100671
 40
0.552059160100671
 40
0.552059160100671
 40
0.5670883043767458
 40
0.5670883043767458
 40
0.5815162828817784
 40
0.5815162828817784
 40
0.5815162828817784
 40
1.0
 40
1.0
 40
1.0
 40
1.0
 10
3.400262123197905
 20
2.700344036697248
 10
3.631258191349932
 20
2.739613368283093
 10
3.836171940175813
 20
2.819201524308691
 10
4.014711664482306
 20
2.9336500655308
 10
4.19488859764089
 20
3.049148099606816
 10
4.343928732125118
 20
3.19088228456228
 10
4.467463958060289
 20
3.356372870249018
 10
4.589891874180864
 20
3.520380078636961
 10
4.679525282839784
 20
3.708366672486163
 10
4.744659239842726
 20
3.913073394495413
 10
4.809338138925298
 20
4.116349934469202
 10
4.839367627785059
 20
4.335796199213631
 10
4.839367627785059
 20
4.917906290956751
 10
4.782488801414747
 20
5.220906681448501
 10
4.666120576671034
 20
5.476916775884666
 10
4.550622542595022
 20
5.731012450851901
 10
4.387795784926965
 20
5.939822673056568
 10
4.18333879423329
 20
6.105226081258192
 10
3.977752293577982
 20
6.271543250327655
 10
3.736714364351247
 20
6.39122138925295
 10
3.458011140235911
 20
6.472509829619922
 10
3.180815858453474
 20
6.553358453473132
 10
2.878211009174311
 20
6.592627785058978
 10
2.552506553079947
 20
6.592627785058978
 10
1.794069462647446
 20
6.592627785058977
 10
1.035632372214941
 20
6.592627785058978
 10
0.2771952817824364
 20
6.592627785058978
 10
0.2055865006553077
 20
6.592627785058978
 10
0.1409076015727422
 20
6.564908256880734
 10
0.0277195281782454
 20
6.451720183486239
 10
0.0
 20
6.38473132372215
 10
0.0
 20
6.303882699868939
 10
0.0
 20
4.202588466579293
 10
0.0
 20
2.101294233289646
 10
0.0
 20
0.0
 72
     1
 10
0.0
 20
0.0
 11
1.709370904325033
 21
0.0000000000000009
 72
     1
 10
1.709370904325031
 20
0.0000000000000009
 11
1.709370904325031
 21
2.534026867627786
 72
     1
 10
1.709370904325031
 20
2.534026867627786
 11
3.340203145478373
 21
0.0000000000000004
 72
     1
 10
3.340203145478373
 20
0.0000000000000009
 11
5.476916775884664
 21
0.0000000000000009
 72
     1
 10
5.476916775884668
 20
0.0000000000000009
 11
3.400262123197905
 21
2.700344036697248
 97
        0
 92
        1
 93
        3
 72
     1
 10
1.709370904325031
 20
5.28057011795544
 11
1.709370904325031
 21
3.631258191349935
 72
     1
 10
1.709370904325031
 20
3.631258191349935
 11
1.880307994757535
 21
3.631258191349935
 72
     4
 94
        3
 73
     0
 74
     0
 95
       29
 96
       25
 40
0.0
 40
0.0
 40
0.0
 40
0.0
 40
0.120355667163128
 40
0.120355667163128
 40
0.120355667163128
 40
0.2363519504887718
 40
0.2363519504887718
 40
0.2363519504887718
 40
0.3551316836966587
 40
0.3551316836966587
 40
0.4739114169045465
 40
0.4739114169045465
 40
0.5942337440501996
 40
0.5942337440501996
 40
0.7145560711958533
 40
0.7145560711958533
 40
0.7145560711958533
 40
0.8303426976884648
 40
0.8303426976884648
 40
0.8303426976884648
 40
0.9506957818555967
 40
0.9506957818555967
 40
0.9506957818555967
 40
1.0
 40
1.0
 40
1.0
 40
1.0
 10
1.880307994757537
 20
3.631258191349935
 10
2.018905635648757
 20
3.631258191349935
 10
2.157503276539977
 20
3.640498034076017
 10
2.296100917431193
 20
3.661287680209699
 10
2.436957688573287
 20
3.682416195881014
 10
2.564056356487548
 20
3.719036697247708
 10
2.679554390563567
 20
3.776785714285715
 10
2.795976408912189
 20
3.834996723460025
 10
2.889760812581915
 20
3.915383355176934
 10
3.028358453473135
 20
4.132519659239843
 10
3.063007863695937
 20
4.278047182175624
 10
3.063007863695937
 20
4.636091087811272
 10
3.028358453473135
 20
4.779308650065532
 10
2.889760812581915
 20
4.996444954128441
 10
2.797362385321101
 20
5.079603538663172
 10
2.679554390563567
 20
5.13735255570118
 10
2.564521785639126
 20
5.193741087526886
 10
2.437008519003932
 20
5.229750982961993
 10
2.296100917431193
 20
5.250540629095676
 10
2.157454063805833
 20
5.270996722253517
 10
2.018905635648757
 20
5.28057011795544
 10
1.880307994757537
 20
5.28057011795544
 10
1.823328964613371
 20
5.28057011795544
 10
1.766349934469201
 20
5.28057011795544
 10
1.709370904325031
 20
5.28057011795544
 97
        0
 75
     0
 76
     1
 98
        0
  0
HATCH
  5
21A
330
1DC
100
AcDbEntity
  8
Default
  6
Continuous
 62
     7
100
AcDbHatch
 10
0.0
 20
0.0
 30
0.0
210
0.0
220
0.0
230
1.0
  2
SOLID
 70
     1
 71
     0
 91
        1
 92
        1
 93
       11
 72
     4
 94
        3
 73
     0
 74
     0
 95
       16
 96
       12
 40
0.0
 40
0.0
 40
0.0
 40
0.0
 40
0.3392889644065707
 40
0.3392889644065707
 40
0.3392889644065707
 40
0.3618671566114537
 40
0.3618671566114537
 40
0.3835422211281416
 40
0.3835422211281416
 40
0.3835422211281416
 40
1.0
 40
1.0
 40
1.0
 40
1.0
 10
9.778063564875495
 20
6.592627785058978
 10
8.621543250327658
 20
6.592627785058978
 10
7.465022935779817
 20
6.592627785058978
 10
6.30850262123198
 20
6.592627785058978
 10
6.229963958060289
 20
6.592627785058978
 10
6.162975098296197
 20
6.564908256880734
 10
6.049787024901704
 20
6.451720183486239
 10
6.022067496723459
 20
6.38473132372215
 10
6.022067496723459
 20
6.303882699868939
 10
6.022067496723459
 20
4.202588466579293
 10
6.022067496723459
 20
2.101294233289647
 10
6.022067496723459
 20
0.0000000000000018
 72
     1
 10
6.022067496723459
 20
0.0000000000000018
 11
9.778063564875495
 21
0.0000000000000009
 72
     1
 10
9.778063564875495
 20
0.0000000000000009
 11
9.778063564875495
 21
1.450655307994759
 72
     1
 10
9.778063564875495
 20
1.450655307994758
 11
7.731438401048491
 21
1.450655307994758
 72
     1
 10
7.731438401048493
 20
1.450655307994758
 11
7.731438401048493
 21
2.584846002621233
 72
     1
 10
7.731438401048493
 20
2.584846002621233
 11
9.678735255570121
 21
2.584846002621233
 72
     1
 10
9.678735255570121
 20
2.584846002621233
 11
9.678735255570121
 21
4.042431192660551
 72
     1
 10
9.678735255570121
 20
4.042431192660551
 11
7.731438401048493
 21
4.042431192660551
 72
     1
 10
7.731438401048493
 20
4.042431192660551
 11
7.731438401048493
 21
5.141972477064221
 72
     1
 10
7.731438401048493
 20
5.141972477064221
 11
9.778063564875497
 21
5.141972477064221
 72
     1
 10
9.778063564875495
 20
5.141972477064221
 11
9.778063564875495
 21
6.592627785058978
 97
        0
 75
     0
 76
     1
 98
        0
  0
HATCH
  5
21B
330
1DC
100
AcDbEntity
  8
Default
  6
Continuous
 62
     7
100
AcDbHatch
 10
0.0
 20
0.0
 30
0.0
210
0.0
220
0.0
230
1.0
  2
SOLID
 70
     1
 71
     0
 91
        1
 92
        1
 93
        6
 72
     4
 94
        3
 73
     0
 74
     0
 95
       51
 96
       47
 40
0.0
 40
0.0
 40
0.0
 40
0.0
 40
0.0903181127538991
 40
0.0903181127538991
 40
0.1806362255077987
 40
0.1806362255077987
 40
0.2505107113883491
 40
0.2505107113883491
 40
0.2505107113883491
 40
0.3153180737852943
 40
0.3153180737852943
 40
0.3153180737852943
 40
0.3800992723712822
 40
0.3800992723712822
 40
0.3800992723712822
 40
0.4521169206302595
 40
0.4521169206302595
 40
0.5213407808102242
 40
0.5213407808102242
 40
0.5213407808102242
 40
0.5850582814386294
 40
0.5850582814386294
 40
0.5850582814386294
 40
0.6488037906897904
 40
0.6488037906897904
 40
0.6488037906897904
 40
0.718817254308538
 40
0.718817254308538
 40
0.7944820288920282
 40
0.7944820288920282
 40
0.7944820288920282
 40
0.8697367480753329
 40
0.8697367480753329
 40
0.8697367480753329
 40
0.9013515779285247
 40
0.9013515779285247
 40
0.9013515779285247
 40
0.9306379885930884
 40
0.9306379885930884
 40
0.9599243992576518
 40
0.9599243992576518
 40
0.9599243992576518
 40
0.9904597959709778
 40
0.9904597959709778
 40
0.9904597959709778
 40
1.0
 40
1.0
 40
1.0
 40
1.0
 10
16.88350262123198
 20
4.945625819134994
 10
16.59937745740498
 20
5.56931520314548
 10
16.20206422018348
 20
6.033617300131063
 10
15.18106159895151
 20
6.643446920052426
 10
14.58740170380079
 20
6.795904325032767
 10
13.37467234600262
 20
6.795904325032767
 10
12.88849518360602
 20
6.715532627831713
 10
12.44837811271297
 20
6.544118610747052
 10
12.00948558322411
 20
6.373181520314549
 10
11.6318070432484
 20
6.134109113501288
 10
11.31880733944954
 20
5.823410878112714
 10
11.00465268676278
 20
5.511566186107471
 10
10.76010389980871
 20
5.138136765961434
 10
10.58885976408912
 20
4.700769986893841
 10
10.41792267365662
 20
4.264187418086501
 10
10.33245412844037
 20
3.776785714285715
 10
10.33245412844037
 20
2.725753604193972
 10
10.41673087643255
 20
2.251733670943243
 10
10.58885976408912
 20
1.822558977719529
 10
10.76210681520315
 20
1.39059633027523
 10
10.99887791762487
 20
1.022140102874894
 10
11.30725753604194
 20
0.7183977719528185
 10
11.61448230668415
 20
0.4157929226736576
 10
11.9860833240235
 20
0.1770875389365569
 10
12.41834862385321
 20
0.0092398427260818
 10
12.85262123197903
 20
-0.1593872870249009
 10
13.32847313237222
 20
-0.2425458715596323
 10
14.40029488859764
 20
-0.2425458715596323
 10
14.91226036066398
 20
-0.1389661078830131
 10
15.37971821756225
 20
0.06467889908257
 10
15.84633027522936
 20
0.2679554390563577
 10
16.23809819736261
 20
0.6029285876097794
 10
16.5670380078637
 20
1.057961992136305
 10
16.70563564875491
 20
1.249688728702491
 10
16.80988280520848
 20
1.442190804023907
 10
16.88350262123198
 20
1.633142201834863
 10
16.95742136304062
 20
1.824868938401049
 10
17.01055045871559
 20
2.021215596330276
 10
17.08446920052425
 20
2.41852883355177
 10
17.10526611434193
 20
2.619624777619178
 10
17.11680865006553
 20
2.825081913499345
 10
17.12835845347313
 20
3.030668414154654
 10
17.14221821756225
 20
3.243184796854522
 10
17.14221821756225
 20
3.460321100917432
 10
17.14221821756225
 20
3.526539973787681
 10
17.14221821756225
 20
3.59275884665793
 10
17.14221821756225
 20
3.658977719528179
 72
     1
 10
17.14221821756225
 20
3.658977719528179
 11
13.83435452162517
 21
3.658977719528179
 72
     1
 10
13.83435452162517
 20
3.658977719528179
 11
13.83435452162517
 21
2.314580602883356
 72
     1
 10
13.83435452162517
 20
2.314580602883356
 11
15.33351900393184
 21
2.314580602883356
 72
     4
 94
        3
 73
     0
 74
     0
 95
       43
 96
       39
 40
0.0
 40
0.0
 40
0.0
 40
0.0
 40
0.0528407008768927
 40
0.0528407008768927
 40
0.0528407008768927
 40
0.101808017531148
 40
0.101808017531148
 40
0.101808017531148
 40
0.1527424680033737
 40
0.1527424680033737
 40
0.1527424680033737
 40
0.2046872249080309
 40
0.2046872249080309
 40
0.285201598110253
 40
0.285201598110253
 40
0.285201598110253
 40
0.3575698737778739
 40
0.3575698737778739
 40
0.3575698737778739
 40
0.4340109897737078
 40
0.4340109897737078
 40
0.5104521057695417
 40
0.5104521057695417
 40
0.5848456918726302
 40
0.5848456918726302
 40
0.5848456918726302
 40
0.6593973023253275
 40
0.6593973023253275
 40
0.6593973023253275
 40
0.7322081321972964
 40
0.7322081321972964
 40
0.7322081321972964
 40
0.808821291350857
 40
0.808821291350857
 40
0.9050626152462398
 40
0.9050626152462398
 40
0.9050626152462398
 40
1.0
 40
1.0
 40
1.0
 40
1.0
 10
15.33351900393184
 20
2.314580602883356
 10
15.31503931847969
 20
2.12285386631717
 10
15.26256022686942
 20
1.956138307659666
 10
15.17644167758847
 20
1.815629095674968
 10
15.08866317169069
 20
1.672411533420708
 10
14.98086470130555
 20
1.551204760042966
 10
14.84842726081258
 20
1.457585190039319
 10
14.7144495412844
 20
1.362876802096987
 10
14.5615512434976
 20
1.290461103946714
 10
14.39105504587156
 20
1.240448885976409
 10
14.21780799475754
 20
1.189629750982963
 10
14.03994102228047
 20
1.16653014416776
 10
13.56870904325033
 20
1.16653014416776
 10
13.32020716906946
 20
1.226055058977723
 10
13.10440694626475
 20
1.344397116644824
 10
12.88958060288335
 20
1.46220511140236
 10
12.7105124508519
 20
1.620114023591089
 10
12.56387614678899
 20
1.815629095674968
 10
12.41834862385321
 20
2.009665792922674
 10
12.30747051114023
 20
2.231422018348625
 10
12.15501310615989
 20
2.721133682830931
 10
12.11574377457405
 20
2.970609436435126
 10
12.11574377457405
 20
3.481110747051115
 10
12.15421681189757
 20
3.730147961786198
 10
12.22662188728703
 20
3.980062254259503
 10
12.29823066841416
 20
4.227228047182176
 10
12.40527884987617
 20
4.450080065344236
 10
12.54770642201835
 20
4.647640891218874
 10
12.69092398427261
 20
4.84629750982962
 10
12.86823374940279
 20
5.008983012075785
 10
13.08361730013106
 20
5.13042267365662
 10
13.30075360419397
 20
5.252850589777196
 10
13.54560943643512
 20
5.312909567496725
 10
14.17622870249017
 20
5.312909567496725
 10
14.47167626156505
 20
5.217916234390401
 10
14.7144495412844
 20
5.024164482306685
 10
14.95468545216252
 20
4.832437745740499
 10
15.1348623853211
 20
4.578342070773264
 10
15.25498034076016
 20
4.25956749672346
 72
     1
 10
15.25498034076016
 20
4.25956749672346
 11
16.88350262123198
 21
4.945625819134994
 97
        0
 75
     0
 76
     1
 98
        0
  0
HATCH
  5
21C
330
1DC
100
AcDbEntity
  8
Default
  6
Continuous
 62
     7
100
AcDbHatch
 10
0.0
 20
0.0
 30
0.0
210
0.0
220
0.0
230
1.0
  2
SOLID
 70
     1
 71
     0
 91
        2
 92
        1
 93
        1
 72
     4
 94
        3
 73
     0
 74
     0
 95
       49
 96
       45
 40
0.0
 40
0.0
 40
0.0
 40
0.0
 40
0.0620905351842325
 40
0.0620905351842325
 40
0.0620905351842325
 40
0.1225274789213882
 40
0.1225274789213882
 40
0.1225274789213882
 40
0.1824107500595676
 40
0.1824107500595676
 40
0.1824107500595676
 40
0.2443092731117129
 40
0.2443092731117129
 40
0.3113899980938052
 40
0.3113899980938052
 40
0.3113899980938052
 40
0.373038281101099
 40
0.373038281101099
 40
0.4342493422430935
 40
0.4342493422430935
 40
0.4342493422430935
 40
0.5005101029271146
 40
0.5005101029271146
 40
0.5664827733472912
 40
0.5664827733472912
 40
0.5664827733472912
 40
0.6277456785228048
 40
0.6277456785228048
 40
0.6277456785228048
 40
0.6890483024008142
 40
0.6890483024008142
 40
0.6890483024008142
 40
0.7561017319004357
 40
0.7561017319004357
 40
0.8179750681339922
 40
0.8179750681339922
 40
0.8179750681339922
 40
0.8779262347345869
 40
0.8779262347345869
 40
0.8779262347345869
 40
0.9382003516792404
 40
0.9382003516792404
 40
0.9382003516792404
 40
1.0
 40
1.0
 40
1.0
 40
1.0
 10
21.44336500655308
 20
6.83055373525557
 10
20.96520314547837
 20
6.82824377457405
 10
20.50677543450266
 20
6.747870526797538
 10
20.06662844036697
 20
6.581077981651377
 10
19.62773591087812
 20
6.414760812581914
 10
19.23849979910015
 20
6.18016634116182
 10
18.90009829619921
 20
5.878849934469201
 10
18.56284403669725
 20
5.57855504587156
 10
18.2953544565906
 20
5.21684411217912
 10
18.0916120576671
 20
4.800098296199214
 10
17.88833551769332
 20
4.384305373525557
 10
17.78669724770642
 20
3.926933158584535
 10
17.78669724770642
 20
2.892070773263434
 10
17.87990551563201
 20
2.402690597965156
 10
18.06158256880734
 20
1.958846657929228
 10
18.24406946264745
 20
1.513024246395807
 10
18.49585517693316
 20
1.129570773263435
 10
19.14495412844037
 20
0.4804718217562263
 10
19.53023971314575
 20
0.2274883817829441
 10
19.9788499344692
 20
0.0485091743119273
 10
20.42467234600262
 20
-0.1293577981651364
 10
20.91207404980341
 20
-0.2194462647444295
 10
21.97234600262123
 20
-0.2194462647444295
 10
22.46253572118054
 20
-0.1305468044592142
 10
22.90788007863696
 20
0.0485091743119273
 10
23.3560124508519
 20
0.2286861074705122
 10
23.7406207864759
 20
0.4793333402928437
 10
24.06055045871559
 20
0.8038663171690699
 10
24.38163499344692
 20
1.129570773263435
 10
24.63260786737497
 20
1.513358696334639
 10
24.81590760157274
 20
1.958846657929228
 10
24.99839449541284
 20
2.402359108781128
 10
25.08848296199213
 20
2.892070773263434
 10
25.08848296199213
 20
3.926933158584535
 10
24.9863762849025
 20
4.38296991497732
 10
24.78587811271298
 20
4.800098296199214
 10
24.58491153342071
 20
5.218201179554391
 10
24.31246764930903
 20
5.576127116722139
 10
23.97508191349934
 20
5.878849934469201
 10
23.63782765399738
 20
6.181454783748363
 10
23.25051470703607
 20
6.416785102496653
 10
22.81317169069462
 20
6.581077981651377
 10
22.37658912188729
 20
6.745085190039319
 10
21.91919464291449
 20
6.832852429151036
 10
21.44336500655308
 20
6.83055373525557
 97
        0
 92
        1
 93
        1
 72
     4
 94
        3
 73
     0
 74
     0
 95
       47
 96
       43
 40
0.0
 40
0.0
 40
0.0
 40
0.0
 40
0.0637917384076936
 40
0.0637917384076936
 40
0.0637917384076936
 40
0.1265834997779105
 40
0.1265834997779105
 40
0.1893752611481285
 40
0.1893752611481285
 40
0.1893752611481285
 40
0.2604081010642026
 40
0.2604081010642026
 40
0.3159741129340349
 40
0.3159741129340349
 40
0.3159741129340349
 40
0.3751091105868485
 40
0.3751091105868485
 40
0.3751091105868485
 40
0.435995169879425
 40
0.435995169879425
 40
0.435995169879425
 40
0.4997689343159712
 40
0.4997689343159712
 40
0.5635426987525196
 40
0.5635426987525196
 40
0.5635426987525196
 40
0.624232315369434
 40
0.624232315369434
 40
0.624232315369434
 40
0.6835869381889372
 40
0.6835869381889372
 40
0.6835869381889372
 40
0.7357943705008892
 40
0.7357943705008892
 40
0.8025337685079206
 40
0.8025337685079206
 40
0.8692731665149518
 40
0.8692731665149518
 40
0.9360125645219831
 40
0.9360125645219831
 40
0.9360125645219831
 40
1.0
 40
1.0
 40
1.0
 40
1.0
 10
21.44336500655308
 20
1.450655307994758
 10
21.70208060288335
 20
1.450655307994758
 10
21.94462647444299
 20
1.501474442988205
 10
22.16869266055046
 20
1.600802752293579
 10
22.39468942225328
 20
1.700986883770089
 10
22.5937254259502
 20
1.836418741808651
 10
22.93097968545217
 20
2.187532765399738
 10
23.06495740498034
 20
2.395429226736567
 10
23.15966579292267
 20
2.63335517693316
 10
23.25469013236262
 20
2.87207485894082
 10
23.30519331585845
 20
3.132306684141548
 10
23.30519331585845
 20
3.642807994757537
 10
23.25668414154652
 20
3.862254259501967
 10
23.15966579292267
 20
4.074770642201835
 10
23.06391850987524
 20
4.284502786020031
 10
22.93097968545217
 20
4.472083879423329
 10
22.76235255570118
 20
4.636091087811272
 10
22.59487996078263
 20
4.798975392458079
 10
22.39506880733945
 20
4.927146133682831
 10
22.16869266055046
 20
5.021854521625164
 10
21.94345992894685
 20
5.116084541989939
 10
21.70208060288335
 20
5.167382044560944
 10
21.18464941022281
 20
5.167382044560944
 10
20.94210353866317
 20
5.118872870249017
 10
20.71572739187418
 20
5.021854521625164
 10
20.49213912866634
 20
4.926030980250372
 10
20.29300458715597
 20
4.797788335517694
 10
20.12437745740498
 20
4.636091087811272
 10
19.95459636352431
 20
4.473287299158574
 10
19.82177260812581
 20
4.284977064220183
 10
19.72244429882045
 20
4.074770642201835
 10
19.62222370164274
 20
3.86267589003505
 10
19.57229685452162
 20
3.642807994757537
 10
19.57229685452162
 20
3.132306684141548
 10
19.62311598951508
 20
2.871281127129752
 10
19.82177260812581
 20
2.395429226736567
 10
19.95575032765399
 20
2.187532765399738
 10
20.29300458715597
 20
1.836418741808651
 10
20.49166120576671
 20
1.700131061598952
 10
20.71572739187418
 20
1.600802752293579
 10
20.941724153577
 20
1.500618620817073
 10
21.18464941022281
 20
1.450655307994758
 10
21.44336500655308
 20
1.450655307994758
 97
        0
 75
     0
 76
     1
 98
        0
  0
HATCH
  5
21D
330
1DC
100
AcDbEntity
  8
Default
  6
Continuous
 62
     7
100
AcDbHatch
 10
0.0
 20
0.0
 30
0.0
210
0.0
220
0.0
230
1.0
  2
SOLID
 70
     1
 71
     0
 91
        1
 92
        1
 93
        4
 72
     1
 10
28.07064220183486
 20
2.584846002621233
 11
28.07064220183486
 21
4.042431192660551
 72
     1
 10
28.07064220183486
 20
4.042431192660551
 11
25.93623853211009
 21
4.042431192660551
 72
     1
 10
25.93623853211009
 20
4.042431192660551
 11
25.93623853211009
 21
2.584846002621233
 72
     1
 10
25.93623853211009
 20
2.584846002621233
 11
28.07064220183486
 21
2.584846002621233
 97
        0
 75
     0
 76
     1
 98
        0
  0
HATCH
  5
21E
330
1DC
100
AcDbEntity
  8
Default
  6
Continuous
 62
     7
100
AcDbHatch
 10
0.0
 20
0.0
 30
0.0
210
0.0
220
0.0
230
1.0
  2
SOLID
 70
     1
 71
     0
 91
        1
 92
        1
 93
        9
 72
     4
 94
        3
 73
     0
 74
     0
 95
       16
 96
       12
 40
0.0
 40
0.0
 40
0.0
 40
0.0
 40
0.3396620468027166
 40
0.3396620468027166
 40
0.3396620468027166
 40
0.3623316833330921
 40
0.3623316833330921
 40
0.3840945344022499
 40
0.3840945344022499
 40
0.3840945344022499
 40
1.0
 40
1.0
 40
1.0
 40
1.0
 10
32.58661533420707
 20
6.592627785058978
 10
31.42778505897771
 20
6.592627785058978
 10
30.26895478374836
 20
6.592627785058978
 10
29.110124508519
 20
6.592627785058978
 10
29.02927588466579
 20
6.592627785058978
 10
28.96228702490171
 20
6.564908256880734
 10
28.84909895150721
 20
6.451720183486239
 10
28.82137942332896
 20
6.38473132372215
 10
28.82137942332896
 20
6.303882699868939
 10
28.82137942332896
 20
4.202588466579293
 10
28.82137942332896
 20
2.101294233289646
 10
28.82137942332896
 20
0.0
 72
     1
 10
28.82137942332896
 20
0.0
 11
30.53999017038007
 21
0.0000000000000009
 72
     1
 10
30.53999017038007
 20
0.0000000000000009
 11
30.53999017038007
 21
2.584846002621234
 72
     1
 10
30.53999017038007
 20
2.584846002621234
 11
32.4872870249017
 21
2.584846002621233
 72
     1
 10
32.4872870249017
 20
2.584846002621233
 11
32.4872870249017
 21
4.042431192660551
 72
     1
 10
32.4872870249017
 20
4.042431192660551
 11
30.53999017038007
 21
4.042431192660551
 72
     1
 10
30.53999017038007
 20
4.042431192660551
 11
30.53999017038007
 21
5.141972477064221
 72
     1
 10
30.53999017038007
 20
5.141972477064221
 11
32.58661533420707
 21
5.141972477064221
 72
     1
 10
32.58661533420707
 20
5.141972477064221
 11
32.58661533420707
 21
6.592627785058978
 97
        0
 75
     0
 76
     1
 98
        0
  0
HATCH
  5
21F
330
1DC
100
AcDbEntity
  8
Default
  6
Continuous
 62
     7
100
AcDbHatch
 10
0.0
 20
0.0
 30
0.0
210
0.0
220
0.0
230
1.0
  2
SOLID
 70
     1
 71
     0
 91
        1
 92
        1
 93
        4
 72
     4
 94
        3
 73
     0
 74
     0
 95
       14
 96
       10
 40
0.0
 40
0.0
 40
0.0
 40
0.0
 40
0.7580098693161609
 40
0.7580098693161609
 40
0.7580098693161609
 40
0.8789822868889446
 40
0.8789822868889446
 40
0.8789822868889446
 40
1.0
 40
1.0
 40
1.0
 40
1.0
 10
35.18532110091743
 20
6.608797509829621
 10
34.71100917431193
 20
6.608797509829621
 10
34.23669724770642
 20
6.608797509829621
 10
33.76238532110091
 20
6.608797509829621
 10
33.68153669724771
 20
6.608797509829621
 10
33.61680971405436
 20
6.578721860223512
 10
33.55910878112713
 20
6.523328964613368
 10
33.50135976408912
 20
6.467889908256881
 10
33.47364023591088
 20
6.400901048492791
 10
33.47364023591088
 20
6.320052424639582
 72
     1
 10
33.47364023591088
 20
6.320052424639582
 11
33.47364023591088
 21
0.0000000000000009
 72
     1
 10
33.47364023591088
 20
0.0000000000000009
 11
35.18532110091743
 21
0.0000000000000009
 72
     1
 10
35.18532110091743
 20
0.0000000000000009
 11
35.18532110091743
 21
6.608797509829621
 97
        0
 75
     0
 76
     1
 98
        0
  0
HATCH
  5
220
330
1DC
100
AcDbEntity
  8
Default
  6
Continuous
 62
     7
100
AcDbHatch
 10
0.0
 20
0.0
 30
0.0
210
0.0
220
0.0
230
1.0
  2
SOLID
 70
     1
 71
     0
 91
        1
 92
        1
 93
       12
 72
     1
 10
39.22313237221493
 20
4.885566841415466
 11
38.20905963302751
 21
6.592627785058978
 72
     1
 10
38.20905963302752
 20
6.592627785058978
 11
36.10468545216251
 21
6.592627785058978
 72
     1
 10
36.10468545216251
 20
6.592627785058978
 11
38.20905963302751
 21
3.525
 72
     1
 10
38.20905963302752
 20
3.525000000000001
 11
35.62652359108781
 21
0.0000000000000013
 72
     1
 10
35.6265235910878
 20
0.0000000000000009
 11
37.70317824377457
 21
0.0000000000000009
 72
     1
 10
37.70317824377457
 20
0.0000000000000009
 11
39.22313237221493
 21
2.145953473132373
 72
     1
 10
39.22313237221493
 20
2.145953473132373
 11
40.25568479685452
 21
0.5266710353866326
 72
     1
 10
40.25568479685452
 20
0.5266710353866322
 11
41.28823722149409
 21
1.995806028833553
 72
     1
 10
41.28823722149409
 20
1.995806028833553
 11
40.22565530799475
 21
3.525000000000001
 72
     1
 10
40.22565530799475
 20
3.525000000000001
 11
42.34157929226736
 21
6.592627785058978
 72
     1
 10
42.34157929226736
 20
6.592627785058978
 11
40.22565530799475
 21
6.592627785058978
 72
     1
 10
40.22565530799475
 20
6.592627785058978
 11
39.22313237221493
 21
4.885566841415466
 97
        0
 75
     0
 76
     1
 98
        0
  0
HATCH
  5
221
330
1DC
100
AcDbEntity
  8
Default
  6
Continuous
 62
     7
100
AcDbHatch
 10
0.0
 20
0.0
 30
0.0
210
0.0
220
0.0
230
1.0
  2
SOLID
 70
     1
 71
     0
 91
        1
 92
        1
 93
        3
 72
     4
 94
        3
 73
     0
 74
     0
 95
       13
 96
        9
 40
0.0
 40
0.0
 40
0.0
 40
0.0
 40
0.0445094381088423
 40
0.0445094381088423
 40
0.0908355879772283
 40
0.0908355879772283
 40
0.0908355879772283
 40
1.0
 40
1.0
 40
1.0
 40
1.0
 10
45.71181192660551
 20
6.414760812581914
 10
45.61941349934469
 20
6.53256880733945
 10
45.51546526867628
 20
6.592627785058978
 10
45.28446920052424
 20
6.592627785058978
 10
45.18660375034128
 20
6.531537694833034
 10
45.10429226736566
 20
6.414760812581914
 10
43.69752621231979
 20
4.418954783748362
 10
42.29076015727392
 20
2.423148754914811
 10
40.88399410222804
 20
0.427342726081259
 72
     4
 94
        3
 73
     0
 74
     0
 95
       11
 96
        7
 40
0.0
 40
0.0
 40
0.0
 40
0.0
 40
0.3439066424360135
 40
0.3439066424360135
 40
0.3439066424360135
 40
1.0
 40
1.0
 40
1.0
 40
1.0
 10
40.88399410222804
 20
0.427342726081259
 10
40.83086500655307
 20
0.3418741808650076
 10
40.80230295367286
 20
0.2725253209688669
 10
40.80314547837483
 20
0.2194462647444313
 10
40.80545543905635
 20
0.0739187418086509
 10
40.90709370904325
 20
0.0000000000000009
 10
41.11268020969855
 20
0.0000000000000009
 72
     4
 94
        3
 73
     0
 74
     0
 95
       16
 96
       12
 40
0.0
 40
0.0
 40
0.0
 40
0.0
 40
0.5188870924081099
 40
0.5188870924081099
 40
0.5188870924081099
 40
0.544909989588877
 40
0.544909989588877
 40
0.5581347406151689
 40
0.5581347406151689
 40
0.5581347406151689
 40
1.0
 40
1.0
 40
1.0
 40
1.0
 10
41.11268020969855
 20
0.0000000000000009
 10
43.98011140235911
 20
0.0000000000000009
 10
46.84754259501965
 20
0.0000000000000009
 10
49.71497378768021
 20
0.0000000000000009
 10
49.91363040629096
 20
0.0000000000000009
 10
50.01295871559633
 20
0.0692988204456104
 10
50.01295871559633
 20
0.281815203145479
 10
49.98455330475264
 20
0.352940532254955
 10
49.93211009174313
 20
0.427342726081259
 10
48.52534403669725
 20
2.42314875491481
 10
47.11857798165137
 20
4.418954783748362
 10
45.71181192660551
 20
6.414760812581914
 97
        0
 75
     0
 76
     1
 98
        0
  0
ENDBLK
  5
223
330
1DC
100
AcDbEntity
  8
0
100
AcDbBlockEnd
  0
BLOCK
  5
22D
330
224
100
AcDbEntity
  8
0
100
AcDbBlockBegin
  2
RF-Massblatt_2016
 70
     0
 10
0.0
 20
0.0
 30
0.0
  3
RF-Massblatt_2016
  1

  0
MTEXT
  5
225
102
{ACAD_XDICTIONARY
360
237
102
}
330
224
100
AcDbEntity
  8
Default
100
AcDbMText
 10
15.2206856049
 20
34.8070876502
 30
0.0
 40
2.5
 41
48.9706096033
 71
     1
 72
     1
  3
{\fVectora Com 45 Light|b1||i0||c0|p34;\C7;\H2.5;\W1.;REGO-FIX AG\P}{\fVectora Com 45 Light|b0||i0||c0|p34;\C7;\H2.5;\W1.;Obermattweg 60\P}{\fVectora Com 45 Light|b0||i0||c0|p34;\C7;\H2.5;\W1.;4456 Tenniken / Switzerland\P}{\fVectora Com 45 Light|b0
  3
||i0||c0|p34;\C7;\H2.5;\W1.;\P}{\fVectora Com 45 Light|b0||i0||c0|p34;\C7;\H2.5;\W1.;P +41 61 976 14 66\P}{\fVectora Com 45 Light|b0||i0||c0|p34;\C7;\H2.5;\W1.;F +41 61 976 14 14\P}{\fVectora Com 45 Light|b1||i0||c0|p34;\C7;\H2.5;\W1.;www.rego-fix.c
  1
om}
 73
     1
 44
1.0
1001
ACAD
1000
ACAD_MTEXT_DEFINED_HEIGHT_BEGIN
1070
    46
1040
31.3191355437
1000
ACAD_MTEXT_DEFINED_HEIGHT_END
  0
MTEXT
  5
226
102
{ACAD_XDICTIONARY
360
239
102
}
330
224
100
AcDbEntity
  8
Default
100
AcDbMText
 10
90.3836341545
 20
34.4892285804
 30
0.0
 40
2.5
 41
104.0282149141
 71
     1
 72
     1
  3
{\fSolid Edge ISO|b0||i0||c0|p34;\C7;\H2.;\W1.;This is a non-controlled copy. All information given herein is subject to change without notice\P}{\fSolid Edge ISO|b0||i0||c0|p34;\C7;\H2.;\W1.;\P}{\fSolid Edge ISO|b0||i0||c0|p34;\C7;\H2.;\W1.;The inf
  3
ormation given herein has been carefully checked and is believed to be correct. REGO-FIX,\P}{\fSolid Edge ISO|b0||i0||c0|p34;\C7;\H2.;\W1.;however, assumes no responsibility or liability for any errors, inaccuracies or omissions that may appear\P}{\
  3
fSolid Edge ISO|b0||i0||c0|p34;\C7;\H2.;\W1.;in this drawing\P}{\fSolid Edge ISO|b0||i0||c0|p34;\C7;\H2.;\W1.;\P}{\fSolid Edge ISO|b0||i0||c0|p34;\C7;\H2.;\W1.;This document is subject to copyright laws. No part of this document may be reproduced or
  3
 transmitted\P}{\fSolid Edge ISO|b0||i0||c0|p34;\C7;\H2.;\W1.;in any form or any means, electronic or mechanic, for any purpose, without the express written permission\P}{\fSolid Edge ISO|b0||i0||c0|p34;\C7;\H2.;\W1.;of REGO-FIX\P}{\fSolid Edge ISO|
  1
b0||i0||c0|p34;\C7;\H1.5;\W1.;\P}
 73
     1
 44
1.0
1001
ACAD
1000
ACAD_MTEXT_DEFINED_HEIGHT_BEGIN
1070
    46
1040
38.4545554545
1000
ACAD_MTEXT_DEFINED_HEIGHT_END
  0
INSERT
  5
227
330
224
100
AcDbEntity
  8
Default
100
AcDbBlockReference
  2
SEANNOT_GROUP
 10
0.0
 20
0.0
 30
0.0
  0
INSERT
  5
228
330
224
100
AcDbEntity
  8
Default
100
AcDbBlockReference
  2
SEANNOT_GROUP1
 10
0.0
 20
0.0
 30
0.0
  0
MTEXT
  5
229
102
{ACAD_XDICTIONARY
360
23B
102
}
330
224
100
AcDbEntity
  8
Default
100
AcDbMText
 10
217.6297996494
 20
34.8066733186
 30
0.0
 40
2.5
 41
21.5360456785
 71
     1
 72
     1
  3
{\fVectora Com 45 Light|b0||i0||c0|p34;\C7;\H3.5;\W1.;Type :\P}{\fVectora Com 45 Light|b0||i0||c0|p34;\C7;\H3.5;\W1.;Part No. :\P}{\fVectora Com 45 Light|b0||i0||c0|p34;\C7;\H3.5;\W1.;Date : \P}{\fVectora Com 45 Light|b0||i0||c0|p34;\C7;\H3.5;\W1.;S
  1
cale :}
 73
     1
 44
1.0
1001
ACAD
1000
ACAD_MTEXT_DEFINED_HEIGHT_BEGIN
1070
    46
1040
23.6666666667
1000
ACAD_MTEXT_DEFINED_HEIGHT_END
  0
INSERT
  5
22A
330
224
100
AcDbEntity
  8
Default
100
AcDbBlockReference
  2
SEANNOT_GROUP2
 10
0.0
 20
0.0
 30
0.0
  0
INSERT
  5
22B
330
224
100
AcDbEntity
  8
Default
100
AcDbBlockReference
  2
SEANNOT_GROUP3
 10
0.0
 20
0.0
 30
0.0
  0
INSERT
  5
22C
330
224
100
AcDbEntity
  8
Default
 62
     7
100
AcDbBlockReference
  2
Block1
 10
227.000440997
 20
183.1186606679
 30
0.0
  0
ENDBLK
  5
22E
330
224
100
AcDbEntity
  8
0
100
AcDbBlockEnd
  0
ENDSEC
  0
SECTION
  2
ENTITIES
  0
INSERT
  5
41
330
1F
100
AcDbEntity
  8
Default
100
AcDbBlockReference
  2
SE
 10
0.0
 20
0.0
 30
0.0
  0
INSERT
  5
151
330
1F
100
AcDbEntity
  8
Default
100
AcDbBlockReference
  2
GDimGGroup
 10
0.0
 20
0.0
 30
0.0
  0
INSERT
  5
15C
330
1F
100
AcDbEntity
  8
Default
100
AcDbBlockReference
  2
GDimGGroup1
 10
0.0
 20
0.0
 30
0.0
  0
INSERT
  5
167
330
1F
100
AcDbEntity
  8
Default
100
AcDbBlockReference
  2
GDimGGroup2
 10
0.0
 20
0.0
 30
0.0
  0
DIMENSION
  5
183
330
1F
100
AcDbEntity
  8
Default
  6
Continuous
 62
     7
100
AcDbDimension
  2
DMBLK302
 10
175.3590948874
 20
158.7871536406
 30
0.0
 11
198.3590948427
 21
158.7871536406
 31
0.0
 70
   160
  1
\A1;<>
 71
     5
 42
-1.0
  3
DIN
100
AcDbAlignedDimension
 13
221.3590948874
 23
126.2743435593
 33
0.0
 14
175.3590948874
 24
145.4243435593
 34
0.0
100
AcDbRotatedDimension
  0
DIMENSION
  5
18D
330
1F
100
AcDbEntity
  8
Default
  6
Continuous
 62
     7
100
AcDbDimension
  2
DMBLK303
 10
140.3590948874
 20
175.5871549042
 30
0.0
 11
180.8590947682
 21
175.5871549042
 31
0.0
 70
   160
  1
\A1;<>
 71
     5
 42
-1.0
  3
DIN
100
AcDbAlignedDimension
 13
221.3590948874
 23
126.2743435593
 33
0.0
 14
140.3590948874
 24
151.4243435593
 34
0.0
100
AcDbRotatedDimension
  0
DIMENSION
  5
197
330
1F
100
AcDbEntity
  8
Default
  6
Continuous
 62
     7
100
AcDbDimension
  2
DMBLK304
 10
221.3590948874
 20
183.987155536
 30
0.0
 11
141.3590966756
 21
183.987155536
 31
0.0
 70
   161
  1
\A1;<>
 71
     5
 42
-1.0
  3
DIN
100
AcDbAlignedDimension
 13
221.3590948874
 23
126.2743435593
 33
0.0
 14
61.3590948874
 24
125.6636147416
 34
0.0
  0
DIMENSION
  5
1A1
330
1F
100
AcDbEntity
  8
Default
  6
Continuous
 62
     7
100
AcDbDimension
  2
DMBLK305
 10
191.3590948874
 20
42.1515826838
 30
0.0
 11
151.3590939934
 21
42.1515826838
 31
0.0
 70
   160
  1
\A1;<>
 71
     5
 42
-1.0
  3
DIN
100
AcDbAlignedDimension
 13
111.3590948874
 23
52.4243435593
 33
0.0
 14
191.3590948874
 24
59.3445361384
 34
0.0
100
AcDbRotatedDimension
  0
INSERT
  5
1AC
330
1F
100
AcDbEntity
  8
Default
100
AcDbBlockReference
  2
GDimGGroup3
 10
0.0
 20
0.0
 30
0.0
  0
DIMENSION
  5
1B6
330
1F
100
AcDbEntity
  8
Default
  6
Continuous
 62
     7
100
AcDbDimension
  2
DMBLK306
 10
156.3590948874
 20
167.1871542724
 30
0.0
 11
188.8590960795
 21
167.1871542724
 31
0.0
 70
   160
  1
\A1;<>
 71
     5
 42
-1.0
  3
DIN
100
AcDbAlignedDimension
 13
221.3590948874
 23
126.2743435593
 33
0.0
 14
156.3590948874
 24
146.4243435593
 34
0.0
100
AcDbRotatedDimension
  0
DIMENSION
  5
1C0
330
1F
100
AcDbEntity
  8
Default
  6
Continuous
 62
     7
100
AcDbDimension
  2
DMBLK307
 10
191.3590948874
 20
150.3871530087
 30
0.0
 11
206.3590952227
 21
150.3871530087
 31
0.0
 70
   160
  1
\A1;<>
 71
     5
 42
-1.0
  3
DIN
100
AcDbAlignedDimension
 13
221.3590948874
 23
126.2743435593
 33
0.0
 14
191.3590948874
 24
144.5041509802
 34
0.0
100
AcDbRotatedDimension
  0
INSERT
  5
22F
330
1F
100
AcDbEntity
  8
Default
 62
     7
100
AcDbBlockReference
  2
RF-Massblatt_2016
 10
0.0
 20
0.0
 30
0.0
  0
ENDSEC
  0
SECTION
  2
OBJECTS
  0
DICTIONARY
  5
C
330
0
100
AcDbDictionary
281
     1
  3
ACAD_GROUP
350
D
  3
ACAD_LAYOUT
350
1A
  3
ACAD_MATERIAL
350
3B
  3
ACAD_MLEADERSTYLE
350
232
  3
ACAD_MLINESTYLE
350
17
  3
ACAD_PLOTSETTINGS
350
19
  3
ACAD_PLOTSTYLENAME
350
E
  3
ACAD_VISUALSTYLE
350
2A
  3
AcDbVariableDictionary
350
230
  0
DICTIONARY
  5
237
330
225
100
AcDbDictionary
280
     1
281
     1
  3
ACAD_MTEXT_RT
360
238
  0
DICTIONARY
  5
239
330
226
100
AcDbDictionary
280
     1
281
     1
  3
ACAD_MTEXT_RT
360
23A
  0
DICTIONARY
  5
23B
330
229
100
AcDbDictionary
280
     1
281
     1
  3
ACAD_MTEXT_RT
360
23C
  0
DICTIONARY
  5
D
102
{ACAD_REACTORS
330
C
102
}
330
C
100
AcDbDictionary
281
     1
  0
DICTIONARY
  5
1A
102
{ACAD_REACTORS
330
C
102
}
330
C
100
AcDbDictionary
281
     1
  3
Layout1
350
1E
  3
Model
350
22
  0
DICTIONARY
  5
3B
102
{ACAD_REACTORS
330
C
102
}
330
C
100
AcDbDictionary
281
     1
  3
ByBlock
350
3D
  3
ByLayer
350
3C
  3
Global
350
3E
  0
DICTIONARY
  5
232
102
{ACAD_REACTORS
330
C
102
}
330
C
100
AcDbDictionary
281
     1
  0
DICTIONARY
  5
17
102
{ACAD_REACTORS
330
C
102
}
330
C
100
AcDbDictionary
281
     1
  3
Standard
350
18
  0
DICTIONARY
  5
19
102
{ACAD_REACTORS
330
C
102
}
330
C
100
AcDbDictionary
281
     1
  0
ACDBDICTIONARYWDFLT
  5
E
102
{ACAD_REACTORS
330
C
102
}
330
C
100
AcDbDictionary
281
     1
  3
Normal
350
F
100
AcDbDictionaryWithDefault
340
F
  0
DICTIONARY
  5
2A
102
{ACAD_REACTORS
330
C
102
}
330
C
100
AcDbDictionary
281
     1
  3
2dWireframe
350
2F
  3
3D Hidden
350
31
  3
3dWireframe
350
30
  3
Basic
350
32
  3
Brighten
350
36
  3
ColorChange
350
3A
  3
Conceptual
350
34
  3
Dim
350
35
  3
Facepattern
350
39
  3
Flat
350
2B
  3
FlatWithEdges
350
2C
  3
Gouraud
350
2D
  3
GouraudWithEdges
350
2E
  3
Linepattern
350
38
  3
Realistic
350
33
  3
Thicken
350
37
  0
DICTIONARY
  5
230
102
{ACAD_REACTORS
330
C
102
}
330
C
100
AcDbDictionary
281
     1
  3
DIMASSOC
350
235
  3
HIDETEXT
350
236
  3
PSOLHEIGHT
350
234
  3
PSOLWIDTH
350
233
  0
XRECORD
  5
238
102
{ACAD_REACTORS
330
237
102
}
330
237
100
AcDbXrecord
280
     1
 40
10118767.0
  1
\pxsm1.;{\fVectora Com 45 Light|b1||i0||c0|p34;\C7;\H2.5;\W1.;REGO-FIX AG\P}{\fVectora Com 45 Light|b0||i0||c0|p34;\C7;\H2.5;\W1.;Obermattweg 60\P}{\fVectora Com 45 Light|b0||i0||c0|p34;\C7;\H2.5;\W1.;4456 Tenniken / Switzerland\P}{\fVectora Com 45 L
  1
ight|b0||i0||c0|p34;\C7;\H2.5;\W1.;\P}{\fVectora Com 45 Light|b0||i0||c0|p34;\C7;\H2.5;\W1.;P +41 61 976 14 66\P}{\fVectora Com 45 Light|b0||i0||c0|p34;\C7;\H2.5;\W1.;F +41 61 976 14 14\P}{\fVectora Com 45 Light|b1||i0||c0|p34;\C7;\H2.5;\W1.;www.rego
  1
-fix.com}
  0
XRECORD
  5
23A
102
{ACAD_REACTORS
330
239
102
}
330
239
100
AcDbXrecord
280
     1
 40
47111022.0
  1
\pxsm1.;{\fSolid Edge ISO|b0||i0||c0|p34;\C7;\H2.;\W1.;This is a non-controlled copy. All information given herein is subject to change without notice\P}{\fSolid Edge ISO|b0||i0||c0|p34;\C7;\H2.;\W1.;\P}{\fSolid Edge ISO|b0||i0||c0|p34;\C7;\H2.;\W1.;
  1
The information given herein has been carefully checked and is believed to be correct. REGO-FIX,\P}{\fSolid Edge ISO|b0||i0||c0|p34;\C7;\H2.;\W1.;however, assumes no responsibility or liability for any errors, inaccuracies or omissions that may appea
  1
r\P}{\fSolid Edge ISO|b0||i0||c0|p34;\C7;\H2.;\W1.;in this drawing\P}{\fSolid Edge ISO|b0||i0||c0|p34;\C7;\H2.;\W1.;\P}{\fSolid Edge ISO|b0||i0||c0|p34;\C7;\H2.;\W1.;This document is subject to copyright laws. No part of this document may be reproduc
  1
ed or transmitted\P}{\fSolid Edge ISO|b0||i0||c0|p34;\C7;\H2.;\W1.;in any form or any means, electronic or mechanic, for any purpose, without the express written permission\P}{\fSolid Edge ISO|b0||i0||c0|p34;\C7;\H2.;\W1.;of REGO-FIX\P}{\fSolid Edge 
  1
ISO|b0||i0||c0|p34;\C7;\H1.5;\W1.;\P}
  0
XRECORD
  5
23C
102
{ACAD_REACTORS
330
23B
102
}
330
23B
100
AcDbXrecord
280
     1
 40
2697483.0
  1
\pxsm1.;{\fVectora Com 45 Light|b0||i0||c0|p34;\C7;\H3.5;\W1.;Type :\P}{\fVectora Com 45 Light|b0||i0||c0|p34;\C7;\H3.5;\W1.;Part No. :\P}{\fVectora Com 45 Light|b0||i0||c0|p34;\C7;\H3.5;\W1.;Date : \P}{\fVectora Com 45 Light|b0||i0||c0|p34;\C7;\H3.5
  1
;\W1.;Scale :}
  0
LAYOUT
  5
1E
102
{ACAD_REACTORS
330
1A
102
}
330
1A
100
AcDbPlotSettings
  1

  2
none_device
  4

  6

 40
0.0
 41
0.0
 42
0.0
 43
0.0
 44
0.0
 45
0.0
 46
0.0
 47
0.0
 48
0.0
 49
0.0
140
0.0
141
0.0
142
1.0
143
1.0
 70
   688
 72
     0
 73
     0
 74
     5
  7

 75
    16
147
1.0
148
0.0
149
0.0
100
AcDbLayout
  1
Layout1
 70
     1
 71
     1
 10
0.0
 20
0.0
 11
297.0
 21
210.0
 12
0.0
 22
0.0
 32
0.0
 14
0.0
 24
0.0
 34
0.0
 15
297.0
 25
210.0
 35
0.0
146
0.0
 13
0.0
 23
0.0
 33
0.0
 16
1.0
 26
0.0
 36
0.0
 17
0.0
 27
1.0
 37
0.0
 76
     0
330
1B
  0
LAYOUT
  5
22
102
{ACAD_REACTORS
330
1A
102
}
330
1A
100
AcDbPlotSettings
  1

  2
none_device
  4

  6

 40
0.0
 41
0.0
 42
0.0
 43
0.0
 44
0.0
 45
0.0
 46
0.0
 47
0.0
 48
0.0
 49
0.0
140
0.0
141
0.0
142
1.0
143
1.0
 70
  1712
 72
     0
 73
     0
 74
     0
  7

 75
     0
147
1.0
148
0.0
149
0.0
100
AcDbLayout
  1
Model
 70
     1
 71
     0
 10
0.0
 20
0.0
 11
297.0
 21
210.0
 12
0.0
 22
0.0
 32
0.0
 14
0.0
 24
0.0
 34
0.0
 15
297.0
 25
210.0
 35
0.0
146
0.0
 13
0.0
 23
0.0
 33
0.0
 16
1.0
 26
0.0
 36
0.0
 17
0.0
 27
1.0
 37
0.0
 76
     0
330
1F
331
29
  0
MATERIAL
  5
3D
102
{ACAD_REACTORS
330
3B
102
}
102
{ACAD_XDICTIONARY
360
25F
102
}
330
3B
100
AcDbMaterial
  1
ByBlock
  0
MATERIAL
  5
3C
102
{ACAD_REACTORS
330
3B
102
}
102
{ACAD_XDICTIONARY
360
25D
102
}
330
3B
100
AcDbMaterial
  1
ByLayer
  0
MATERIAL
  5
3E
102
{ACAD_REACTORS
330
3B
102
}
102
{ACAD_XDICTIONARY
360
261
102
}
330
3B
100
AcDbMaterial
  1
Global
  0
MLINESTYLE
  5
18
102
{ACAD_REACTORS
330
17
102
}
330
17
100
AcDbMlineStyle
  2
Standard
 70
     0
  3

 62
   256
 51
90.0
 52
90.0
 71
     2
 49
0.5
 62
   256
  6
BYLAYER
 49
-0.5
 62
   256
  6
BYLAYER
  0
ACDBPLACEHOLDER
  5
F
102
{ACAD_REACTORS
330
E
102
}
330
E
  0
VISUALSTYLE
  5
2F
102
{ACAD_REACTORS
330
2A
102
}
102
{ACAD_XDICTIONARY
360
245
102
}
330
2A
100
AcDbVisualStyle
  2
2dWireframe
 70
     4
 71
     0
 72
     2
 73
     0
 90
        0
 40
-0.6
 41
-30.0
 62
     5
 63
     7
 74
     1
 91
        4
 64
     7
 65
   257
 75
     1
175
     1
 42
1.0
 92
        0
 66
   257
 43
1.0
 76
     1
 77
     6
 78
     2
 67
     7
 79
     5
170
     0
171
     0
290
     0
174
     0
 93
        1
 44
0.0
173
     0
291
     0
 45
0.0
1001
ACAD
1000
AcDbSavedByObjectVersion
1070
     0
  0
VISUALSTYLE
  5
31
102
{ACAD_REACTORS
330
2A
102
}
102
{ACAD_XDICTIONARY
360
249
102
}
330
2A
100
AcDbVisualStyle
  2
3D Hidden
 70
     6
 71
     1
 72
     2
 73
     2
 90
        0
 40
-0.6
 41
-30.0
 62
     5
 63
     7
 74
     2
 91
        2
 64
     7
 65
   257
 75
     2
175
     1
 42
40.0
 92
        0
 66
   257
 43
1.0
 76
     1
 77
     6
 78
     2
 67
     7
 79
     3
170
     0
171
     0
290
     0
174
     0
 93
        1
 44
0.0
173
     0
291
     0
 45
0.0
1001
ACAD
1000
AcDbSavedByObjectVersion
1070
     0
  0
VISUALSTYLE
  5
30
102
{ACAD_REACTORS
330
2A
102
}
102
{ACAD_XDICTIONARY
360
247
102
}
330
2A
100
AcDbVisualStyle
  2
3dWireframe
 70
     5
 71
     0
 72
     2
 73
     0
 90
        0
 40
-0.6
 41
-30.0
 62
     5
 63
     7
 74
     1
 91
        4
 64
     7
 65
   257
 75
     1
175
     1
 42
1.0
 92
        0
 66
   257
 43
1.0
 76
     1
 77
     6
 78
     2
 67
     7
 79
     5
170
     0
171
     0
290
     0
174
     0
 93
        1
 44
0.0
173
     0
291
     0
 45
0.0
1001
ACAD
1000
AcDbSavedByObjectVersion
1070
     0
  0
VISUALSTYLE
  5
32
102
{ACAD_REACTORS
330
2A
102
}
102
{ACAD_XDICTIONARY
360
24B
102
}
330
2A
100
AcDbVisualStyle
  2
Basic
 70
     7
 71
     1
 72
     0
 73
     1
 90
        0
 40
-0.6
 41
-30.0
 62
     5
 63
     7
 74
     0
 91
        4
 64
     7
 65
   257
 75
     1
175
     1
 42
1.0
 92
        8
 66
     7
 43
1.0
 76
     1
 77
     6
 78
     2
 67
     7
 79
     5
170
     0
171
     0
290
     0
174
     0
 93
        1
 44
0.0
173
     0
291
     1
 45
0.0
1001
ACAD
1000
AcDbSavedByObjectVersion
1070
     0
  0
VISUALSTYLE
  5
36
102
{ACAD_REACTORS
330
2A
102
}
102
{ACAD_XDICTIONARY
360
253
102
}
330
2A
100
AcDbVisualStyle
  2
Brighten
 70
    12
 71
     2
 72
     2
 73
     0
 90
        0
 40
-0.6
 41
-30.0
 62
     5
 63
     7
 74
     1
 91
        4
 64
     7
 65
   257
 75
     1
175
     1
 42
1.0
 92
        8
 66
     7
 43
1.0
 76
     1
 77
     6
 78
     2
 67
     7
 79
     5
170
     0
171
     0
290
     0
174
     0
 93
        1
 44
50.0
173
     0
291
     1
 45
0.0
1001
ACAD
1000
AcDbSavedByObjectVersion
1070
     0
  0
VISUALSTYLE
  5
3A
102
{ACAD_REACTORS
330
2A
102
}
102
{ACAD_XDICTIONARY
360
25B
102
}
330
2A
100
AcDbVisualStyle
  2
ColorChange
 70
    16
 71
     2
 72
     2
 73
     3
 90
        0
 40
-0.6
 41
-30.0
 62
     5
 63
     8
 74
     1
 91
        4
 64
     7
 65
   257
 75
     1
175
     1
 42
1.0
 92
        8
 66
     8
 43
1.0
 76
     1
 77
     6
 78
     2
 67
     7
 79
     5
170
     0
171
     0
290
     0
174
     0
 93
        1
 44
0.0
173
     0
291
     1
 45
0.0
1001
ACAD
1000
AcDbSavedByObjectVersion
1070
     0
  0
VISUALSTYLE
  5
34
102
{ACAD_REACTORS
330
2A
102
}
102
{ACAD_XDICTIONARY
360
24F
102
}
330
2A
100
AcDbVisualStyle
  2
Conceptual
 70
     9
 71
     3
 72
     2
 73
     0
 90
        0
 40
-0.6
 41
-30.0
 62
     5
 63
     7
 74
     2
 91
        2
 64
     7
 65
   257
 75
     1
175
     1
 42
40.0
 92
        8
 66
     7
 43
1.0
 76
     1
 77
     6
 78
     2
 67
     7
 79
     3
170
     0
171
     0
290
     0
174
     0
 93
        1
 44
0.0
173
     0
291
     0
 45
0.0
1001
ACAD
1000
AcDbSavedByObjectVersion
1070
     0
  0
VISUALSTYLE
  5
35
102
{ACAD_REACTORS
330
2A
102
}
102
{ACAD_XDICTIONARY
360
251
102
}
330
2A
100
AcDbVisualStyle
  2
Dim
 70
    11
 71
     2
 72
     2
 73
     0
 90
        0
 40
-0.6
 41
-30.0
 62
     5
 63
     7
 74
     1
 91
        4
 64
     7
 65
   257
 75
     1
175
     1
 42
1.0
 92
        8
 66
     7
 43
1.0
 76
     1
 77
     6
 78
     2
 67
     7
 79
     5
170
     0
171
     0
290
     0
174
     0
 93
        1
 44
-50.0
173
     0
291
     1
 45
0.0
1001
ACAD
1000
AcDbSavedByObjectVersion
1070
     0
  0
VISUALSTYLE
  5
39
102
{ACAD_REACTORS
330
2A
102
}
102
{ACAD_XDICTIONARY
360
259
102
}
330
2A
100
AcDbVisualStyle
  2
Facepattern
 70
    15
 71
     2
 72
     2
 73
     0
 90
        0
 40
-0.6
 41
-30.0
 62
     5
 63
     7
 74
     1
 91
        4
 64
     7
 65
   257
 75
     1
175
     1
 42
1.0
 92
        8
 66
     7
 43
1.0
 76
     1
 77
     6
 78
     2
 67
     7
 79
     5
170
     0
171
     0
290
     0
174
     0
 93
        1
 44
0.0
173
     0
291
     1
 45
0.0
1001
ACAD
1000
AcDbSavedByObjectVersion
1070
     0
  0
VISUALSTYLE
  5
2B
102
{ACAD_REACTORS
330
2A
102
}
102
{ACAD_XDICTIONARY
360
23D
102
}
330
2A
100
AcDbVisualStyle
  2
Flat
 70
     0
 71
     2
 72
     1
 73
     1
 90
        2
 40
-0.6
 41
30.0
 62
     5
 63
     7
 74
     0
 91
        4
 64
     7
 65
   257
 75
     1
175
     1
 42
1.0
 92
        8
 66
     7
 43
1.0
 76
     1
 77
     6
 78
     2
 67
     7
 79
     5
170
     0
171
     0
290
     0
174
     0
 93
       13
 44
0.0
173
     0
291
     1
 45
0.0
1001
ACAD
1000
AcDbSavedByObjectVersion
1070
     0
  0
VISUALSTYLE
  5
2C
102
{ACAD_REACTORS
330
2A
102
}
102
{ACAD_XDICTIONARY
360
23F
102
}
330
2A
100
AcDbVisualStyle
  2
FlatWithEdges
 70
     1
 71
     2
 72
     1
 73
     1
 90
        2
 40
-0.6
 41
30.0
 62
     5
 63
     7
 74
     1
 91
        4
 64
     7
 65
   257
 75
     1
175
     1
 42
1.0
 92
        0
 66
   257
 43
1.0
 76
     1
 77
     6
 78
     2
 67
     7
 79
     5
170
     0
171
     0
290
     0
174
     0
 93
       13
 44
0.0
173
     0
291
     1
 45
0.0
1001
ACAD
1000
AcDbSavedByObjectVersion
1070
     0
  0
VISUALSTYLE
  5
2D
102
{ACAD_REACTORS
330
2A
102
}
102
{ACAD_XDICTIONARY
360
241
102
}
330
2A
100
AcDbVisualStyle
  2
Gouraud
 70
     2
 71
     2
 72
     2
 73
     1
 90
        2
 40
-0.6
 41
30.0
 62
     5
 63
     7
 74
     0
 91
        4
 64
     7
 65
   257
 75
     1
175
     1
 42
1.0
 92
        0
 66
     7
 43
1.0
 76
     1
 77
     6
 78
     2
 67
     7
 79
     5
170
     0
171
     0
290
     0
174
     0
 93
       13
 44
0.0
173
     0
291
     1
 45
0.0
1001
ACAD
1000
AcDbSavedByObjectVersion
1070
     0
  0
VISUALSTYLE
  5
2E
102
{ACAD_REACTORS
330
2A
102
}
102
{ACAD_XDICTIONARY
360
243
102
}
330
2A
100
AcDbVisualStyle
  2
GouraudWithEdges
 70
     3
 71
     2
 72
     2
 73
     1
 90
        2
 40
-0.6
 41
30.0
 62
     5
 63
     7
 74
     1
 91
        4
 64
     7
 65
   257
 75
     1
175
     1
 42
1.0
 92
        0
 66
   257
 43
1.0
 76
     1
 77
     6
 78
     2
 67
     7
 79
     5
170
     0
171
     0
290
     0
174
     0
 93
       13
 44
0.0
173
     0
291
     1
 45
0.0
1001
ACAD
1000
AcDbSavedByObjectVersion
1070
     0
  0
VISUALSTYLE
  5
38
102
{ACAD_REACTORS
330
2A
102
}
102
{ACAD_XDICTIONARY
360
257
102
}
330
2A
100
AcDbVisualStyle
  2
Linepattern
 70
    14
 71
     2
 72
     2
 73
     0
 90
        0
 40
-0.6
 41
-30.0
 62
     5
 63
     7
 74
     1
 91
        4
 64
     7
 65
   257
 75
     7
175
     7
 42
1.0
 92
        8
 66
     7
 43
1.0
 76
     1
 77
     6
 78
     2
 67
     7
 79
     5
170
     0
171
     0
290
     0
174
     0
 93
        1
 44
0.0
173
     0
291
     1
 45
0.0
1001
ACAD
1000
AcDbSavedByObjectVersion
1070
     0
  0
VISUALSTYLE
  5
33
102
{ACAD_REACTORS
330
2A
102
}
102
{ACAD_XDICTIONARY
360
24D
102
}
330
2A
100
AcDbVisualStyle
  2
Realistic
 70
     8
 71
     2
 72
     2
 73
     0
 90
        0
 40
-0.6
 41
-30.0
 62
     5
 63
     7
 74
     1
 91
        0
 64
     7
 65
   257
 75
     1
175
     1
 42
1.0
 92
        8
 66
     8
 43
1.0
 76
     1
 77
     6
 78
     2
 67
     7
 79
     5
170
     0
171
     0
290
     0
174
     0
 93
       13
 44
0.0
173
     0
291
     0
 45
0.0
1001
ACAD
1000
AcDbSavedByObjectVersion
1070
     0
  0
VISUALSTYLE
  5
37
102
{ACAD_REACTORS
330
2A
102
}
102
{ACAD_XDICTIONARY
360
255
102
}
330
2A
100
AcDbVisualStyle
  2
Thicken
 70
    13
 71
     2
 72
     2
 73
     0
 90
        0
 40
-0.6
 41
-30.0
 62
     5
 63
     7
 74
     1
 91
        4
 64
     7
 65
   257
 75
     1
175
     1
 42
1.0
 92
       12
 66
     7
 43
1.0
 76
     1
 77
     6
 78
     2
 67
     7
 79
     5
170
     0
171
     0
290
     0
174
     0
 93
        1
 44
0.0
173
     0
291
     1
 45
0.0
1001
ACAD
1000
AcDbSavedByObjectVersion
1070
     0
  0
DICTIONARYVAR
  5
235
102
{ACAD_REACTORS
330
230
102
}
330
230
100
DictionaryVariables
280
     0
  1
2
  0
DICTIONARYVAR
  5
236
102
{ACAD_REACTORS
330
230
102
}
330
230
100
DictionaryVariables
280
     0
  1
1
  0
DICTIONARYVAR
  5
234
102
{ACAD_REACTORS
330
230
102
}
330
230
100
DictionaryVariables
280
     0
  1
80.000000
  0
DICTIONARYVAR
  5
233
102
{ACAD_REACTORS
330
230
102
}
330
230
100
DictionaryVariables
280
     0
  1
5.000000
  0
DICTIONARY
  5
25F
330
3D
100
AcDbDictionary
280
     1
281
     1
  3
ACAD_XREC_ROUNDTRIP
360
260
  0
DICTIONARY
  5
25D
330
3C
100
AcDbDictionary
280
     1
281
     1
  3
ACAD_XREC_ROUNDTRIP
360
25E
  0
DICTIONARY
  5
261
330
3E
100
AcDbDictionary
280
     1
281
     1
  3
ACAD_XREC_ROUNDTRIP
360
262
  0
DICTIONARY
  5
245
330
2F
100
AcDbDictionary
280
     1
281
     1
  3
ACAD_XREC_ROUNDTRIP
360
246
  0
DICTIONARY
  5
249
330
31
100
AcDbDictionary
280
     1
281
     1
  3
ACAD_XREC_ROUNDTRIP
360
24A
  0
DICTIONARY
  5
247
330
30
100
AcDbDictionary
280
     1
281
     1
  3
ACAD_XREC_ROUNDTRIP
360
248
  0
DICTIONARY
  5
24B
330
32
100
AcDbDictionary
280
     1
281
     1
  3
ACAD_XREC_ROUNDTRIP
360
24C
  0
DICTIONARY
  5
253
330
36
100
AcDbDictionary
280
     1
281
     1
  3
ACAD_XREC_ROUNDTRIP
360
254
  0
DICTIONARY
  5
25B
330
3A
100
AcDbDictionary
280
     1
281
     1
  3
ACAD_XREC_ROUNDTRIP
360
25C
  0
DICTIONARY
  5
24F
330
34
100
AcDbDictionary
280
     1
281
     1
  3
ACAD_XREC_ROUNDTRIP
360
250
  0
DICTIONARY
  5
251
330
35
100
AcDbDictionary
280
     1
281
     1
  3
ACAD_XREC_ROUNDTRIP
360
252
  0
DICTIONARY
  5
259
330
39
100
AcDbDictionary
280
     1
281
     1
  3
ACAD_XREC_ROUNDTRIP
360
25A
  0
DICTIONARY
  5
23D
330
2B
100
AcDbDictionary
280
     1
281
     1
  3
ACAD_XREC_ROUNDTRIP
360
23E
  0
DICTIONARY
  5
23F
330
2C
100
AcDbDictionary
280
     1
281
     1
  3
ACAD_XREC_ROUNDTRIP
360
240
  0
DICTIONARY
  5
241
330
2D
100
AcDbDictionary
280
     1
281
     1
  3
ACAD_XREC_ROUNDTRIP
360
242
  0
DICTIONARY
  5
243
330
2E
100
AcDbDictionary
280
     1
281
     1
  3
ACAD_XREC_ROUNDTRIP
360
244
  0
DICTIONARY
  5
257
330
38
100
AcDbDictionary
280
     1
281
     1
  3
ACAD_XREC_ROUNDTRIP
360
258
  0
DICTIONARY
  5
24D
330
33
100
AcDbDictionary
280
     1
281
     1
  3
ACAD_XREC_ROUNDTRIP
360
24E
  0
DICTIONARY
  5
255
330
37
100
AcDbDictionary
280
     1
281
     1
  3
ACAD_XREC_ROUNDTRIP
360
256
  0
XRECORD
  5
260
102
{ACAD_REACTORS
330
25F
102
}
330
25F
100
AcDbXrecord
280
     1
102
MATERIAL
148
0.0
149
0.0
149
0.0
 93
        0
 94
      127
282
     0
 72
     1
 77
     1
171
     1
175
     1
179
     1
273
     0
  0
XRECORD
  5
25E
102
{ACAD_REACTORS
330
25D
102
}
330
25D
100
AcDbXrecord
280
     1
102
MATERIAL
148
0.0
149
0.0
149
0.0
 93
        0
 94
      127
282
     0
 72
     1
 77
     1
171
     1
175
     1
179
     1
273
     0
  0
XRECORD
  5
262
102
{ACAD_REACTORS
330
261
102
}
330
261
100
AcDbXrecord
280
     1
102
MATERIAL
148
0.0
149
0.0
149
0.0
 93
        0
 94
      127
282
     0
 72
     1
 77
     1
171
     1
175
     1
179
     1
273
     0
  0
XRECORD
  5
246
102
{ACAD_REACTORS
330
245
102
}
330
245
100
AcDbXrecord
280
     1
102
RTVSPropertyOp0
 70
     1
102
RTVSPropertyOp1
 70
     1
102
RTVSPropertyOp2
 70
     1
102
RTVSPropertyOp3
 70
     1
102
RTVSPropertyOp4
 70
     1
102
RTVSPropertyOp5
 70
     1
102
RTVSPropertyOp6
 70
     1
102
RTVSPropertyOp7
 70
     1
102
RTVSPropertyOp8
 70
     1
102
RTVSPropertyOp9
 70
     1
102
RTVSPropertyOp10
 70
     1
102
RTVSPropertyOp11
 70
     1
102
RTVSPropertyOp12
 70
     1
102
RTVSPropertyOp13
 70
     1
102
RTVSPropertyOp14
 70
     1
102
RTVSPropertyOp15
 70
     1
102
RTVSPropertyOp16
 70
     1
102
RTVSPropertyOp17
 70
     1
102
RTVSPropertyOp18
 70
     1
102
RTVSPropertyOp19
 70
     1
102
RTVSPropertyOp20
 70
     1
102
RTVSPropertyOp21
 70
     1
102
RTVSPropertyOp22
 70
     1
102
RTVSPropertyOp23
 70
     1
102
RTVSPropertyOp24
 70
     1
102
RTVSPropertyOp25
 70
     1
102
RTVSPropertyOp26
 70
     1
102
RTVSPropertyOp27
 70
     1
102
RTVSPropertyOp28
 70
     1
102
RTVSPropertyOp29
 70
     1
102
RTVSPropertyOp30
 70
     1
102
RTVSPropertyOp31
 70
     1
102
RTVSPropertyOp32
 70
     1
  0
XRECORD
  5
24A
102
{ACAD_REACTORS
330
249
102
}
330
249
100
AcDbXrecord
280
     1
102
RTVSPropertyOp0
 70
     1
102
RTVSPropertyOp1
 70
     1
102
RTVSPropertyOp2
 70
     1
102
RTVSPropertyOp3
 70
     1
102
RTVSPropertyOp4
 70
     1
102
RTVSPropertyOp5
 70
     1
102
RTVSPropertyOp6
 70
     1
102
RTVSPropertyOp7
 70
     1
102
RTVSPropertyOp8
 70
     1
102
RTVSPropertyOp9
 70
     1
102
RTVSPropertyOp10
 70
     1
102
RTVSPropertyOp11
 70
     1
102
RTVSPropertyOp12
 70
     1
102
RTVSPropertyOp13
 70
     1
102
RTVSPropertyOp14
 70
     1
102
RTVSPropertyOp15
 70
     1
102
RTVSPropertyOp16
 70
     1
102
RTVSPropertyOp17
 70
     1
102
RTVSPropertyOp18
 70
     1
102
RTVSPropertyOp19
 70
     1
102
RTVSPropertyOp20
 70
     1
102
RTVSPropertyOp21
 70
     1
102
RTVSPropertyOp22
 70
     1
102
RTVSPropertyOp23
 70
     1
102
RTVSPropertyOp24
 70
     1
102
RTVSPropertyOp25
 70
     1
102
RTVSPropertyOp26
 70
     1
102
RTVSPropertyOp27
 70
     1
102
RTVSPropertyOp28
 70
     1
102
RTVSPropertyOp29
 70
     1
102
RTVSPropertyOp30
 70
     1
102
RTVSPropertyOp31
 70
     1
102
RTVSPropertyOp32
 70
     1
  0
XRECORD
  5
248
102
{ACAD_REACTORS
330
247
102
}
330
247
100
AcDbXrecord
280
     1
102
RTVSPropertyOp0
 70
     1
102
RTVSPropertyOp1
 70
     1
102
RTVSPropertyOp2
 70
     1
102
RTVSPropertyOp3
 70
     1
102
RTVSPropertyOp4
 70
     1
102
RTVSPropertyOp5
 70
     1
102
RTVSPropertyOp6
 70
     1
102
RTVSPropertyOp7
 70
     1
102
RTVSPropertyOp8
 70
     1
102
RTVSPropertyOp9
 70
     1
102
RTVSPropertyOp10
 70
     1
102
RTVSPropertyOp11
 70
     1
102
RTVSPropertyOp12
 70
     1
102
RTVSPropertyOp13
 70
     1
102
RTVSPropertyOp14
 70
     1
102
RTVSPropertyOp15
 70
     1
102
RTVSPropertyOp16
 70
     1
102
RTVSPropertyOp17
 70
     1
102
RTVSPropertyOp18
 70
     1
102
RTVSPropertyOp19
 70
     1
102
RTVSPropertyOp20
 70
     1
102
RTVSPropertyOp21
 70
     1
102
RTVSPropertyOp22
 70
     1
102
RTVSPropertyOp23
 70
     1
102
RTVSPropertyOp24
 70
     1
102
RTVSPropertyOp25
 70
     1
102
RTVSPropertyOp26
 70
     1
102
RTVSPropertyOp27
 70
     1
102
RTVSPropertyOp28
 70
     1
102
RTVSPropertyOp29
 70
     1
102
RTVSPropertyOp30
 70
     1
102
RTVSPropertyOp31
 70
     1
102
RTVSPropertyOp32
 70
     1
  0
XRECORD
  5
24C
102
{ACAD_REACTORS
330
24B
102
}
330
24B
100
AcDbXrecord
280
     1
102
RTVSPropertyOp0
 70
     1
102
RTVSPropertyOp1
 70
     1
102
RTVSPropertyOp2
 70
     1
102
RTVSPropertyOp3
 70
     1
102
RTVSPropertyOp4
 70
     1
102
RTVSPropertyOp5
 70
     1
102
RTVSPropertyOp6
 70
     1
102
RTVSPropertyOp7
 70
     1
102
RTVSPropertyOp8
 70
     1
102
RTVSPropertyOp9
 70
     1
102
RTVSPropertyOp10
 70
     1
102
RTVSPropertyOp11
 70
     1
102
RTVSPropertyOp12
 70
     1
102
RTVSPropertyOp13
 70
     1
102
RTVSPropertyOp14
 70
     1
102
RTVSPropertyOp15
 70
     1
102
RTVSPropertyOp16
 70
     1
102
RTVSPropertyOp17
 70
     1
102
RTVSPropertyOp18
 70
     1
102
RTVSPropertyOp19
 70
     1
102
RTVSPropertyOp20
 70
     1
102
RTVSPropertyOp21
 70
     1
102
RTVSPropertyOp22
 70
     1
102
RTVSPropertyOp23
 70
     1
102
RTVSPropertyOp24
 70
     1
102
RTVSPropertyOp25
 70
     1
102
RTVSPropertyOp26
 70
     1
102
RTVSPropertyOp27
 70
     1
102
RTVSPropertyOp28
 70
     1
102
RTVSPropertyOp29
 70
     1
102
RTVSPropertyOp30
 70
     1
102
RTVSPropertyOp31
 70
     1
102
RTVSPropertyOp32
 70
     1
  0
XRECORD
  5
254
102
{ACAD_REACTORS
330
253
102
}
330
253
100
AcDbXrecord
280
     1
102
RTVSPropertyOp0
 70
     1
102
RTVSPropertyOp1
 70
     1
102
RTVSPropertyOp2
 70
     1
102
RTVSPropertyOp3
 70
     1
102
RTVSPropertyOp4
 70
     1
102
RTVSPropertyOp5
 70
     1
102
RTVSPropertyOp6
 70
     1
102
RTVSPropertyOp7
 70
     1
102
RTVSPropertyOp8
 70
     1
102
RTVSPropertyOp9
 70
     1
102
RTVSPropertyOp10
 70
     1
102
RTVSPropertyOp11
 70
     1
102
RTVSPropertyOp12
 70
     1
102
RTVSPropertyOp13
 70
     1
102
RTVSPropertyOp14
 70
     1
102
RTVSPropertyOp15
 70
     1
102
RTVSPropertyOp16
 70
     1
102
RTVSPropertyOp17
 70
     1
102
RTVSPropertyOp18
 70
     1
102
RTVSPropertyOp19
 70
     1
102
RTVSPropertyOp20
 70
     1
102
RTVSPropertyOp21
 70
     1
102
RTVSPropertyOp22
 70
     1
102
RTVSPropertyOp23
 70
     1
102
RTVSPropertyOp24
 70
     1
102
RTVSPropertyOp25
 70
     1
102
RTVSPropertyOp26
 70
     1
102
RTVSPropertyOp27
 70
     1
102
RTVSPropertyOp28
 70
     1
102
RTVSPropertyOp29
 70
     1
102
RTVSPropertyOp30
 70
     1
102
RTVSPropertyOp31
 70
     1
102
RTVSPropertyOp32
 70
     1
  0
XRECORD
  5
25C
102
{ACAD_REACTORS
330
25B
102
}
330
25B
100
AcDbXrecord
280
     1
102
RTVSPropertyOp0
 70
     1
102
RTVSPropertyOp1
 70
     1
102
RTVSPropertyOp2
 70
     1
102
RTVSPropertyOp3
 70
     1
102
RTVSPropertyOp4
 70
     1
102
RTVSPropertyOp5
 70
     1
102
RTVSPropertyOp6
 70
     1
102
RTVSPropertyOp7
 70
     1
102
RTVSPropertyOp8
 70
     1
102
RTVSPropertyOp9
 70
     1
102
RTVSPropertyOp10
 70
     1
102
RTVSPropertyOp11
 70
     1
102
RTVSPropertyOp12
 70
     1
102
RTVSPropertyOp13
 70
     1
102
RTVSPropertyOp14
 70
     1
102
RTVSPropertyOp15
 70
     1
102
RTVSPropertyOp16
 70
     1
102
RTVSPropertyOp17
 70
     1
102
RTVSPropertyOp18
 70
     1
102
RTVSPropertyOp19
 70
     1
102
RTVSPropertyOp20
 70
     1
102
RTVSPropertyOp21
 70
     1
102
RTVSPropertyOp22
 70
     1
102
RTVSPropertyOp23
 70
     1
102
RTVSPropertyOp24
 70
     1
102
RTVSPropertyOp25
 70
     1
102
RTVSPropertyOp26
 70
     1
102
RTVSPropertyOp27
 70
     1
102
RTVSPropertyOp28
 70
     1
102
RTVSPropertyOp29
 70
     1
102
RTVSPropertyOp30
 70
     1
102
RTVSPropertyOp31
 70
     1
102
RTVSPropertyOp32
 70
     1
  0
XRECORD
  5
250
102
{ACAD_REACTORS
330
24F
102
}
330
24F
100
AcDbXrecord
280
     1
102
RTVSPropertyOp0
 70
     1
102
RTVSPropertyOp1
 70
     1
102
RTVSPropertyOp2
 70
     1
102
RTVSPropertyOp3
 70
     1
102
RTVSPropertyOp4
 70
     1
102
RTVSPropertyOp5
 70
     1
102
RTVSPropertyOp6
 70
     1
102
RTVSPropertyOp7
 70
     1
102
RTVSPropertyOp8
 70
     1
102
RTVSPropertyOp9
 70
     1
102
RTVSPropertyOp10
 70
     1
102
RTVSPropertyOp11
 70
     1
102
RTVSPropertyOp12
 70
     1
102
RTVSPropertyOp13
 70
     1
102
RTVSPropertyOp14
 70
     1
102
RTVSPropertyOp15
 70
     1
102
RTVSPropertyOp16
 70
     1
102
RTVSPropertyOp17
 70
     1
102
RTVSPropertyOp18
 70
     1
102
RTVSPropertyOp19
 70
     1
102
RTVSPropertyOp20
 70
     1
102
RTVSPropertyOp21
 70
     1
102
RTVSPropertyOp22
 70
     1
102
RTVSPropertyOp23
 70
     1
102
RTVSPropertyOp24
 70
     1
102
RTVSPropertyOp25
 70
     1
102
RTVSPropertyOp26
 70
     1
102
RTVSPropertyOp27
 70
     1
102
RTVSPropertyOp28
 70
     1
102
RTVSPropertyOp29
 70
     1
102
RTVSPropertyOp30
 70
     1
102
RTVSPropertyOp31
 70
     1
102
RTVSPropertyOp32
 70
     1
  0
XRECORD
  5
252
102
{ACAD_REACTORS
330
251
102
}
330
251
100
AcDbXrecord
280
     1
102
RTVSPropertyOp0
 70
     1
102
RTVSPropertyOp1
 70
     1
102
RTVSPropertyOp2
 70
     1
102
RTVSPropertyOp3
 70
     1
102
RTVSPropertyOp4
 70
     1
102
RTVSPropertyOp5
 70
     1
102
RTVSPropertyOp6
 70
     1
102
RTVSPropertyOp7
 70
     1
102
RTVSPropertyOp8
 70
     1
102
RTVSPropertyOp9
 70
     1
102
RTVSPropertyOp10
 70
     1
102
RTVSPropertyOp11
 70
     1
102
RTVSPropertyOp12
 70
     1
102
RTVSPropertyOp13
 70
     1
102
RTVSPropertyOp14
 70
     1
102
RTVSPropertyOp15
 70
     1
102
RTVSPropertyOp16
 70
     1
102
RTVSPropertyOp17
 70
     1
102
RTVSPropertyOp18
 70
     1
102
RTVSPropertyOp19
 70
     1
102
RTVSPropertyOp20
 70
     1
102
RTVSPropertyOp21
 70
     1
102
RTVSPropertyOp22
 70
     1
102
RTVSPropertyOp23
 70
     1
102
RTVSPropertyOp24
 70
     1
102
RTVSPropertyOp25
 70
     1
102
RTVSPropertyOp26
 70
     1
102
RTVSPropertyOp27
 70
     1
102
RTVSPropertyOp28
 70
     1
102
RTVSPropertyOp29
 70
     1
102
RTVSPropertyOp30
 70
     1
102
RTVSPropertyOp31
 70
     1
102
RTVSPropertyOp32
 70
     1
  0
XRECORD
  5
25A
102
{ACAD_REACTORS
330
259
102
}
330
259
100
AcDbXrecord
280
     1
102
RTVSPropertyOp0
 70
     1
102
RTVSPropertyOp1
 70
     1
102
RTVSPropertyOp2
 70
     1
102
RTVSPropertyOp3
 70
     1
102
RTVSPropertyOp4
 70
     1
102
RTVSPropertyOp5
 70
     1
102
RTVSPropertyOp6
 70
     1
102
RTVSPropertyOp7
 70
     1
102
RTVSPropertyOp8
 70
     1
102
RTVSPropertyOp9
 70
     1
102
RTVSPropertyOp10
 70
     1
102
RTVSPropertyOp11
 70
     1
102
RTVSPropertyOp12
 70
     1
102
RTVSPropertyOp13
 70
     1
102
RTVSPropertyOp14
 70
     1
102
RTVSPropertyOp15
 70
     1
102
RTVSPropertyOp16
 70
     1
102
RTVSPropertyOp17
 70
     1
102
RTVSPropertyOp18
 70
     1
102
RTVSPropertyOp19
 70
     1
102
RTVSPropertyOp20
 70
     1
102
RTVSPropertyOp21
 70
     1
102
RTVSPropertyOp22
 70
     1
102
RTVSPropertyOp23
 70
     1
102
RTVSPropertyOp24
 70
     1
102
RTVSPropertyOp25
 70
     1
102
RTVSPropertyOp26
 70
     1
102
RTVSPropertyOp27
 70
     1
102
RTVSPropertyOp28
 70
     1
102
RTVSPropertyOp29
 70
     1
102
RTVSPropertyOp30
 70
     1
102
RTVSPropertyOp31
 70
     1
102
RTVSPropertyOp32
 70
     1
  0
XRECORD
  5
23E
102
{ACAD_REACTORS
330
23D
102
}
330
23D
100
AcDbXrecord
280
     1
102
RTVSPropertyOp0
 70
     1
102
RTVSPropertyOp1
 70
     1
102
RTVSPropertyOp2
 70
     1
102
RTVSPropertyOp3
 70
     1
102
RTVSPropertyOp4
 70
     1
102
RTVSPropertyOp5
 70
     1
102
RTVSPropertyOp6
 70
     1
102
RTVSPropertyOp7
 70
     1
102
RTVSPropertyOp8
 70
     1
102
RTVSPropertyOp9
 70
     1
102
RTVSPropertyOp10
 70
     1
102
RTVSPropertyOp11
 70
     1
102
RTVSPropertyOp12
 70
     1
102
RTVSPropertyOp13
 70
     1
102
RTVSPropertyOp14
 70
     1
102
RTVSPropertyOp15
 70
     1
102
RTVSPropertyOp16
 70
     1
102
RTVSPropertyOp17
 70
     1
102
RTVSPropertyOp18
 70
     1
102
RTVSPropertyOp19
 70
     1
102
RTVSPropertyOp20
 70
     1
102
RTVSPropertyOp21
 70
     1
102
RTVSPropertyOp22
 70
     1
102
RTVSPropertyOp23
 70
     1
102
RTVSPropertyOp24
 70
     1
102
RTVSPropertyOp25
 70
     1
102
RTVSPropertyOp26
 70
     1
102
RTVSPropertyOp27
 70
     1
102
RTVSPropertyOp28
 70
     1
102
RTVSPropertyOp29
 70
     1
102
RTVSPropertyOp30
 70
     1
102
RTVSPropertyOp31
 70
     1
102
RTVSPropertyOp32
 70
     1
  0
XRECORD
  5
240
102
{ACAD_REACTORS
330
23F
102
}
330
23F
100
AcDbXrecord
280
     1
102
RTVSPropertyOp0
 70
     1
102
RTVSPropertyOp1
 70
     1
102
RTVSPropertyOp2
 70
     1
102
RTVSPropertyOp3
 70
     1
102
RTVSPropertyOp4
 70
     1
102
RTVSPropertyOp5
 70
     1
102
RTVSPropertyOp6
 70
     1
102
RTVSPropertyOp7
 70
     1
102
RTVSPropertyOp8
 70
     1
102
RTVSPropertyOp9
 70
     1
102
RTVSPropertyOp10
 70
     1
102
RTVSPropertyOp11
 70
     1
102
RTVSPropertyOp12
 70
     1
102
RTVSPropertyOp13
 70
     1
102
RTVSPropertyOp14
 70
     1
102
RTVSPropertyOp15
 70
     1
102
RTVSPropertyOp16
 70
     1
102
RTVSPropertyOp17
 70
     1
102
RTVSPropertyOp18
 70
     1
102
RTVSPropertyOp19
 70
     1
102
RTVSPropertyOp20
 70
     1
102
RTVSPropertyOp21
 70
     1
102
RTVSPropertyOp22
 70
     1
102
RTVSPropertyOp23
 70
     1
102
RTVSPropertyOp24
 70
     1
102
RTVSPropertyOp25
 70
     1
102
RTVSPropertyOp26
 70
     1
102
RTVSPropertyOp27
 70
     1
102
RTVSPropertyOp28
 70
     1
102
RTVSPropertyOp29
 70
     1
102
RTVSPropertyOp30
 70
     1
102
RTVSPropertyOp31
 70
     1
102
RTVSPropertyOp32
 70
     1
  0
XRECORD
  5
242
102
{ACAD_REACTORS
330
241
102
}
330
241
100
AcDbXrecord
280
     1
102
RTVSPropertyOp0
 70
     1
102
RTVSPropertyOp1
 70
     1
102
RTVSPropertyOp2
 70
     1
102
RTVSPropertyOp3
 70
     1
102
RTVSPropertyOp4
 70
     1
102
RTVSPropertyOp5
 70
     1
102
RTVSPropertyOp6
 70
     1
102
RTVSPropertyOp7
 70
     1
102
RTVSPropertyOp8
 70
     1
102
RTVSPropertyOp9
 70
     1
102
RTVSPropertyOp10
 70
     1
102
RTVSPropertyOp11
 70
     1
102
RTVSPropertyOp12
 70
     1
102
RTVSPropertyOp13
 70
     1
102
RTVSPropertyOp14
 70
     1
102
RTVSPropertyOp15
 70
     1
102
RTVSPropertyOp16
 70
     1
102
RTVSPropertyOp17
 70
     1
102
RTVSPropertyOp18
 70
     1
102
RTVSPropertyOp19
 70
     1
102
RTVSPropertyOp20
 70
     1
102
RTVSPropertyOp21
 70
     1
102
RTVSPropertyOp22
 70
     1
102
RTVSPropertyOp23
 70
     1
102
RTVSPropertyOp24
 70
     1
102
RTVSPropertyOp25
 70
     1
102
RTVSPropertyOp26
 70
     1
102
RTVSPropertyOp27
 70
     1
102
RTVSPropertyOp28
 70
     1
102
RTVSPropertyOp29
 70
     1
102
RTVSPropertyOp30
 70
     1
102
RTVSPropertyOp31
 70
     1
102
RTVSPropertyOp32
 70
     1
  0
XRECORD
  5
244
102
{ACAD_REACTORS
330
243
102
}
330
243
100
AcDbXrecord
280
     1
102
RTVSPropertyOp0
 70
     1
102
RTVSPropertyOp1
 70
     1
102
RTVSPropertyOp2
 70
     1
102
RTVSPropertyOp3
 70
     1
102
RTVSPropertyOp4
 70
     1
102
RTVSPropertyOp5
 70
     1
102
RTVSPropertyOp6
 70
     1
102
RTVSPropertyOp7
 70
     1
102
RTVSPropertyOp8
 70
     1
102
RTVSPropertyOp9
 70
     1
102
RTVSPropertyOp10
 70
     1
102
RTVSPropertyOp11
 70
     1
102
RTVSPropertyOp12
 70
     1
102
RTVSPropertyOp13
 70
     1
102
RTVSPropertyOp14
 70
     1
102
RTVSPropertyOp15
 70
     1
102
RTVSPropertyOp16
 70
     1
102
RTVSPropertyOp17
 70
     1
102
RTVSPropertyOp18
 70
     1
102
RTVSPropertyOp19
 70
     1
102
RTVSPropertyOp20
 70
     1
102
RTVSPropertyOp21
 70
     1
102
RTVSPropertyOp22
 70
     1
102
RTVSPropertyOp23
 70
     1
102
RTVSPropertyOp24
 70
     1
102
RTVSPropertyOp25
 70
     1
102
RTVSPropertyOp26
 70
     1
102
RTVSPropertyOp27
 70
     1
102
RTVSPropertyOp28
 70
     1
102
RTVSPropertyOp29
 70
     1
102
RTVSPropertyOp30
 70
     1
102
RTVSPropertyOp31
 70
     1
102
RTVSPropertyOp32
 70
     1
  0
XRECORD
  5
258
102
{ACAD_REACTORS
330
257
102
}
330
257
100
AcDbXrecord
280
     1
102
RTVSPropertyOp0
 70
     1
102
RTVSPropertyOp1
 70
     1
102
RTVSPropertyOp2
 70
     1
102
RTVSPropertyOp3
 70
     1
102
RTVSPropertyOp4
 70
     1
102
RTVSPropertyOp5
 70
     1
102
RTVSPropertyOp6
 70
     1
102
RTVSPropertyOp7
 70
     1
102
RTVSPropertyOp8
 70
     1
102
RTVSPropertyOp9
 70
     1
102
RTVSPropertyOp10
 70
     1
102
RTVSPropertyOp11
 70
     1
102
RTVSPropertyOp12
 70
     1
102
RTVSPropertyOp13
 70
     1
102
RTVSPropertyOp14
 70
     1
102
RTVSPropertyOp15
 70
     1
102
RTVSPropertyOp16
 70
     1
102
RTVSPropertyOp17
 70
     1
102
RTVSPropertyOp18
 70
     1
102
RTVSPropertyOp19
 70
     1
102
RTVSPropertyOp20
 70
     1
102
RTVSPropertyOp21
 70
     1
102
RTVSPropertyOp22
 70
     1
102
RTVSPropertyOp23
 70
     1
102
RTVSPropertyOp24
 70
     1
102
RTVSPropertyOp25
 70
     1
102
RTVSPropertyOp26
 70
     1
102
RTVSPropertyOp27
 70
     1
102
RTVSPropertyOp28
 70
     1
102
RTVSPropertyOp29
 70
     1
102
RTVSPropertyOp30
 70
     1
102
RTVSPropertyOp31
 70
     1
102
RTVSPropertyOp32
 70
     1
  0
XRECORD
  5
24E
102
{ACAD_REACTORS
330
24D
102
}
330
24D
100
AcDbXrecord
280
     1
102
RTVSPropertyOp0
 70
     1
102
RTVSPropertyOp1
 70
     1
102
RTVSPropertyOp2
 70
     1
102
RTVSPropertyOp3
 70
     1
102
RTVSPropertyOp4
 70
     1
102
RTVSPropertyOp5
 70
     1
102
RTVSPropertyOp6
 70
     1
102
RTVSPropertyOp7
 70
     1
102
RTVSPropertyOp8
 70
     1
102
RTVSPropertyOp9
 70
     1
102
RTVSPropertyOp10
 70
     1
102
RTVSPropertyOp11
 70
     1
102
RTVSPropertyOp12
 70
     1
102
RTVSPropertyOp13
 70
     1
102
RTVSPropertyOp14
 70
     1
102
RTVSPropertyOp15
 70
     1
102
RTVSPropertyOp16
 70
     1
102
RTVSPropertyOp17
 70
     1
102
RTVSPropertyOp18
 70
     1
102
RTVSPropertyOp19
 70
     1
102
RTVSPropertyOp20
 70
     1
102
RTVSPropertyOp21
 70
     1
102
RTVSPropertyOp22
 70
     1
102
RTVSPropertyOp23
 70
     1
102
RTVSPropertyOp24
 70
     1
102
RTVSPropertyOp25
 70
     1
102
RTVSPropertyOp26
 70
     1
102
RTVSPropertyOp27
 70
     1
102
RTVSPropertyOp28
 70
     1
102
RTVSPropertyOp29
 70
     1
102
RTVSPropertyOp30
 70
     1
102
RTVSPropertyOp31
 70
     1
102
RTVSPropertyOp32
 70
     1
  0
XRECORD
  5
256
102
{ACAD_REACTORS
330
255
102
}
330
255
100
AcDbXrecord
280
     1
102
RTVSPropertyOp0
 70
     1
102
RTVSPropertyOp1
 70
     1
102
RTVSPropertyOp2
 70
     1
102
RTVSPropertyOp3
 70
     1
102
RTVSPropertyOp4
 70
     1
102
RTVSPropertyOp5
 70
     1
102
RTVSPropertyOp6
 70
     1
102
RTVSPropertyOp7
 70
     1
102
RTVSPropertyOp8
 70
     1
102
RTVSPropertyOp9
 70
     1
102
RTVSPropertyOp10
 70
     1
102
RTVSPropertyOp11
 70
     1
102
RTVSPropertyOp12
 70
     1
102
RTVSPropertyOp13
 70
     1
102
RTVSPropertyOp14
 70
     1
102
RTVSPropertyOp15
 70
     1
102
RTVSPropertyOp16
 70
     1
102
RTVSPropertyOp17
 70
     1
102
RTVSPropertyOp18
 70
     1
102
RTVSPropertyOp19
 70
     1
102
RTVSPropertyOp20
 70
     1
102
RTVSPropertyOp21
 70
     1
102
RTVSPropertyOp22
 70
     1
102
RTVSPropertyOp23
 70
     1
102
RTVSPropertyOp24
 70
     1
102
RTVSPropertyOp25
 70
     1
102
RTVSPropertyOp26
 70
     1
102
RTVSPropertyOp27
 70
     1
102
RTVSPropertyOp28
 70
     1
102
RTVSPropertyOp29
 70
     1
102
RTVSPropertyOp30
 70
     1
102
RTVSPropertyOp31
 70
     1
102
RTVSPropertyOp32
 70
     1
  0
ENDSEC
  0
EOF
