  0
SECTION
  2
HEADER
  9
$ACADVER
  1
AC1015
  9
$ACADMAINTVER
 70
     6
  9
$DWGCODEPAGE
  3
ANSI_1252
  9
$INSBASE
 10
0.0
 20
0.0
 30
0.0
  9
$EXTMIN
 10
0.0
 20
0.0
 30
0.0
  9
$EXTMAX
 10
297.0
 20
210.0
 30
0.0
  9
$LIMMIN
 10
0.0
 20
0.0
  9
$LIMMAX
 10
297.0
 20
210.0
  9
$ORTHOMODE
 70
     0
  9
$REGENMODE
 70
     1
  9
$FILLMODE
 70
     1
  9
$QTEXTMODE
 70
     0
  9
$MIRRTEXT
 70
     1
  9
$LTSCALE
 40
1.0
  9
$ATTMODE
 70
     1
  9
$TEXTSIZE
 40
2.5
  9
$TRACEWID
 40
1.0
  9
$TEXTSTYLE
  7
Standard
  9
$CLAYER
  8
0
  9
$CELTYPE
  6
ByLayer
  9
$CECOLOR
 62
   256
  9
$CELTSCALE
 40
1.0
  9
$DISPSILH
 70
     0
  9
$DIMSCALE
 40
1.0
  9
$DIMASZ
 40
2.5
  9
$DIMEXO
 40
0.625
  9
$DIMDLI
 40
3.75
  9
$DIMRND
 40
0.0
  9
$DIMDLE
 40
0.0
  9
$DIMEXE
 40
1.25
  9
$DIMTP
 40
0.0
  9
$DIMTM
 40
0.0
  9
$DIMTXT
 40
2.5
  9
$DIMCEN
 40
2.5
  9
$DIMTSZ
 40
0.0
  9
$DIMTOL
 70
     0
  9
$DIMLIM
 70
     0
  9
$DIMTIH
 70
     0
  9
$DIMTOH
 70
     0
  9
$DIMSE1
 70
     0
  9
$DIMSE2
 70
     0
  9
$DIMTAD
 70
     1
  9
$DIMZIN
 70
     8
  9
$DIMBLK
  1

  9
$DIMASO
 70
     1
  9
$DIMSHO
 70
     1
  9
$DIMPOST
  1

  9
$DIMAPOST
  1

  9
$DIMALT
 70
     0
  9
$DIMALTD
 70
     3
  9
$DIMALTF
 40
0.0393700787
  9
$DIMLFAC
 40
1.0
  9
$DIMTOFL
 70
     1
  9
$DIMTVP
 40
0.0
  9
$DIMTIX
 70
     0
  9
$DIMSOXD
 70
     0
  9
$DIMSAH
 70
     0
  9
$DIMBLK1
  1

  9
$DIMBLK2
  1

  9
$DIMSTYLE
  2
ISO-25
  9
$DIMCLRD
 70
     0
  9
$DIMCLRE
 70
     0
  9
$DIMCLRT
 70
     0
  9
$DIMTFAC
 40
1.0
  9
$DIMGAP
 40
0.625
  9
$DIMJUST
 70
     0
  9
$DIMSD1
 70
     0
  9
$DIMSD2
 70
     0
  9
$DIMTOLJ
 70
     0
  9
$DIMTZIN
 70
     8
  9
$DIMALTZ
 70
     0
  9
$DIMALTTZ
 70
     0
  9
$DIMUPT
 70
     0
  9
$DIMDEC
 70
     2
  9
$DIMTDEC
 70
     2
  9
$DIMALTU
 70
     2
  9
$DIMALTTD
 70
     3
  9
$DIMTXSTY
  7
Standard
  9
$DIMAUNIT
 70
     0
  9
$DIMADEC
 70
     0
  9
$DIMALTRND
 40
0.0
  9
$DIMAZIN
 70
     0
  9
$DIMDSEP
 70
    44
  9
$DIMATFIT
 70
     3
  9
$DIMFRAC
 70
     0
  9
$DIMLDRBLK
  1

  9
$DIMLUNIT
 70
     2
  9
$DIMLWD
 70
    -2
  9
$DIMLWE
 70
    -2
  9
$DIMTMOVE
 70
     0
  9
$LUNITS
 70
     2
  9
$LUPREC
 70
     4
  9
$SKETCHINC
 40
1.0
  9
$FILLETRAD
 40
10.0
  9
$AUNITS
 70
     0
  9
$AUPREC
 70
     0
  9
$MENU
  1
.
  9
$ELEVATION
 40
0.0
  9
$PELEVATION
 40
0.0
  9
$THICKNESS
 40
0.0
  9
$LIMCHECK
 70
     0
  9
$CHAMFERA
 40
10.0
  9
$CHAMFERB
 40
10.0
  9
$CHAMFERC
 40
20.0
  9
$CHAMFERD
 40
0.0
  9
$SKPOLY
 70
     0
  9
$TDCREATE
 40
2457361.369852534
  9
$TDUCREATE
 40
2457361.328185868
  9
$TDUPDATE
 40
2457361.369853646
  9
$TDUUPDATE
 40
2457361.328186979
  9
$TDINDWG
 40
0.0000000116
  9
$TDUSRTIMER
 40
0.0000000116
  9
$USRTIMER
 70
     1
  9
$ANGBASE
 50
0.0
  9
$ANGDIR
 70
     0
  9
$PDMODE
 70
     0
  9
$PDSIZE
 40
0.0
  9
$PLINEWID
 40
0.0
  9
$SPLFRAME
 70
     0
  9
$SPLINETYPE
 70
     6
  9
$SPLINESEGS
 70
     8
  9
$HANDSEED
  5
23F
  9
$SURFTAB1
 70
     6
  9
$SURFTAB2
 70
     6
  9
$SURFTYPE
 70
     6
  9
$SURFU
 70
     6
  9
$SURFV
 70
     6
  9
$UCSBASE
  2

  9
$UCSNAME
  2

  9
$UCSORG
 10
0.0
 20
0.0
 30
0.0
  9
$UCSXDIR
 10
1.0
 20
0.0
 30
0.0
  9
$UCSYDIR
 10
0.0
 20
1.0
 30
0.0
  9
$UCSORTHOREF
  2

  9
$UCSORTHOVIEW
 70
     0
  9
$UCSORGTOP
 10
0.0
 20
0.0
 30
0.0
  9
$UCSORGBOTTOM
 10
0.0
 20
0.0
 30
0.0
  9
$UCSORGLEFT
 10
0.0
 20
0.0
 30
0.0
  9
$UCSORGRIGHT
 10
0.0
 20
0.0
 30
0.0
  9
$UCSORGFRONT
 10
0.0
 20
0.0
 30
0.0
  9
$UCSORGBACK
 10
0.0
 20
0.0
 30
0.0
  9
$PUCSBASE
  2

  9
$PUCSNAME
  2

  9
$PUCSORG
 10
0.0
 20
0.0
 30
0.0
  9
$PUCSXDIR
 10
1.0
 20
0.0
 30
0.0
  9
$PUCSYDIR
 10
0.0
 20
1.0
 30
0.0
  9
$PUCSORTHOREF
  2

  9
$PUCSORTHOVIEW
 70
     0
  9
$PUCSORGTOP
 10
0.0
 20
0.0
 30
0.0
  9
$PUCSORGBOTTOM
 10
0.0
 20
0.0
 30
0.0
  9
$PUCSORGLEFT
 10
0.0
 20
0.0
 30
0.0
  9
$PUCSORGRIGHT
 10
0.0
 20
0.0
 30
0.0
  9
$PUCSORGFRONT
 10
0.0
 20
0.0
 30
0.0
  9
$PUCSORGBACK
 10
0.0
 20
0.0
 30
0.0
  9
$USERI1
 70
     0
  9
$USERI2
 70
     0
  9
$USERI3
 70
     0
  9
$USERI4
 70
     0
  9
$USERI5
 70
     0
  9
$USERR1
 40
0.0
  9
$USERR2
 40
0.0
  9
$USERR3
 40
0.0
  9
$USERR4
 40
0.0
  9
$USERR5
 40
0.0
  9
$WORLDVIEW
 70
     1
  9
$SHADEDGE
 70
     3
  9
$SHADEDIF
 70
    70
  9
$TILEMODE
 70
     1
  9
$MAXACTVP
 70
    64
  9
$PINSBASE
 10
0.0
 20
0.0
 30
0.0
  9
$PLIMCHECK
 70
     0
  9
$PEXTMIN
 10
0.0
 20
0.0
 30
0.0
  9
$PEXTMAX
 10
297.0
 20
210.0
 30
0.0
  9
$PLIMMIN
 10
0.0
 20
0.0
  9
$PLIMMAX
 10
297.0
 20
210.0
  9
$UNITMODE
 70
     0
  9
$VISRETAIN
 70
     1
  9
$PLINEGEN
 70
     0
  9
$PSLTSCALE
 70
     1
  9
$TREEDEPTH
 70
  3020
  9
$CMLSTYLE
  2
Standard
  9
$CMLJUST
 70
     0
  9
$CMLSCALE
 40
20.0
  9
$PROXYGRAPHICS
 70
     1
  9
$MEASUREMENT
 70
     1
  9
$CELWEIGHT
370
    -1
  9
$ENDCAPS
280
     0
  9
$JOINSTYLE
280
     0
  9
$LWDISPLAY
290
     0
  9
$INSUNITS
 70
     4
  9
$HYPERLINKBASE
  1

  9
$STYLESHEET
  1

  9
$XEDIT
290
     1
  9
$CEPSNTYPE
380
     0
  9
$PSTYLEMODE
290
     1
  9
$FINGERPRINTGUID
  2
{4662AF52-F4A2-4210-874E-96629ACFEA1A}
  9
$VERSIONGUID
  2
{FAEB1C32-E019-11D5-929B-00C0DF256EC4}
  9
$EXTNAMES
290
     1
  9
$PSVPSCALE
 40
0.0
  9
$OLESTARTUP
290
     0
  0
ENDSEC
  0
SECTION
  2
CLASSES
  0
CLASS
  1
ACDBDICTIONARYWDFLT
  2
AcDbDictionaryWithDefault
  3
ObjectDBX Classes
 90
        0
280
     0
281
     0
  0
CLASS
  1
VISUALSTYLE
  2
AcDbVisualStyle
  3
ObjectDBX Classes
 90
     4095
280
     0
281
     0
  0
CLASS
  1
MATERIAL
  2
AcDbMaterial
  3
ObjectDBX Classes
 90
     1153
280
     0
281
     0
  0
CLASS
  1
DICTIONARYVAR
  2
AcDbDictionaryVar
  3
ObjectDBX Classes
 90
        0
280
     0
281
     0
  0
CLASS
  1
ACDBPLACEHOLDER
  2
AcDbPlaceHolder
  3
ObjectDBX Classes
 90
        0
280
     0
281
     0
  0
CLASS
  1
LAYOUT
  2
AcDbLayout
  3
ObjectDBX Classes
 90
        0
280
     0
281
     0
  0
ENDSEC
  0
SECTION
  2
TABLES
  0
TABLE
  2
VPORT
  5
8
330
0
100
AcDbSymbolTable
 70
     1
  0
VPORT
  5
29
330
8
100
AcDbSymbolTableRecord
100
AcDbViewportTableRecord
  2
*Active
 70
     0
 10
0.0
 20
0.0
 11
1.0
 21
1.0
 12
344.1869158879
 22
148.5
 13
0.0
 23
0.0
 14
10.0
 24
10.0
 15
10.0
 25
10.0
 16
0.0
 26
0.0
 36
1.0
 17
0.0
 27
0.0
 37
0.0
 40
297.0
 41
1.9729729729
 42
50.0
 43
0.0
 44
0.0
 50
0.0
 51
0.0
 71
     0
 72
   100
 73
     1
 74
     3
 75
     0
 76
     0
 77
     0
 78
     0
281
     0
 65
     1
110
0.0
120
0.0
130
0.0
111
1.0
121
0.0
131
0.0
112
0.0
122
1.0
132
0.0
 79
     0
146
0.0
  0
ENDTAB
  0
TABLE
  2
LTYPE
  5
5
330
0
100
AcDbSymbolTable
 70
     2
  0
LTYPE
  5
14
330
5
100
AcDbSymbolTableRecord
100
AcDbLinetypeTableRecord
  2
ByBlock
 70
     0
  3

 72
    65
 73
     0
 40
0.0
  0
LTYPE
  5
15
330
5
100
AcDbSymbolTableRecord
100
AcDbLinetypeTableRecord
  2
ByLayer
 70
     0
  3

 72
    65
 73
     0
 40
0.0
  0
LTYPE
  5
16
330
5
100
AcDbSymbolTableRecord
100
AcDbLinetypeTableRecord
  2
Continuous
 70
     0
  3
Solid line
 72
    65
 73
     0
 40
0.0
  0
LTYPE
  5
12F
330
5
100
AcDbSymbolTableRecord
100
AcDbLinetypeTableRecord
  2
CENTER2
 70
     0
  3
Center (.5x) ___ _ ___ _ ___ _ ___ _ ___ _ ___
 72
    65
 73
     4
 40
28.575
 49
19.05
 74
     4
 75
     0
340
0
 46
0.0
 50
0.0
 44
0.0
 45
0.0
 49
-3.175
 74
     4
 75
     0
340
0
 46
0.0
 50
0.0
 44
0.0
 45
0.0
 49
3.175
 74
     4
 75
     0
340
0
 46
0.0
 50
0.0
 44
0.0
 45
0.0
 49
-3.175
 74
     4
 75
     0
340
0
 46
0.0
 50
0.0
 44
0.0
 45
0.0
  0
ENDTAB
  0
TABLE
  2
LAYER
  5
2
330
0
100
AcDbSymbolTable
 70
     4
  0
LAYER
  5
10
330
2
100
AcDbSymbolTableRecord
100
AcDbLayerTableRecord
  2
0
 70
     0
 62
     7
  6
Continuous
370
    -3
390
F
  0
LAYER
  5
3F
330
2
100
AcDbSymbolTableRecord
100
AcDbLayerTableRecord
  2
Default
 70
     0
 62
     7
  6
Continuous
370
    -3
390
F
  0
LAYER
  5
42
330
2
100
AcDbSymbolTableRecord
100
AcDbLayerTableRecord
  2
0012334
 70
     0
 62
     7
  6
Continuous
370
    -3
390
F
  0
LAYER
  5
12E
330
2
100
AcDbSymbolTableRecord
100
AcDbLayerTableRecord
  2
DV1_Default
 70
     0
 62
     7
  6
Continuous
370
    -3
390
F
  0
ENDTAB
  0
TABLE
  2
STYLE
  5
3
330
0
100
AcDbSymbolTable
 70
     5
  0
STYLE
  5
11
330
3
100
AcDbSymbolTableRecord
100
AcDbTextStyleTableRecord
  2
Standard
 70
     0
 40
0.0
 41
1.0
 50
0.0
 71
     0
 42
2.5
  3
txt
  4

  0
STYLE
  5
14A
330
3
100
AcDbSymbolTableRecord
100
AcDbTextStyleTableRecord
  2
SEACAD_Solid_Edge_ISO1_Symbols
 70
     0
 40
0.0
 41
1.0
 50
0.0
 71
     0
 42
0.2
  3
semeci1.ttf
  4

1001
ACAD
1000
Solid Edge ISO1 Symbols
1071
        0
  0
STYLE
  5
14C
330
3
100
AcDbSymbolTableRecord
100
AcDbTextStyleTableRecord
  2
SEACAD_Solid_Edge_ISO
 70
     0
 40
0.0
 41
1.0
 50
0.0
 71
     0
 42
0.2
  3
seiso.ttf
  4

1001
ACAD
1000
Solid Edge ISO
1071
        0
  0
STYLE
  5
1AB
330
3
100
AcDbSymbolTableRecord
100
AcDbTextStyleTableRecord
  2
SEACAD_Solid_Edge_ANSIB
 70
     0
 40
0.0
 41
1.0
 50
0.0
 71
     0
 42
0.2
  3
seansbd.ttf
  4

1001
ACAD
1000
Solid Edge ANSI
1071
 33554432
  0
STYLE
  5
1B0
330
3
100
AcDbSymbolTableRecord
100
AcDbTextStyleTableRecord
  2
SEACAD_Solid_Edge_ANSI
 70
     0
 40
0.0
 41
1.0
 50
0.0
 71
     0
 42
0.2
  3
seans.ttf
  4

1001
ACAD
1000
Solid Edge ANSI
1071
        0
  0
ENDTAB
  0
TABLE
  2
VIEW
  5
6
330
0
100
AcDbSymbolTable
 70
     0
  0
ENDTAB
  0
TABLE
  2
UCS
  5
7
330
0
100
AcDbSymbolTable
 70
     0
  0
ENDTAB
  0
TABLE
  2
APPID
  5
9
330
0
100
AcDbSymbolTable
 70
     1
  0
APPID
  5
12
330
9
100
AcDbSymbolTableRecord
100
AcDbRegAppTableRecord
  2
ACAD
 70
     0
  0
ENDTAB
  0
TABLE
  2
DIMSTYLE
  5
A
330
0
100
AcDbSymbolTable
 70
     3
100
AcDbDimStyleTable
  0
DIMSTYLE
105
27
330
A
100
AcDbSymbolTableRecord
100
AcDbDimStyleTableRecord
  2
ISO-25
 70
     0
 41
2.5
 42
0.625
 43
3.75
 44
1.25
 73
     0
 74
     0
 77
     1
 78
     8
140
2.5
141
2.5
143
0.0393700787
147
0.625
171
     3
172
     1
178
     0
271
     2
272
     2
274
     3
278
    44
283
     0
284
     8
340
11
  0
DIMSTYLE
105
165
330
A
100
AcDbSymbolTableRecord
100
AcDbDimStyleTableRecord
  2
Standard
 70
     0
178
     0
340
11
  0
DIMSTYLE
105
177
102
{ACAD_REACTORS
330
178
330
182
330
18C
330
196
330
1A0
102
}
330
A
100
AcDbSymbolTableRecord
100
AcDbDimStyleTableRecord
  2
DIN
 70
     0
 41
3.5
 42
0.0
 44
1.75
 73
     0
 74
     0
 77
     1
 78
     8
140
3.5
141
1.75
147
1.75
172
     1
173
     1
178
     0
179
     3
271
     3
272
     3
278
    44
284
     8
340
14C
343
172
344
172
  0
ENDTAB
  0
TABLE
  2
BLOCK_RECORD
  5
1
330
0
100
AcDbSymbolTable
 70
    18
  0
BLOCK_RECORD
  5
1F
330
1
100
AcDbSymbolTableRecord
100
AcDbBlockTableRecord
  2
*Model_Space
340
22
  0
BLOCK_RECORD
  5
1B
330
1
100
AcDbSymbolTableRecord
100
AcDbBlockTableRecord
  2
*Paper_Space
340
1E
  0
BLOCK_RECORD
  5
40
330
1
100
AcDbSymbolTableRecord
100
AcDbBlockTableRecord
  2
SE
340
0
102
{BLKREFS
331
41
102
}
  0
BLOCK_RECORD
  5
145
330
1
100
AcDbSymbolTableRecord
100
AcDbBlockTableRecord
  2
GDimGGroup
340
0
102
{BLKREFS
331
146
102
}
  0
BLOCK_RECORD
  5
150
330
1
100
AcDbSymbolTableRecord
100
AcDbBlockTableRecord
  2
GDimGGroup1
340
0
102
{BLKREFS
331
151
102
}
  0
BLOCK_RECORD
  5
15B
330
1
100
AcDbSymbolTableRecord
100
AcDbBlockTableRecord
  2
GDimGGroup2
340
0
102
{BLKREFS
331
15C
102
}
  0
BLOCK_RECORD
  5
166
330
1
100
AcDbSymbolTableRecord
100
AcDbBlockTableRecord
  2
_OBLIQUE
340
0
  0
BLOCK_RECORD
  5
16A
330
1
100
AcDbSymbolTableRecord
100
AcDbBlockTableRecord
  2
_DOT
340
0
  0
BLOCK_RECORD
  5
172
330
1
100
AcDbSymbolTableRecord
100
AcDbBlockTableRecord
  2
_SE_FILLED
340
0
  0
BLOCK_RECORD
  5
179
330
1
100
AcDbSymbolTableRecord
100
AcDbBlockTableRecord
  2
DMBLK84
340
0
  0
BLOCK_RECORD
  5
183
330
1
100
AcDbSymbolTableRecord
100
AcDbBlockTableRecord
  2
DMBLK85
340
0
  0
BLOCK_RECORD
  5
18D
330
1
100
AcDbSymbolTableRecord
100
AcDbBlockTableRecord
  2
DMBLK86
340
0
  0
BLOCK_RECORD
  5
197
330
1
100
AcDbSymbolTableRecord
100
AcDbBlockTableRecord
  2
DMBLK87
340
0
  0
BLOCK_RECORD
  5
1A1
330
1
100
AcDbSymbolTableRecord
100
AcDbBlockTableRecord
  2
DMBLK88
340
0
  0
BLOCK_RECORD
  5
1AA
330
1
100
AcDbSymbolTableRecord
100
AcDbBlockTableRecord
  2
SEANNOT_GROUP
340
0
102
{BLKREFS
331
1BF
102
}
  0
BLOCK_RECORD
  5
1AF
330
1
100
AcDbSymbolTableRecord
100
AcDbBlockTableRecord
  2
SEANNOT_GROUP1
340
0
102
{BLKREFS
331
1C0
102
}
  0
BLOCK_RECORD
  5
1B4
330
1
100
AcDbSymbolTableRecord
100
AcDbBlockTableRecord
  2
SEANNOT_GROUP2
340
0
102
{BLKREFS
331
1C2
102
}
  0
BLOCK_RECORD
  5
1B8
330
1
100
AcDbSymbolTableRecord
100
AcDbBlockTableRecord
  2
SEANNOT_GROUP3
340
0
102
{BLKREFS
331
1C3
102
}
  0
BLOCK_RECORD
  5
1BC
330
1
100
AcDbSymbolTableRecord
100
AcDbBlockTableRecord
  2
RF-Massblatt_2016
340
0
102
{BLKREFS
331
20B
102
}
  0
ENDTAB
  0
ENDSEC
  0
SECTION
  2
BLOCKS
  0
BLOCK
  5
20
330
1F
100
AcDbEntity
  8
0
100
AcDbBlockBegin
  2
*Model_Space
 70
     0
 10
0.0
 20
0.0
 30
0.0
  3
*Model_Space
  1

  0
ENDBLK
  5
21
330
1F
100
AcDbEntity
  8
0
100
AcDbBlockEnd
  0
BLOCK
  5
1C
330
1B
100
AcDbEntity
 67
     1
  8
0
100
AcDbBlockBegin
  2
*Paper_Space
 70
     0
 10
0.0
 20
0.0
 30
0.0
  3
*Paper_Space
  1

  0
ENDBLK
  5
1D
330
1B
100
AcDbEntity
 67
     1
  8
0
100
AcDbBlockEnd
  0
BLOCK
  5
143
330
40
100
AcDbEntity
  8
0
100
AcDbBlockBegin
  2
SE
 70
     0
 10
0.0
 20
0.0
 30
0.0
  3
SE
  1

  0
LINE
  5
43
330
40
100
AcDbEntity
  8
0012334
  6
Continuous
 62
     7
100
AcDbLine
 10
87.9737519608
 20
97.1749524831
 30
0.0
 11
84.4737519608
 21
97.1749524831
 31
0.0
  0
ARC
  5
44
330
40
100
AcDbEntity
  8
0012334
  6
Continuous
 62
     7
100
AcDbCircle
 10
87.9737519608
 20
98.6749524831
 30
0.0
 40
1.500000000000001
100
AcDbArc
 50
270.0
 51
0.0
  0
LINE
  5
45
330
40
100
AcDbEntity
  8
0012334
  6
Continuous
 62
     7
100
AcDbLine
 10
87.9737519608
 20
109.7149524831
 30
0.0
 11
84.4737519608
 21
109.7149524831
 31
0.0
  0
ARC
  5
46
330
40
100
AcDbEntity
  8
0012334
  6
Continuous
 62
     7
100
AcDbCircle
 10
87.9737519608
 20
108.2149524831
 30
0.0
 40
1.500000000000001
100
AcDbArc
 50
0.0
 51
90.0
  0
CIRCLE
  5
47
330
40
100
AcDbEntity
  8
0012334
  6
Continuous
 62
     7
100
AcDbCircle
 10
106.4737519608
 20
103.4449524831
 30
0.0
 40
3.75
  0
LINE
  5
48
330
40
100
AcDbEntity
  8
0012334
  6
Continuous
 62
     7
100
AcDbLine
 10
83.4737519608
 20
96.1749524831
 30
0.0
 11
83.4737519608
 21
94.8483279467
 31
0.0
  0
LINE
  5
49
330
40
100
AcDbEntity
  8
0012334
  6
Continuous
 62
     7
100
AcDbLine
 10
84.4737519608
 20
97.1749524831
 30
0.0
 11
83.4737519608
 21
96.1749524831
 31
0.0
  0
LINE
  5
4A
330
40
100
AcDbEntity
  8
0012334
  6
Continuous
 62
     7
100
AcDbLine
 10
84.4737519608
 20
97.1749524831
 30
0.0
 11
84.4737519608
 21
94.3701392743
 31
0.0
  0
LINE
  5
4B
330
40
100
AcDbEntity
  8
0012334
  6
Continuous
 62
     7
100
AcDbLine
 10
84.4737519608
 20
109.7149524831
 30
0.0
 11
84.4737519608
 21
112.5197656918
 31
0.0
  0
LINE
  5
4C
330
40
100
AcDbEntity
  8
0012334
  6
Continuous
 62
     7
100
AcDbLine
 10
84.4737519608
 20
109.7149524831
 30
0.0
 11
83.4737519608
 21
110.7149524831
 31
0.0
  0
LINE
  5
4D
330
40
100
AcDbEntity
  8
0012334
  6
Continuous
 62
     7
100
AcDbLine
 10
83.4737519608
 20
110.7149524831
 30
0.0
 11
83.4737519608
 21
112.0415770195
 31
0.0
  0
LINE
  5
4E
330
40
100
AcDbEntity
  8
0012334
  6
Continuous
 62
     7
100
AcDbLine
 10
131.5987519608
 20
111.4449524831
 30
0.0
 11
131.7135507217
 21
111.4449524831
 31
0.0
  0
LINE
  5
4F
330
40
100
AcDbEntity
  8
0012334
  6
Continuous
 62
     7
100
AcDbLine
 10
135.2339532
 20
111.4449524831
 30
0.0
 11
135.3487519608
 21
111.4449524831
 31
0.0
  0
LINE
  5
50
330
40
100
AcDbEntity
  8
0012334
  6
Continuous
 62
     7
100
AcDbLine
 10
131.7135507217
 20
95.4449524831
 30
0.0
 11
131.5987519608
 21
95.4449524831
 31
0.0
  0
LINE
  5
51
330
40
100
AcDbEntity
  8
0012334
  6
Continuous
 62
     7
100
AcDbLine
 10
135.3487519608
 20
95.4449524831
 30
0.0
 11
135.2339532
 21
95.4449524831
 31
0.0
  0
LINE
  5
52
330
40
100
AcDbEntity
  8
0012334
  6
Continuous
 62
     7
100
AcDbLine
 10
134.8487519608
 20
96.0964832548
 30
0.0
 11
132.0987519608
 21
96.0964832547
 31
0.0
  0
SPLINE
  5
53
330
40
100
AcDbEntity
  8
0012334
  6
Continuous
 62
     7
100
AcDbSpline
210
0.0
220
0.0
230
1.0
 70
     8
 71
     3
 72
    14
 73
    10
 74
     0
 42
0.0000000125137312
 43
0.0000000001
 12
1.0
 22
0.0
 32
0.0
 13
1.0
 23
0.0
 33
0.0
 40
0.0
 40
0.0
 40
0.0
 40
0.0
 40
0.124999999999997
 40
0.124999999999997
 40
0.249999999999994
 40
0.249999999999994
 40
0.499999999999996
 40
0.499999999999996
 40
1.0
 40
1.0
 40
1.0
 40
1.0
 10
132.0987519608214
 20
96.09648325470665
 30
0.0
 10
132.0650679559365
 20
96.09648325470665
 30
0.0
 10
132.0327402055539
 20
96.08300305032213
 30
0.0
 10
131.978160939907
 20
96.04436793462177
 30
0.0
 10
131.955100770685
 20
96.0197564615196
 30
0.0
 10
131.8937166459081
 20
95.9409596516486
 30
0.0
 10
131.8626792824128
 20
95.88171114881567
 30
0.0
 10
131.7820128945782
 20
95.70128992457042
 30
0.0
 10
131.7441869231023
 20
95.5730463220667
 30
0.0
 10
131.7135507216787
 20
95.44495248305618
 30
0.0
  0
SPLINE
  5
54
330
40
100
AcDbEntity
  8
0012334
  6
Continuous
 62
     7
100
AcDbSpline
210
0.0
220
0.0
230
1.0
 70
     8
 71
     3
 72
    14
 73
    10
 74
     0
 42
0.0000000125137097
 43
0.0000000001
 12
1.0
 22
0.0
 32
0.0
 13
1.0
 23
0.0
 33
0.0
 40
0.0
 40
0.0
 40
0.0
 40
0.0
 40
0.5000000000000026
 40
0.5000000000000026
 40
0.7500000000000026
 40
0.7500000000000026
 40
0.8750000000000013
 40
0.8750000000000013
 40
1.0
 40
1.0
 40
1.0
 40
1.0
 10
131.7135507216778
 20
111.4449524830562
 30
0.0
 10
131.7441658753445
 20
111.3169466473881
 30
0.0
 10
131.7817702407954
 20
111.1889813427526
 30
0.0
 10
131.8632389666398
 20
111.007030935585
 30
0.0
 10
131.8940543114568
 20
110.9483309757873
 30
0.0
 10
131.9557082451143
 20
110.8694608728749
 30
0.0
 10
131.9789385062481
 20
110.8448709808412
 30
0.0
 10
132.0330700360248
 20
110.8067864618204
 30
0.0
 10
132.0651414255571
 20
110.7934217114057
 30
0.0
 10
132.0987519608214
 20
110.7934217114057
 30
0.0
  0
LINE
  5
55
330
40
100
AcDbEntity
  8
0012334
  6
Continuous
 62
     7
100
AcDbLine
 10
132.0987519608
 20
110.7934217114
 30
0.0
 11
134.8487519608
 21
110.7934217114
 31
0.0
  0
SPLINE
  5
56
330
40
100
AcDbEntity
  8
0012334
  6
Continuous
 62
     7
100
AcDbSpline
210
0.0
220
0.0
230
1.0
 70
     8
 71
     3
 72
    14
 73
    10
 74
     0
 42
0.0000000125135372
 43
0.0000000001
 12
1.0
 22
0.0
 32
0.0
 13
1.0
 23
0.0
 33
0.0
 40
0.0
 40
0.0
 40
0.0
 40
0.0
 40
0.1250000000000013
 40
0.1250000000000013
 40
0.2500000000000027
 40
0.2500000000000027
 40
0.5000000000000028
 40
0.5000000000000028
 40
1.0
 40
1.0
 40
1.0
 40
1.0
 10
134.8487519608213
 20
110.7934217114057
 30
0.0
 10
134.8825418364453
 20
110.7934217114057
 30
0.0
 10
134.9147698069203
 20
110.8068945385237
 30
0.0
 10
134.9694466619512
 20
110.8456221360616
 30
0.0
 10
134.9924678905701
 20
110.8702153577372
 30
0.0
 10
135.0539363300989
 20
110.9491692634265
 30
0.0
 10
135.0849110287462
 20
111.0083561758195
 30
0.0
 10
135.1656273717338
 20
111.1889818988514
 30
0.0
 10
135.2033985313719
 20
111.3171995431428
 30
0.0
 10
135.2339531999651
 20
111.4449524830562
 30
0.0
  0
LINE
  5
57
330
40
100
AcDbEntity
  8
0012334
  6
Continuous
 62
     7
100
AcDbLine
 10
141.4737519608
 20
111.4449524831
 30
0.0
 11
141.4737519608
 21
95.4449524831
 31
0.0
  0
SPLINE
  5
58
330
40
100
AcDbEntity
  8
0012334
  6
Continuous
 62
     7
100
AcDbSpline
210
0.0
220
0.0
230
1.0
 70
     8
 71
     3
 72
    14
 73
    10
 74
     0
 42
0.0000000125142491
 43
0.0000000001
 12
1.0
 22
0.0
 32
0.0
 13
1.0
 23
0.0
 33
0.0
 40
0.0
 40
0.0
 40
0.0
 40
0.0
 40
0.5000000000000013
 40
0.5000000000000013
 40
0.750000000000002
 40
0.750000000000002
 40
0.875000000000001
 40
0.875000000000001
 40
1.0
 40
1.0
 40
1.0
 40
1.0
 10
135.2339531999651
 20
95.44495248305618
 30
0.0
 10
135.2034853282371
 20
95.5723425142813
 30
0.0
 10
135.1660084400964
 20
95.70004726275366
 30
0.0
 10
135.0847777151763
 20
95.8818586330144
 30
0.0
 10
135.0535660685538
 20
95.94135573859289
 30
0.0
 10
134.9920328277313
 20
96.02017510826731
 30
0.0
 10
134.9690239864047
 20
96.04462439698025
 30
0.0
 10
134.9147919543365
 20
96.08295224186851
 30
0.0
 10
134.8819742238998
 20
96.09648325470855
 30
0.0
 10
134.8487519608144
 20
96.0964832547974
 30
0.0
  0
LINE
  5
59
330
40
100
AcDbEntity
  8
0012334
  6
Continuous
 62
     7
100
AcDbLine
 10
131.5987519608
 20
83.4449524831
 30
0.0
 11
131.5987519608
 21
82.5865965542
 31
0.0
  0
LINE
  5
5A
330
40
100
AcDbEntity
  8
0012334
  6
Continuous
 62
     7
100
AcDbLine
 10
135.3487519608
 20
82.5865965542
 30
0.0
 11
135.3487519608
 21
83.4449524831
 31
0.0
  0
LINE
  5
5B
330
40
100
AcDbEntity
  8
0012334
  6
Continuous
 62
     7
100
AcDbLine
 10
141.4737519608
 20
83.4449524831
 30
0.0
 11
141.4737519608
 21
79.7595139184
 31
0.0
  0
SPLINE
  5
5C
330
40
100
AcDbEntity
  8
0012334
  6
Continuous
 62
     7
100
AcDbSpline
210
0.0
220
0.0
230
1.0
 70
     8
 71
     3
 72
     8
 73
     4
 74
     0
 42
0.0000000121853687
 43
0.0000000001
 12
1.0
 22
0.0
 32
0.0
 13
1.0
 23
0.0
 33
0.0
 40
0.0
 40
0.0
 40
0.0
 40
0.0
 40
1.0
 40
1.0
 40
1.0
 40
1.0
 10
140.9737519608214
 20
79.10876543578027
 30
0.0
 10
141.1409899786116
 20
79.3252330997638
 30
0.0
 10
141.307680946267
 20
79.54215668276831
 30
0.0
 10
141.4737519608214
 20
79.75951391840216
 30
0.0
  0
LINE
  5
5D
330
40
100
AcDbEntity
  8
0012334
  6
Continuous
 62
     7
100
AcDbLine
 10
136.8512510356
 20
79.1087654358
 30
0.0
 11
140.9737519608
 21
79.1087654358
 31
0.0
  0
SPLINE
  5
5E
330
40
100
AcDbEntity
  8
0012334
  6
Continuous
 62
     7
100
AcDbSpline
210
0.0
220
0.0
230
1.0
 70
     8
 71
     3
 72
     8
 73
     4
 74
     0
 42
0.0000000026394244
 43
0.0000000001
 12
1.0
 22
0.0
 32
0.0
 13
1.0
 23
0.0
 33
0.0
 40
0.0
 40
0.0
 40
0.0
 40
0.0
 40
1.0
 40
1.0
 40
1.0
 40
1.0
 10
135.3487519608214
 20
82.5865965542436
 30
0.0
 10
135.8344003763485
 20
81.42122548172459
 30
0.0
 10
136.3367194828113
 20
80.2623001237544
 30
0.0
 10
136.8512510355807
 20
79.10876543578027
 30
0.0
  0
SPLINE
  5
5F
330
40
100
AcDbEntity
  8
0012334
  6
Continuous
 62
     7
100
AcDbSpline
210
0.0
220
0.0
230
1.0
 70
     8
 71
     3
 72
     8
 73
     4
 74
     0
 42
0.0000000026394244
 43
0.0000000001
 12
1.0
 22
0.0
 32
0.0
 13
1.0
 23
0.0
 33
0.0
 40
0.0
 40
0.0
 40
0.0
 40
0.0
 40
1.0
 40
1.0
 40
1.0
 40
1.0
 10
130.0962528860621
 20
79.10876543578027
 30
0.0
 10
130.6107844388316
 20
80.2623001237544
 30
0.0
 10
131.1131035452944
 20
81.42122548172459
 30
0.0
 10
131.5987519608214
 20
82.5865965542436
 30
0.0
  0
LINE
  5
60
330
40
100
AcDbEntity
  8
0012334
  6
Continuous
 62
     7
100
AcDbLine
 10
131.5987519608
 20
111.4449524831
 30
0.0
 11
130.0962528861
 21
111.4449524831
 31
0.0
  0
LINE
  5
61
330
40
100
AcDbEntity
  8
0012334
  6
Continuous
 62
     7
100
AcDbLine
 10
130.0962528861
 20
111.4449524831
 30
0.0
 11
130.0962528861
 21
134.9449524831
 31
0.0
  0
LINE
  5
62
330
40
100
AcDbEntity
  8
0012334
  6
Continuous
 62
     7
100
AcDbLine
 10
130.0962528861
 20
79.1087654358
 30
0.0
 11
130.0962528861
 21
71.9449524831
 31
0.0
  0
LINE
  5
63
330
40
100
AcDbEntity
  8
0012334
  6
Continuous
 62
     7
100
AcDbLine
 10
130.0962528861
 20
83.4449524831
 30
0.0
 11
130.0962528861
 21
95.4449524831
 31
0.0
  0
LINE
  5
64
330
40
100
AcDbEntity
  8
0012334
  6
Continuous
 62
     7
100
AcDbLine
 10
130.0962528861
 20
95.4449524831
 30
0.0
 11
131.5987519608
 21
95.4449524831
 31
0.0
  0
LINE
  5
65
330
40
100
AcDbEntity
  8
0012334
  6
Continuous
 62
     7
100
AcDbLine
 10
131.5987519608
 20
83.4449524831
 30
0.0
 11
130.0962528861
 21
83.4449524831
 31
0.0
  0
LINE
  5
66
330
40
100
AcDbEntity
  8
0012334
  6
Continuous
 62
     7
100
AcDbLine
 10
136.8512510356
 20
111.4449524831
 30
0.0
 11
135.3487519608
 21
111.4449524831
 31
0.0
  0
LINE
  5
67
330
40
100
AcDbEntity
  8
0012334
  6
Continuous
 62
     7
100
AcDbLine
 10
135.3487519608
 20
111.4449524831
 30
0.0
 11
135.3487519608
 21
132.3425477472
 31
0.0
  0
LINE
  5
68
330
40
100
AcDbEntity
  8
0012334
  6
Continuous
 62
     7
100
AcDbLine
 10
135.3487519608
 20
82.5865965542
 30
0.0
 11
135.3487519608
 21
74.5473572189
 31
0.0
  0
LINE
  5
69
330
40
100
AcDbEntity
  8
0012334
  6
Continuous
 62
     7
100
AcDbLine
 10
135.3487519608
 20
83.4449524831
 30
0.0
 11
135.3487519608
 21
95.4449524831
 31
0.0
  0
LINE
  5
6A
330
40
100
AcDbEntity
  8
0012334
  6
Continuous
 62
     7
100
AcDbLine
 10
135.3487519608
 20
95.4449524831
 30
0.0
 11
136.8512510356
 21
95.4449524831
 31
0.0
  0
LINE
  5
6B
330
40
100
AcDbEntity
  8
0012334
  6
Continuous
 62
     7
100
AcDbLine
 10
136.8512510356
 20
83.4449524831
 30
0.0
 11
135.3487519608
 21
83.4449524831
 31
0.0
  0
LINE
  5
6C
330
40
100
AcDbEntity
  8
0012334
  6
Continuous
 62
     7
100
AcDbLine
 10
140.9737519608
 20
111.4449524831
 30
0.0
 11
136.8512510356
 21
111.4449524831
 31
0.0
  0
LINE
  5
6D
330
40
100
AcDbEntity
  8
0012334
  6
Continuous
 62
     7
100
AcDbLine
 10
136.8512510356
 20
111.4449524831
 30
0.0
 11
136.8512510356
 21
134.9449524831
 31
0.0
  0
LINE
  5
6E
330
40
100
AcDbEntity
  8
0012334
  6
Continuous
 62
     7
100
AcDbLine
 10
136.8512510356
 20
79.1087654358
 30
0.0
 11
136.8512510356
 21
71.9449524831
 31
0.0
  0
LINE
  5
6F
330
40
100
AcDbEntity
  8
0012334
  6
Continuous
 62
     7
100
AcDbLine
 10
136.8512510356
 20
83.4449524831
 30
0.0
 11
136.8512510356
 21
95.4449524831
 31
0.0
  0
LINE
  5
70
330
40
100
AcDbEntity
  8
0012334
  6
Continuous
 62
     7
100
AcDbLine
 10
136.8512510356
 20
95.4449524831
 30
0.0
 11
140.9737519608
 21
95.4449524831
 31
0.0
  0
LINE
  5
71
330
40
100
AcDbEntity
  8
0012334
  6
Continuous
 62
     7
100
AcDbLine
 10
140.9737519608
 20
83.4449524831
 30
0.0
 11
136.8512510356
 21
83.4449524831
 31
0.0
  0
LINE
  5
72
330
40
100
AcDbEntity
  8
0012334
  6
Continuous
 62
     7
100
AcDbLine
 10
141.4737519608
 20
111.4449524831
 30
0.0
 11
140.9737519608
 21
111.4449524831
 31
0.0
  0
LINE
  5
73
330
40
100
AcDbEntity
  8
0012334
  6
Continuous
 62
     7
100
AcDbLine
 10
140.9737519608
 20
111.4449524831
 30
0.0
 11
140.9737519608
 21
134.9449524831
 31
0.0
  0
LINE
  5
74
330
40
100
AcDbEntity
  8
0012334
  6
Continuous
 62
     7
100
AcDbLine
 10
140.9737519608
 20
79.1087654358
 30
0.0
 11
140.9737519608
 21
71.9449524831
 31
0.0
  0
LINE
  5
75
330
40
100
AcDbEntity
  8
0012334
  6
Continuous
 62
     7
100
AcDbLine
 10
140.9737519608
 20
83.4449524831
 30
0.0
 11
140.9737519608
 21
95.4449524831
 31
0.0
  0
LINE
  5
76
330
40
100
AcDbEntity
  8
0012334
  6
Continuous
 62
     7
100
AcDbLine
 10
140.9737519608
 20
95.4449524831
 30
0.0
 11
141.4737519608
 21
95.4449524831
 31
0.0
  0
LINE
  5
77
330
40
100
AcDbEntity
  8
0012334
  6
Continuous
 62
     7
100
AcDbLine
 10
141.4737519608
 20
83.4449524831
 30
0.0
 11
140.9737519608
 21
83.4449524831
 31
0.0
  0
SPLINE
  5
78
330
40
100
AcDbEntity
  8
0012334
  6
Continuous
 62
     7
100
AcDbSpline
210
0.0
220
0.0
230
1.0
 70
    11
 71
     3
 72
    22
 73
    18
 74
     0
 42
0.0000000005626468
 43
0.0000000001
 12
1.0
 22
0.0
 32
0.0
 13
1.0
 23
0.0
 33
0.0
 40
0.0
 40
0.0
 40
0.0
 40
0.0
 40
0.125
 40
0.125
 40
0.25
 40
0.25
 40
0.375
 40
0.375
 40
0.5
 40
0.5
 40
0.625
 40
0.625
 40
0.75
 40
0.75
 40
0.875
 40
0.875
 40
1.0
 40
1.0
 40
1.0
 40
1.0
 10
122.4737519608214
 20
71.94555381677395
 30
0.0
 10
123.59822760603
 20
71.94555381677398
 30
0.0
 10
124.6962152171317
 20
71.9363041287201
 30
0.0
 10
126.2623418148703
 20
71.98919369324722
 30
0.0
 10
126.7231305104571
 20
72.0641158610684
 30
0.0
 10
126.7243720820439
 20
72.34989382707226
 30
0.0
 10
126.2724074855802
 20
72.55914613026492
 30
0.0
 10
124.6876889745397
 20
72.91406877199027
 30
0.0
 10
123.585400018595
 20
73.04020530095254
 30
0.0
 10
121.3653257807562
 20
73.04042731331712
 30
0.0
 10
120.2557049503782
 20
72.91278449508587
 30
0.0
 10
118.687116867328
 20
72.5622002426268
 30
0.0
 10
118.2247457787972
 20
72.35268961451061
 30
0.0
 10
118.2227614544849
 20
72.06289894271507
 30
0.0
 10
118.6838366024485
 20
71.98932376624505
 30
0.0
 10
120.2486174647717
 20
71.93630924702313
 30
0.0
 10
121.3492763156128
 20
71.94555381677395
 30
0.0
 10
122.4737519608214
 20
71.94555381677395
 30
0.0
  0
LINE
  5
79
330
40
100
AcDbEntity
  8
0012334
  6
Continuous
 62
     7
100
AcDbLine
 10
130.0962528861
 20
111.4449524831
 30
0.0
 11
128.4737519608
 21
111.4449524831
 31
0.0
  0
ARC
  5
7A
330
40
100
AcDbEntity
  8
0012334
  6
Continuous
 62
     7
100
AcDbCircle
 10
128.4737519608
 20
103.4449524831
 30
0.0
 40
7.999999999999989
100
AcDbArc
 50
90.0
 51
270.0
  0
LINE
  5
7B
330
40
100
AcDbEntity
  8
0012334
  6
Continuous
 62
     7
100
AcDbLine
 10
128.4737519608
 20
95.4449524831
 30
0.0
 11
130.0962528861
 21
95.4449524831
 31
0.0
  0
LINE
  5
7C
330
40
100
AcDbEntity
  8
0012334
  6
Continuous
 62
     7
100
AcDbLine
 10
130.0962528861
 20
83.4449524831
 30
0.0
 11
127.5854658645
 21
83.4449524831
 31
0.0
  0
ARC
  5
7D
330
40
100
AcDbEntity
  8
0012334
  6
Continuous
 62
     7
100
AcDbCircle
 10
127.5854658645
 20
75.4449524831
 30
0.0
 40
8.000000000000004
100
AcDbArc
 50
90.0
 51
152.7433806908
  0
LINE
  5
7E
330
40
100
AcDbEntity
  8
0012334
  6
Continuous
 62
     7
100
AcDbLine
 10
120.4737519608
 20
79.1087654358
 30
0.0
 11
130.0962528861
 21
79.1087654358
 31
0.0
  0
LINE
  5
7F
330
40
100
AcDbEntity
  8
0012334
  6
Continuous
 62
     7
100
AcDbLine
 10
115.9737519608
 20
71.9449524831
 30
0.0
 11
115.9737519608
 21
134.9449524831
 31
0.0
  0
ARC
  5
80
330
40
100
AcDbEntity
  8
0012334
  6
Continuous
 62
     7
100
AcDbCircle
 10
122.4737519585
 20
166.0601883298
 30
0.0
 40
31.51440784430086
100
AcDbArc
 50
260.871013466
 51
279.1289858499
  0
LINE
  5
81
330
40
100
AcDbEntity
  8
0012334
  6
Continuous
 62
     7
100
AcDbLine
 10
141.4737519608
 20
79.7595139184
 30
0.0
 11
141.4737519608
 21
72.4449524831
 31
0.0
  0
LINE
  5
82
330
40
100
AcDbEntity
  8
0012334
  6
Continuous
 62
     7
100
AcDbLine
 10
141.4737519608
 20
83.4449524831
 30
0.0
 11
141.4737519608
 21
95.4449524831
 31
0.0
  0
LINE
  5
83
330
40
100
AcDbEntity
  8
0012334
  6
Continuous
 62
     7
100
AcDbLine
 10
141.4737519608
 20
111.4449524831
 30
0.0
 11
141.4737519608
 21
134.4449524831
 31
0.0
  0
LINE
  5
84
330
40
100
AcDbEntity
  8
0012334
  6
Continuous
 62
     7
100
AcDbLine
 10
114.2387830983
 20
79.3804419585
 30
0.0
 11
114.2387830983
 21
127.5094630076
 31
0.0
  0
LINE
  5
85
330
40
100
AcDbEntity
  8
0012334
  6
Continuous
 62
     7
100
AcDbLine
 10
115.4737519608
 20
72.4449524831
 30
0.0
 11
115.4737519608
 21
134.4449524831
 31
0.0
  0
LINE
  5
86
330
40
100
AcDbEntity
  8
0012334
  6
Continuous
 62
     7
100
AcDbLine
 10
131.5987519608
 20
111.4449524831
 30
0.0
 11
131.5987519608
 21
132.3425477472
 31
0.0
  0
LINE
  5
87
330
40
100
AcDbEntity
  8
0012334
  6
Continuous
 62
     7
100
AcDbLine
 10
131.5987519608
 20
82.5865965542
 30
0.0
 11
131.5987519608
 21
74.5473572189
 31
0.0
  0
LINE
  5
88
330
40
100
AcDbEntity
  8
0012334
  6
Continuous
 62
     7
100
AcDbLine
 10
131.5987519608
 20
83.4449524831
 30
0.0
 11
131.5987519608
 21
95.4449524831
 31
0.0
  0
LINE
  5
89
330
40
100
AcDbEntity
  8
0012334
  6
Continuous
 62
     7
100
AcDbLine
 10
113.6451629953
 20
127.6685230348
 30
0.0
 11
113.6451629953
 21
79.2213819313
 31
0.0
  0
LINE
  5
8A
330
40
100
AcDbEntity
  8
0012334
  6
Continuous
 62
     7
100
AcDbLine
 10
83.4737519608
 20
81.8714515467
 30
0.0
 11
83.4737519608
 21
94.8483279467
 31
0.0
  0
SPLINE
  5
8B
330
40
100
AcDbEntity
  8
0012334
  6
Continuous
 62
     7
100
AcDbSpline
210
0.0
220
0.0
230
1.0
 70
     8
 71
     3
 72
    14
 73
    10
 74
     0
 42
0.0000000063912222
 43
0.0000000001
 12
1.0
 22
0.0
 32
0.0
 13
1.0
 23
0.0
 33
0.0
 40
0.0
 40
0.0
 40
0.0
 40
0.0
 40
0.5000000000000002
 40
0.5000000000000002
 40
0.7500000000000003
 40
0.7500000000000003
 40
0.8750000000000001
 40
0.8750000000000001
 40
1.0
 40
1.0
 40
1.0
 40
1.0
 10
83.47375196082142
 20
94.8483279466525
 30
0.0
 10
83.47375196082142
 20
94.5937235126265
 30
0.0
 10
83.51067284514347
 20
94.33928781759549
 30
0.0
 10
83.5975219475199
 20
93.95257653770359
 30
0.0
 10
83.63169437931633
 20
93.82477781722403
 30
0.0
 10
83.684974911489
 20
93.63403169873712
 30
0.0
 10
83.7032290018861
 20
93.57060625027175
 30
0.0
 10
83.73562608753832
 20
93.44284028250003
 30
0.0
 10
83.75031426380401
 20
93.37631770574873
 30
0.0
 10
83.75009910601219
 20
93.3159913649846
 30
0.0
  0
SPLINE
  5
8C
330
40
100
AcDbEntity
  8
0012334
  6
Continuous
 62
     7
100
AcDbSpline
210
0.0
220
0.0
230
1.0
 70
     8
 71
     3
 72
    44
 73
    40
 74
     0
 42
0.0000000092321899
 43
0.0000000001
 12
1.0
 22
0.0
 32
0.0
 13
1.0
 23
0.0
 33
0.0
 40
0.0
 40
0.0
 40
0.0
 40
0.0
 40
0.1663761473870095
 40
0.1663761473870095
 40
0.1663761473870095
 40
0.3461940810136948
 40
0.3461940810136948
 40
0.3461940810136948
 40
0.4362743831522573
 40
0.4362743831522573
 40
0.4362743831522573
 40
0.4652027233186583
 40
0.4652027233186583
 40
0.4652027233186583
 40
0.4760526126235203
 40
0.4760526126235203
 40
0.4760526126235203
 40
0.4870617491754616
 40
0.4870617491754616
 40
0.4870617491754616
 40
0.4934126732062645
 40
0.4934126732062645
 40
0.4934126732062645
 40
0.4998148777165099
 40
0.4998148777165099
 40
0.4998148777165099
 40
0.5057358198672225
 40
0.5057358198672225
 40
0.5057358198672225
 40
0.5164101130686967
 40
0.5164101130686967
 40
0.5164101130686967
 40
0.5444161393291572
 40
0.5444161393291572
 40
0.5444161393291572
 40
0.64738667883135
 40
0.64738667883135
 40
0.64738667883135
 40
1.0
 40
1.0
 40
1.0
 40
1.0
 10
83.75009910601219
 20
93.3159913649846
 30
0.0
 10
83.74988147511067
 20
93.25497160865724
 30
0.0
 10
83.7511412253891
 20
93.19323202383781
 30
0.0
 10
83.75417860325959
 20
93.13085386146453
 30
0.0
 10
83.75746326371026
 20
93.06339729475793
 30
0.0
 10
83.76252641664935
 20
92.99504201891443
 30
0.0
 10
83.77222990480685
 20
92.92568245572251
 30
0.0
 10
83.77708908966886
 20
92.89094948815152
 30
0.0
 10
83.78287247665966
 20
92.85566678474338
 30
0.0
 10
83.79265538047937
 20
92.82050845658227
 30
0.0
 10
83.79580753870081
 20
92.80918006010536
 30
0.0
 10
83.79941846299718
 20
92.79775685851781
 30
0.0
 10
83.80413133396128
 20
92.78675908149673
 30
0.0
 10
83.80590661478584
 20
92.78261635346385
 30
0.0
 10
83.80785774162754
 20
92.77851433269913
 30
0.0
 10
83.8100637020559
 20
92.77461258253942
 30
0.0
 10
83.81228739754077
 20
92.77067946383897
 30
0.0
 10
83.8148276548598
 20
92.7668566670045
 30
0.0
 10
83.81769216445575
 20
92.76372039377243
 30
0.0
 10
83.8193548757976
 20
92.76189993658787
 30
0.0
 10
83.82116214165791
 20
92.76029057630114
 30
0.0
 10
83.82300576877718
 20
92.75909540695244
 30
0.0
 10
83.82485902654044
 20
92.7578939943399
 30
0.0
 10
83.82679432983541
 20
92.7570937240849
 30
0.0
 10
83.82862882213358
 20
92.75675028503935
 30
0.0
 10
83.83033482041623
 20
92.75643090162059
 30
0.0
 10
83.83199327055627
 20
92.75648377858883
 30
0.0
 10
83.83353545269661
 20
92.75680931548997
 30
0.0
 10
83.83629974035965
 20
92.75739282480201
 30
0.0
 10
83.8387726330556
 20
92.75883085015133
 30
0.0
 10
83.84097167348666
 20
92.76063152687874
 30
0.0
 10
83.84669611589662
 20
92.76531896694551
 30
0.0
 10
83.85097376717302
 20
92.77241371644998
 30
0.0
 10
83.85467835553686
 20
92.77986037911936
 30
0.0
 10
83.86821719373307
 20
92.80707505213581
 30
0.0
 10
83.87545106633499
 20
92.84092659904819
 30
0.0
 10
83.88169426688253
 20
92.87472722041889
 30
0.0
 10
83.9029616179668
 20
92.98986843301994
 30
0.0
 10
83.90822489781982
 20
93.11656432840542
 30
0.0
 10
83.90768074706992
 20
93.24445079702858
 30
0.0
  0
SPLINE
  5
8D
330
40
100
AcDbEntity
  8
0012334
  6
Continuous
 62
     7
100
AcDbSpline
210
0.0
220
0.0
230
1.0
 70
     8
 71
     3
 72
    14
 73
    10
 74
     0
 42
0.000000007882378
 43
0.0000000001
 12
1.0
 22
0.0
 32
0.0
 13
1.0
 23
0.0
 33
0.0
 40
0.0
 40
0.0
 40
0.0
 40
0.0
 40
0.1249999999999992
 40
0.1249999999999992
 40
0.2499999999999983
 40
0.2499999999999983
 40
0.4999999999999967
 40
0.4999999999999967
 40
1.0
 40
1.0
 40
1.0
 40
1.0
 10
83.90768074706992
 20
93.24445079702858
 30
0.0
 10
83.90744120638048
 20
93.30074772633213
 30
0.0
 10
83.92172272134641
 20
93.35078206038679
 30
0.0
 10
83.95750435449412
 20
93.44351410096472
 30
0.0
 10
83.97924902774446
 20
93.48786672193057
 30
0.0
 10
84.04734891258892
 20
93.6206630034938
 30
0.0
 10
84.09726126394862
 20
93.70890769515846
 30
0.0
 10
84.25136221225796
 20
93.98076245164093
 30
0.0
 10
84.36125427213955
 20
94.17098946569125
 30
0.0
 10
84.47375196083193
 20
94.37013927428707
 30
0.0
  0
LINE
  5
8E
330
40
100
AcDbEntity
  8
0012334
  6
Continuous
 62
     7
100
AcDbLine
 10
83.4737519608
 20
112.0415770195
 30
0.0
 11
83.4737519608
 21
125.0184534194
 31
0.0
  0
SPLINE
  5
8F
330
40
100
AcDbEntity
  8
0012334
  6
Continuous
 62
     7
100
AcDbSpline
210
0.0
220
0.0
230
1.0
 70
    11
 71
     3
 72
    24
 73
    20
 74
     0
 42
0.0000000003473535
 43
0.0000000001
 12
1.0
 22
0.0
 32
0.0
 13
1.0
 23
0.0
 33
0.0
 40
0.0
 40
0.0
 40
0.0
 40
0.0
 40
0.125
 40
0.125
 40
0.25
 40
0.25
 40
0.375
 40
0.375
 40
0.4375
 40
0.4375
 40
0.5
 40
0.5
 40
0.625
 40
0.625
 40
0.75
 40
0.75
 40
0.875
 40
0.875
 40
1.0
 40
1.0
 40
1.0
 40
1.0
 10
103.0895400848401
 20
100.7285000692422
 30
0.0
 10
103.8786863970953
 20
99.84482188227095
 30
0.0
 10
105.0115792968068
 20
99.30757542354814
 30
0.0
 10
107.3379040909449
 20
99.06903166381836
 30
0.0
 10
108.5519022256784
 20
99.36806029082427
 30
0.0
 10
110.4620109619838
 20
100.6804336740778
 30
0.0
 10
111.1765691460317
 20
101.7282516141737
 30
0.0
 10
111.4282459903836
 20
103.4703986792906
 30
0.0
 10
111.3776160313268
 20
104.0726535848845
 30
0.0
 10
111.0183094522923
 20
105.197578357072
 30
0.0
 10
110.7142336165795
 20
105.7130647687452
 30
0.0
 10
109.5483967346579
 20
107.0161265028189
 30
0.0
 10
108.4281635206102
 20
107.5637493734171
 30
0.0
 10
106.0992062405185
 20
107.8276782560171
 30
0.0
 10
104.8841670384311
 20
107.5465120161273
 30
0.0
 10
102.9404179671223
 20
106.2180231883233
 30
0.0
 10
102.2351807362429
 20
105.1650169833424
 30
0.0
 10
101.9042964668998
 20
102.8275200786801
 30
0.0
 10
102.3003937725849
 20
101.6121782562135
 30
0.0
 10
103.0895400848401
 20
100.7285000692422
 30
0.0
  0
LINE
  5
90
330
40
100
AcDbEntity
  8
0012334
  6
Continuous
 62
     7
100
AcDbLine
 10
84.6138268205
 20
94.3335289519
 30
0.0
 11
84.4737519608
 21
94.3701392743
 31
0.0
  0
SPLINE
  5
91
330
40
100
AcDbEntity
  8
0012334
  6
Continuous
 62
     7
100
AcDbSpline
210
0.0
220
0.0
230
1.0
 70
     8
 71
     3
 72
    14
 73
    10
 74
     0
 42
0.0000000063912222
 43
0.0000000001
 12
1.0
 22
0.0
 32
0.0
 13
1.0
 23
0.0
 33
0.0
 40
0.0
 40
0.0
 40
0.0
 40
0.0
 40
0.4999999999999982
 40
0.4999999999999982
 40
0.7499999999999973
 40
0.7499999999999973
 40
0.8749999999999987
 40
0.8749999999999987
 40
1.0
 40
1.0
 40
1.0
 40
1.0
 10
83.47375196082142
 20
112.0415770194599
 30
0.0
 10
83.47375196082143
 20
112.2961814534859
 30
0.0
 10
83.51067284514347
 20
112.5506171485169
 30
0.0
 10
83.59752194751992
 20
112.9373284284089
 30
0.0
 10
83.63169437931636
 20
113.0651271488885
 30
0.0
 10
83.68497491148908
 20
113.2558732673754
 30
0.0
 10
83.70322900188616
 20
113.3192987158408
 30
0.0
 10
83.73562608753842
 20
113.4470646836125
 30
0.0
 10
83.75031426380407
 20
113.5135872603638
 30
0.0
 10
83.7500991060122
 20
113.5739136011279
 30
0.0
  0
SPLINE
  5
92
330
40
100
AcDbEntity
  8
0012334
  6
Continuous
 62
     7
100
AcDbSpline
210
0.0
220
0.0
230
1.0
 70
     8
 71
     3
 72
    44
 73
    40
 74
     0
 42
0.0000000092321899
 43
0.0000000001
 12
1.0
 22
0.0
 32
0.0
 13
1.0
 23
0.0
 33
0.0
 40
0.0
 40
0.0
 40
0.0
 40
0.0
 40
0.1663761473870546
 40
0.1663761473870546
 40
0.1663761473870546
 40
0.3461940810140032
 40
0.3461940810140032
 40
0.3461940810140032
 40
0.4362743831526984
 40
0.4362743831526984
 40
0.4362743831526984
 40
0.4652027233191454
 40
0.4652027233191454
 40
0.4652027233191454
 40
0.4760526126241003
 40
0.4760526126241003
 40
0.4760526126241003
 40
0.4870617491761086
 40
0.4870617491761086
 40
0.4870617491761086
 40
0.4934126732069295
 40
0.4934126732069295
 40
0.4934126732069295
 40
0.4998148777172015
 40
0.4998148777172015
 40
0.4998148777172015
 40
0.5057358198679122
 40
0.5057358198679122
 40
0.5057358198679122
 40
0.5164101130694753
 40
0.5164101130694753
 40
0.5164101130694753
 40
0.5444161393303499
 40
0.5444161393303499
 40
0.5444161393303499
 40
0.6473866788349623
 40
0.6473866788349623
 40
0.6473866788349623
 40
1.0
 40
1.0
 40
1.0
 40
1.0
 10
83.7500991060122
 20
113.5739136011279
 30
0.0
 10
83.74988147511068
 20
113.6349333574552
 30
0.0
 10
83.75114122538912
 20
113.6966729422745
 30
0.0
 10
83.75417860325959
 20
113.7590511046477
 30
0.0
 10
83.75746326371026
 20
113.8265076713543
 30
0.0
 10
83.76252641664938
 20
113.8948629471978
 30
0.0
 10
83.77222990480688
 20
113.9642225103897
 30
0.0
 10
83.77708908966889
 20
113.9989554779606
 30
0.0
 10
83.78287247665969
 20
114.0342381813688
 30
0.0
 10
83.7926553804794
 20
114.0693965095299
 30
0.0
 10
83.79580753870084
 20
114.0807249060068
 30
0.0
 10
83.79941846299712
 20
114.0921481075944
 30
0.0
 10
83.80413133396122
 20
114.1031458846155
 30
0.0
 10
83.8059066147858
 20
114.1072886126483
 30
0.0
 10
83.80785774162759
 20
114.111390633413
 30
0.0
 10
83.81006370205598
 20
114.1152923835728
 30
0.0
 10
83.81228739754087
 20
114.1192255022732
 30
0.0
 10
83.81482765485985
 20
114.1230482991078
 30
0.0
 10
83.81769216445582
 20
114.1261845723399
 30
0.0
 10
83.81935487579769
 20
114.1280050295244
 30
0.0
 10
83.821162141658
 20
114.1296143898112
 30
0.0
 10
83.82300576877725
 20
114.1308095591599
 30
0.0
 10
83.82485902654054
 20
114.1320109717724
 30
0.0
 10
83.82679432983551
 20
114.1328112420274
 30
0.0
 10
83.8286288221337
 20
114.1331546810729
 30
0.0
 10
83.83033482041635
 20
114.1334740644917
 30
0.0
 10
83.83199327055637
 20
114.1334211875233
 30
0.0
 10
83.83353545269668
 20
114.1330956506222
 30
0.0
 10
83.83629974035976
 20
114.1325121413101
 30
0.0
 10
83.83877263305575
 20
114.1310741159609
 30
0.0
 10
83.84097167348682
 20
114.1292734392334
 30
0.0
 10
83.84669611589685
 20
114.1245859991665
 30
0.0
 10
83.85097376717326
 20
114.1174912496619
 30
0.0
 10
83.85467835553715
 20
114.1100445869923
 30
0.0
 10
83.86821719373359
 20
114.0828299139751
 30
0.0
 10
83.8754510663355
 20
114.0489783670618
 30
0.0
 10
83.88169426688309
 20
114.0151777456902
 30
0.0
 10
83.90296161796677
 20
113.9000365330899
 30
0.0
 10
83.90822489781978
 20
113.7733406377057
 30
0.0
 10
83.90768074706989
 20
113.6454541690838
 30
0.0
  0
SPLINE
  5
93
330
40
100
AcDbEntity
  8
0012334
  6
Continuous
 62
     7
100
AcDbSpline
210
0.0
220
0.0
230
1.0
 70
     8
 71
     3
 72
    14
 73
    10
 74
     0
 42
0.000000007882378
 43
0.0000000001
 12
1.0
 22
0.0
 32
0.0
 13
1.0
 23
0.0
 33
0.0
 40
0.0
 40
0.0
 40
0.0
 40
0.0
 40
0.1250000000000032
 40
0.1250000000000032
 40
0.2500000000000063
 40
0.2500000000000063
 40
0.500000000000001
 40
0.500000000000001
 40
1.0
 40
1.0
 40
1.0
 40
1.0
 10
83.90768074706989
 20
113.6454541690838
 30
0.0
 10
83.90744120638044
 20
113.5891572397802
 30
0.0
 10
83.92172272134636
 20
113.5391229057256
 30
0.0
 10
83.95750435449408
 20
113.4463908651477
 30
0.0
 10
83.97924902774444
 20
113.4020382441818
 30
0.0
 10
84.0473489125889
 20
113.2692419626186
 30
0.0
 10
84.09726126394862
 20
113.1809972709539
 30
0.0
 10
84.25136221225793
 20
112.9091425144714
 30
0.0
 10
84.36125427213955
 20
112.7189155004211
 30
0.0
 10
84.47375196083193
 20
112.5197656918253
 30
0.0
  0
LINE
  5
94
330
40
100
AcDbEntity
  8
0012334
  6
Continuous
 62
     7
100
AcDbLine
 10
84.4737519608
 20
112.5197656918
 30
0.0
 11
84.6138268205
 21
112.5563760142
 31
0.0
  0
SPLINE
  5
95
330
40
100
AcDbEntity
  8
0012334
  6
Continuous
 62
     7
100
AcDbSpline
210
0.0
220
0.0
230
1.0
 70
     8
 71
     3
 72
    14
 73
    10
 74
     0
 42
0.0000000031852821
 43
0.0000000001
 12
1.0
 22
0.0
 32
0.0
 13
1.0
 23
0.0
 33
0.0
 40
0.0
 40
0.0
 40
0.0
 40
0.0
 40
0.4999999999999991
 40
0.4999999999999991
 40
0.749999999999998
 40
0.749999999999998
 40
0.874999999999999
 40
0.874999999999999
 40
1.0
 40
1.0
 40
1.0
 40
1.0
 10
89.47375196082143
 20
96.3074562433478
 30
0.0
 10
89.47375196082143
 20
95.78430798471223
 30
0.0
 10
89.32401899386625
 20
95.27905402825661
 30
0.0
 10
88.96708567701488
 20
94.60556999715996
 30
0.0
 10
88.82586479147653
 20
94.39053513988591
 30
0.0
 10
88.56565643016492
 20
94.1014817899133
 30
0.0
 10
88.47132149655415
 20
94.0103164261005
 30
0.0
 10
88.24922000969349
 20
93.86752476681163
 30
0.0
 10
88.11069423305634
 20
93.81987887643827
 30
0.0
 10
87.97375196081997
 20
93.84479875744243
 30
0.0
  0
ARC
  5
96
330
40
100
AcDbEntity
  8
0012334
  6
Continuous
 62
     7
100
AcDbCircle
 10
77.6258847235
 20
34.4990032002
 30
0.0
 40
60.24119692271412
100
AcDbArc
 50
80.1090247756
 51
83.3387283195
  0
ARC
  5
97
330
40
100
AcDbEntity
  8
0012334
  6
Continuous
 62
     7
100
AcDbCircle
 10
77.6258847235
 20
172.3909017658
 30
0.0
 40
60.24119692265872
100
AcDbArc
 50
276.6612716805
 51
279.8909752244
  0
SPLINE
  5
98
330
40
100
AcDbEntity
  8
0012334
  6
Continuous
 62
     7
100
AcDbSpline
210
0.0
220
0.0
230
1.0
 70
     8
 71
     3
 72
    14
 73
    10
 74
     0
 42
0.0000000031851079
 43
0.0000000001
 12
1.0
 22
0.0
 32
0.0
 13
1.0
 23
0.0
 33
0.0
 40
0.0
 40
0.0
 40
0.0
 40
0.0
 40
0.1249999999999996
 40
0.1249999999999996
 40
0.2499999999999992
 40
0.2499999999999992
 40
0.4999999999999996
 40
0.4999999999999996
 40
1.0
 40
1.0
 40
1.0
 40
1.0
 10
87.97375196082143
 20
113.0451062086702
 30
0.0
 10
88.11069626957776
 20
113.0700264602668
 30
0.0
 10
88.25011780667927
 20
113.0221214799594
 30
0.0
 10
88.47355146545623
 20
112.8778318907616
 30
0.0
 10
88.56665289210741
 20
112.7874672270283
 30
0.0
 10
88.82746813567978
 20
112.4972836534855
 30
0.0
 10
88.96709700402356
 20
112.2844295538757
 30
0.0
 10
89.32507201174471
 20
111.608631599887
 30
0.0
 10
89.47375196082145
 20
111.1079123062337
 30
0.0
 10
89.47375196082143
 20
110.5824487227646
 30
0.0
  0
LINE
  5
99
330
40
100
AcDbEntity
  8
0012334
  6
Continuous
 62
     7
100
AcDbLine
 10
89.4737519608
 20
110.5824487228
 30
0.0
 11
89.4737519608
 21
96.3074562433
 31
0.0
  0
LINE
  5
9A
330
40
100
AcDbEntity
  8
0012334
  6
Continuous
 62
     7
100
AcDbLine
 10
193.8237519608
 20
114.4449524831
 30
0.0
 11
193.8237519608
 21
92.4449524831
 31
0.0
  0
ARC
  5
9B
330
40
100
AcDbEntity
  8
0012334
  6
Continuous
 62
     7
100
AcDbCircle
 10
157.9737519608
 20
103.4449524831
 30
0.0
 40
4.999999999999999
100
AcDbArc
 50
90.0
 51
270.0
  0
LINE
  5
9C
330
40
100
AcDbEntity
  8
0012334
  6
Continuous
 62
     7
100
AcDbLine
 10
157.9737519608
 20
98.4449524831
 30
0.0
 11
158.3737519608
 21
98.4449524831
 31
0.0
  0
LINE
  5
9D
330
40
100
AcDbEntity
  8
0012334
  6
Continuous
 62
     7
100
AcDbLine
 10
158.3737519608
 20
108.4449524831
 30
0.0
 11
157.9737519608
 21
108.4449524831
 31
0.0
  0
LINE
  5
9E
330
40
100
AcDbEntity
  8
0012334
  6
Continuous
 62
     7
100
AcDbLine
 10
194.4737519608
 20
113.7949524831
 30
0.0
 11
194.4737519608
 21
93.0949524831
 31
0.0
  0
LINE
  5
9F
330
40
100
AcDbEntity
  8
0012334
  6
Continuous
 62
     7
100
AcDbLine
 10
162.8737519608
 20
97.6455884243
 30
0.0
 11
162.8737519608
 21
83.4449524831
 31
0.0
  0
LINE
  5
A0
330
40
100
AcDbEntity
  8
0012334
  6
Continuous
 62
     7
100
AcDbLine
 10
162.8737519608
 20
109.2443165418
 30
0.0
 11
162.8737519608
 21
123.4449524831
 31
0.0
  0
LINE
  5
A1
330
40
100
AcDbEntity
  8
0012334
  6
Continuous
 62
     7
100
AcDbLine
 10
162.8737519608
 20
97.6455884243
 30
0.0
 11
157.9737519608
 21
97.6455884243
 31
0.0
  0
ARC
  5
A2
330
40
100
AcDbEntity
  8
0012334
  6
Continuous
 62
     7
100
AcDbCircle
 10
158.1566433472
 20
103.4449524831
 30
0.0
 40
5.802247215088955
100
AcDbArc
 50
91.8063071385
 51
268.1936928615
  0
LINE
  5
A3
330
40
100
AcDbEntity
  8
0012334
  6
Continuous
 62
     7
100
AcDbLine
 10
157.9737519608
 20
109.2443165418
 30
0.0
 11
162.8737519608
 21
109.2443165418
 31
0.0
  0
SPLINE
  5
A4
330
40
100
AcDbEntity
  8
0012334
  6
Continuous
 62
     7
100
AcDbSpline
210
0.0
220
0.0
230
1.0
 70
     8
 71
     3
 72
     8
 73
     4
 74
     0
 42
0.000000000908018
 43
0.0000000001
 12
1.0
 22
0.0
 32
0.0
 13
1.0
 23
0.0
 33
0.0
 40
0.0
 40
0.0
 40
0.0
 40
0.0
 40
0.0452251810272898
 40
0.0452251810272898
 40
0.0452251810272898
 40
0.0452251810272898
 10
163.3711365727867
 20
97.9475678710909
 30
0.0
 10
163.3610923650547
 20
98.11327655931154
 30
0.0
 10
163.3514313809065
 20
98.27901862115273
 30
0.0
 10
163.3421665275527
 20
98.44478853828517
 30
0.0
  0
SPLINE
  5
A5
330
40
100
AcDbEntity
  8
0012334
  6
Continuous
 62
     7
100
AcDbSpline
210
0.0
220
0.0
230
1.0
 70
     8
 71
     3
 72
     8
 73
     4
 74
     0
 42
0.0000000009091591
 43
0.0000000001
 12
1.0
 22
0.0
 32
0.0
 13
1.0
 23
0.0
 33
0.0
 40
0.9547255510779432
 40
0.9547255510779432
 40
0.9547255510779432
 40
0.9547255510779432
 40
1.0
 40
1.0
 40
1.0
 40
1.0
 10
163.3421678087097
 20
108.4451997254472
 30
0.0
 10
163.3514321747512
 20
108.6109219397819
 30
0.0
 10
163.3610927216225
 20
108.7766342894338
 30
0.0
 10
163.3711365727867
 20
108.9423370950215
 30
0.0
  0
LINE
  5
A6
330
40
100
AcDbEntity
  8
0012334
  6
Continuous
 62
     7
100
AcDbLine
 10
157.9737519608
 20
108.4449524831
 30
0.0
 11
157.9737519608
 21
109.2443165418
 31
0.0
  0
LINE
  5
A7
330
40
100
AcDbEntity
  8
0012334
  6
Continuous
 62
     7
100
AcDbLine
 10
162.8737519608
 20
108.4449524831
 30
0.0
 11
163.4737519608
 21
109.0449524831
 31
0.0
  0
LINE
  5
A8
330
40
100
AcDbEntity
  8
0012334
  6
Continuous
 62
     7
100
AcDbLine
 10
162.8737519608
 20
109.2443165418
 30
0.0
 11
162.8737519608
 21
108.4449524831
 31
0.0
  0
LINE
  5
A9
330
40
100
AcDbEntity
  8
0012334
  6
Continuous
 62
     7
100
AcDbLine
 10
157.9737519608
 20
98.4449524831
 30
0.0
 11
157.9737519608
 21
97.6455884243
 31
0.0
  0
LINE
  5
AA
330
40
100
AcDbEntity
  8
0012334
  6
Continuous
 62
     7
100
AcDbLine
 10
162.8737519608
 20
109.2443165418
 30
0.0
 11
163.4737519608
 21
109.2450899713
 31
0.0
  0
LINE
  5
AB
330
40
100
AcDbEntity
  8
0012334
  6
Continuous
 62
     7
100
AcDbLine
 10
162.8737519608
 20
98.4449524831
 30
0.0
 11
162.8737519608
 21
97.6455884243
 31
0.0
  0
LINE
  5
AC
330
40
100
AcDbEntity
  8
0012334
  6
Continuous
 62
     7
100
AcDbLine
 10
163.4737519608
 20
97.8449524831
 30
0.0
 11
162.8737519608
 21
98.4449524831
 31
0.0
  0
LINE
  5
AD
330
40
100
AcDbEntity
  8
0012334
  6
Continuous
 62
     7
100
AcDbLine
 10
163.4737519608
 20
97.6448149948
 30
0.0
 11
162.8737519608
 21
97.6455884243
 31
0.0
  0
ARC
  5
AE
330
40
100
AcDbEntity
  8
0012334
  6
Continuous
 62
     7
100
AcDbCircle
 10
189.4863367112
 20
82.7865114959
 30
0.0
 40
10.18657648892567
100
AcDbArc
 50
71.4693516072
 51
98.4726852985
  0
LINE
  5
AF
330
40
100
AcDbEntity
  8
0012334
  6
Continuous
 62
     7
100
AcDbLine
 10
181.0737519608
 20
92.8619472388
 30
0.0
 11
187.9864459412
 21
92.8619472388
 31
0.0
  0
ARC
  5
B0
330
40
100
AcDbEntity
  8
0012334
  6
Continuous
 62
     7
100
AcDbCircle
 10
134.8487519608
 20
131.4449524831
 30
0.0
 40
0.5000000000000004
100
AcDbArc
 50
270.0
 51
0.0
  0
LINE
  5
B1
330
40
100
AcDbEntity
  8
0012334
  6
Continuous
 62
     7
100
AcDbLine
 10
132.0987519608
 20
75.9449524831
 30
0.0
 11
134.8487519608
 21
75.9449524831
 31
0.0
  0
ARC
  5
B2
330
40
100
AcDbEntity
  8
0012334
  6
Continuous
 62
     7
100
AcDbCircle
 10
132.0987519608
 20
131.4449524831
 30
0.0
 40
0.5000000000000004
100
AcDbArc
 50
180.0
 51
270.0
  0
ARC
  5
B3
330
40
100
AcDbEntity
  8
0012334
  6
Continuous
 62
     7
100
AcDbCircle
 10
134.8487519608
 20
75.4449524831
 30
0.0
 40
0.5000000000000004
100
AcDbArc
 50
0.0
 51
90.0
  0
LINE
  5
B4
330
40
100
AcDbEntity
  8
0012334
  6
Continuous
 62
     7
100
AcDbLine
 10
134.8487519608
 20
130.9449524831
 30
0.0
 11
132.0987519608
 21
130.9449524831
 31
0.0
  0
ARC
  5
B5
330
40
100
AcDbEntity
  8
0012334
  6
Continuous
 62
     7
100
AcDbCircle
 10
132.0987519608
 20
75.4449524831
 30
0.0
 40
0.5000000000000004
100
AcDbArc
 50
90.0
 51
180.0
  0
LINE
  5
B6
330
40
100
AcDbEntity
  8
0012334
  6
Continuous
 62
     7
100
AcDbLine
 10
131.5987519608
 20
132.3425477472
 30
0.0
 11
130.0962528861
 21
134.9449524831
 31
0.0
  0
LINE
  5
B7
330
40
100
AcDbEntity
  8
0012334
  6
Continuous
 62
     7
100
AcDbLine
 10
130.0962528861
 20
71.9449524831
 30
0.0
 11
131.5987519608
 21
74.5473572189
 31
0.0
  0
LINE
  5
B8
330
40
100
AcDbEntity
  8
0012334
  6
Continuous
 62
     7
100
AcDbLine
 10
136.8512510356
 20
134.9449524831
 30
0.0
 11
135.3487519608
 21
132.3425477472
 31
0.0
  0
LINE
  5
B9
330
40
100
AcDbEntity
  8
0012334
  6
Continuous
 62
     7
100
AcDbLine
 10
135.3487519608
 20
74.5473572189
 30
0.0
 11
136.8512510356
 21
71.9449524831
 31
0.0
  0
LINE
  5
BA
330
40
100
AcDbEntity
  8
0012334
  6
Continuous
 62
     7
100
AcDbLine
 10
140.9737519608
 20
134.9449524831
 30
0.0
 11
136.8512510356
 21
134.9449524831
 31
0.0
  0
LINE
  5
BB
330
40
100
AcDbEntity
  8
0012334
  6
Continuous
 62
     7
100
AcDbLine
 10
136.8512510356
 20
71.9449524831
 30
0.0
 11
140.9737519608
 21
71.9449524831
 31
0.0
  0
LINE
  5
BC
330
40
100
AcDbEntity
  8
0012334
  6
Continuous
 62
     7
100
AcDbLine
 10
141.4737519608
 20
134.4449524831
 30
0.0
 11
140.9737519608
 21
134.9449524831
 31
0.0
  0
LINE
  5
BD
330
40
100
AcDbEntity
  8
0012334
  6
Continuous
 62
     7
100
AcDbLine
 10
140.9737519608
 20
71.9449524831
 30
0.0
 11
141.4737519608
 21
72.4449524831
 31
0.0
  0
LINE
  5
BE
330
40
100
AcDbEntity
  8
0012334
  6
Continuous
 62
     7
100
AcDbLine
 10
113.6451629953
 20
79.2213819313
 30
0.0
 11
114.2387830983
 21
79.3804419585
 31
0.0
  0
LINE
  5
BF
330
40
100
AcDbEntity
  8
0012334
  6
Continuous
 62
     7
100
AcDbLine
 10
114.2387830983
 20
127.5094630076
 30
0.0
 11
113.6451629953
 21
127.6685230348
 31
0.0
  0
LINE
  5
C0
330
40
100
AcDbEntity
  8
0012334
  6
Continuous
 62
     7
100
AcDbLine
 10
114.2387830983
 20
79.3804419585
 30
0.0
 11
114.9737519608
 21
79.3804419585
 31
0.0
  0
LINE
  5
C1
330
40
100
AcDbEntity
  8
0012334
  6
Continuous
 62
     7
100
AcDbLine
 10
114.9737519608
 20
127.5094630076
 30
0.0
 11
114.2387830983
 21
127.5094630076
 31
0.0
  0
ARC
  5
C2
330
40
100
AcDbEntity
  8
0012334
  6
Continuous
 62
     7
100
AcDbCircle
 10
114.9737519608
 20
78.7804419585
 30
0.0
 40
0.5999999999999963
100
AcDbArc
 50
33.5573097619
 51
90.0
  0
ARC
  5
C3
330
40
100
AcDbEntity
  8
0012334
  6
Continuous
 62
     7
100
AcDbCircle
 10
114.9737519608
 20
128.1094630076
 30
0.0
 40
0.6
100
AcDbArc
 50
270.0
 51
326.4426902381
  0
LINE
  5
C4
330
40
100
AcDbEntity
  8
0012334
  6
Continuous
 62
     7
100
AcDbLine
 10
115.9737519608
 20
134.9449524831
 30
0.0
 11
115.4737519608
 21
134.4449524831
 31
0.0
  0
LINE
  5
C5
330
40
100
AcDbEntity
  8
0012334
  6
Continuous
 62
     7
100
AcDbLine
 10
115.4737519608
 20
72.4449524831
 30
0.0
 11
115.9737519608
 21
71.9449524831
 31
0.0
  0
LINE
  5
C6
330
40
100
AcDbEntity
  8
0012334
  6
Continuous
 62
     7
100
AcDbLine
 10
123.7009546336
 20
71.9449524831
 30
0.0
 11
130.0962528861
 21
71.9449524831
 31
0.0
  0
LINE
  5
C7
330
40
100
AcDbEntity
  8
0012334
  6
Continuous
 62
     7
100
AcDbLine
 10
115.9737519608
 20
71.9449524831
 30
0.0
 11
121.2568572867
 21
71.9449524831
 31
0.0
  0
LINE
  5
C8
330
40
100
AcDbEntity
  8
0012334
  6
Continuous
 62
     7
100
AcDbLine
 10
117.4737519608
 20
134.9449524831
 30
0.0
 11
115.9737519608
 21
134.9449524831
 31
0.0
  0
LINE
  5
C9
330
40
100
AcDbEntity
  8
0012334
  6
Continuous
 62
     7
100
AcDbLine
 10
130.0962528861
 20
134.9449524831
 30
0.0
 11
127.4597556946
 21
134.9449524831
 31
0.0
  0
ARC
  5
CA
330
40
100
AcDbEntity
  8
0012334
  6
Continuous
 62
     7
100
AcDbCircle
 10
84.6737519608
 20
81.8714515467
 30
0.0
 40
1.2
100
AcDbArc
 50
180.0
 51
267.1375947739
  0
ARC
  5
CB
330
40
100
AcDbEntity
  8
0012334
  6
Continuous
 62
     7
100
AcDbCircle
 10
84.6737519608
 20
125.0184534194
 30
0.0
 40
1.200000000000001
100
AcDbArc
 50
92.8624052261
 51
180.0
  0
LINE
  5
CC
330
40
100
AcDbEntity
  8
0012334
  6
Continuous
 62
     7
100
AcDbLine
 10
113.6451629953
 20
127.6685230348
 30
0.0
 11
84.6138268205
 21
126.216956226
 31
0.0
  0
LINE
  5
CD
330
40
100
AcDbEntity
  8
0012334
  6
Continuous
 62
     7
100
AcDbLine
 10
84.6138268205
 20
80.6729487401
 30
0.0
 11
113.6451629953
 21
79.2213819313
 31
0.0
  0
LINE
  5
CE
330
40
100
AcDbEntity
  8
0012334
  6
Continuous
 62
     7
100
AcDbLine
 10
142.2737519608
 20
83.4449524831
 30
0.0
 11
162.8737519608
 21
83.4449524831
 31
0.0
  0
LINE
  5
CF
330
40
100
AcDbEntity
  8
0012334
  6
Continuous
 62
     7
100
AcDbLine
 10
162.8737519608
 20
123.4449524831
 30
0.0
 11
142.2737519608
 21
123.4449524831
 31
0.0
  0
LINE
  5
D0
330
40
100
AcDbEntity
  8
0012334
  6
Continuous
 62
     7
100
AcDbLine
 10
163.4737519608
 20
122.8449524831
 30
0.0
 11
162.8737519608
 21
123.4449524831
 31
0.0
  0
LINE
  5
D1
330
40
100
AcDbEntity
  8
0012334
  6
Continuous
 62
     7
100
AcDbLine
 10
162.8737519608
 20
83.4449524831
 30
0.0
 11
163.4737519608
 21
84.0449524831
 31
0.0
  0
LINE
  5
D2
330
40
100
AcDbEntity
  8
0012334
  6
Continuous
 62
     7
100
AcDbLine
 10
192.7178149745
 20
92.4449524831
 30
0.0
 11
193.8237519608
 21
92.4449524831
 31
0.0
  0
LINE
  5
D3
330
40
100
AcDbEntity
  8
0012334
  6
Continuous
 62
     7
100
AcDbLine
 10
193.8237519608
 20
114.4449524831
 30
0.0
 11
181.0737519608
 21
114.4449524831
 31
0.0
  0
LINE
  5
D4
330
40
100
AcDbEntity
  8
0012334
  6
Continuous
 62
     7
100
AcDbLine
 10
193.8237519608
 20
92.4449524831
 30
0.0
 11
194.4737519608
 21
93.0949524831
 31
0.0
  0
LINE
  5
D5
330
40
100
AcDbEntity
  8
0012334
  6
Continuous
 62
     7
100
AcDbLine
 10
194.4737519608
 20
113.7949524831
 30
0.0
 11
193.8237519608
 21
114.4449524831
 31
0.0
  0
ARC
  5
D6
330
40
100
AcDbEntity
  8
0012334
  6
Continuous
 62
     7
100
AcDbCircle
 10
142.2737519608
 20
124.2449524831
 30
0.0
 40
0.7999999999999986
100
AcDbArc
 50
180.0
 51
270.0
  0
ARC
  5
D7
330
40
100
AcDbEntity
  8
0012334
  6
Continuous
 62
     7
100
AcDbCircle
 10
142.2737519608
 20
82.6449524831
 30
0.0
 40
0.7999999999999986
100
AcDbArc
 50
90.0
 51
180.0
  0
LINE
  5
D8
330
40
100
AcDbEntity
  8
0012334
  6
Continuous
 62
     7
100
AcDbLine
 10
181.0737519608
 20
122.4186184441
 30
0.0
 11
181.0737519608
 21
114.0279577273
 31
0.0
  0
LINE
  5
D9
330
40
100
AcDbEntity
  8
0012334
  6
Continuous
 62
     7
100
AcDbLine
 10
181.0737519608
 20
122.4186184441
 30
0.0
 11
181.0737519608
 21
122.9449524831
 31
0.0
  0
LINE
  5
DA
330
40
100
AcDbEntity
  8
0012334
  6
Continuous
 62
     7
100
AcDbLine
 10
180.5737519608
 20
123.4449524831
 30
0.0
 11
180.5737519608
 21
122.9321898761
 31
0.0
  0
LINE
  5
DB
330
40
100
AcDbEntity
  8
0012334
  6
Continuous
 62
     7
100
AcDbLine
 10
180.5737519608
 20
83.95771509
 30
0.0
 11
180.5737519608
 21
83.4449524831
 31
0.0
  0
LINE
  5
DC
330
40
100
AcDbEntity
  8
0012334
  6
Continuous
 62
     7
100
AcDbLine
 10
174.9737519608
 20
122.9321898761
 30
0.0
 11
180.5737519608
 21
122.9321898761
 31
0.0
  0
LINE
  5
DD
330
40
100
AcDbEntity
  8
0012334
  6
Continuous
 62
     7
100
AcDbLine
 10
180.5737519608
 20
83.95771509
 30
0.0
 11
174.9737519608
 21
83.95771509
 31
0.0
  0
LINE
  5
DE
330
40
100
AcDbEntity
  8
0012334
  6
Continuous
 62
     7
100
AcDbLine
 10
174.9737519608
 20
83.95771509
 30
0.0
 11
174.9737519608
 21
122.9321898761
 31
0.0
  0
LINE
  5
DF
330
40
100
AcDbEntity
  8
0012334
  6
Continuous
 62
     7
100
AcDbLine
 10
158.3737519608
 20
98.9452215149
 30
0.0
 11
163.9737519608
 21
98.9452215149
 31
0.0
  0
LINE
  5
E0
330
40
100
AcDbEntity
  8
0012334
  6
Continuous
 62
     7
100
AcDbLine
 10
163.9737519608
 20
83.4449524831
 30
0.0
 11
163.9737519608
 21
98.9452215149
 31
0.0
  0
LINE
  5
E1
330
40
100
AcDbEntity
  8
0012334
  6
Continuous
 62
     7
100
AcDbLine
 10
158.3737519608
 20
107.9446834512
 30
0.0
 11
158.3737519608
 21
98.9452215149
 31
0.0
  0
LINE
  5
E2
330
40
100
AcDbEntity
  8
0012334
  6
Continuous
 62
     7
100
AcDbLine
 10
163.9737519608
 20
107.9446834512
 30
0.0
 11
158.3737519608
 21
107.9446834512
 31
0.0
  0
LINE
  5
E3
330
40
100
AcDbEntity
  8
0012334
  6
Continuous
 62
     7
100
AcDbLine
 10
163.9737519608
 20
107.9446834512
 30
0.0
 11
163.9737519608
 21
123.4449524831
 31
0.0
  0
LINE
  5
E4
330
40
100
AcDbEntity
  8
0012334
  6
Continuous
 62
     7
100
AcDbLine
 10
180.5737519608
 20
113.4522127664
 30
0.0
 11
175.4737519608
 21
113.4522127664
 31
0.0
  0
LINE
  5
E5
330
40
100
AcDbEntity
  8
0012334
  6
Continuous
 62
     7
100
AcDbLine
 10
175.4737519608
 20
93.4376921997
 30
0.0
 11
180.5737519608
 21
93.4376921997
 31
0.0
  0
LINE
  5
E6
330
40
100
AcDbEntity
  8
0012334
  6
Continuous
 62
     7
100
AcDbLine
 10
175.4737519608
 20
113.7307659643
 30
0.0
 11
180.5737519608
 21
113.7307659643
 31
0.0
  0
LINE
  5
E7
330
40
100
AcDbEntity
  8
0012334
  6
Continuous
 62
     7
100
AcDbLine
 10
180.5737519608
 20
113.7307659643
 30
0.0
 11
180.5737519608
 21
122.3032419937
 31
0.0
  0
LINE
  5
E8
330
40
100
AcDbEntity
  8
0012334
  6
Continuous
 62
     7
100
AcDbLine
 10
180.5737519608
 20
122.3032419937
 30
0.0
 11
175.4638805294
 21
122.3032419937
 31
0.0
  0
LINE
  5
E9
330
40
100
AcDbEntity
  8
0012334
  6
Continuous
 62
     7
100
AcDbLine
 10
180.5737519608
 20
84.5866629724
 30
0.0
 11
180.5737519608
 21
93.1591390018
 31
0.0
  0
LINE
  5
EA
330
40
100
AcDbEntity
  8
0012334
  6
Continuous
 62
     7
100
AcDbLine
 10
180.5737519608
 20
93.1591390018
 30
0.0
 11
175.4737519608
 21
93.1591390018
 31
0.0
  0
LINE
  5
EB
330
40
100
AcDbEntity
  8
0012334
  6
Continuous
 62
     7
100
AcDbLine
 10
175.4638805294
 20
84.5866629724
 30
0.0
 11
180.5737519608
 21
84.5866629724
 31
0.0
  0
LINE
  5
EC
330
40
100
AcDbEntity
  8
0012334
  6
Continuous
 62
     7
100
AcDbLine
 10
175.4737519608
 20
122.293029308
 30
0.0
 11
175.4737519608
 21
84.5968756581
 31
0.0
  0
LINE
  5
ED
330
40
100
AcDbEntity
  8
0012334
  6
Continuous
 62
     7
100
AcDbLine
 10
163.4836233922
 20
98.4449524831
 30
0.0
 11
158.3737519608
 21
98.4449524831
 31
0.0
  0
LINE
  5
EE
330
40
100
AcDbEntity
  8
0012334
  6
Continuous
 62
     7
100
AcDbLine
 10
157.8737519608
 20
98.9449524831
 30
0.0
 11
157.8737519608
 21
107.9449524831
 31
0.0
  0
LINE
  5
EF
330
40
100
AcDbEntity
  8
0012334
  6
Continuous
 62
     7
100
AcDbLine
 10
163.4737519608
 20
98.4449524831
 30
0.0
 11
163.4737519608
 21
83.9449524831
 31
0.0
  0
LINE
  5
F0
330
40
100
AcDbEntity
  8
0012334
  6
Continuous
 62
     7
100
AcDbLine
 10
158.3737519608
 20
108.4449524831
 30
0.0
 11
163.4836233922
 21
108.4449524831
 31
0.0
  0
LINE
  5
F1
330
40
100
AcDbEntity
  8
0012334
  6
Continuous
 62
     7
100
AcDbLine
 10
163.4737519608
 20
122.9449524831
 30
0.0
 11
163.4737519608
 21
108.4449524831
 31
0.0
  0
LINE
  5
F2
330
40
100
AcDbEntity
  8
0012334
  6
Continuous
 62
     7
100
AcDbLine
 10
181.0737519608
 20
83.9449524831
 30
0.0
 11
181.0737519608
 21
84.471286522
 31
0.0
  0
LINE
  5
F3
330
40
100
AcDbEntity
  8
0012334
  6
Continuous
 62
     7
100
AcDbLine
 10
181.0737519608
 20
92.8619472388
 30
0.0
 11
181.0737519608
 21
84.471286522
 31
0.0
  0
LINE
  5
F4
330
40
100
AcDbEntity
  8
0012334
  6
Continuous
 62
     7
100
AcDbLine
 10
175.4638805294
 20
122.3032419937
 30
0.0
 11
175.4737519608
 21
122.293029308
 31
0.0
  0
LINE
  5
F5
330
40
100
AcDbEntity
  8
0012334
  6
Continuous
 62
     7
100
AcDbLine
 10
175.4737519608
 20
84.5968756581
 30
0.0
 11
175.4638805294
 21
84.5866629724
 31
0.0
  0
LINE
  5
F6
330
40
100
AcDbEntity
  8
0012334
  6
Continuous
 62
     7
100
AcDbLine
 10
181.0737519608
 20
84.471286522
 30
0.0
 11
180.5737519608
 21
84.5866629724
 31
0.0
  0
LINE
  5
F7
330
40
100
AcDbEntity
  8
0012334
  6
Continuous
 62
     7
100
AcDbLine
 10
180.5737519608
 20
93.1591390018
 30
0.0
 11
181.0737519608
 21
92.8619472388
 31
0.0
  0
LINE
  5
F8
330
40
100
AcDbEntity
  8
0012334
  6
Continuous
 62
     7
100
AcDbLine
 10
180.5737519608
 20
83.95771509
 30
0.0
 11
180.5737519608
 21
84.5866629724
 31
0.0
  0
LINE
  5
F9
330
40
100
AcDbEntity
  8
0012334
  6
Continuous
 62
     7
100
AcDbLine
 10
181.0737519608
 20
84.471286522
 30
0.0
 11
180.5737519608
 21
83.95771509
 31
0.0
  0
ELLIPSE
  5
FA
330
40
100
AcDbEntity
  8
0012334
  6
Continuous
 62
     7
100
AcDbEllipse
 10
238.4158143659
 20
47.8036218812
 30
0.0
 11
-65.94736107902568
 21
58.53433293275874
 31
0.0
210
0.0
220
0.0
230
1.0
 40
0.0877457844
 41
0.5842284257876893
 42
0.5995976105136861
  0
LINE
  5
FB
330
40
100
AcDbEntity
  8
0012334
  6
Continuous
 62
     7
100
AcDbLine
 10
180.5737519608
 20
93.1591390018
 30
0.0
 11
180.5737519608
 21
93.4376921997
 31
0.0
  0
LINE
  5
FC
330
40
100
AcDbEntity
  8
0012334
  6
Continuous
 62
     7
100
AcDbLine
 10
174.9737519608
 20
83.95771509
 30
0.0
 11
175.4638805294
 21
84.5866629724
 31
0.0
  0
LINE
  5
FD
330
40
100
AcDbEntity
  8
0012334
  6
Continuous
 62
     7
100
AcDbLine
 10
174.9737519608
 20
122.9321898761
 30
0.0
 11
175.4638805294
 21
122.3032419937
 31
0.0
  0
LINE
  5
FE
330
40
100
AcDbEntity
  8
0012334
  6
Continuous
 62
     7
100
AcDbLine
 10
180.5737519608
 20
122.3032419937
 30
0.0
 11
181.0737519608
 21
122.4186184441
 31
0.0
  0
LINE
  5
FF
330
40
100
AcDbEntity
  8
0012334
  6
Continuous
 62
     7
100
AcDbLine
 10
180.5737519608
 20
122.9321898761
 30
0.0
 11
180.5737519608
 21
122.3032419937
 31
0.0
  0
LINE
  5
100
330
40
100
AcDbEntity
  8
0012334
  6
Continuous
 62
     7
100
AcDbLine
 10
180.5737519608
 20
113.7307659643
 30
0.0
 11
180.5737519608
 21
113.4522127664
 31
0.0
  0
LINE
  5
101
330
40
100
AcDbEntity
  8
0012334
  6
Continuous
 62
     7
100
AcDbLine
 10
181.0737519608
 20
114.0279577273
 30
0.0
 11
180.5737519608
 21
113.7307659643
 31
0.0
  0
LINE
  5
102
330
40
100
AcDbEntity
  8
0012334
  6
Continuous
 62
     7
100
AcDbLine
 10
180.5737519608
 20
122.9321898761
 30
0.0
 11
181.0737519608
 21
122.4186184441
 31
0.0
  0
ELLIPSE
  5
103
330
40
100
AcDbEntity
  8
0012334
  6
Continuous
 62
     7
100
AcDbEllipse
 10
238.4158034785
 20
159.0862745133
 30
0.0
 11
-65.94735009955549
 21
-58.53432410059354
 31
0.0
210
0.0
220
0.0
230
1.0
 40
0.0877457876
 41
-0.5995976556697062
 42
-0.5842284694907347
  0
LINE
  5
104
330
40
100
AcDbEntity
  8
0012334
  6
Continuous
 62
     7
100
AcDbLine
 10
158.3737519608
 20
108.4449524831
 30
0.0
 11
157.8737519608
 21
107.9449524831
 31
0.0
  0
LINE
  5
105
330
40
100
AcDbEntity
  8
0012334
  6
Continuous
 62
     7
100
AcDbLine
 10
158.3737519608
 20
107.9446834512
 30
0.0
 11
157.8737519608
 21
107.9449524831
 31
0.0
  0
LINE
  5
106
330
40
100
AcDbEntity
  8
0012334
  6
Continuous
 62
     7
100
AcDbLine
 10
158.3737519608
 20
108.4449524831
 30
0.0
 11
158.3737519608
 21
107.9446834512
 31
0.0
  0
LINE
  5
107
330
40
100
AcDbEntity
  8
0012334
  6
Continuous
 62
     7
100
AcDbLine
 10
157.8737519608
 20
98.9449524831
 30
0.0
 11
158.3737519608
 21
98.4449524831
 31
0.0
  0
LINE
  5
108
330
40
100
AcDbEntity
  8
0012334
  6
Continuous
 62
     7
100
AcDbLine
 10
158.3737519608
 20
98.9452215149
 30
0.0
 11
157.8737519608
 21
98.9449524831
 31
0.0
  0
LINE
  5
109
330
40
100
AcDbEntity
  8
0012334
  6
Continuous
 62
     7
100
AcDbLine
 10
163.4836233922
 20
108.4449524831
 30
0.0
 11
163.9737519608
 21
107.9446834512
 31
0.0
  0
LINE
  5
10A
330
40
100
AcDbEntity
  8
0012334
  6
Continuous
 62
     7
100
AcDbLine
 10
158.3737519608
 20
98.9452215149
 30
0.0
 11
158.3737519608
 21
98.4449524831
 31
0.0
  0
LINE
  5
10B
330
40
100
AcDbEntity
  8
0012334
  6
Continuous
 62
     7
100
AcDbLine
 10
163.9737519608
 20
98.9452215149
 30
0.0
 11
163.4836233922
 21
98.4449524831
 31
0.0
  0
LINE
  5
10C
330
40
100
AcDbEntity
  8
0012334
  6
Continuous
 62
     7
100
AcDbLine
 10
163.9737519608
 20
83.4449524831
 30
0.0
 11
180.5737519608
 21
83.4449524831
 31
0.0
  0
LINE
  5
10D
330
40
100
AcDbEntity
  8
0012334
  6
Continuous
 62
     7
100
AcDbLine
 10
180.5737519608
 20
123.4449524831
 30
0.0
 11
163.9737519608
 21
123.4449524831
 31
0.0
  0
LINE
  5
10E
330
40
100
AcDbEntity
  8
0012334
  6
Continuous
 62
     7
100
AcDbLine
 10
180.5737519608
 20
83.4449524831
 30
0.0
 11
181.0737519608
 21
83.9449524831
 31
0.0
  0
LINE
  5
10F
330
40
100
AcDbEntity
  8
0012334
  6
Continuous
 62
     7
100
AcDbLine
 10
181.0737519608
 20
122.9449524831
 30
0.0
 11
180.5737519608
 21
123.4449524831
 31
0.0
  0
LINE
  5
110
330
40
100
AcDbEntity
  8
0012334
  6
Continuous
 62
     7
100
AcDbLine
 10
163.9737519608
 20
123.4449524831
 30
0.0
 11
163.4737519608
 21
122.9449524831
 31
0.0
  0
LINE
  5
111
330
40
100
AcDbEntity
  8
0012334
  6
Continuous
 62
     7
100
AcDbLine
 10
163.4737519608
 20
83.9449524831
 30
0.0
 11
163.9737519608
 21
83.4449524831
 31
0.0
  0
LINE
  5
112
330
40
100
AcDbEntity
  8
0012334
  6
Continuous
 62
     7
100
AcDbLine
 10
200.4737519608
 20
116.5216493137
 30
0.0
 11
200.4737519608
 21
117.4449524831
 31
0.0
  0
LINE
  5
113
330
40
100
AcDbEntity
  8
0012334
  6
Continuous
 62
     7
100
AcDbLine
 10
207.4737519608
 20
116.5216493137
 30
0.0
 11
207.4737519608
 21
117.4449524831
 31
0.0
  0
LINE
  5
114
330
40
100
AcDbEntity
  8
0012334
  6
Continuous
 62
     7
100
AcDbLine
 10
207.4737519608
 20
108.4449524831
 30
0.0
 11
200.4737519608
 21
108.4449524831
 31
0.0
  0
LINE
  5
115
330
40
100
AcDbEntity
  8
0012334
  6
Continuous
 62
     7
100
AcDbLine
 10
200.4737519608
 20
116.5216493137
 30
0.0
 11
207.4737519608
 21
116.5216493137
 31
0.0
  0
LINE
  5
116
330
40
100
AcDbEntity
  8
0012334
  6
Continuous
 62
     7
100
AcDbLine
 10
200.4737519608
 20
89.4449524831
 30
0.0
 11
200.4737519608
 21
90.3682556524
 31
0.0
  0
LINE
  5
117
330
40
100
AcDbEntity
  8
0012334
  6
Continuous
 62
     7
100
AcDbLine
 10
207.4737519608
 20
90.3682556524
 30
0.0
 11
207.4737519608
 21
89.4449524831
 31
0.0
  0
LINE
  5
118
330
40
100
AcDbEntity
  8
0012334
  6
Continuous
 62
     7
100
AcDbLine
 10
200.4737519608
 20
98.4449524831
 30
0.0
 11
200.4737519608
 21
108.4449524831
 31
0.0
  0
LINE
  5
119
330
40
100
AcDbEntity
  8
0012334
  6
Continuous
 62
     7
100
AcDbLine
 10
200.4737519608
 20
90.3682556524
 30
0.0
 11
200.4737519608
 21
96.4449524831
 31
0.0
  0
LINE
  5
11A
330
40
100
AcDbEntity
  8
0012334
  6
Continuous
 62
     7
100
AcDbLine
 10
207.4737519608
 20
98.4449524831
 30
0.0
 11
207.4737519608
 21
108.4449524831
 31
0.0
  0
LINE
  5
11B
330
40
100
AcDbEntity
  8
0012334
  6
Continuous
 62
     7
100
AcDbLine
 10
207.4737519608
 20
90.3682556524
 30
0.0
 11
200.4737519608
 21
90.3682556524
 31
0.0
  0
LINE
  5
11C
330
40
100
AcDbEntity
  8
0012334
  6
Continuous
 62
     7
100
AcDbLine
 10
200.4737519608
 20
98.4449524831
 30
0.0
 11
207.4737519608
 21
98.4449524831
 31
0.0
  0
LINE
  5
11D
330
40
100
AcDbEntity
  8
0012334
  6
Continuous
 62
     7
100
AcDbLine
 10
207.4737519608
 20
90.3682556524
 30
0.0
 11
207.4737519608
 21
96.4449524831
 31
0.0
  0
LINE
  5
11E
330
40
100
AcDbEntity
  8
0012334
  6
Continuous
 62
     7
100
AcDbLine
 10
200.4737519608
 20
110.4449524831
 30
0.0
 11
200.4737519608
 21
116.5216493137
 31
0.0
  0
LINE
  5
11F
330
40
100
AcDbEntity
  8
0012334
  6
Continuous
 62
     7
100
AcDbLine
 10
207.4737519608
 20
110.4449524831
 30
0.0
 11
207.4737519608
 21
116.5216493137
 31
0.0
  0
LINE
  5
120
330
40
100
AcDbEntity
  8
0012334
  6
Continuous
 62
     7
100
AcDbLine
 10
207.4737519608
 20
110.4449524831
 30
0.0
 11
207.4737519608
 21
108.4449524831
 31
0.0
  0
LINE
  5
121
330
40
100
AcDbEntity
  8
0012334
  6
Continuous
 62
     7
100
AcDbLine
 10
200.4737519608
 20
108.4449524831
 30
0.0
 11
200.4737519608
 21
110.4449524831
 31
0.0
  0
LINE
  5
122
330
40
100
AcDbEntity
  8
0012334
  6
Continuous
 62
     7
100
AcDbLine
 10
207.4737519608
 20
98.4449524831
 30
0.0
 11
207.4737519608
 21
96.4449524831
 31
0.0
  0
LINE
  5
123
330
40
100
AcDbEntity
  8
0012334
  6
Continuous
 62
     7
100
AcDbLine
 10
200.4737519608
 20
96.4449524831
 30
0.0
 11
200.4737519608
 21
98.4449524831
 31
0.0
  0
LINE
  5
124
330
40
100
AcDbEntity
  8
0012334
  6
Continuous
 62
     7
100
AcDbLine
 10
194.4737519608
 20
98.4449524831
 30
0.0
 11
199.4737519608
 21
98.4449524831
 31
0.0
  0
LINE
  5
125
330
40
100
AcDbEntity
  8
0012334
  6
Continuous
 62
     7
100
AcDbLine
 10
199.4737519608
 20
108.4449524831
 30
0.0
 11
194.4737519608
 21
108.4449524831
 31
0.0
  0
LINE
  5
126
330
40
100
AcDbEntity
  8
0012334
  6
Continuous
 62
     7
100
AcDbLine
 10
207.4737519608
 20
117.4449524831
 30
0.0
 11
200.4737519608
 21
117.4449524831
 31
0.0
  0
LINE
  5
127
330
40
100
AcDbEntity
  8
0012334
  6
Continuous
 62
     7
100
AcDbLine
 10
200.4737519608
 20
89.4449524831
 30
0.0
 11
207.4737519608
 21
89.4449524831
 31
0.0
  0
ARC
  5
128
330
40
100
AcDbEntity
  8
0012334
  6
Continuous
 62
     7
100
AcDbCircle
 10
199.4737519608
 20
109.4449524831
 30
0.0
 40
1.000000000000001
100
AcDbArc
 50
270.0
 51
0.0
  0
ARC
  5
129
330
40
100
AcDbEntity
  8
0012334
  6
Continuous
 62
     7
100
AcDbCircle
 10
199.4737519608
 20
97.4449524831
 30
0.0
 40
1.0
100
AcDbArc
 50
0.0
 51
90.0
  0
LINE
  5
12A
330
40
100
AcDbEntity
  8
0012334
  6
Continuous
 62
     7
100
AcDbLine
 10
199.4737519608
 20
108.4449524831
 30
0.0
 11
199.4737519608
 21
107.5249524831
 31
0.0
  0
LINE
  5
12B
330
40
100
AcDbEntity
  8
0012334
  6
Continuous
 62
     7
100
AcDbLine
 10
194.4737519608
 20
107.5249524831
 30
0.0
 11
199.4737519608
 21
107.5249524831
 31
0.0
  0
LINE
  5
12C
330
40
100
AcDbEntity
  8
0012334
  6
Continuous
 62
     7
100
AcDbLine
 10
194.4737519608
 20
99.3649524831
 30
0.0
 11
199.4737519608
 21
99.3649524831
 31
0.0
  0
LINE
  5
12D
330
40
100
AcDbEntity
  8
0012334
  6
Continuous
 62
     7
100
AcDbLine
 10
199.4737519608
 20
98.4449524831
 30
0.0
 11
199.4737519608
 21
99.3649524831
 31
0.0
  0
LINE
  5
130
330
40
100
AcDbEntity
  8
DV1_Default
  6
CENTER2
 62
     7
100
AcDbLine
 10
108.2237520148
 20
103.4449524831
 30
0.0
 11
104.7237519068
 21
103.4449524831
 31
0.0
  0
LINE
  5
131
330
40
100
AcDbEntity
  8
DV1_Default
  6
CENTER2
 62
     7
100
AcDbLine
 10
106.4737519608
 20
105.1949525371
 30
0.0
 11
106.4737519608
 21
101.694952429
 31
0.0
  0
LINE
  5
132
330
40
100
AcDbEntity
  8
DV1_Default
  6
CENTER2
 62
     7
100
AcDbLine
 10
109.9737520689
 20
103.4449524831
 30
0.0
 11
112.2237519608
 21
103.4449524831
 31
0.0
  0
LINE
  5
133
330
40
100
AcDbEntity
  8
DV1_Default
  6
CENTER2
 62
     7
100
AcDbLine
 10
106.4737519608
 20
106.9449525911
 30
0.0
 11
106.4737519608
 21
109.1949524831
 31
0.0
  0
LINE
  5
134
330
40
100
AcDbEntity
  8
DV1_Default
  6
CENTER2
 62
     7
100
AcDbLine
 10
102.9737518528
 20
103.4449524831
 30
0.0
 11
100.7237519608
 21
103.4449524831
 31
0.0
  0
LINE
  5
135
330
40
100
AcDbEntity
  8
DV1_Default
  6
CENTER2
 62
     7
100
AcDbLine
 10
106.4737519608
 20
99.944952375
 30
0.0
 11
106.4737519608
 21
97.6949524831
 31
0.0
  0
LINE
  5
136
330
40
100
AcDbEntity
  8
DV1_Default
  6
CENTER2
 62
     7
100
AcDbLine
 10
130.2237520148
 20
103.4449524831
 30
0.0
 11
126.7237519068
 21
103.4449524831
 31
0.0
  0
LINE
  5
137
330
40
100
AcDbEntity
  8
DV1_Default
  6
CENTER2
 62
     7
100
AcDbLine
 10
128.4737519608
 20
105.1949525371
 30
0.0
 11
128.4737519608
 21
101.694952429
 31
0.0
  0
LINE
  5
138
330
40
100
AcDbEntity
  8
DV1_Default
  6
CENTER2
 62
     7
100
AcDbLine
 10
131.9737520689
 20
103.4449524831
 30
0.0
 11
138.4737519608
 21
103.4449524831
 31
0.0
  0
LINE
  5
139
330
40
100
AcDbEntity
  8
DV1_Default
  6
CENTER2
 62
     7
100
AcDbLine
 10
128.4737519608
 20
106.9449525911
 30
0.0
 11
128.4737519608
 21
113.4449524831
 31
0.0
  0
LINE
  5
13A
330
40
100
AcDbEntity
  8
DV1_Default
  6
CENTER2
 62
     7
100
AcDbLine
 10
124.9737518528
 20
103.4449524831
 30
0.0
 11
118.4737519608
 21
103.4449524831
 31
0.0
  0
LINE
  5
13B
330
40
100
AcDbEntity
  8
DV1_Default
  6
CENTER2
 62
     7
100
AcDbLine
 10
128.4737519608
 20
99.944952375
 30
0.0
 11
128.4737519608
 21
93.4449524831
 31
0.0
  0
LINE
  5
13C
330
40
100
AcDbEntity
  8
DV1_Default
  6
CENTER2
 62
     7
100
AcDbLine
 10
87.4737519608
 20
103.4449524831
 30
0.0
 11
209.4737519608
 21
103.4449524831
 31
0.0
  0
LINE
  5
13D
330
40
100
AcDbEntity
  8
DV1_Default
  6
CENTER2
 62
     7
100
AcDbLine
 10
159.7237520148
 20
103.4449524831
 30
0.0
 11
156.2237519068
 21
103.4449524831
 31
0.0
  0
LINE
  5
13E
330
40
100
AcDbEntity
  8
DV1_Default
  6
CENTER2
 62
     7
100
AcDbLine
 10
157.9737519608
 20
105.1949525371
 30
0.0
 11
157.9737519608
 21
101.694952429
 31
0.0
  0
LINE
  5
13F
330
40
100
AcDbEntity
  8
DV1_Default
  6
CENTER2
 62
     7
100
AcDbLine
 10
161.4737520689
 20
103.4449524831
 30
0.0
 11
164.9737519608
 21
103.4449524831
 31
0.0
  0
LINE
  5
140
330
40
100
AcDbEntity
  8
DV1_Default
  6
CENTER2
 62
     7
100
AcDbLine
 10
157.9737519608
 20
106.9449525911
 30
0.0
 11
157.9737519608
 21
110.4449524831
 31
0.0
  0
LINE
  5
141
330
40
100
AcDbEntity
  8
DV1_Default
  6
CENTER2
 62
     7
100
AcDbLine
 10
154.4737518528
 20
103.4449524831
 30
0.0
 11
150.9737519608
 21
103.4449524831
 31
0.0
  0
LINE
  5
142
330
40
100
AcDbEntity
  8
DV1_Default
  6
CENTER2
 62
     7
100
AcDbLine
 10
157.9737519608
 20
99.944952375
 30
0.0
 11
157.9737519608
 21
96.4449524831
 31
0.0
  0
ENDBLK
  5
144
330
40
100
AcDbEntity
  8
0
100
AcDbBlockEnd
  0
BLOCK
  5
14E
330
145
100
AcDbEntity
  8
0
100
AcDbBlockBegin
  2
GDimGGroup
 70
     0
 10
0.0
 20
0.0
 30
0.0
  3
GDimGGroup
  1

  0
HATCH
  5
147
330
145
100
AcDbEntity
  8
Default
  6
Continuous
 62
     7
100
AcDbHatch
 10
0.0
 20
0.0
 30
0.0
210
0.0
220
0.0
230
1.0
  2
SOLID
 70
     1
 71
     0
 91
        1
 92
        1
 93
        3
 72
     1
 10
186.1131568888848
 20
110.9449523750228
 11
187.2798235915626
 21
110.9449523750228
 72
     1
 10
187.2798235915626
 20
110.9449523750228
 11
186.6964902402237
 21
114.4449524830562
 72
     1
 10
186.6964902402237
 20
114.4449524830562
 11
186.1131568888848
 21
110.9449523750228
 97
        0
 75
     0
 76
     1
 98
        0
  0
LINE
  5
148
330
145
100
AcDbEntity
  8
Default
  6
Continuous
 62
     7
100
AcDbLine
 10
193.8237519608
 20
114.4449524831
 30
0.0
 11
184.9464901862
 21
114.4449524831
 31
0.0
  0
LINE
  5
149
330
145
100
AcDbEntity
  8
Default
  6
Continuous
 62
     7
100
AcDbLine
 10
186.6964902402
 20
114.4449524831
 30
0.0
 11
186.6964902402
 21
103.4449525427
 31
0.0
  0
TEXT
  5
14B
330
145
100
AcDbEntity
  8
Default
  6
Continuous
 62
     7
100
AcDbText
 10
185.8214902402
 20
98.2516112348
 30
0.0
 40
3.5
  1
O
 50
90.0
  7
SEACAD_Solid_Edge_ISO1_Symbols
 11
182.3214902402
 21
98.2516112348
 31
0.0
100
AcDbText
 73
     3
  0
TEXT
  5
14D
330
145
100
AcDbEntity
  8
Default
  6
Continuous
 62
     7
100
AcDbText
 10
185.8214902402
 20
104.342839305
 30
0.0
 40
3.5
  1
22
 50
90.0
  7
SEACAD_Solid_Edge_ISO
 11
182.3214902402
 21
104.342839305
 31
0.0
100
AcDbText
 73
     3
  0
ENDBLK
  5
14F
330
145
100
AcDbEntity
  8
0
100
AcDbBlockEnd
  0
BLOCK
  5
159
330
150
100
AcDbEntity
  8
0
100
AcDbBlockBegin
  2
GDimGGroup1
 70
     0
 10
0.0
 20
0.0
 30
0.0
  3
GDimGGroup1
  1

  0
HATCH
  5
152
330
150
100
AcDbEntity
  8
Default
  6
Continuous
 62
     7
100
AcDbHatch
 10
0.0
 20
0.0
 30
0.0
210
0.0
220
0.0
230
1.0
  2
SOLID
 70
     1
 71
     0
 91
        1
 92
        1
 93
        3
 72
     1
 10
172.1366890102649
 20
119.9449523750228
 11
171.5533556589261
 21
123.4449524830562
 72
     1
 10
171.5533556589261
 20
123.4449524830562
 11
170.9700223075872
 21
119.9449523750228
 72
     1
 10
170.9700223075872
 20
119.9449523750228
 11
172.1366890102649
 21
119.9449523750228
 97
        0
 75
     0
 76
     1
 98
        0
  0
HATCH
  5
153
330
150
100
AcDbEntity
  8
Default
  6
Continuous
 62
     7
100
AcDbHatch
 10
0.0
 20
0.0
 30
0.0
210
0.0
220
0.0
230
1.0
  2
SOLID
 70
     1
 71
     0
 91
        1
 92
        1
 93
        3
 72
     1
 10
172.1366890102649
 20
86.94495348515926
 11
170.9700223075872
 21
86.94495348515926
 72
     1
 10
170.9700223075872
 20
86.94495348515926
 11
171.5533556589261
 21
83.44495337712584
 72
     1
 10
171.5533556589261
 20
83.44495337712584
 11
172.1366890102649
 21
86.94495348515926
 97
        0
 75
     0
 76
     1
 98
        0
  0
LINE
  5
154
330
150
100
AcDbEntity
  8
Default
  6
Continuous
 62
     7
100
AcDbLine
 10
163.9737519608
 20
123.4449524831
 30
0.0
 11
173.3033557129
 21
123.4449524831
 31
0.0
  0
LINE
  5
155
330
150
100
AcDbEntity
  8
Default
  6
Continuous
 62
     7
100
AcDbLine
 10
163.9737519608
 20
83.4449524831
 30
0.0
 11
173.3033557129
 21
83.4449524831
 31
0.0
  0
LINE
  5
156
330
150
100
AcDbEntity
  8
Default
  6
Continuous
 62
     7
100
AcDbLine
 10
171.5533556589
 20
123.4449524831
 30
0.0
 11
171.5533556589
 21
83.4449533771
 31
0.0
  0
TEXT
  5
157
330
150
100
AcDbEntity
  8
Default
  6
Continuous
 62
     7
100
AcDbText
 10
170.6783556589
 20
98.3311570768
 30
0.0
 40
3.5
  1
O
 50
90.0
  7
SEACAD_Solid_Edge_ISO1_Symbols
 11
167.1783556589
 21
98.3311570768
 31
0.0
100
AcDbText
 73
     3
  0
TEXT
  5
158
330
150
100
AcDbEntity
  8
Default
  6
Continuous
 62
     7
100
AcDbText
 10
170.6783556589
 20
104.422385147
 30
0.0
 40
3.5
  1
40
 50
90.0
  7
SEACAD_Solid_Edge_ISO
 11
167.1783556589
 21
104.422385147
 31
0.0
100
AcDbText
 73
     3
  0
ENDBLK
  5
15A
330
150
100
AcDbEntity
  8
0
100
AcDbBlockEnd
  0
BLOCK
  5
163
330
15B
100
AcDbEntity
  8
0
100
AcDbBlockBegin
  2
GDimGGroup2
 70
     0
 10
0.0
 20
0.0
 30
0.0
  3
GDimGGroup2
  1

  0
HATCH
  5
15D
330
15B
100
AcDbEntity
  8
Default
  6
Continuous
 62
     7
100
AcDbHatch
 10
0.0
 20
0.0
 30
0.0
210
0.0
220
0.0
230
1.0
  2
SOLID
 70
     1
 71
     0
 91
        1
 92
        1
 93
        3
 72
     1
 10
217.5042346932019
 20
111.9449525910896
 11
216.3375679905241
 21
111.9449525910896
 72
     1
 10
216.3375679905241
 20
111.9449525910896
 11
216.920901341863
 21
108.4449524830562
 72
     1
 10
216.920901341863
 20
108.4449524830562
 11
217.5042346932019
 21
111.9449525910896
 97
        0
 75
     0
 76
     1
 98
        0
  0
HATCH
  5
15E
330
15B
100
AcDbEntity
  8
Default
  6
Continuous
 62
     7
100
AcDbHatch
 10
0.0
 20
0.0
 30
0.0
210
0.0
220
0.0
230
1.0
  2
SOLID
 70
     1
 71
     0
 91
        1
 92
        1
 93
        3
 72
     1
 10
217.5042346932019
 20
94.94495237502277
 11
216.920901341863
 21
98.44495248305618
 72
     1
 10
216.920901341863
 20
98.44495248305618
 11
216.3375679905241
 21
94.94495237502277
 72
     1
 10
216.3375679905241
 20
94.94495237502277
 11
217.5042346932019
 21
94.94495237502277
 97
        0
 75
     0
 76
     1
 98
        0
  0
LINE
  5
15F
330
15B
100
AcDbEntity
  8
Default
  6
Continuous
 62
     7
100
AcDbLine
 10
199.4737519608
 20
108.4449524831
 30
0.0
 11
218.6709013959
 21
108.4449524831
 31
0.0
  0
LINE
  5
160
330
15B
100
AcDbEntity
  8
Default
  6
Continuous
 62
     7
100
AcDbLine
 10
199.4737519608
 20
98.4449524831
 30
0.0
 11
218.6709013959
 21
98.4449524831
 31
0.0
  0
LINE
  5
161
330
15B
100
AcDbEntity
  8
Default
  6
Continuous
 62
     7
100
AcDbLine
 10
216.9209013419
 20
115.4449526991
 30
0.0
 11
216.9209013419
 21
91.4449515592
 31
0.0
  0
TEXT
  5
162
330
15B
100
AcDbEntity
  8
Default
  6
Continuous
 62
     7
100
AcDbText
 10
216.0459013419
 20
100.4937008474
 30
0.0
 40
3.5
  1
M10
 50
90.0
  7
SEACAD_Solid_Edge_ISO
 11
212.5459013419
 21
100.4937008474
 31
0.0
100
AcDbText
 73
     3
  0
ENDBLK
  5
164
330
15B
100
AcDbEntity
  8
0
100
AcDbBlockEnd
  0
BLOCK
  5
167
330
166
100
AcDbEntity
  8
0
100
AcDbBlockBegin
  2
_OBLIQUE
 70
     0
 10
0.0
 20
0.0
 30
0.0
  3
_OBLIQUE
  1

  0
LINE
  5
169
330
166
100
AcDbEntity
  8
0
  6
ByBlock
 62
     0
370
    -2
100
AcDbLine
 10
-0.5
 20
-0.5
 30
0.0
 11
0.5
 21
0.5
 31
0.0
  0
ENDBLK
  5
168
330
166
100
AcDbEntity
  8
0
100
AcDbBlockEnd
  0
BLOCK
  5
16B
330
16A
100
AcDbEntity
  8
0
100
AcDbBlockBegin
  2
_DOT
 70
     0
 10
0.0
 20
0.0
 30
0.0
  3
_DOT
  1

  0
POLYLINE
  5
16D
330
16A
100
AcDbEntity
  8
0
  6
ByBlock
 62
     0
100
AcDb2dPolyline
 66
     1
 10
0.0
 20
0.0
 30
0.0
 70
     1
 40
0.5
 41
0.5
  0
VERTEX
  5
16F
330
16D
100
AcDbEntity
  8
0
  6
ByBlock
 62
     0
100
AcDbVertex
100
AcDb2dVertex
 10
-0.25
 20
0.0
 30
0.0
 42
1.0
  0
VERTEX
  5
170
330
16D
100
AcDbEntity
  8
0
  6
ByBlock
 62
     0
100
AcDbVertex
100
AcDb2dVertex
 10
0.25
 20
0.0
 30
0.0
 42
1.0
  0
SEQEND
  5
171
330
16D
100
AcDbEntity
  8
0
  6
ByBlock
 62
     0
  0
LINE
  5
16E
330
16A
100
AcDbEntity
  8
0
  6
ByBlock
 62
     0
370
    -2
100
AcDbLine
 10
-0.5
 20
0.0
 30
0.0
 11
-1.0
 21
0.0
 31
0.0
  0
ENDBLK
  5
16C
330
16A
100
AcDbEntity
  8
0
100
AcDbBlockEnd
  0
BLOCK
  5
175
330
172
100
AcDbEntity
  8
0
100
AcDbBlockBegin
  2
_SE_FILLED
 70
     0
 10
0.0
 20
0.0
 30
0.0
  3
_SE_FILLED
  1

  0
SOLID
  5
173
330
172
100
AcDbEntity
  8
0
 62
     0
100
AcDbTrace
 10
0.0
 20
0.0
 30
0.0
 11
-1.0
 21
-0.1665
 31
0.0
 12
-1.0
 22
0.1665
 32
0.0
 13
0.0
 23
0.0
 33
0.0
  0
LINE
  5
174
330
172
100
AcDbEntity
  8
0
 62
     0
100
AcDbLine
 10
0.0
 20
0.0
 30
0.0
 11
-1.0
 21
0.0
 31
0.0
  0
ENDBLK
  5
176
330
172
100
AcDbEntity
  8
0
100
AcDbBlockEnd
  0
BLOCK
  5
180
330
179
100
AcDbEntity
  8
0
100
AcDbBlockBegin
  2
DMBLK84
 70
     0
 10
0.0
 20
0.0
 30
0.0
  3
DMBLK84
  1

  0
HATCH
  5
17A
330
179
100
AcDbEntity
  8
Default
  6
Continuous
 62
     7
100
AcDbHatch
 10
0.0
 20
0.0
 30
0.0
210
0.0
220
0.0
230
1.0
  2
SOLID
 70
     1
 71
     0
 91
        1
 92
        1
 93
        3
 72
     1
 10
190.973751852788
 20
140.3779995234839
 11
190.973751852788
 21
139.2113328208061
 72
     1
 10
190.973751852788
 20
139.2113328208061
 11
194.4737519608215
 21
139.794666172145
 72
     1
 10
194.4737519608215
 20
139.794666172145
 11
190.973751852788
 21
140.3779995234839
 97
        0
 75
     0
 76
     1
 98
        0
  0
HATCH
  5
17B
330
179
100
AcDbEntity
  8
Default
  6
Continuous
 62
     7
100
AcDbHatch
 10
0.0
 20
0.0
 30
0.0
210
0.0
220
0.0
230
1.0
  2
SOLID
 70
     1
 71
     0
 91
        1
 92
        1
 93
        3
 72
     1
 10
166.9737525754944
 20
140.3779995234839
 11
163.4737524674609
 21
139.794666172145
 72
     1
 10
163.4737524674609
 20
139.794666172145
 11
166.9737525754944
 21
139.2113328208061
 72
     1
 10
166.9737525754944
 20
139.2113328208061
 11
166.9737525754944
 21
140.3779995234839
 97
        0
 75
     0
 76
     1
 98
        0
  0
LINE
  5
17C
330
179
100
AcDbEntity
  8
Default
  6
Continuous
 62
     7
100
AcDbLine
 10
194.4737519608
 20
113.7949524831
 30
0.0
 11
194.4737519608
 21
141.5446662262
 31
0.0
  0
LINE
  5
17D
330
179
100
AcDbEntity
  8
Default
  6
Continuous
 62
     7
100
AcDbLine
 10
163.4737519608
 20
122.9449524831
 30
0.0
 11
163.4737519608
 21
141.5446662262
 31
0.0
  0
LINE
  5
17E
330
179
100
AcDbEntity
  8
Default
  6
Continuous
 62
     7
100
AcDbLine
 10
194.4737519608
 20
139.7946661721
 30
0.0
 11
163.4737524675
 21
139.7946661721
 31
0.0
  0
TEXT
  5
17F
330
179
100
AcDbEntity
  8
Default
  6
Continuous
 62
     7
100
AcDbText
 10
177.343070396
 20
140.6696661721
 30
0.0
 40
3.5
  1
31
  7
SEACAD_Solid_Edge_ISO
 11
177.343070396
 21
144.1696661721
 31
0.0
100
AcDbText
 73
     3
  0
ENDBLK
  5
181
330
179
100
AcDbEntity
  8
0
100
AcDbBlockEnd
  0
BLOCK
  5
18A
330
183
100
AcDbEntity
  8
0
100
AcDbBlockBegin
  2
DMBLK85
 70
     0
 10
0.0
 20
0.0
 30
0.0
  3
DMBLK85
  1

  0
HATCH
  5
184
330
183
100
AcDbEntity
  8
Default
  6
Continuous
 62
     7
100
AcDbHatch
 10
0.0
 20
0.0
 30
0.0
210
0.0
220
0.0
230
1.0
  2
SOLID
 70
     1
 71
     0
 91
        1
 92
        1
 93
        3
 72
     1
 10
190.973751852788
 20
148.7780001552931
 11
190.973751852788
 21
147.6113334526154
 72
     1
 10
190.973751852788
 20
147.6113334526154
 11
194.4737519608215
 21
148.1946668039542
 72
     1
 10
194.4737519608215
 20
148.1946668039542
 11
190.973751852788
 21
148.7780001552931
 97
        0
 75
     0
 76
     1
 98
        0
  0
HATCH
  5
185
330
183
100
AcDbEntity
  8
Default
  6
Continuous
 62
     7
100
AcDbHatch
 10
0.0
 20
0.0
 30
0.0
210
0.0
220
0.0
230
1.0
  2
SOLID
 70
     1
 71
     0
 91
        1
 92
        1
 93
        3
 72
     1
 10
144.9737526947036
 20
148.7780001552931
 11
141.4737525866702
 21
148.1946668039542
 72
     1
 10
141.4737525866702
 20
148.1946668039542
 11
144.9737526947036
 21
147.6113334526154
 72
     1
 10
144.9737526947036
 20
147.6113334526154
 11
144.9737526947036
 21
148.7780001552931
 97
        0
 75
     0
 76
     1
 98
        0
  0
LINE
  5
186
330
183
100
AcDbEntity
  8
Default
  6
Continuous
 62
     7
100
AcDbLine
 10
194.4737519608
 20
113.7949524831
 30
0.0
 11
194.4737519608
 21
149.944666858
 31
0.0
  0
LINE
  5
187
330
183
100
AcDbEntity
  8
Default
  6
Continuous
 62
     7
100
AcDbLine
 10
141.4737519608
 20
134.4449524831
 30
0.0
 11
141.4737519608
 21
149.944666858
 31
0.0
  0
LINE
  5
188
330
183
100
AcDbEntity
  8
Default
  6
Continuous
 62
     7
100
AcDbLine
 10
194.4737519608
 20
148.194666804
 30
0.0
 11
141.4737525867
 21
148.194666804
 31
0.0
  0
TEXT
  5
189
330
183
100
AcDbEntity
  8
Default
  6
Continuous
 62
     7
100
AcDbText
 10
166.0646613647
 20
149.069666804
 30
0.0
 40
3.5
  1
53
  7
SEACAD_Solid_Edge_ISO
 11
166.0646613647
 21
152.569666804
 31
0.0
100
AcDbText
 73
     3
  0
ENDBLK
  5
18B
330
183
100
AcDbEntity
  8
0
100
AcDbBlockEnd
  0
BLOCK
  5
194
330
18D
100
AcDbEntity
  8
0
100
AcDbBlockBegin
  2
DMBLK86
 70
     0
 10
0.0
 20
0.0
 30
0.0
  3
DMBLK86
  1

  0
HATCH
  5
18E
330
18D
100
AcDbEntity
  8
Default
  6
Continuous
 62
     7
100
AcDbHatch
 10
0.0
 20
0.0
 30
0.0
210
0.0
220
0.0
230
1.0
  2
SOLID
 70
     1
 71
     0
 91
        1
 92
        1
 93
        3
 72
     1
 10
190.973751852788
 20
157.1780007871024
 11
190.973751852788
 21
156.0113340844246
 72
     1
 10
190.973751852788
 20
156.0113340844246
 11
194.4737519608215
 21
156.5946674357635
 72
     1
 10
194.4737519608215
 20
156.5946674357635
 11
190.973751852788
 21
157.1780007871024
 97
        0
 75
     0
 76
     1
 98
        0
  0
HATCH
  5
18F
330
18D
100
AcDbEntity
  8
Default
  6
Continuous
 62
     7
100
AcDbHatch
 10
0.0
 20
0.0
 30
0.0
210
0.0
220
0.0
230
1.0
  2
SOLID
 70
     1
 71
     0
 91
        1
 92
        1
 93
        3
 72
     1
 10
86.97375063834339
 20
157.1780007871024
 11
83.47375053030997
 21
156.5946674357635
 72
     1
 10
83.47375053030997
 20
156.5946674357635
 11
86.97375063834339
 21
156.0113340844246
 72
     1
 10
86.97375063834339
 20
156.0113340844246
 11
86.97375063834339
 21
157.1780007871024
 97
        0
 75
     0
 76
     1
 98
        0
  0
LINE
  5
190
330
18D
100
AcDbEntity
  8
Default
  6
Continuous
 62
     7
100
AcDbLine
 10
194.4737519608
 20
113.7949524831
 30
0.0
 11
194.4737519608
 21
158.3446674898
 31
0.0
  0
LINE
  5
191
330
18D
100
AcDbEntity
  8
Default
  6
Continuous
 62
     7
100
AcDbLine
 10
83.4737519608
 20
118.5300152194
 30
0.0
 11
83.4737519608
 21
158.3446674898
 31
0.0
  0
LINE
  5
192
330
18D
100
AcDbEntity
  8
Default
  6
Continuous
 62
     7
100
AcDbLine
 10
194.4737519608
 20
156.5946674358
 30
0.0
 11
83.4737505303
 21
156.5946674358
 31
0.0
  0
TEXT
  5
193
330
18D
100
AcDbEntity
  8
Default
  6
Continuous
 62
     7
100
AcDbText
 10
136.8260239728
 20
157.4696674358
 30
0.0
 40
3.5
  1
111
  7
SEACAD_Solid_Edge_ISO
 11
136.8260239728
 21
160.9696674358
 31
0.0
100
AcDbText
 73
     3
  0
ENDBLK
  5
195
330
18D
100
AcDbEntity
  8
0
100
AcDbBlockEnd
  0
BLOCK
  5
19E
330
197
100
AcDbEntity
  8
0
100
AcDbBlockBegin
  2
DMBLK87
 70
     0
 10
0.0
 20
0.0
 30
0.0
  3
DMBLK87
  1

  0
HATCH
  5
198
330
197
100
AcDbEntity
  8
Default
  6
Continuous
 62
     7
100
AcDbHatch
 10
0.0
 20
0.0
 30
0.0
210
0.0
220
0.0
230
1.0
  2
SOLID
 70
     1
 71
     0
 91
        1
 92
        1
 93
        3
 72
     1
 10
118.9737520688548
 20
62.307448128316
 11
118.9737520688548
 21
63.47411483099381
 72
     1
 10
118.9737520688548
 20
63.47411483099381
 11
115.4737519608214
 21
62.8907814796549
 72
     1
 10
115.4737519608214
 20
62.8907814796549
 11
118.9737520688548
 21
62.307448128316
 97
        0
 75
     0
 76
     1
 98
        0
  0
HATCH
  5
199
330
197
100
AcDbEntity
  8
Default
  6
Continuous
 62
     7
100
AcDbHatch
 10
0.0
 20
0.0
 30
0.0
210
0.0
220
0.0
230
1.0
  2
SOLID
 70
     1
 71
     0
 91
        1
 92
        1
 93
        3
 72
     1
 10
171.9737505116835
 20
62.307448128316
 11
175.4737506197169
 21
62.8907814796549
 72
     1
 10
175.4737506197169
 20
62.8907814796549
 11
171.9737505116835
 21
63.47411483099381
 72
     1
 10
171.9737505116835
 20
63.47411483099381
 11
171.9737505116835
 21
62.307448128316
 97
        0
 75
     0
 76
     1
 98
        0
  0
LINE
  5
19A
330
197
100
AcDbEntity
  8
Default
  6
Continuous
 62
     7
100
AcDbLine
 10
115.4737519608
 20
72.4449524831
 30
0.0
 11
115.4737519608
 21
61.1407814256
 31
0.0
  0
LINE
  5
19B
330
197
100
AcDbEntity
  8
Default
  6
Continuous
 62
     7
100
AcDbLine
 10
175.4737519608
 20
84.5968756581
 30
0.0
 11
175.4737519608
 21
61.1407814256
 31
0.0
  0
LINE
  5
19C
330
197
100
AcDbEntity
  8
Default
  6
Continuous
 62
     7
100
AcDbLine
 10
115.4737519608
 20
62.8907814797
 30
0.0
 11
175.4737506197
 21
62.8907814797
 31
0.0
  0
TEXT
  5
19D
330
197
100
AcDbEntity
  8
Default
  6
Continuous
 62
     7
100
AcDbText
 10
143.3657967448
 20
63.7657814797
 30
0.0
 40
3.5
  1
60
  7
SEACAD_Solid_Edge_ISO
 11
143.3657967448
 21
67.2657814797
 31
0.0
100
AcDbText
 73
     3
  0
ENDBLK
  5
19F
330
197
100
AcDbEntity
  8
0
100
AcDbBlockEnd
  0
BLOCK
  5
1A8
330
1A1
100
AcDbEntity
  8
0
100
AcDbBlockBegin
  2
DMBLK88
 70
     0
 10
0.0
 20
0.0
 30
0.0
  3
DMBLK88
  1

  0
HATCH
  5
1A2
330
1A1
100
AcDbEntity
  8
Default
  6
Continuous
 62
     7
100
AcDbHatch
 10
0.0
 20
0.0
 30
0.0
210
0.0
220
0.0
230
1.0
  2
SOLID
 70
     1
 71
     0
 91
        1
 92
        1
 93
        3
 72
     1
 10
190.973751852788
 20
131.9780007543198
 11
190.973751852788
 21
130.811334051642
 72
     1
 10
190.973751852788
 20
130.811334051642
 11
194.4737519608215
 21
131.3946674029809
 72
     1
 10
194.4737519608215
 20
131.3946674029809
 11
190.973751852788
 21
131.9780007543198
 97
        0
 75
     0
 76
     1
 98
        0
  0
HATCH
  5
1A3
330
1A1
100
AcDbEntity
  8
Default
  6
Continuous
 62
     7
100
AcDbHatch
 10
0.0
 20
0.0
 30
0.0
210
0.0
220
0.0
230
1.0
  2
SOLID
 70
     1
 71
     0
 91
        1
 92
        1
 93
        3
 72
     1
 10
178.9737526798025
 20
131.9780007543198
 11
175.4737525717691
 21
131.3946674029809
 72
     1
 10
175.4737525717691
 20
131.3946674029809
 11
178.9737526798025
 21
130.811334051642
 72
     1
 10
178.9737526798025
 20
130.811334051642
 11
178.9737526798025
 21
131.9780007543198
 97
        0
 75
     0
 76
     1
 98
        0
  0
LINE
  5
1A4
330
1A1
100
AcDbEntity
  8
Default
  6
Continuous
 62
     7
100
AcDbLine
 10
194.4737519608
 20
113.7949524831
 30
0.0
 11
194.4737519608
 21
133.144667457
 31
0.0
  0
LINE
  5
1A5
330
1A1
100
AcDbEntity
  8
Default
  6
Continuous
 62
     7
100
AcDbLine
 10
175.4737519608
 20
122.293029308
 30
0.0
 11
175.4737519608
 21
133.144667457
 31
0.0
  0
LINE
  5
1A6
330
1A1
100
AcDbEntity
  8
Default
  6
Continuous
 62
     7
100
AcDbLine
 10
194.4737519608
 20
131.394667403
 30
0.0
 11
175.4737525718
 21
131.394667403
 31
0.0
  0
TEXT
  5
1A7
330
1A1
100
AcDbEntity
  8
Default
  6
Continuous
 62
     7
100
AcDbText
 10
183.183979539
 20
132.269667403
 30
0.0
 40
3.5
  1
19
  7
SEACAD_Solid_Edge_ISO
 11
183.183979539
 21
135.769667403
 31
0.0
100
AcDbText
 73
     3
  0
ENDBLK
  5
1A9
330
1A1
100
AcDbEntity
  8
0
100
AcDbBlockEnd
  0
BLOCK
  5
1AD
330
1AA
100
AcDbEntity
  8
0
100
AcDbBlockBegin
  2
SEANNOT_GROUP
 70
     0
 10
0.0
 20
0.0
 30
0.0
  3
SEANNOT_GROUP
  1

  0
TEXT
  5
1AC
330
1AA
100
AcDbEntity
  8
Default
  6
Continuous
 62
     7
100
AcDbText
 10
243.1483969886
 20
25.7525109624
 30
0.0
 40
3.5
  1
256342240
  7
SEACAD_Solid_Edge_ANSIB
 11
243.1483969886
 21
29.2525109624
 31
0.0
100
AcDbText
 73
     3
  0
ENDBLK
  5
1AE
330
1AA
100
AcDbEntity
  8
0
100
AcDbBlockEnd
  0
BLOCK
  5
1B2
330
1AF
100
AcDbEntity
  8
0
100
AcDbBlockBegin
  2
SEANNOT_GROUP1
 70
     0
 10
0.0
 20
0.0
 30
0.0
  3
SEANNOT_GROUP1
  1

  0
TEXT
  5
1B1
330
1AF
100
AcDbEntity
  8
Default
  6
Continuous
 62
     7
100
AcDbText
 10
243.1477357349
 20
20.0537100543
 30
0.0
 40
3.5
  1
04.12.2015
  7
SEACAD_Solid_Edge_ANSI
 11
243.1477357349
 21
23.5537100543
 31
0.0
100
AcDbText
 73
     3
  0
ENDBLK
  5
1B3
330
1AF
100
AcDbEntity
  8
0
100
AcDbBlockEnd
  0
BLOCK
  5
1B6
330
1B4
100
AcDbEntity
  8
0
100
AcDbBlockBegin
  2
SEANNOT_GROUP2
 70
     0
 10
0.0
 20
0.0
 30
0.0
  3
SEANNOT_GROUP2
  1

  0
TEXT
  5
1B5
330
1B4
100
AcDbEntity
  8
Default
  6
Continuous
 62
     7
100
AcDbText
 10
243.1795282745
 20
31.5598894014
 30
0.0
 40
3.5
  1
HSK-A63_KFD22x060
 41
0.9
  7
SEACAD_Solid_Edge_ANSIB
 11
243.1795282745
 21
35.0598894014
 31
0.0
100
AcDbText
 73
     3
  0
ENDBLK
  5
1B7
330
1B4
100
AcDbEntity
  8
0
100
AcDbBlockEnd
  0
BLOCK
  5
1BA
330
1B8
100
AcDbEntity
  8
0
100
AcDbBlockBegin
  2
SEANNOT_GROUP3
 70
     0
 10
0.0
 20
0.0
 30
0.0
  3
SEANNOT_GROUP3
  1

  0
TEXT
  5
1B9
330
1B8
100
AcDbEntity
  8
Default
  6
Continuous
 62
     7
100
AcDbText
 10
243.2357917511
 20
14.1955389783
 30
0.0
 40
3.5
  1
1:1
  7
SEACAD_Solid_Edge_ANSI
 11
243.2357917511
 21
17.6955389783
 31
0.0
100
AcDbText
 73
     3
  0
ENDBLK
  5
1BB
330
1B8
100
AcDbEntity
  8
0
100
AcDbBlockEnd
  0
BLOCK
  5
209
330
1BC
100
AcDbEntity
  8
0
100
AcDbBlockBegin
  2
RF-Massblatt_2016
 70
     0
 10
0.0
 20
0.0
 30
0.0
  3
RF-Massblatt_2016
  1

  0
MTEXT
  5
1BD
102
{ACAD_XDICTIONARY
360
213
102
}
330
1BC
100
AcDbEntity
  8
Default
100
AcDbMText
 10
15.2206856049
 20
34.8070876502
 30
0.0
 40
2.5
 41
48.9706096033
 71
     1
 72
     1
  3
{\fVectora Com 45 Light|b1||i0||c0|p34;\C7;\H2.5;\W1.;REGO-FIX AG\P}{\fVectora Com 45 Light|b0||i0||c0|p34;\C7;\H2.5;\W1.;Obermattweg 60\P}{\fVectora Com 45 Light|b0||i0||c0|p34;\C7;\H2.5;\W1.;4456 Tenniken / Switzerland\P}{\fVectora Com 45 Light|b0
  3
||i0||c0|p34;\C7;\H2.5;\W1.;\P}{\fVectora Com 45 Light|b0||i0||c0|p34;\C7;\H2.5;\W1.;P +41 61 976 14 66\P}{\fVectora Com 45 Light|b0||i0||c0|p34;\C7;\H2.5;\W1.;F +41 61 976 14 14\P}{\fVectora Com 45 Light|b1||i0||c0|p34;\C7;\H2.5;\W1.;www.rego-fix.c
  1
om}
 73
     1
 44
1.0
1001
ACAD
1000
ACAD_MTEXT_DEFINED_HEIGHT_BEGIN
1070
    46
1040
31.3191355437
1000
ACAD_MTEXT_DEFINED_HEIGHT_END
  0
MTEXT
  5
1BE
102
{ACAD_XDICTIONARY
360
215
102
}
330
1BC
100
AcDbEntity
  8
Default
100
AcDbMText
 10
90.3836341545
 20
34.4892285804
 30
0.0
 40
2.5
 41
104.0282149141
 71
     1
 72
     1
  3
{\fSolid Edge ISO|b0||i0||c0|p34;\C7;\H2.;\W1.;This is a non-controlled copy. All information given herein is subject to change without notice\P}{\fSolid Edge ISO|b0||i0||c0|p34;\C7;\H2.;\W1.;\P}{\fSolid Edge ISO|b0||i0||c0|p34;\C7;\H2.;\W1.;The inf
  3
ormation given herein has been carefully checked and is believed to be correct. REGO-FIX,\P}{\fSolid Edge ISO|b0||i0||c0|p34;\C7;\H2.;\W1.;however, assumes no responsibility or liability for any errors, inaccuracies or omissions that may appear\P}{\
  3
fSolid Edge ISO|b0||i0||c0|p34;\C7;\H2.;\W1.;in this drawing\P}{\fSolid Edge ISO|b0||i0||c0|p34;\C7;\H2.;\W1.;\P}{\fSolid Edge ISO|b0||i0||c0|p34;\C7;\H2.;\W1.;This document is subject to copyright laws. No part of this document may be reproduced or
  3
 transmitted\P}{\fSolid Edge ISO|b0||i0||c0|p34;\C7;\H2.;\W1.;in any form or any means, electronic or mechanic, for any purpose, without the express written permission\P}{\fSolid Edge ISO|b0||i0||c0|p34;\C7;\H2.;\W1.;of REGO-FIX\P}{\fSolid Edge ISO|
  1
b0||i0||c0|p34;\C7;\H1.5;\W1.;\P}
 73
     1
 44
1.0
1001
ACAD
1000
ACAD_MTEXT_DEFINED_HEIGHT_BEGIN
1070
    46
1040
38.4545554545
1000
ACAD_MTEXT_DEFINED_HEIGHT_END
  0
INSERT
  5
1BF
330
1BC
100
AcDbEntity
  8
Default
100
AcDbBlockReference
  2
SEANNOT_GROUP
 10
0.0
 20
0.0
 30
0.0
  0
INSERT
  5
1C0
330
1BC
100
AcDbEntity
  8
Default
100
AcDbBlockReference
  2
SEANNOT_GROUP1
 10
0.0
 20
0.0
 30
0.0
  0
MTEXT
  5
1C1
102
{ACAD_XDICTIONARY
360
217
102
}
330
1BC
100
AcDbEntity
  8
Default
100
AcDbMText
 10
219.0323311835
 20
34.8066733186
 30
0.0
 40
2.5
 41
20.1335141444
 71
     1
 72
     1
  3
{\fVectora Com 45 Light|b0||i0||c0|p34;\C7;\H3.5;\W1.;Type :\P}{\fVectora Com 45 Light|b0||i0||c0|p34;\C7;\H3.5;\W1.;Part No. :\P}{\fVectora Com 45 Light|b0||i0||c0|p34;\C7;\H3.5;\W1.;Date : \P}{\fVectora Com 45 Light|b0||i0||c0|p34;\C7;\H3.5;\W1.;S
  1
cale :}
 73
     1
 44
1.0
1001
ACAD
1000
ACAD_MTEXT_DEFINED_HEIGHT_BEGIN
1070
    46
1040
23.6666666667
1000
ACAD_MTEXT_DEFINED_HEIGHT_END
  0
INSERT
  5
1C2
330
1BC
100
AcDbEntity
  8
Default
100
AcDbBlockReference
  2
SEANNOT_GROUP2
 10
0.0
 20
0.0
 30
0.0
  0
INSERT
  5
1C3
330
1BC
100
AcDbEntity
  8
Default
100
AcDbBlockReference
  2
SEANNOT_GROUP3
 10
0.0
 20
0.0
 30
0.0
  0
LINE
  5
1C4
330
1BC
100
AcDbEntity
  8
Default
  6
Continuous
 62
     7
100
AcDbLine
 10
269.3420202893
 20
189.711288453
 30
0.0
 11
267.226096305
 21
186.6436606679
 31
0.0
  0
LINE
  5
1C5
330
1BC
100
AcDbEntity
  8
Default
  6
Continuous
 62
     7
100
AcDbLine
 10
267.226096305
 20
186.6436606679
 30
0.0
 11
268.2886782185
 21
185.1144666968
 31
0.0
  0
LINE
  5
1C6
330
1BC
100
AcDbEntity
  8
Default
  6
Continuous
 62
     7
100
AcDbLine
 10
268.2886782185
 20
185.1144666968
 30
0.0
 11
267.2561257939
 21
183.6453317033
 31
0.0
  0
LINE
  5
1C7
330
1BC
100
AcDbEntity
  8
Default
  6
Continuous
 62
     7
100
AcDbLine
 10
267.2561257939
 20
183.6453317033
 30
0.0
 11
266.2235733692
 21
185.2646141411
 31
0.0
  0
LINE
  5
1C8
330
1BC
100
AcDbEntity
  8
Default
  6
Continuous
 62
     7
100
AcDbLine
 10
266.2235733692
 20
185.2646141411
 30
0.0
 11
264.7036192408
 21
183.1186606679
 31
0.0
  0
LINE
  5
1C9
330
1BC
100
AcDbEntity
  8
Default
  6
Continuous
 62
     7
100
AcDbLine
 10
264.7036192408
 20
183.1186606679
 30
0.0
 11
262.6269645881
 21
183.1186606679
 31
0.0
  0
LINE
  5
1CA
330
1BC
100
AcDbEntity
  8
Default
  6
Continuous
 62
     7
100
AcDbLine
 10
262.6269645881
 20
183.1186606679
 30
0.0
 11
265.20950063
 21
186.6436606679
 31
0.0
  0
LINE
  5
1CB
330
1BC
100
AcDbEntity
  8
Default
  6
Continuous
 62
     7
100
AcDbLine
 10
265.20950063
 20
186.6436606679
 30
0.0
 11
263.1051264492
 21
189.711288453
 31
0.0
  0
LINE
  5
1CC
330
1BC
100
AcDbEntity
  8
Default
  6
Continuous
 62
     7
100
AcDbLine
 10
263.1051264492
 20
189.711288453
 30
0.0
 11
265.20950063
 21
189.711288453
 31
0.0
  0
LINE
  5
1CD
330
1BC
100
AcDbEntity
  8
Default
  6
Continuous
 62
     7
100
AcDbLine
 10
265.20950063
 20
189.711288453
 30
0.0
 11
266.2235733692
 21
188.0042275094
 31
0.0
  0
LINE
  5
1CE
330
1BC
100
AcDbEntity
  8
Default
  6
Continuous
 62
     7
100
AcDbLine
 10
266.2235733692
 20
188.0042275094
 30
0.0
 11
267.226096305
 21
189.711288453
 31
0.0
  0
LINE
  5
1CF
330
1BC
100
AcDbEntity
  8
Default
  6
Continuous
 62
     7
100
AcDbLine
 10
267.226096305
 20
189.711288453
 30
0.0
 11
269.3420202893
 21
189.711288453
 31
0.0
  0
SPLINE
  5
1D0
330
1BC
100
AcDbEntity
  8
Default
  6
Continuous
 62
     7
100
AcDbSpline
210
0.0
220
0.0
230
1.0
 70
     8
 71
     3
 72
    13
 73
     9
 74
     0
 42
0.0000000012369638
 43
0.0000000001
 12
1.0
 22
0.0
 32
0.0
 13
1.0
 23
0.0
 33
0.0
 40
0.0
 40
0.0
 40
0.0
 40
0.0
 40
0.9091644120227717
 40
0.9091644120227717
 40
0.9091644120227717
 40
0.9554905618911577
 40
0.9554905618911577
 40
1.0
 40
1.0
 40
1.0
 40
1.0
 10
267.8844350992403
 20
183.5460033940301
 30
0.0
 10
269.2912011542862
 20
185.5418094228636
 30
0.0
 10
270.697967209332
 20
187.5376154516972
 30
0.0
 10
272.1047332643779
 20
189.5334214805307
 30
0.0
 10
272.1870447473536
 20
189.6501983627819
 30
0.0
 10
272.2849101975365
 20
189.7112884530078
 30
0.0
 10
272.5159062656886
 20
189.7112884530078
 30
0.0
 10
272.6198544963569
 20
189.6512294752883
 30
0.0
 10
272.7122529236178
 20
189.5334214805307
 30
0.0
  0
SPLINE
  5
1D1
330
1BC
100
AcDbEntity
  8
Default
  6
Continuous
 62
     7
100
AcDbSpline
210
0.0
220
0.0
230
1.0
 70
     8
 71
     3
 72
    16
 73
    12
 74
     0
 42
0.0000000006014133
 43
0.0000000001
 12
1.0
 22
0.0
 32
0.0
 13
1.0
 23
0.0
 33
0.0
 40
0.0
 40
0.0
 40
0.0
 40
0.0
 40
0.4418652593848311
 40
0.4418652593848311
 40
0.4418652593848311
 40
0.455090010411123
 40
0.455090010411123
 40
0.4811129075918901
 40
0.4811129075918901
 40
0.4811129075918901
 40
1.0
 40
1.0
 40
1.0
 40
1.0
 10
272.7122529236178
 20
189.5334214805307
 30
0.0
 10
274.1190189786636
 20
187.5376154516972
 30
0.0
 10
275.5257850337095
 20
185.5418094228636
 30
0.0
 10
276.9325510887554
 20
183.5460033940301
 30
0.0
 10
276.9849943017649
 20
183.4716012002038
 30
0.0
 10
277.0133997126086
 20
183.4004758710943
 30
0.0
 10
277.0133997126086
 20
183.1879594883945
 30
0.0
 10
276.9140714033032
 20
183.1186606679488
 30
0.0
 10
276.7154147846925
 20
183.1186606679488
 30
0.0
 10
273.8479835920319
 20
183.1186606679488
 30
0.0
 10
270.9805523993713
 20
183.1186606679488
 30
0.0
 10
268.1131212067108
 20
183.1186606679488
 30
0.0
  0
SPLINE
  5
1D2
330
1BC
100
AcDbEntity
  8
Default
  6
Continuous
 62
     7
100
AcDbSpline
210
0.0
220
0.0
230
1.0
 70
     8
 71
     3
 72
    11
 73
     7
 74
     0
 42
0.0000000141737466
 43
0.0000000001
 12
1.0
 22
0.0
 32
0.0
 13
1.0
 23
0.0
 33
0.0
 40
0.0
 40
0.0
 40
0.0
 40
0.0
 40
0.6560933575639865
 40
0.6560933575639865
 40
0.6560933575639865
 40
1.0
 40
1.0
 40
1.0
 40
1.0
 10
268.1131212067108
 20
183.1186606679488
 30
0.0
 10
267.9075347060556
 20
183.1186606679488
 30
0.0
 10
267.8058964360686
 20
183.1925794097575
 30
0.0
 10
267.8035864753871
 20
183.3381069326933
 30
0.0
 10
267.8027439506852
 20
183.3911859889177
 30
0.0
 10
267.8313060035653
 20
183.4605348488138
 30
0.0
 10
267.8844350992403
 20
183.5460033940301
 30
0.0
  0
LINE
  5
1D3
330
1BC
100
AcDbEntity
  8
Default
  6
Continuous
 62
     7
100
AcDbLine
 10
262.1857620979
 20
189.7274581778
 30
0.0
 11
262.1857620979
 21
183.1186606679
 31
0.0
  0
SPLINE
  5
1D4
330
1BC
100
AcDbEntity
  8
Default
  6
Continuous
 62
     7
100
AcDbSpline
210
0.0
220
0.0
230
1.0
 70
     8
 71
     3
 72
    14
 73
    10
 74
     0
 42
0.0000000052950889
 43
0.0000000001
 12
1.0
 22
0.0
 32
0.0
 13
1.0
 23
0.0
 33
0.0
 40
0.0
 40
0.0
 40
0.0
 40
0.0
 40
0.1210177131110554
 40
0.1210177131110554
 40
0.1210177131110554
 40
0.2419901306838391
 40
0.2419901306838391
 40
0.2419901306838391
 40
1.0
 40
1.0
 40
1.0
 40
1.0
 10
260.4740812329231
 20
189.4387130925884
 30
0.0
 10
260.4740812329231
 20
189.5195617164416
 30
0.0
 10
260.5018007611014
 20
189.5865505762057
 30
0.0
 10
260.5595497781394
 20
189.6419896325622
 30
0.0
 10
260.6172507110666
 20
189.6973825281723
 30
0.0
 10
260.68197769426
 20
189.7274581777785
 30
0.0
 10
260.7628263181132
 20
189.7274581777785
 30
0.0
 10
261.2371382447187
 20
189.7274581777785
 30
0.0
 10
261.7114501713242
 20
189.7274581777785
 30
0.0
 10
262.1857620979297
 20
189.7274581777785
 30
0.0
  0
LINE
  5
1D5
330
1BC
100
AcDbEntity
  8
Default
  6
Continuous
 62
     7
100
AcDbLine
 10
260.4740812329
 20
183.1186606679
 30
0.0
 11
260.4740812329
 21
189.4387130926
 31
0.0
  0
LINE
  5
1D6
330
1BC
100
AcDbEntity
  8
Default
  6
Continuous
 62
     7
100
AcDbLine
 10
262.1857620979
 20
183.1186606679
 30
0.0
 11
260.4740812329
 21
183.1186606679
 31
0.0
  0
SPLINE
  5
1D7
330
1BC
100
AcDbEntity
  8
Default
  6
Continuous
 62
     7
100
AcDbSpline
210
0.0
220
0.0
230
1.0
 70
     8
 71
     3
 72
    16
 73
    12
 74
     0
 42
0.0000000009758823
 43
0.0000000001
 12
1.0
 22
0.0
 32
0.0
 13
1.0
 23
0.0
 33
0.0
 40
0.0
 40
0.0
 40
0.0
 40
0.0
 40
0.6159054655977501
 40
0.6159054655977501
 40
0.6159054655977501
 40
0.6376683166669079
 40
0.6376683166669079
 40
0.6603379531972834
 40
0.6603379531972834
 40
0.6603379531972834
 40
1.0
 40
1.0
 40
1.0
 40
1.0
 10
255.8218204203412
 20
183.1186606679488
 30
0.0
 10
255.8218204203412
 20
185.2199549012385
 30
0.0
 10
255.8218204203412
 20
187.3212491345281
 30
0.0
 10
255.8218204203412
 20
189.4225433678178
 30
0.0
 10
255.8218204203412
 20
189.503391991671
 30
0.0
 10
255.8495399485194
 20
189.5703808514351
 30
0.0
 10
255.962728021914
 20
189.6835689248296
 30
0.0
 10
256.0297168816781
 20
189.7112884530078
 30
0.0
 10
256.1105655055312
 20
189.7112884530078
 30
0.0
 10
257.2693957807606
 20
189.7112884530078
 30
0.0
 10
258.42822605599
 20
189.7112884530078
 30
0.0
 10
259.5870563312193
 20
189.7112884530078
 30
0.0
  0
LINE
  5
1D8
330
1BC
100
AcDbEntity
  8
Default
  6
Continuous
 62
     7
100
AcDbLine
 10
257.5404311674
 20
183.1186606679
 30
0.0
 11
255.8218204203
 21
183.1186606679
 31
0.0
  0
LINE
  5
1D9
330
1BC
100
AcDbEntity
  8
Default
  6
Continuous
 62
     7
100
AcDbLine
 10
257.5404311674
 20
185.7035066706
 30
0.0
 11
257.5404311674
 21
183.1186606679
 31
0.0
  0
LINE
  5
1DA
330
1BC
100
AcDbEntity
  8
Default
  6
Continuous
 62
     7
100
AcDbLine
 10
259.4877280219
 20
185.7035066706
 30
0.0
 11
257.5404311674
 21
185.7035066706
 31
0.0
  0
LINE
  5
1DB
330
1BC
100
AcDbEntity
  8
Default
  6
Continuous
 62
     7
100
AcDbLine
 10
259.4877280219
 20
187.1610918606
 30
0.0
 11
259.4877280219
 21
185.7035066706
 31
0.0
  0
LINE
  5
1DC
330
1BC
100
AcDbEntity
  8
Default
  6
Continuous
 62
     7
100
AcDbLine
 10
257.5404311674
 20
187.1610918606
 30
0.0
 11
259.4877280219
 21
187.1610918606
 31
0.0
  0
LINE
  5
1DD
330
1BC
100
AcDbEntity
  8
Default
  6
Continuous
 62
     7
100
AcDbLine
 10
257.5404311674
 20
188.260633145
 30
0.0
 11
257.5404311674
 21
187.1610918606
 31
0.0
  0
LINE
  5
1DE
330
1BC
100
AcDbEntity
  8
Default
  6
Continuous
 62
     7
100
AcDbLine
 10
259.5870563312
 20
188.260633145
 30
0.0
 11
257.5404311674
 21
188.260633145
 31
0.0
  0
LINE
  5
1DF
330
1BC
100
AcDbEntity
  8
Default
  6
Continuous
 62
     7
100
AcDbLine
 10
259.5870563312
 20
189.711288453
 30
0.0
 11
259.5870563312
 21
188.260633145
 31
0.0
  0
LINE
  5
1E0
330
1BC
100
AcDbEntity
  8
Default
  6
Continuous
 62
     7
100
AcDbLine
 10
255.0710831988
 20
187.1610918606
 30
0.0
 11
255.0710831988
 21
185.7035066706
 31
0.0
  0
LINE
  5
1E1
330
1BC
100
AcDbEntity
  8
Default
  6
Continuous
 62
     7
100
AcDbLine
 10
252.9366795291
 20
187.1610918606
 30
0.0
 11
255.0710831988
 21
187.1610918606
 31
0.0
  0
LINE
  5
1E2
330
1BC
100
AcDbEntity
  8
Default
  6
Continuous
 62
     7
100
AcDbLine
 10
252.9366795291
 20
185.7035066706
 30
0.0
 11
252.9366795291
 21
187.1610918606
 31
0.0
  0
LINE
  5
1E3
330
1BC
100
AcDbEntity
  8
Default
  6
Continuous
 62
     7
100
AcDbLine
 10
255.0710831988
 20
185.7035066706
 30
0.0
 11
252.9366795291
 21
185.7035066706
 31
0.0
  0
SPLINE
  5
1E4
330
1BC
100
AcDbEntity
  8
Default
  6
Continuous
 62
     7
100
AcDbSpline
210
0.0
220
0.0
230
1.0
 70
    11
 71
     3
 72
    47
 73
    43
 74
     0
 42
0.0000000008494054
 43
0.0000000001
 12
1.0
 22
0.0
 32
0.0
 13
1.0
 23
0.0
 33
0.0
 40
0.0
 40
0.0
 40
0.0
 40
0.0
 40
0.0637917384076936
 40
0.0637917384076936
 40
0.0637917384076936
 40
0.1265834997779105
 40
0.1265834997779105
 40
0.1893752611481286
 40
0.1893752611481286
 40
0.1893752611481286
 40
0.2604081010642026
 40
0.2604081010642026
 40
0.3159741129340349
 40
0.3159741129340349
 40
0.3159741129340349
 40
0.3751091105868484
 40
0.3751091105868484
 40
0.3751091105868484
 40
0.435995169879425
 40
0.435995169879425
 40
0.435995169879425
 40
0.4997689343159713
 40
0.4997689343159713
 40
0.5635426987525196
 40
0.5635426987525196
 40
0.5635426987525196
 40
0.624232315369434
 40
0.624232315369434
 40
0.624232315369434
 40
0.6835869381889372
 40
0.6835869381889372
 40
0.6835869381889372
 40
0.7357943705008892
 40
0.7357943705008892
 40
0.8025337685079206
 40
0.8025337685079206
 40
0.8692731665149518
 40
0.8692731665149518
 40
0.9360125645219831
 40
0.9360125645219831
 40
0.9360125645219831
 40
1.0
 40
1.0
 40
1.0
 40
1.0
 10
248.4438060035654
 20
184.5693159759436
 30
0.0
 10
248.7025215998956
 20
184.5693159759436
 30
0.0
 10
248.9450674714552
 20
184.620135110937
 30
0.0
 10
249.1691336575627
 20
184.7194634202424
 30
0.0
 10
249.3951304192655
 20
184.8196475517189
 30
0.0
 10
249.5941664229625
 20
184.9550794097575
 30
0.0
 10
249.9314206824644
 20
185.3061934333486
 30
0.0
 10
250.0653984019926
 20
185.5140898946854
 30
0.0
 10
250.160106789935
 20
185.752015844882
 30
0.0
 10
250.2551311293749
 20
185.9907355268896
 30
0.0
 10
250.3056343128707
 20
186.2509673520904
 30
0.0
 10
250.3056343128707
 20
186.7614686627064
 30
0.0
 10
250.2571251385588
 20
186.9809149274508
 30
0.0
 10
250.160106789935
 20
187.1934313101507
 30
0.0
 10
250.0643595068875
 20
187.4031634539689
 30
0.0
 10
249.9314206824644
 20
187.5907445473721
 30
0.0
 10
249.7627935527134
 20
187.7547517557601
 30
0.0
 10
249.5953209577949
 20
187.9176360604069
 30
0.0
 10
249.3955098043517
 20
188.0458068016317
 30
0.0
 10
249.1691336575627
 20
188.140515189574
 30
0.0
 10
248.9439009259591
 20
188.2347452099388
 30
0.0
 10
248.7025215998956
 20
188.2860427125098
 30
0.0
 10
248.1850904072351
 20
188.2860427125098
 30
0.0
 10
247.9425445356754
 20
188.2375335381978
 30
0.0
 10
247.7161683888864
 20
188.140515189574
 30
0.0
 10
247.4925801256786
 20
188.0446916481992
 30
0.0
 10
247.2934455841682
 20
187.9164490034665
 30
0.0
 10
247.1248184544172
 20
187.7547517557601
 30
0.0
 10
246.9550373605366
 20
187.5919479671074
 30
0.0
 10
246.8222136051381
 20
187.403637732169
 30
0.0
 10
246.7228852958327
 20
187.1934313101507
 30
0.0
 10
246.622664698655
 20
186.9813365579839
 30
0.0
 10
246.5727378515339
 20
186.7614686627064
 30
0.0
 10
246.5727378515339
 20
186.2509673520904
 30
0.0
 10
246.6235569865273
 20
185.9899417950786
 30
0.0
 10
246.8222136051381
 20
185.5140898946854
 30
0.0
 10
246.9561913246663
 20
185.3061934333486
 30
0.0
 10
247.2934455841682
 20
184.9550794097575
 30
0.0
 10
247.492102202779
 20
184.8187917295478
 30
0.0
 10
247.7161683888864
 20
184.7194634202424
 30
0.0
 10
247.9421651505893
 20
184.6192792887659
 30
0.0
 10
248.1850904072351
 20
184.5693159759436
 30
0.0
 10
248.4438060035654
 20
184.5693159759436
 30
0.0
  0
SPLINE
  5
1E5
330
1BC
100
AcDbEntity
  8
Default
  6
Continuous
 62
     7
100
AcDbSpline
210
0.0
220
0.0
230
1.0
 70
    11
 71
     3
 72
    49
 73
    45
 74
     0
 42
0.0000000004385322
 43
0.0000000001
 12
1.0
 22
0.0
 32
0.0
 13
1.0
 23
0.0
 33
0.0
 40
0.0
 40
0.0
 40
0.0
 40
0.0
 40
0.0617996483207596
 40
0.0617996483207596
 40
0.0617996483207596
 40
0.1220737652654132
 40
0.1220737652654132
 40
0.1220737652654132
 40
0.1820249318660078
 40
0.1820249318660078
 40
0.1820249318660078
 40
0.2438982680995642
 40
0.2438982680995642
 40
0.3109516975991858
 40
0.3109516975991858
 40
0.3109516975991858
 40
0.3722543214771952
 40
0.3722543214771952
 40
0.3722543214771952
 40
0.4335172266527087
 40
0.4335172266527087
 40
0.4335172266527087
 40
0.4994898970728853
 40
0.4994898970728853
 40
0.5657506577569065
 40
0.5657506577569065
 40
0.5657506577569065
 40
0.626961718898901
 40
0.626961718898901
 40
0.6886100019061948
 40
0.6886100019061948
 40
0.6886100019061948
 40
0.7556907268882871
 40
0.7556907268882871
 40
0.8175892499404324
 40
0.8175892499404324
 40
0.8175892499404324
 40
0.8774725210786118
 40
0.8774725210786118
 40
0.8774725210786118
 40
0.9379094648157675
 40
0.9379094648157675
 40
0.9379094648157675
 40
1.0
 40
1.0
 40
1.0
 40
1.0
 10
248.4438060035654
 20
189.9492144032044
 30
0.0
 10
248.9196356399268
 20
189.9515130970999
 30
0.0
 10
249.3770301188996
 20
189.8637458579882
 30
0.0
 10
249.8136126877069
 20
189.6997386496002
 30
0.0
 10
250.2509557040483
 20
189.5354457704455
 30
0.0
 10
250.6382686510096
 20
189.3001154516972
 30
0.0
 10
250.9755229105116
 20
188.997510602418
 30
0.0
 10
251.3129086463213
 20
188.694787784671
 30
0.0
 10
251.585352530433
 20
188.3368618475032
 30
0.0
 10
251.7863191097253
 20
187.918758964148
 30
0.0
 10
251.9868172819147
 20
187.5016305829262
 30
0.0
 10
252.0889239590044
 20
187.0455938265333
 30
0.0
 10
252.0889239590044
 20
186.0107314412123
 30
0.0
 10
251.9988354924251
 20
185.52101977673
 30
0.0
 10
251.816348598585
 20
185.0775073258781
 30
0.0
 10
251.6330488643873
 20
184.6320193642835
 30
0.0
 10
251.3820759904592
 20
184.2482314412123
 30
0.0
 10
251.0609914557278
 20
183.9225269851179
 30
0.0
 10
250.7410617834882
 20
183.5979940082417
 30
0.0
 10
250.3564534478642
 20
183.3473467754193
 30
0.0
 10
249.9083210756492
 20
183.1671698422608
 30
0.0
 10
249.4629767181928
 20
182.9881138634896
 30
0.0
 10
248.9727869996335
 20
182.8992144032044
 30
0.0
 10
247.9125150468157
 20
182.8992144032044
 30
0.0
 10
247.4251133430149
 20
182.9893028697837
 30
0.0
 10
246.9792909314815
 20
183.1671698422608
 30
0.0
 10
246.530680710158
 20
183.3461490497318
 30
0.0
 10
246.1453951254526
 20
183.5991324897051
 30
0.0
 10
245.4962961739454
 20
184.2482314412123
 30
0.0
 10
245.2445104596597
 20
184.6316849143446
 30
0.0
 10
245.0620235658196
 20
185.0775073258781
 30
0.0
 10
244.8803465126443
 20
185.521351265914
 30
0.0
 10
244.7871382447187
 20
186.0107314412123
 30
0.0
 10
244.7871382447187
 20
187.0455938265333
 30
0.0
 10
244.8887765147056
 20
187.5029660414744
 30
0.0
 10
245.0920530546794
 20
187.918758964148
 30
0.0
 10
245.2957954536029
 20
188.335504780128
 30
0.0
 10
245.5632850337095
 20
188.6972157138204
 30
0.0
 10
245.9005392932115
 20
188.997510602418
 30
0.0
 10
246.2389407961124
 20
189.2988270091107
 30
0.0
 10
246.6281769078904
 20
189.5334214805307
 30
0.0
 10
247.0670694373792
 20
189.6997386496002
 30
0.0
 10
247.5072164315149
 20
189.8665311947464
 30
0.0
 10
247.9656441424906
 20
189.9469044425229
 30
0.0
 10
248.4438060035654
 20
189.9492144032044
 30
0.0
  0
LINE
  5
1E6
330
1BC
100
AcDbEntity
  8
Default
  6
Continuous
 62
     7
100
AcDbLine
 10
242.3339600009
 20
185.4332412708
 30
0.0
 11
240.8347955186
 21
185.4332412708
 31
0.0
  0
SPLINE
  5
1E7
330
1BC
100
AcDbEntity
  8
Default
  6
Continuous
 62
     7
100
AcDbSpline
210
0.0
220
0.0
230
1.0
 70
     8
 71
     3
 72
    43
 73
    39
 74
     0
 42
0.0000000009932047
 43
0.0000000001
 12
1.0
 22
0.0
 32
0.0
 13
1.0
 23
0.0
 33
0.0
 40
0.0
 40
0.0
 40
0.0
 40
0.0
 40
0.0949373847537602
 40
0.0949373847537602
 40
0.0949373847537602
 40
0.1911787086491429
 40
0.1911787086491429
 40
0.2677918678027036
 40
0.2677918678027036
 40
0.2677918678027036
 40
0.3406026976746725
 40
0.3406026976746725
 40
0.3406026976746725
 40
0.4151543081273698
 40
0.4151543081273698
 40
0.4151543081273698
 40
0.4895478942304584
 40
0.4895478942304584
 40
0.5659890102262922
 40
0.5659890102262922
 40
0.6424301262221261
 40
0.6424301262221261
 40
0.6424301262221261
 40
0.714798401889747
 40
0.714798401889747
 40
0.714798401889747
 40
0.7953127750919691
 40
0.7953127750919691
 40
0.8472575319966263
 40
0.8472575319966263
 40
0.8472575319966263
 40
0.898191982468852
 40
0.898191982468852
 40
0.898191982468852
 40
0.9471592991231073
 40
0.9471592991231073
 40
0.9471592991231073
 40
1.0
 40
1.0
 40
1.0
 40
1.0
 10
242.2554213377724
 20
187.3782281646723
 30
0.0
 10
242.1353033823333
 20
187.6970027387221
 30
0.0
 10
241.9551264491748
 20
187.9510984136893
 30
0.0
 10
241.7148905382967
 20
188.1428251502555
 30
0.0
 10
241.4721172585773
 20
188.3365769023392
 30
0.0
 10
241.1766696995024
 20
188.4315702354455
 30
0.0
 10
240.5460504334474
 20
188.4315702354455
 30
0.0
 10
240.3011946012062
 20
188.371511257726
 30
0.0
 10
240.0840582971433
 20
188.2490833416055
 30
0.0
 10
239.8686747464151
 20
188.1276436800246
 30
0.0
 10
239.6913649812849
 20
187.9649581777784
 30
0.0
 10
239.5481474190306
 20
187.7663015591677
 30
0.0
 10
239.4057198468884
 20
187.5687407332931
 30
0.0
 10
239.2986716654264
 20
187.345888715131
 30
0.0
 10
239.2270628842993
 20
187.0987229222083
 30
0.0
 10
239.1546578089098
 20
186.848808629735
 30
0.0
 10
239.1161847715863
 20
186.5997714149999
 30
0.0
 10
239.1161847715863
 20
186.089270104384
 30
0.0
 10
239.1554541031722
 20
185.8397943507798
 30
0.0
 10
239.3079115081525
 20
185.3500826862975
 30
0.0
 10
239.4187896208655
 20
185.1283264608715
 30
0.0
 10
239.5643171438012
 20
184.9342897636238
 30
0.0
 10
239.7109534478642
 20
184.7387746915399
 30
0.0
 10
239.8900215998956
 20
184.5808657793512
 30
0.0
 10
240.104847943277
 20
184.4630577845936
 30
0.0
 10
240.3206481660817
 20
184.3447157269266
 30
0.0
 10
240.5691500402626
 20
184.2851908121166
 30
0.0
 10
241.0403820192927
 20
184.2851908121166
 30
0.0
 10
241.2182489917698
 20
184.3082904189318
 30
0.0
 10
241.3914960428838
 20
184.3591095539252
 30
0.0
 10
241.5619922405099
 20
184.4091217718955
 30
0.0
 10
241.7148905382967
 20
184.4815374700458
 30
0.0
 10
241.8488682578248
 20
184.5762458579881
 30
0.0
 10
241.9813056983178
 20
184.6698654279918
 30
0.0
 10
242.089104168703
 20
184.7910722013695
 30
0.0
 10
242.1768826746007
 20
184.9342897636238
 30
0.0
 10
242.2630012238817
 20
185.0747989756085
 30
0.0
 10
242.315480315492
 20
185.241514534266
 30
0.0
 10
242.3339600009441
 20
185.4332412708322
 30
0.0
  0
LINE
  5
1E8
330
1BC
100
AcDbEntity
  8
Default
  6
Continuous
 62
     7
100
AcDbLine
 10
243.8839436182
 20
188.0642864871
 30
0.0
 11
242.2554213378
 21
187.3782281647
 31
0.0
  0
SPLINE
  5
1E9
330
1BC
100
AcDbEntity
  8
Default
  6
Continuous
 62
     7
100
AcDbSpline
210
0.0
220
0.0
230
1.0
 70
     8
 71
     3
 72
    51
 73
    47
 74
     0
 42
0.0000000004766382
 43
0.0000000001
 12
1.0
 22
0.0
 32
0.0
 13
1.0
 23
0.0
 33
0.0
 40
0.0
 40
0.0
 40
0.0
 40
0.0
 40
0.0095402040290222
 40
0.0095402040290222
 40
0.0095402040290222
 40
0.0400756007423482
 40
0.0400756007423482
 40
0.0400756007423482
 40
0.0693620114069116
 40
0.0693620114069116
 40
0.0986484220714753
 40
0.0986484220714753
 40
0.0986484220714753
 40
0.1302632519246672
 40
0.1302632519246672
 40
0.1302632519246672
 40
0.2055179711079718
 40
0.2055179711079718
 40
0.2055179711079718
 40
0.281182745691462
 40
0.281182745691462
 40
0.3511962093102096
 40
0.3511962093102096
 40
0.3511962093102096
 40
0.4149417185613706
 40
0.4149417185613706
 40
0.4149417185613706
 40
0.4786592191897758
 40
0.4786592191897758
 40
0.4786592191897758
 40
0.5478830793697405
 40
0.5478830793697405
 40
0.6199007276287178
 40
0.6199007276287178
 40
0.6199007276287178
 40
0.6846819262147057
 40
0.6846819262147057
 40
0.6846819262147057
 40
0.7494892886116509
 40
0.7494892886116509
 40
0.7494892886116509
 40
0.8193637744922013
 40
0.8193637744922013
 40
0.9096818872461009
 40
0.9096818872461009
 40
1.0
 40
1.0
 40
1.0
 40
1.0
 10
244.1426592145745
 20
186.777638387477
 30
0.0
 10
244.1426592145745
 20
186.7114195146068
 30
0.0
 10
244.1426592145745
 20
186.6452006417365
 30
0.0
 10
244.1426592145745
 20
186.5789817688662
 30
0.0
 10
244.1426592145745
 20
186.3618454648034
 30
0.0
 10
244.1287994504854
 20
186.1493290821035
 30
0.0
 10
244.1172496470778
 20
185.9437425814482
 30
0.0
 10
244.1057071113542
 20
185.738285445568
 30
0.0
 10
244.0849101975365
 20
185.5371895015006
 30
0.0
 10
244.0109914557279
 20
185.1398762642791
 30
0.0
 10
243.9578623600529
 20
184.9435296063499
 30
0.0
 10
243.8839436182442
 20
184.7518028697837
 30
0.0
 10
243.8103238022207
 20
184.5608514719727
 30
0.0
 10
243.7060766457672
 20
184.3683493966513
 30
0.0
 10
243.567479004876
 20
184.1766226600851
 30
0.0
 10
243.2385391943749
 20
183.7215892555586
 30
0.0
 10
242.8467712722416
 20
183.3866161070052
 30
0.0
 10
242.3801592145745
 20
183.1833395670314
 30
0.0
 10
241.9127013576763
 20
182.9796945600658
 30
0.0
 10
241.4007358856099
 20
182.8761147963892
 30
0.0
 10
240.3289141293845
 20
182.8761147963892
 30
0.0
 10
239.8530622289913
 20
182.9592733809239
 30
0.0
 10
239.4187896208655
 20
183.1279005106749
 30
0.0
 10
238.9865243210358
 20
183.2957482068854
 30
0.0
 10
238.6149233036964
 20
183.5344535906225
 30
0.0
 10
238.3076985330542
 20
183.8370584399017
 30
0.0
 10
237.9993189146371
 20
184.1408007708237
 30
0.0
 10
237.7625478122154
 20
184.5092569982241
 30
0.0
 10
237.5893007611014
 20
184.9412196456684
 30
0.0
 10
237.4171718734448
 20
185.3703943388921
 30
0.0
 10
237.3328951254526
 20
185.8444142721428
 30
0.0
 10
237.3328951254526
 20
186.8954463822346
 30
0.0
 10
237.4183636706689
 20
187.3828480860353
 30
0.0
 10
237.5893007611014
 20
187.8194306548426
 30
0.0
 10
237.760544896821
 20
188.2567974339103
 30
0.0
 10
238.005093683775
 20
188.6302268540563
 30
0.0
 10
238.3192483364618
 20
188.9420715460616
 30
0.0
 10
238.6322480402607
 20
189.2527697814501
 30
0.0
 10
239.0099265802364
 20
189.4918421882634
 30
0.0
 10
239.4488191097252
 20
189.6627792786959
 30
0.0
 10
239.8889361806183
 20
189.8341932957806
 30
0.0
 10
240.3751133430149
 20
189.9145649929816
 30
0.0
 10
241.587842700813
 20
189.9145649929816
 30
0.0
 10
242.1815025959638
 20
189.7621075880012
 30
0.0
 10
243.2025052171957
 20
189.1522779680799
 30
0.0
 10
243.5998184544173
 20
188.6879758710943
 30
0.0
 10
243.8839436182442
 20
188.0642864870838
 30
0.0
  0
LINE
  5
1EA
330
1BC
100
AcDbEntity
  8
Default
  6
Continuous
 62
     7
100
AcDbLine
 10
240.8347955186
 20
186.7776383875
 30
0.0
 11
244.1426592146
 21
186.7776383875
 31
0.0
  0
LINE
  5
1EB
330
1BC
100
AcDbEntity
  8
Default
  6
Continuous
 62
     7
100
AcDbLine
 10
240.8347955186
 20
185.4332412708
 30
0.0
 11
240.8347955186
 21
186.7776383875
 31
0.0
  0
SPLINE
  5
1EC
330
1BC
100
AcDbEntity
  8
Default
  6
Continuous
 62
     7
100
AcDbSpline
210
0.0
220
0.0
230
1.0
 70
     8
 71
     3
 72
    16
 73
    12
 74
     0
 42
0.000000000976763
 43
0.0000000001
 12
1.0
 22
0.0
 32
0.0
 13
1.0
 23
0.0
 33
0.0
 40
0.0
 40
0.0
 40
0.0
 40
0.0
 40
0.6164577788718584
 40
0.6164577788718584
 40
0.6164577788718584
 40
0.6381328433885463
 40
0.6381328433885463
 40
0.6607110355934293
 40
0.6607110355934293
 40
0.6607110355934293
 40
1.0
 40
1.0
 40
1.0
 40
1.0
 10
233.0225084937357
 20
183.1186606679488
 30
0.0
 10
233.0225084937357
 20
185.2199549012385
 30
0.0
 10
233.0225084937357
 20
187.3212491345281
 30
0.0
 10
233.0225084937357
 20
189.4225433678178
 30
0.0
 10
233.0225084937357
 20
189.503391991671
 30
0.0
 10
233.050228021914
 20
189.5703808514351
 30
0.0
 10
233.1634160953085
 20
189.6835689248296
 30
0.0
 10
233.2304049550725
 20
189.7112884530078
 30
0.0
 10
233.3089436182443
 20
189.7112884530078
 30
0.0
 10
234.4654639327921
 20
189.7112884530078
 30
0.0
 10
235.6219842473399
 20
189.7112884530078
 30
0.0
 10
236.7785045618878
 20
189.7112884530078
 30
0.0
  0
LINE
  5
1ED
330
1BC
100
AcDbEntity
  8
Default
  6
Continuous
 62
     7
100
AcDbLine
 10
236.7785045619
 20
183.1186606679
 30
0.0
 11
233.0225084937
 21
183.1186606679
 31
0.0
  0
LINE
  5
1EE
330
1BC
100
AcDbEntity
  8
Default
  6
Continuous
 62
     7
100
AcDbLine
 10
236.7785045619
 20
184.5693159759
 30
0.0
 11
236.7785045619
 21
183.1186606679
 31
0.0
  0
LINE
  5
1EF
330
1BC
100
AcDbEntity
  8
Default
  6
Continuous
 62
     7
100
AcDbLine
 10
234.7318793981
 20
184.5693159759
 30
0.0
 11
236.7785045619
 21
184.5693159759
 31
0.0
  0
LINE
  5
1F0
330
1BC
100
AcDbEntity
  8
Default
  6
Continuous
 62
     7
100
AcDbLine
 10
234.7318793981
 20
185.7035066706
 30
0.0
 11
234.7318793981
 21
184.5693159759
 31
0.0
  0
LINE
  5
1F1
330
1BC
100
AcDbEntity
  8
Default
  6
Continuous
 62
     7
100
AcDbLine
 10
236.6791762526
 20
185.7035066706
 30
0.0
 11
234.7318793981
 21
185.7035066706
 31
0.0
  0
LINE
  5
1F2
330
1BC
100
AcDbEntity
  8
Default
  6
Continuous
 62
     7
100
AcDbLine
 10
236.6791762526
 20
187.1610918606
 30
0.0
 11
236.6791762526
 21
185.7035066706
 31
0.0
  0
LINE
  5
1F3
330
1BC
100
AcDbEntity
  8
Default
  6
Continuous
 62
     7
100
AcDbLine
 10
234.7318793981
 20
187.1610918606
 30
0.0
 11
236.6791762526
 21
187.1610918606
 31
0.0
  0
LINE
  5
1F4
330
1BC
100
AcDbEntity
  8
Default
  6
Continuous
 62
     7
100
AcDbLine
 10
234.7318793981
 20
188.260633145
 30
0.0
 11
234.7318793981
 21
187.1610918606
 31
0.0
  0
LINE
  5
1F5
330
1BC
100
AcDbEntity
  8
Default
  6
Continuous
 62
     7
100
AcDbLine
 10
236.7785045619
 20
188.260633145
 30
0.0
 11
234.7318793981
 21
188.260633145
 31
0.0
  0
LINE
  5
1F6
330
1BC
100
AcDbEntity
  8
Default
  6
Continuous
 62
     7
100
AcDbLine
 10
236.7785045619
 20
189.711288453
 30
0.0
 11
236.7785045619
 21
188.260633145
 31
0.0
  0
LINE
  5
1F7
330
1BC
100
AcDbEntity
  8
Default
  6
Continuous
 62
     7
100
AcDbLine
 10
228.7098119013
 20
188.3992307859
 30
0.0
 11
228.7098119013
 21
186.7499188593
 31
0.0
  0
LINE
  5
1F8
330
1BC
100
AcDbEntity
  8
Default
  6
Continuous
 62
     7
100
AcDbLine
 10
228.7098119013
 20
186.7499188593
 30
0.0
 11
228.8807489918
 21
186.7499188593
 31
0.0
  0
SPLINE
  5
1F9
330
1BC
100
AcDbEntity
  8
Default
  6
Continuous
 62
     7
100
AcDbSpline
210
0.0
220
0.0
230
1.0
 70
     8
 71
     3
 72
    29
 73
    25
 74
     0
 42
0.0000000028633018
 43
0.0000000001
 12
1.0
 22
0.0
 32
0.0
 13
1.0
 23
0.0
 33
0.0
 40
0.0
 40
0.0
 40
0.0
 40
0.0
 40
0.1203556671631279
 40
0.1203556671631279
 40
0.1203556671631279
 40
0.2363519504887718
 40
0.2363519504887718
 40
0.2363519504887718
 40
0.3551316836966588
 40
0.3551316836966588
 40
0.4739114169045465
 40
0.4739114169045465
 40
0.5942337440501996
 40
0.5942337440501996
 40
0.7145560711958533
 40
0.7145560711958533
 40
0.7145560711958533
 40
0.8303426976884648
 40
0.8303426976884648
 40
0.8303426976884648
 40
0.9506957818555967
 40
0.9506957818555967
 40
0.9506957818555967
 40
1.0
 40
1.0
 40
1.0
 40
1.0
 10
228.8807489917698
 20
186.7499188592988
 30
0.0
 10
229.019346632661
 20
186.7499188592988
 30
0.0
 10
229.1579442735522
 20
186.7591587020248
 30
0.0
 10
229.2965419144435
 20
186.7799483481585
 30
0.0
 10
229.4373986855855
 20
186.8010768638298
 30
0.0
 10
229.5644973534998
 20
186.8376973651965
 30
0.0
 10
229.6799953875758
 20
186.8954463822346
 30
0.0
 10
229.7964174059245
 20
186.9536573914089
 30
0.0
 10
229.8902018095942
 20
187.0340440231258
 30
0.0
 10
230.0287994504854
 20
187.2511803271887
 30
0.0
 10
230.0634488607082
 20
187.3967078501244
 30
0.0
 10
230.0634488607082
 20
187.7547517557601
 30
0.0
 10
230.0287994504854
 20
187.8979693180144
 30
0.0
 10
229.8902018095942
 20
188.1151056220773
 30
0.0
 10
229.7978033823333
 20
188.198264206612
 30
0.0
 10
229.6799953875758
 20
188.25601322365
 30
0.0
 10
229.5649627826514
 20
188.3124017554757
 30
0.0
 10
229.4374495160162
 20
188.3484116509108
 30
0.0
 10
229.2965419144435
 20
188.3692012970445
 30
0.0
 10
229.1578950608181
 20
188.3896573902023
 30
0.0
 10
229.019346632661
 20
188.3992307859043
 30
0.0
 10
228.8807489917698
 20
188.3992307859043
 30
0.0
 10
228.8237699616256
 20
188.3992307859043
 30
0.0
 10
228.7667909314815
 20
188.3992307859043
 30
0.0
 10
228.7098119013373
 20
188.3992307859043
 30
0.0
  0
LINE
  5
1FA
330
1BC
100
AcDbEntity
  8
Default
  6
Continuous
 62
     7
100
AcDbLine
 10
228.7098119013
 20
183.1186606679
 30
0.0
 11
227.000440997
 21
183.1186606679
 31
0.0
  0
LINE
  5
1FB
330
1BC
100
AcDbEntity
  8
Default
  6
Continuous
 62
     7
100
AcDbLine
 10
228.7098119013
 20
185.6526875356
 30
0.0
 11
228.7098119013
 21
183.1186606679
 31
0.0
  0
LINE
  5
1FC
330
1BC
100
AcDbEntity
  8
Default
  6
Continuous
 62
     7
100
AcDbLine
 10
230.3406441425
 20
183.1186606679
 30
0.0
 11
228.7098119013
 21
185.6526875356
 31
0.0
  0
LINE
  5
1FD
330
1BC
100
AcDbEntity
  8
Default
  6
Continuous
 62
     7
100
AcDbLine
 10
232.4773577729
 20
183.1186606679
 30
0.0
 11
230.3406441425
 21
183.1186606679
 31
0.0
  0
LINE
  5
1FE
330
1BC
100
AcDbEntity
  8
Default
  6
Continuous
 62
     7
100
AcDbLine
 10
230.4007031202
 20
185.8190047046
 30
0.0
 11
232.4773577729
 21
183.1186606679
 31
0.0
  0
SPLINE
  5
1FF
330
1BC
100
AcDbEntity
  8
Default
  6
Continuous
 62
     7
100
AcDbSpline
210
0.0
220
0.0
230
1.0
 70
     8
 71
     3
 72
    39
 73
    35
 74
     0
 42
0.0000000006617465
 43
0.0000000001
 12
1.0
 22
0.0
 32
0.0
 13
1.0
 23
0.0
 33
0.0
 40
0.0
 40
0.0
 40
0.0
 40
0.0
 40
0.4184837171182216
 40
0.4184837171182216
 40
0.4184837171182216
 40
0.4329116956232541
 40
0.4329116956232541
 40
0.447940839899329
 40
0.447940839899329
 40
0.447940839899329
 40
0.5989875461512338
 40
0.5989875461512338
 40
0.5989875461512338
 40
0.65983019696195
 40
0.65983019696195
 40
0.65983019696195
 40
0.7141636694202442
 40
0.7141636694202442
 40
0.7141636694202442
 40
0.7672492360561214
 40
0.7672492360561214
 40
0.7672492360561214
 40
0.8311842098663922
 40
0.8311842098663922
 40
0.8732466926363075
 40
0.8732466926363075
 40
0.8732466926363075
 40
0.9147241024096695
 40
0.9147241024096695
 40
0.9147241024096695
 40
0.9560702513872078
 40
0.9560702513872078
 40
0.9560702513872078
 40
1.0
 40
1.0
 40
1.0
 40
1.0
 10
227.0004409970123
 20
183.1186606679488
 30
0.0
 10
227.0004409970123
 20
185.2199549012385
 30
0.0
 10
227.0004409970123
 20
187.3212491345281
 30
0.0
 10
227.0004409970123
 20
189.4225433678178
 30
0.0
 10
227.0004409970123
 20
189.503391991671
 30
0.0
 10
227.0281605251905
 20
189.5703808514351
 30
0.0
 10
227.141348598585
 20
189.6835689248296
 30
0.0
 10
227.2060274976676
 20
189.7112884530078
 30
0.0
 10
227.2776362787947
 20
189.7112884530078
 30
0.0
 10
228.0360733692272
 20
189.7112884530078
 30
0.0
 10
228.7945104596597
 20
189.7112884530078
 30
0.0
 10
229.5529475500922
 20
189.7112884530078
 30
0.0
 10
229.8786520061866
 20
189.7112884530078
 30
0.0
 10
230.1812568554658
 20
189.672019121422
 30
0.0
 10
230.4584521372482
 20
189.5911704975687
 30
0.0
 10
230.7371553613635
 20
189.5098820572018
 30
0.0
 10
230.9781932905902
 20
189.3902039182765
 30
0.0
 10
231.1837797912455
 20
189.223886749207
 30
0.0
 10
231.3882367819392
 20
189.0584833410054
 30
0.0
 10
231.5510635396073
 20
188.8496731188007
 30
0.0
 10
231.6665615736833
 20
188.5955774438335
 30
0.0
 10
231.782929798427
 20
188.3395673493973
 30
0.0
 10
231.8398086247973
 20
188.0365669589056
 30
0.0
 10
231.8398086247973
 20
187.4544568671624
 30
0.0
 10
231.8097791359376
 20
187.235010602418
 30
0.0
 10
231.745100236855
 20
187.0317340624443
 30
0.0
 10
231.679966279852
 20
186.827027340435
 30
0.0
 10
231.5903328711931
 20
186.6390407465858
 30
0.0
 10
231.4679049550726
 20
186.4750335381978
 30
0.0
 10
231.3443697291374
 20
186.3095429525111
 30
0.0
 10
231.1953295946532
 20
186.1678087675556
 30
0.0
 10
231.0151526614946
 20
186.0523107334796
 30
0.0
 10
230.8366129371881
 20
185.9378621922575
 30
0.0
 10
230.6316991883622
 20
185.8582740362319
 30
0.0
 10
230.4007031202102
 20
185.8190047046461
 30
0.0
  0
HATCH
  5
200
330
1BC
100
AcDbEntity
  8
Default
  6
Continuous
 62
     7
100
AcDbHatch
 10
0.0
 20
0.0
 30
0.0
210
0.0
220
0.0
230
1.0
  2
SOLID
 70
     1
 71
     0
 91
        2
 92
        1
 93
        6
 72
     4
 94
        3
 73
     0
 74
     0
 95
       39
 96
       35
 40
0.0
 40
0.0
 40
0.0
 40
0.0
 40
0.0439297486127922
 40
0.0439297486127922
 40
0.0439297486127922
 40
0.0852758975903305
 40
0.0852758975903305
 40
0.0852758975903305
 40
0.1267533073636925
 40
0.1267533073636925
 40
0.1267533073636925
 40
0.1688157901336078
 40
0.1688157901336078
 40
0.2327507639438786
 40
0.2327507639438786
 40
0.2327507639438786
 40
0.2858363305797558
 40
0.2858363305797558
 40
0.2858363305797558
 40
0.34016980303805
 40
0.34016980303805
 40
0.34016980303805
 40
0.4010124538487662
 40
0.4010124538487662
 40
0.4010124538487662
 40
0.552059160100671
 40
0.552059160100671
 40
0.552059160100671
 40
0.5670883043767458
 40
0.5670883043767458
 40
0.5815162828817784
 40
0.5815162828817784
 40
0.5815162828817784
 40
1.0
 40
1.0
 40
1.0
 40
1.0
 10
230.4007031202102
 20
185.8190047046461
 10
230.6316991883622
 20
185.8582740362319
 10
230.8366129371881
 20
185.9378621922575
 10
231.0151526614946
 20
186.0523107334796
 10
231.1953295946532
 20
186.1678087675556
 10
231.3443697291374
 20
186.3095429525111
 10
231.4679049550726
 20
186.4750335381978
 10
231.5903328711931
 20
186.6390407465858
 10
231.679966279852
 20
186.827027340435
 10
231.745100236855
 20
187.0317340624443
 10
231.8097791359376
 20
187.235010602418
 10
231.8398086247973
 20
187.4544568671624
 10
231.8398086247973
 20
188.0365669589056
 10
231.782929798427
 20
188.3395673493973
 10
231.6665615736833
 20
188.5955774438335
 10
231.5510635396073
 20
188.8496731188007
 10
231.3882367819392
 20
189.0584833410054
 10
231.1837797912455
 20
189.223886749207
 10
230.9781932905902
 20
189.3902039182765
 10
230.7371553613635
 20
189.5098820572018
 10
230.4584521372482
 20
189.5911704975687
 10
230.1812568554658
 20
189.672019121422
 10
229.8786520061866
 20
189.7112884530078
 10
229.5529475500922
 20
189.7112884530078
 10
228.7945104596597
 20
189.7112884530078
 10
228.0360733692272
 20
189.7112884530078
 10
227.2776362787947
 20
189.7112884530078
 10
227.2060274976676
 20
189.7112884530078
 10
227.141348598585
 20
189.6835689248296
 10
227.0281605251905
 20
189.5703808514351
 10
227.0004409970123
 20
189.503391991671
 10
227.0004409970123
 20
189.4225433678178
 10
227.0004409970123
 20
187.3212491345281
 10
227.0004409970123
 20
185.2199549012385
 10
227.0004409970123
 20
183.1186606679488
 72
     1
 10
227.0004409970123
 20
183.1186606679488
 11
228.7098119013373
 21
183.1186606679488
 72
     1
 10
228.7098119013373
 20
183.1186606679488
 11
228.7098119013373
 21
185.6526875355766
 72
     1
 10
228.7098119013373
 20
185.6526875355766
 11
230.3406441424906
 21
183.1186606679488
 72
     1
 10
230.3406441424906
 20
183.1186606679488
 11
232.4773577728969
 21
183.1186606679488
 72
     1
 10
232.4773577728969
 20
183.1186606679488
 11
230.4007031202102
 21
185.8190047046461
 97
        0
 92
        1
 93
        3
 72
     1
 10
228.7098119013373
 20
188.3992307859043
 11
228.7098119013373
 21
186.7499188592988
 72
     1
 10
228.7098119013373
 20
186.7499188592988
 11
228.8807489917698
 21
186.7499188592988
 72
     4
 94
        3
 73
     0
 74
     0
 95
       29
 96
       25
 40
0.0
 40
0.0
 40
0.0
 40
0.0
 40
0.120355667163128
 40
0.120355667163128
 40
0.120355667163128
 40
0.2363519504887718
 40
0.2363519504887718
 40
0.2363519504887718
 40
0.3551316836966587
 40
0.3551316836966587
 40
0.4739114169045465
 40
0.4739114169045465
 40
0.5942337440501996
 40
0.5942337440501996
 40
0.7145560711958533
 40
0.7145560711958533
 40
0.7145560711958533
 40
0.8303426976884648
 40
0.8303426976884648
 40
0.8303426976884648
 40
0.9506957818555967
 40
0.9506957818555967
 40
0.9506957818555967
 40
1.0
 40
1.0
 40
1.0
 40
1.0
 10
228.8807489917698
 20
186.7499188592988
 10
229.019346632661
 20
186.7499188592988
 10
229.1579442735522
 20
186.7591587020248
 10
229.2965419144435
 20
186.7799483481585
 10
229.4373986855855
 20
186.8010768638298
 10
229.5644973534998
 20
186.8376973651965
 10
229.6799953875758
 20
186.8954463822346
 10
229.7964174059245
 20
186.9536573914089
 10
229.8902018095942
 20
187.0340440231258
 10
230.0287994504854
 20
187.2511803271887
 10
230.0634488607082
 20
187.3967078501244
 10
230.0634488607082
 20
187.7547517557601
 10
230.0287994504854
 20
187.8979693180144
 10
229.8902018095942
 20
188.1151056220773
 10
229.7978033823333
 20
188.198264206612
 10
229.6799953875758
 20
188.25601322365
 10
229.5649627826514
 20
188.3124017554757
 10
229.4374495160162
 20
188.3484116509108
 10
229.2965419144435
 20
188.3692012970445
 10
229.1578950608181
 20
188.3896573902023
 10
229.019346632661
 20
188.3992307859043
 10
228.8807489917698
 20
188.3992307859043
 10
228.8237699616256
 20
188.3992307859043
 10
228.7667909314815
 20
188.3992307859043
 10
228.7098119013373
 20
188.3992307859043
 97
        0
 75
     0
 76
     1
 98
        0
  0
HATCH
  5
201
330
1BC
100
AcDbEntity
  8
Default
  6
Continuous
 62
     7
100
AcDbHatch
 10
0.0
 20
0.0
 30
0.0
210
0.0
220
0.0
230
1.0
  2
SOLID
 70
     1
 71
     0
 91
        1
 92
        1
 93
       11
 72
     4
 94
        3
 73
     0
 74
     0
 95
       16
 96
       12
 40
0.0
 40
0.0
 40
0.0
 40
0.0
 40
0.3392889644065707
 40
0.3392889644065707
 40
0.3392889644065707
 40
0.3618671566114537
 40
0.3618671566114537
 40
0.3835422211281416
 40
0.3835422211281416
 40
0.3835422211281416
 40
1.0
 40
1.0
 40
1.0
 40
1.0
 10
236.7785045618878
 20
189.7112884530078
 10
235.6219842473399
 20
189.7112884530078
 10
234.4654639327921
 20
189.7112884530078
 10
233.3089436182443
 20
189.7112884530078
 10
233.2304049550725
 20
189.7112884530078
 10
233.1634160953085
 20
189.6835689248296
 10
233.050228021914
 20
189.5703808514351
 10
233.0225084937357
 20
189.503391991671
 10
233.0225084937357
 20
189.4225433678178
 10
233.0225084937357
 20
187.3212491345281
 10
233.0225084937357
 20
185.2199549012385
 10
233.0225084937357
 20
183.1186606679488
 72
     1
 10
233.0225084937357
 20
183.1186606679488
 11
236.7785045618878
 21
183.1186606679488
 72
     1
 10
236.7785045618878
 20
183.1186606679488
 11
236.7785045618878
 21
184.5693159759436
 72
     1
 10
236.7785045618878
 20
184.5693159759436
 11
234.7318793980608
 21
184.5693159759436
 72
     1
 10
234.7318793980608
 20
184.5693159759436
 11
234.7318793980608
 21
185.7035066705701
 72
     1
 10
234.7318793980608
 20
185.7035066705701
 11
236.6791762525824
 21
185.7035066705701
 72
     1
 10
236.6791762525824
 20
185.7035066705701
 11
236.6791762525824
 21
187.1610918606094
 72
     1
 10
236.6791762525824
 20
187.1610918606094
 11
234.7318793980608
 21
187.1610918606094
 72
     1
 10
234.7318793980608
 20
187.1610918606094
 11
234.7318793980608
 21
188.260633145013
 72
     1
 10
234.7318793980608
 20
188.260633145013
 11
236.7785045618878
 21
188.260633145013
 72
     1
 10
236.7785045618878
 20
188.260633145013
 11
236.7785045618878
 21
189.7112884530078
 97
        0
 75
     0
 76
     1
 98
        0
  0
HATCH
  5
202
330
1BC
100
AcDbEntity
  8
Default
  6
Continuous
 62
     7
100
AcDbHatch
 10
0.0
 20
0.0
 30
0.0
210
0.0
220
0.0
230
1.0
  2
SOLID
 70
     1
 71
     0
 91
        1
 92
        1
 93
        6
 72
     4
 94
        3
 73
     0
 74
     0
 95
       51
 96
       47
 40
0.0
 40
0.0
 40
0.0
 40
0.0
 40
0.0903181127538991
 40
0.0903181127538991
 40
0.1806362255077987
 40
0.1806362255077987
 40
0.2505107113883491
 40
0.2505107113883491
 40
0.2505107113883491
 40
0.3153180737852943
 40
0.3153180737852943
 40
0.3153180737852943
 40
0.3800992723712822
 40
0.3800992723712822
 40
0.3800992723712822
 40
0.4521169206302595
 40
0.4521169206302595
 40
0.5213407808102242
 40
0.5213407808102242
 40
0.5213407808102242
 40
0.5850582814386294
 40
0.5850582814386294
 40
0.5850582814386294
 40
0.6488037906897904
 40
0.6488037906897904
 40
0.6488037906897904
 40
0.718817254308538
 40
0.718817254308538
 40
0.7944820288920282
 40
0.7944820288920282
 40
0.7944820288920282
 40
0.8697367480753329
 40
0.8697367480753329
 40
0.8697367480753329
 40
0.9013515779285247
 40
0.9013515779285247
 40
0.9013515779285247
 40
0.9306379885930884
 40
0.9306379885930884
 40
0.9599243992576518
 40
0.9599243992576518
 40
0.9599243992576518
 40
0.9904597959709778
 40
0.9904597959709778
 40
0.9904597959709778
 40
1.0
 40
1.0
 40
1.0
 40
1.0
 10
243.8839436182442
 20
188.0642864870838
 10
243.5998184544173
 20
188.6879758710943
 10
243.2025052171957
 20
189.1522779680799
 10
242.1815025959638
 20
189.7621075880012
 10
241.587842700813
 20
189.9145649929816
 10
240.3751133430149
 20
189.9145649929816
 10
239.8889361806183
 20
189.8341932957806
 10
239.4488191097252
 20
189.6627792786959
 10
239.0099265802364
 20
189.4918421882634
 10
238.6322480402607
 20
189.2527697814501
 10
238.3192483364618
 20
188.9420715460616
 10
238.005093683775
 20
188.6302268540563
 10
237.760544896821
 20
188.2567974339103
 10
237.5893007611014
 20
187.8194306548426
 10
237.4183636706689
 20
187.3828480860353
 10
237.3328951254526
 20
186.8954463822346
 10
237.3328951254526
 20
185.8444142721428
 10
237.4171718734448
 20
185.3703943388921
 10
237.5893007611014
 20
184.9412196456684
 10
237.7625478122154
 20
184.5092569982241
 10
237.9993189146371
 20
184.1408007708237
 10
238.3076985330542
 20
183.8370584399017
 10
238.6149233036964
 20
183.5344535906225
 10
238.9865243210358
 20
183.2957482068854
 10
239.4187896208655
 20
183.1279005106749
 10
239.8530622289913
 20
182.9592733809239
 10
240.3289141293845
 20
182.8761147963892
 10
241.4007358856099
 20
182.8761147963892
 10
241.9127013576763
 20
182.9796945600658
 10
242.3801592145745
 20
183.1833395670314
 10
242.8467712722416
 20
183.3866161070052
 10
243.2385391943749
 20
183.7215892555586
 10
243.567479004876
 20
184.1766226600851
 10
243.7060766457672
 20
184.3683493966513
 10
243.8103238022207
 20
184.5608514719727
 10
243.8839436182442
 20
184.7518028697837
 10
243.9578623600529
 20
184.9435296063499
 10
244.0109914557279
 20
185.1398762642791
 10
244.0849101975365
 20
185.5371895015006
 10
244.1057071113542
 20
185.738285445568
 10
244.1172496470778
 20
185.9437425814482
 10
244.1287994504854
 20
186.1493290821035
 10
244.1426592145745
 20
186.3618454648034
 10
244.1426592145745
 20
186.5789817688662
 10
244.1426592145745
 20
186.6452006417365
 10
244.1426592145745
 20
186.7114195146068
 10
244.1426592145745
 20
186.777638387477
 72
     1
 10
244.1426592145745
 20
186.777638387477
 11
240.8347955186374
 21
186.777638387477
 72
     1
 10
240.8347955186374
 20
186.777638387477
 11
240.8347955186374
 21
185.4332412708322
 72
     1
 10
240.8347955186374
 20
185.4332412708322
 11
242.3339600009441
 21
185.4332412708322
 72
     4
 94
        3
 73
     0
 74
     0
 95
       43
 96
       39
 40
0.0
 40
0.0
 40
0.0
 40
0.0
 40
0.0528407008768927
 40
0.0528407008768927
 40
0.0528407008768927
 40
0.101808017531148
 40
0.101808017531148
 40
0.101808017531148
 40
0.1527424680033737
 40
0.1527424680033737
 40
0.1527424680033737
 40
0.2046872249080309
 40
0.2046872249080309
 40
0.285201598110253
 40
0.285201598110253
 40
0.285201598110253
 40
0.3575698737778739
 40
0.3575698737778739
 40
0.3575698737778739
 40
0.4340109897737078
 40
0.4340109897737078
 40
0.5104521057695417
 40
0.5104521057695417
 40
0.5848456918726302
 40
0.5848456918726302
 40
0.5848456918726302
 40
0.6593973023253275
 40
0.6593973023253275
 40
0.6593973023253275
 40
0.7322081321972964
 40
0.7322081321972964
 40
0.7322081321972964
 40
0.808821291350857
 40
0.808821291350857
 40
0.9050626152462398
 40
0.9050626152462398
 40
0.9050626152462398
 40
1.0
 40
1.0
 40
1.0
 40
1.0
 10
242.3339600009441
 20
185.4332412708322
 10
242.315480315492
 20
185.241514534266
 10
242.2630012238817
 20
185.0747989756085
 10
242.1768826746007
 20
184.9342897636238
 10
242.089104168703
 20
184.7910722013695
 10
241.9813056983178
 20
184.6698654279918
 10
241.8488682578248
 20
184.5762458579881
 10
241.7148905382967
 20
184.4815374700458
 10
241.5619922405099
 20
184.4091217718955
 10
241.3914960428838
 20
184.3591095539252
 10
241.2182489917698
 20
184.3082904189318
 10
241.0403820192927
 20
184.2851908121166
 10
240.5691500402626
 20
184.2851908121166
 10
240.3206481660817
 20
184.3447157269266
 10
240.104847943277
 20
184.4630577845936
 10
239.8900215998956
 20
184.5808657793512
 10
239.7109534478642
 20
184.7387746915399
 10
239.5643171438012
 20
184.9342897636238
 10
239.4187896208655
 20
185.1283264608715
 10
239.3079115081525
 20
185.3500826862975
 10
239.1554541031722
 20
185.8397943507798
 10
239.1161847715863
 20
186.089270104384
 10
239.1161847715863
 20
186.5997714149999
 10
239.1546578089098
 20
186.848808629735
 10
239.2270628842993
 20
187.0987229222083
 10
239.2986716654264
 20
187.345888715131
 10
239.4057198468884
 20
187.5687407332931
 10
239.5481474190306
 20
187.7663015591677
 10
239.6913649812849
 20
187.9649581777784
 10
239.8686747464151
 20
188.1276436800246
 10
240.0840582971433
 20
188.2490833416055
 10
240.3011946012062
 20
188.371511257726
 10
240.5460504334474
 20
188.4315702354455
 10
241.1766696995024
 20
188.4315702354455
 10
241.4721172585773
 20
188.3365769023392
 10
241.7148905382967
 20
188.1428251502555
 10
241.9551264491748
 20
187.9510984136893
 10
242.1353033823333
 20
187.6970027387221
 10
242.2554213377724
 20
187.3782281646723
 72
     1
 10
242.2554213377724
 20
187.3782281646723
 11
243.8839436182442
 21
188.0642864870838
 97
        0
 75
     0
 76
     1
 98
        0
  0
HATCH
  5
203
330
1BC
100
AcDbEntity
  8
Default
  6
Continuous
 62
     7
100
AcDbHatch
 10
0.0
 20
0.0
 30
0.0
210
0.0
220
0.0
230
1.0
  2
SOLID
 70
     1
 71
     0
 91
        2
 92
        1
 93
        1
 72
     4
 94
        3
 73
     0
 74
     0
 95
       49
 96
       45
 40
0.0
 40
0.0
 40
0.0
 40
0.0
 40
0.0620905351842325
 40
0.0620905351842325
 40
0.0620905351842325
 40
0.1225274789213882
 40
0.1225274789213882
 40
0.1225274789213882
 40
0.1824107500595676
 40
0.1824107500595676
 40
0.1824107500595676
 40
0.2443092731117129
 40
0.2443092731117129
 40
0.3113899980938052
 40
0.3113899980938052
 40
0.3113899980938052
 40
0.373038281101099
 40
0.373038281101099
 40
0.4342493422430935
 40
0.4342493422430935
 40
0.4342493422430935
 40
0.5005101029271146
 40
0.5005101029271146
 40
0.5664827733472912
 40
0.5664827733472912
 40
0.5664827733472912
 40
0.6277456785228048
 40
0.6277456785228048
 40
0.6277456785228048
 40
0.6890483024008142
 40
0.6890483024008142
 40
0.6890483024008142
 40
0.7561017319004357
 40
0.7561017319004357
 40
0.8179750681339922
 40
0.8179750681339922
 40
0.8179750681339922
 40
0.8779262347345869
 40
0.8779262347345869
 40
0.8779262347345869
 40
0.9382003516792404
 40
0.9382003516792404
 40
0.9382003516792404
 40
1.0
 40
1.0
 40
1.0
 40
1.0
 10
248.4438060035654
 20
189.9492144032044
 10
247.9656441424906
 20
189.9469044425229
 10
247.5072164315149
 20
189.8665311947464
 10
247.0670694373792
 20
189.6997386496002
 10
246.6281769078904
 20
189.5334214805307
 10
246.2389407961124
 20
189.2988270091107
 10
245.9005392932115
 20
188.997510602418
 10
245.5632850337095
 20
188.6972157138204
 10
245.2957954536029
 20
188.335504780128
 10
245.0920530546794
 20
187.918758964148
 10
244.8887765147056
 20
187.5029660414744
 10
244.7871382447187
 20
187.0455938265333
 10
244.7871382447187
 20
186.0107314412123
 10
244.8803465126443
 20
185.521351265914
 10
245.0620235658196
 20
185.0775073258781
 10
245.2445104596597
 20
184.6316849143446
 10
245.4962961739454
 20
184.2482314412123
 10
246.1453951254526
 20
183.5991324897051
 10
246.530680710158
 20
183.3461490497318
 10
246.9792909314815
 20
183.1671698422608
 10
247.4251133430149
 20
182.9893028697837
 10
247.9125150468157
 20
182.8992144032044
 10
248.9727869996335
 20
182.8992144032044
 10
249.4629767181928
 20
182.9881138634896
 10
249.9083210756492
 20
183.1671698422608
 10
250.3564534478642
 20
183.3473467754193
 10
250.7410617834882
 20
183.5979940082417
 10
251.0609914557278
 20
183.9225269851179
 10
251.3820759904592
 20
184.2482314412123
 10
251.6330488643873
 20
184.6320193642835
 10
251.816348598585
 20
185.0775073258781
 10
251.9988354924251
 20
185.52101977673
 10
252.0889239590044
 20
186.0107314412123
 10
252.0889239590044
 20
187.0455938265333
 10
251.9868172819147
 20
187.5016305829262
 10
251.7863191097253
 20
187.918758964148
 10
251.585352530433
 20
188.3368618475032
 10
251.3129086463213
 20
188.694787784671
 10
250.9755229105116
 20
188.997510602418
 10
250.6382686510096
 20
189.3001154516972
 10
250.2509557040483
 20
189.5354457704455
 10
249.8136126877069
 20
189.6997386496002
 10
249.3770301188996
 20
189.8637458579882
 10
248.9196356399268
 20
189.9515130970999
 10
248.4438060035654
 20
189.9492144032044
 97
        0
 92
        1
 93
        1
 72
     4
 94
        3
 73
     0
 74
     0
 95
       47
 96
       43
 40
0.0
 40
0.0
 40
0.0
 40
0.0
 40
0.0637917384076936
 40
0.0637917384076936
 40
0.0637917384076936
 40
0.1265834997779105
 40
0.1265834997779105
 40
0.1893752611481285
 40
0.1893752611481285
 40
0.1893752611481285
 40
0.2604081010642026
 40
0.2604081010642026
 40
0.3159741129340349
 40
0.3159741129340349
 40
0.3159741129340349
 40
0.3751091105868485
 40
0.3751091105868485
 40
0.3751091105868485
 40
0.435995169879425
 40
0.435995169879425
 40
0.435995169879425
 40
0.4997689343159712
 40
0.4997689343159712
 40
0.5635426987525196
 40
0.5635426987525196
 40
0.5635426987525196
 40
0.624232315369434
 40
0.624232315369434
 40
0.624232315369434
 40
0.6835869381889372
 40
0.6835869381889372
 40
0.6835869381889372
 40
0.7357943705008892
 40
0.7357943705008892
 40
0.8025337685079206
 40
0.8025337685079206
 40
0.8692731665149518
 40
0.8692731665149518
 40
0.9360125645219831
 40
0.9360125645219831
 40
0.9360125645219831
 40
1.0
 40
1.0
 40
1.0
 40
1.0
 10
248.4438060035654
 20
184.5693159759436
 10
248.7025215998956
 20
184.5693159759436
 10
248.9450674714552
 20
184.620135110937
 10
249.1691336575627
 20
184.7194634202424
 10
249.3951304192655
 20
184.8196475517189
 10
249.5941664229625
 20
184.9550794097575
 10
249.9314206824644
 20
185.3061934333486
 10
250.0653984019926
 20
185.5140898946854
 10
250.160106789935
 20
185.752015844882
 10
250.2551311293749
 20
185.9907355268896
 10
250.3056343128707
 20
186.2509673520904
 10
250.3056343128707
 20
186.7614686627064
 10
250.2571251385588
 20
186.9809149274508
 10
250.160106789935
 20
187.1934313101507
 10
250.0643595068875
 20
187.4031634539689
 10
249.9314206824644
 20
187.5907445473721
 10
249.7627935527134
 20
187.7547517557601
 10
249.5953209577949
 20
187.9176360604069
 10
249.3955098043517
 20
188.0458068016317
 10
249.1691336575627
 20
188.140515189574
 10
248.9439009259591
 20
188.2347452099388
 10
248.7025215998956
 20
188.2860427125098
 10
248.1850904072351
 20
188.2860427125098
 10
247.9425445356754
 20
188.2375335381978
 10
247.7161683888864
 20
188.140515189574
 10
247.4925801256786
 20
188.0446916481992
 10
247.2934455841682
 20
187.9164490034665
 10
247.1248184544172
 20
187.7547517557601
 10
246.9550373605366
 20
187.5919479671074
 10
246.8222136051381
 20
187.403637732169
 10
246.7228852958327
 20
187.1934313101507
 10
246.622664698655
 20
186.9813365579839
 10
246.5727378515339
 20
186.7614686627064
 10
246.5727378515339
 20
186.2509673520904
 10
246.6235569865273
 20
185.9899417950786
 10
246.8222136051381
 20
185.5140898946854
 10
246.9561913246663
 20
185.3061934333486
 10
247.2934455841682
 20
184.9550794097575
 10
247.492102202779
 20
184.8187917295478
 10
247.7161683888864
 20
184.7194634202424
 10
247.9421651505893
 20
184.6192792887659
 10
248.1850904072351
 20
184.5693159759436
 10
248.4438060035654
 20
184.5693159759436
 97
        0
 75
     0
 76
     1
 98
        0
  0
HATCH
  5
204
330
1BC
100
AcDbEntity
  8
Default
  6
Continuous
 62
     7
100
AcDbHatch
 10
0.0
 20
0.0
 30
0.0
210
0.0
220
0.0
230
1.0
  2
SOLID
 70
     1
 71
     0
 91
        1
 92
        1
 93
        4
 72
     1
 10
255.0710831988471
 20
185.7035066705701
 11
255.0710831988471
 21
187.1610918606094
 72
     1
 10
255.0710831988471
 20
187.1610918606094
 11
252.9366795291224
 21
187.1610918606094
 72
     1
 10
252.9366795291224
 20
187.1610918606094
 11
252.9366795291224
 21
185.70350667057
 72
     1
 10
252.9366795291224
 20
185.70350667057
 11
255.0710831988471
 21
185.7035066705701
 97
        0
 75
     0
 76
     1
 98
        0
  0
HATCH
  5
205
330
1BC
100
AcDbEntity
  8
Default
  6
Continuous
 62
     7
100
AcDbHatch
 10
0.0
 20
0.0
 30
0.0
210
0.0
220
0.0
230
1.0
  2
SOLID
 70
     1
 71
     0
 91
        1
 92
        1
 93
        9
 72
     4
 94
        3
 73
     0
 74
     0
 95
       16
 96
       12
 40
0.0
 40
0.0
 40
0.0
 40
0.0
 40
0.3396620468027166
 40
0.3396620468027166
 40
0.3396620468027166
 40
0.3623316833330921
 40
0.3623316833330921
 40
0.3840945344022499
 40
0.3840945344022499
 40
0.3840945344022499
 40
1.0
 40
1.0
 40
1.0
 40
1.0
 10
259.5870563312193
 20
189.7112884530078
 10
258.42822605599
 20
189.7112884530078
 10
257.2693957807606
 20
189.7112884530078
 10
256.1105655055312
 20
189.7112884530078
 10
256.0297168816781
 20
189.7112884530078
 10
255.962728021914
 20
189.6835689248296
 10
255.8495399485194
 20
189.5703808514351
 10
255.8218204203412
 20
189.503391991671
 10
255.8218204203412
 20
189.4225433678178
 10
255.8218204203412
 20
187.3212491345281
 10
255.8218204203412
 20
185.2199549012385
 10
255.8218204203412
 20
183.1186606679488
 72
     1
 10
255.8218204203412
 20
183.1186606679488
 11
257.5404311673923
 21
183.1186606679488
 72
     1
 10
257.5404311673923
 20
183.1186606679488
 11
257.5404311673923
 21
185.7035066705701
 72
     1
 10
257.5404311673923
 20
185.7035066705701
 11
259.4877280219139
 21
185.7035066705701
 72
     1
 10
259.4877280219139
 20
185.7035066705701
 11
259.4877280219139
 21
187.1610918606094
 72
     1
 10
259.4877280219139
 20
187.1610918606094
 11
257.5404311673923
 21
187.1610918606094
 72
     1
 10
257.5404311673923
 20
187.1610918606094
 11
257.5404311673923
 21
188.260633145013
 72
     1
 10
257.5404311673923
 20
188.260633145013
 11
259.5870563312194
 21
188.260633145013
 72
     1
 10
259.5870563312193
 20
188.260633145013
 11
259.5870563312193
 21
189.7112884530078
 97
        0
 75
     0
 76
     1
 98
        0
  0
HATCH
  5
206
330
1BC
100
AcDbEntity
  8
Default
  6
Continuous
 62
     7
100
AcDbHatch
 10
0.0
 20
0.0
 30
0.0
210
0.0
220
0.0
230
1.0
  2
SOLID
 70
     1
 71
     0
 91
        1
 92
        1
 93
        4
 72
     4
 94
        3
 73
     0
 74
     0
 95
       14
 96
       10
 40
0.0
 40
0.0
 40
0.0
 40
0.0
 40
0.7580098693161609
 40
0.7580098693161609
 40
0.7580098693161609
 40
0.8789822868889446
 40
0.8789822868889446
 40
0.8789822868889446
 40
1.0
 40
1.0
 40
1.0
 40
1.0
 10
262.1857620979297
 20
189.7274581777785
 10
261.7114501713242
 20
189.7274581777785
 10
261.2371382447187
 20
189.7274581777785
 10
260.7628263181132
 20
189.7274581777785
 10
260.68197769426
 20
189.7274581777785
 10
260.6172507110666
 20
189.6973825281723
 10
260.5595497781394
 20
189.6419896325622
 10
260.5018007611014
 20
189.5865505762057
 10
260.4740812329231
 20
189.5195617164416
 10
260.4740812329231
 20
189.4387130925884
 72
     1
 10
260.4740812329231
 20
189.4387130925884
 11
260.4740812329231
 21
183.1186606679488
 72
     1
 10
260.4740812329231
 20
183.1186606679488
 11
262.1857620979297
 21
183.1186606679488
 72
     1
 10
262.1857620979297
 20
183.1186606679488
 11
262.1857620979297
 21
189.7274581777785
 97
        0
 75
     0
 76
     1
 98
        0
  0
HATCH
  5
207
330
1BC
100
AcDbEntity
  8
Default
  6
Continuous
 62
     7
100
AcDbHatch
 10
0.0
 20
0.0
 30
0.0
210
0.0
220
0.0
230
1.0
  2
SOLID
 70
     1
 71
     0
 91
        1
 92
        1
 93
       12
 72
     1
 10
266.2235733692272
 20
188.0042275093643
 11
265.2095006300398
 21
189.7112884530078
 72
     1
 10
265.2095006300398
 20
189.7112884530078
 11
263.1051264491747
 21
189.7112884530078
 72
     1
 10
263.1051264491747
 20
189.7112884530078
 11
265.2095006300398
 21
186.6436606679488
 72
     1
 10
265.2095006300398
 20
186.6436606679488
 11
262.6269645881001
 21
183.1186606679488
 72
     1
 10
262.6269645881001
 20
183.1186606679488
 11
264.7036192407868
 21
183.1186606679488
 72
     1
 10
264.7036192407868
 20
183.1186606679488
 11
266.2235733692272
 21
185.2646141410812
 72
     1
 10
266.2235733692272
 20
185.2646141410812
 11
267.2561257938668
 21
183.6453317033355
 72
     1
 10
267.2561257938668
 20
183.6453317033355
 11
268.2886782185064
 21
185.1144666967824
 72
     1
 10
268.2886782185064
 20
185.1144666967824
 11
267.226096305007
 21
186.6436606679488
 72
     1
 10
267.226096305007
 20
186.6436606679488
 11
269.3420202892797
 21
189.7112884530078
 72
     1
 10
269.3420202892797
 20
189.7112884530078
 11
267.226096305007
 21
189.7112884530078
 72
     1
 10
267.226096305007
 20
189.7112884530078
 11
266.2235733692272
 21
188.0042275093643
 97
        0
 75
     0
 76
     1
 98
        0
  0
HATCH
  5
208
330
1BC
100
AcDbEntity
  8
Default
  6
Continuous
 62
     7
100
AcDbHatch
 10
0.0
 20
0.0
 30
0.0
210
0.0
220
0.0
230
1.0
  2
SOLID
 70
     1
 71
     0
 91
        1
 92
        1
 93
        3
 72
     4
 94
        3
 73
     0
 74
     0
 95
       13
 96
        9
 40
0.0
 40
0.0
 40
0.0
 40
0.0
 40
0.0445094381088423
 40
0.0445094381088423
 40
0.0908355879772283
 40
0.0908355879772283
 40
0.0908355879772283
 40
1.0
 40
1.0
 40
1.0
 40
1.0
 10
272.7122529236178
 20
189.5334214805307
 10
272.6198544963569
 20
189.6512294752883
 10
272.5159062656886
 20
189.7112884530078
 10
272.2849101975365
 20
189.7112884530078
 10
272.1870447473536
 20
189.6501983627819
 10
272.1047332643779
 20
189.5334214805307
 10
270.697967209332
 20
187.5376154516972
 10
269.2912011542862
 20
185.5418094228636
 10
267.8844350992403
 20
183.5460033940301
 72
     4
 94
        3
 73
     0
 74
     0
 95
       11
 96
        7
 40
0.0
 40
0.0
 40
0.0
 40
0.0
 40
0.3439066424360135
 40
0.3439066424360135
 40
0.3439066424360135
 40
1.0
 40
1.0
 40
1.0
 40
1.0
 10
267.8844350992403
 20
183.5460033940301
 10
267.8313060035653
 20
183.4605348488138
 10
267.8027439506852
 20
183.3911859889177
 10
267.8035864753871
 20
183.3381069326933
 10
267.8058964360686
 20
183.1925794097575
 10
267.9075347060556
 20
183.1186606679488
 10
268.1131212067108
 20
183.1186606679488
 72
     4
 94
        3
 73
     0
 74
     0
 95
       16
 96
       12
 40
0.0
 40
0.0
 40
0.0
 40
0.0
 40
0.5188870924081099
 40
0.5188870924081099
 40
0.5188870924081099
 40
0.544909989588877
 40
0.544909989588877
 40
0.5581347406151689
 40
0.5581347406151689
 40
0.5581347406151689
 40
1.0
 40
1.0
 40
1.0
 40
1.0
 10
268.1131212067108
 20
183.1186606679488
 10
270.9805523993713
 20
183.1186606679488
 10
273.8479835920319
 20
183.1186606679488
 10
276.7154147846925
 20
183.1186606679488
 10
276.9140714033032
 20
183.1186606679488
 10
277.0133997126086
 20
183.1879594883945
 10
277.0133997126086
 20
183.4004758710943
 10
276.9849943017649
 20
183.4716012002038
 10
276.9325510887554
 20
183.5460033940301
 10
275.5257850337095
 20
185.5418094228636
 10
274.1190189786636
 20
187.5376154516972
 10
272.7122529236178
 20
189.5334214805307
 97
        0
 75
     0
 76
     1
 98
        0
  0
ENDBLK
  5
20A
330
1BC
100
AcDbEntity
  8
0
100
AcDbBlockEnd
  0
ENDSEC
  0
SECTION
  2
ENTITIES
  0
INSERT
  5
41
330
1F
100
AcDbEntity
  8
Default
100
AcDbBlockReference
  2
SE
 10
0.0
 20
0.0
 30
0.0
  0
INSERT
  5
146
330
1F
100
AcDbEntity
  8
Default
100
AcDbBlockReference
  2
GDimGGroup
 10
0.0
 20
0.0
 30
0.0
  0
INSERT
  5
151
330
1F
100
AcDbEntity
  8
Default
100
AcDbBlockReference
  2
GDimGGroup1
 10
0.0
 20
0.0
 30
0.0
  0
INSERT
  5
15C
330
1F
100
AcDbEntity
  8
Default
100
AcDbBlockReference
  2
GDimGGroup2
 10
0.0
 20
0.0
 30
0.0
  0
DIMENSION
  5
178
330
1F
100
AcDbEntity
  8
Default
  6
Continuous
 62
     7
100
AcDbDimension
  2
DMBLK84
 10
163.4737519608
 20
139.7946661721
 30
0.0
 11
178.9737522141
 21
139.7946661721
 31
0.0
 70
   160
  1
\A1;<>
 71
     5
 42
-1.0
  3
DIN
100
AcDbAlignedDimension
 13
194.4737519608
 23
113.7949524831
 33
0.0
 14
163.4737519608
 24
122.9449524831
 34
0.0
100
AcDbRotatedDimension
  0
DIMENSION
  5
182
330
1F
100
AcDbEntity
  8
Default
  6
Continuous
 62
     7
100
AcDbDimension
  2
DMBLK85
 10
141.4737519608
 20
148.194666804
 30
0.0
 11
167.9737522737
 21
148.194666804
 31
0.0
 70
   160
  1
\A1;<>
 71
     5
 42
-1.0
  3
DIN
100
AcDbAlignedDimension
 13
194.4737519608
 23
113.7949524831
 33
0.0
 14
141.4737519608
 24
134.4449524831
 34
0.0
100
AcDbRotatedDimension
  0
DIMENSION
  5
18C
330
1F
100
AcDbEntity
  8
Default
  6
Continuous
 62
     7
100
AcDbDimension
  2
DMBLK86
 10
83.4737519608
 20
156.5946674358
 30
0.0
 11
138.9737512456
 21
156.5946674358
 31
0.0
 70
   160
  1
\A1;<>
 71
     5
 42
-1.0
  3
DIN
100
AcDbAlignedDimension
 13
194.4737519608
 23
113.7949524831
 33
0.0
 14
83.4737519608
 24
118.5300152194
 34
0.0
100
AcDbRotatedDimension
  0
DIMENSION
  5
196
330
1F
100
AcDbEntity
  8
Default
  6
Continuous
 62
     7
100
AcDbDimension
  2
DMBLK87
 10
175.4737519608
 20
62.8907814797
 30
0.0
 11
145.4737512903
 21
62.8907814797
 31
0.0
 70
   160
  1
\A1;<>
 71
     5
 42
-1.0
  3
DIN
100
AcDbAlignedDimension
 13
115.4737519608
 23
72.4449524831
 33
0.0
 14
175.4737519608
 24
84.5968756581
 34
0.0
100
AcDbRotatedDimension
  0
DIMENSION
  5
1A0
330
1F
100
AcDbEntity
  8
Default
  6
Continuous
 62
     7
100
AcDbDimension
  2
DMBLK88
 10
175.4737519608
 20
131.394667403
 30
0.0
 11
184.9737522663
 21
131.394667403
 31
0.0
 70
   160
  1
\A1;<>
 71
     5
 42
-1.0
  3
DIN
100
AcDbAlignedDimension
 13
194.4737519608
 23
113.7949524831
 33
0.0
 14
175.4737519608
 24
122.293029308
 34
0.0
100
AcDbRotatedDimension
  0
INSERT
  5
20B
330
1F
100
AcDbEntity
  8
Default
 62
     7
100
AcDbBlockReference
  2
RF-Massblatt_2016
 10
0.0
 20
0.0
 30
0.0
  0
ENDSEC
  0
SECTION
  2
OBJECTS
  0
DICTIONARY
  5
C
330
0
100
AcDbDictionary
281
     1
  3
ACAD_GROUP
350
D
  3
ACAD_LAYOUT
350
1A
  3
ACAD_MATERIAL
350
3B
  3
ACAD_MLEADERSTYLE
350
20E
  3
ACAD_MLINESTYLE
350
17
  3
ACAD_PLOTSETTINGS
350
19
  3
ACAD_PLOTSTYLENAME
350
E
  3
ACAD_VISUALSTYLE
350
2A
  3
AcDbVariableDictionary
350
20C
  0
DICTIONARY
  5
213
330
1BD
100
AcDbDictionary
280
     1
281
     1
  3
ACAD_MTEXT_RT
360
214
  0
DICTIONARY
  5
215
330
1BE
100
AcDbDictionary
280
     1
281
     1
  3
ACAD_MTEXT_RT
360
216
  0
DICTIONARY
  5
217
330
1C1
100
AcDbDictionary
280
     1
281
     1
  3
ACAD_MTEXT_RT
360
218
  0
DICTIONARY
  5
D
102
{ACAD_REACTORS
330
C
102
}
330
C
100
AcDbDictionary
281
     1
  0
DICTIONARY
  5
1A
102
{ACAD_REACTORS
330
C
102
}
330
C
100
AcDbDictionary
281
     1
  3
Layout1
350
1E
  3
Model
350
22
  0
DICTIONARY
  5
3B
102
{ACAD_REACTORS
330
C
102
}
330
C
100
AcDbDictionary
281
     1
  3
ByBlock
350
3D
  3
ByLayer
350
3C
  3
Global
350
3E
  0
DICTIONARY
  5
20E
102
{ACAD_REACTORS
330
C
102
}
330
C
100
AcDbDictionary
281
     1
  0
DICTIONARY
  5
17
102
{ACAD_REACTORS
330
C
102
}
330
C
100
AcDbDictionary
281
     1
  3
Standard
350
18
  0
DICTIONARY
  5
19
102
{ACAD_REACTORS
330
C
102
}
330
C
100
AcDbDictionary
281
     1
  0
ACDBDICTIONARYWDFLT
  5
E
102
{ACAD_REACTORS
330
C
102
}
330
C
100
AcDbDictionary
281
     1
  3
Normal
350
F
100
AcDbDictionaryWithDefault
340
F
  0
DICTIONARY
  5
2A
102
{ACAD_REACTORS
330
C
102
}
330
C
100
AcDbDictionary
281
     1
  3
2dWireframe
350
2F
  3
3D Hidden
350
31
  3
3dWireframe
350
30
  3
Basic
350
32
  3
Brighten
350
36
  3
ColorChange
350
3A
  3
Conceptual
350
34
  3
Dim
350
35
  3
Facepattern
350
39
  3
Flat
350
2B
  3
FlatWithEdges
350
2C
  3
Gouraud
350
2D
  3
GouraudWithEdges
350
2E
  3
Linepattern
350
38
  3
Realistic
350
33
  3
Thicken
350
37
  0
DICTIONARY
  5
20C
102
{ACAD_REACTORS
330
C
102
}
330
C
100
AcDbDictionary
281
     1
  3
DIMASSOC
350
211
  3
HIDETEXT
350
212
  3
PSOLHEIGHT
350
210
  3
PSOLWIDTH
350
20F
  0
XRECORD
  5
214
102
{ACAD_REACTORS
330
213
102
}
330
213
100
AcDbXrecord
280
     1
 40
10118767.0
  1
\pxsm1.;{\fVectora Com 45 Light|b1||i0||c0|p34;\C7;\H2.5;\W1.;REGO-FIX AG\P}{\fVectora Com 45 Light|b0||i0||c0|p34;\C7;\H2.5;\W1.;Obermattweg 60\P}{\fVectora Com 45 Light|b0||i0||c0|p34;\C7;\H2.5;\W1.;4456 Tenniken / Switzerland\P}{\fVectora Com 45 L
  1
ight|b0||i0||c0|p34;\C7;\H2.5;\W1.;\P}{\fVectora Com 45 Light|b0||i0||c0|p34;\C7;\H2.5;\W1.;P +41 61 976 14 66\P}{\fVectora Com 45 Light|b0||i0||c0|p34;\C7;\H2.5;\W1.;F +41 61 976 14 14\P}{\fVectora Com 45 Light|b1||i0||c0|p34;\C7;\H2.5;\W1.;www.rego
  1
-fix.com}
  0
XRECORD
  5
216
102
{ACAD_REACTORS
330
215
102
}
330
215
100
AcDbXrecord
280
     1
 40
47111022.0
  1
\pxsm1.;{\fSolid Edge ISO|b0||i0||c0|p34;\C7;\H2.;\W1.;This is a non-controlled copy. All information given herein is subject to change without notice\P}{\fSolid Edge ISO|b0||i0||c0|p34;\C7;\H2.;\W1.;\P}{\fSolid Edge ISO|b0||i0||c0|p34;\C7;\H2.;\W1.;
  1
The information given herein has been carefully checked and is believed to be correct. REGO-FIX,\P}{\fSolid Edge ISO|b0||i0||c0|p34;\C7;\H2.;\W1.;however, assumes no responsibility or liability for any errors, inaccuracies or omissions that may appea
  1
r\P}{\fSolid Edge ISO|b0||i0||c0|p34;\C7;\H2.;\W1.;in this drawing\P}{\fSolid Edge ISO|b0||i0||c0|p34;\C7;\H2.;\W1.;\P}{\fSolid Edge ISO|b0||i0||c0|p34;\C7;\H2.;\W1.;This document is subject to copyright laws. No part of this document may be reproduc
  1
ed or transmitted\P}{\fSolid Edge ISO|b0||i0||c0|p34;\C7;\H2.;\W1.;in any form or any means, electronic or mechanic, for any purpose, without the express written permission\P}{\fSolid Edge ISO|b0||i0||c0|p34;\C7;\H2.;\W1.;of REGO-FIX\P}{\fSolid Edge 
  1
ISO|b0||i0||c0|p34;\C7;\H1.5;\W1.;\P}
  0
XRECORD
  5
218
102
{ACAD_REACTORS
330
217
102
}
330
217
100
AcDbXrecord
280
     1
 40
2697483.0
  1
\pxsm1.;{\fVectora Com 45 Light|b0||i0||c0|p34;\C7;\H3.5;\W1.;Type :\P}{\fVectora Com 45 Light|b0||i0||c0|p34;\C7;\H3.5;\W1.;Part No. :\P}{\fVectora Com 45 Light|b0||i0||c0|p34;\C7;\H3.5;\W1.;Date : \P}{\fVectora Com 45 Light|b0||i0||c0|p34;\C7;\H3.5
  1
;\W1.;Scale :}
  0
LAYOUT
  5
1E
102
{ACAD_REACTORS
330
1A
102
}
330
1A
100
AcDbPlotSettings
  1

  2
none_device
  4

  6

 40
0.0
 41
0.0
 42
0.0
 43
0.0
 44
0.0
 45
0.0
 46
0.0
 47
0.0
 48
0.0
 49
0.0
140
0.0
141
0.0
142
1.0
143
1.0
 70
   688
 72
     0
 73
     0
 74
     5
  7

 75
    16
147
1.0
148
0.0
149
0.0
100
AcDbLayout
  1
Layout1
 70
     1
 71
     1
 10
0.0
 20
0.0
 11
297.0
 21
210.0
 12
0.0
 22
0.0
 32
0.0
 14
0.0
 24
0.0
 34
0.0
 15
297.0
 25
210.0
 35
0.0
146
0.0
 13
0.0
 23
0.0
 33
0.0
 16
1.0
 26
0.0
 36
0.0
 17
0.0
 27
1.0
 37
0.0
 76
     0
330
1B
  0
LAYOUT
  5
22
102
{ACAD_REACTORS
330
1A
102
}
330
1A
100
AcDbPlotSettings
  1

  2
none_device
  4

  6

 40
0.0
 41
0.0
 42
0.0
 43
0.0
 44
0.0
 45
0.0
 46
0.0
 47
0.0
 48
0.0
 49
0.0
140
0.0
141
0.0
142
1.0
143
1.0
 70
  1712
 72
     0
 73
     0
 74
     0
  7

 75
     0
147
1.0
148
0.0
149
0.0
100
AcDbLayout
  1
Model
 70
     1
 71
     0
 10
0.0
 20
0.0
 11
297.0
 21
210.0
 12
0.0
 22
0.0
 32
0.0
 14
0.0
 24
0.0
 34
0.0
 15
297.0
 25
210.0
 35
0.0
146
0.0
 13
0.0
 23
0.0
 33
0.0
 16
1.0
 26
0.0
 36
0.0
 17
0.0
 27
1.0
 37
0.0
 76
     0
330
1F
331
29
  0
MATERIAL
  5
3D
102
{ACAD_REACTORS
330
3B
102
}
102
{ACAD_XDICTIONARY
360
23B
102
}
330
3B
100
AcDbMaterial
  1
ByBlock
  0
MATERIAL
  5
3C
102
{ACAD_REACTORS
330
3B
102
}
102
{ACAD_XDICTIONARY
360
239
102
}
330
3B
100
AcDbMaterial
  1
ByLayer
  0
MATERIAL
  5
3E
102
{ACAD_REACTORS
330
3B
102
}
102
{ACAD_XDICTIONARY
360
23D
102
}
330
3B
100
AcDbMaterial
  1
Global
  0
MLINESTYLE
  5
18
102
{ACAD_REACTORS
330
17
102
}
330
17
100
AcDbMlineStyle
  2
Standard
 70
     0
  3

 62
   256
 51
90.0
 52
90.0
 71
     2
 49
0.5
 62
   256
  6
BYLAYER
 49
-0.5
 62
   256
  6
BYLAYER
  0
ACDBPLACEHOLDER
  5
F
102
{ACAD_REACTORS
330
E
102
}
330
E
  0
VISUALSTYLE
  5
2F
102
{ACAD_REACTORS
330
2A
102
}
102
{ACAD_XDICTIONARY
360
221
102
}
330
2A
100
AcDbVisualStyle
  2
2dWireframe
 70
     4
 71
     0
 72
     2
 73
     0
 90
        0
 40
-0.6
 41
-30.0
 62
     5
 63
     7
 74
     1
 91
        4
 64
     7
 65
   257
 75
     1
175
     1
 42
1.0
 92
        0
 66
   257
 43
1.0
 76
     1
 77
     6
 78
     2
 67
     7
 79
     5
170
     0
171
     0
290
     0
174
     0
 93
        1
 44
0.0
173
     0
291
     0
 45
0.0
1001
ACAD
1000
AcDbSavedByObjectVersion
1070
     0
  0
VISUALSTYLE
  5
31
102
{ACAD_REACTORS
330
2A
102
}
102
{ACAD_XDICTIONARY
360
225
102
}
330
2A
100
AcDbVisualStyle
  2
3D Hidden
 70
     6
 71
     1
 72
     2
 73
     2
 90
        0
 40
-0.6
 41
-30.0
 62
     5
 63
     7
 74
     2
 91
        2
 64
     7
 65
   257
 75
     2
175
     1
 42
40.0
 92
        0
 66
   257
 43
1.0
 76
     1
 77
     6
 78
     2
 67
     7
 79
     3
170
     0
171
     0
290
     0
174
     0
 93
        1
 44
0.0
173
     0
291
     0
 45
0.0
1001
ACAD
1000
AcDbSavedByObjectVersion
1070
     0
  0
VISUALSTYLE
  5
30
102
{ACAD_REACTORS
330
2A
102
}
102
{ACAD_XDICTIONARY
360
223
102
}
330
2A
100
AcDbVisualStyle
  2
3dWireframe
 70
     5
 71
     0
 72
     2
 73
     0
 90
        0
 40
-0.6
 41
-30.0
 62
     5
 63
     7
 74
     1
 91
        4
 64
     7
 65
   257
 75
     1
175
     1
 42
1.0
 92
        0
 66
   257
 43
1.0
 76
     1
 77
     6
 78
     2
 67
     7
 79
     5
170
     0
171
     0
290
     0
174
     0
 93
        1
 44
0.0
173
     0
291
     0
 45
0.0
1001
ACAD
1000
AcDbSavedByObjectVersion
1070
     0
  0
VISUALSTYLE
  5
32
102
{ACAD_REACTORS
330
2A
102
}
102
{ACAD_XDICTIONARY
360
227
102
}
330
2A
100
AcDbVisualStyle
  2
Basic
 70
     7
 71
     1
 72
     0
 73
     1
 90
        0
 40
-0.6
 41
-30.0
 62
     5
 63
     7
 74
     0
 91
        4
 64
     7
 65
   257
 75
     1
175
     1
 42
1.0
 92
        8
 66
     7
 43
1.0
 76
     1
 77
     6
 78
     2
 67
     7
 79
     5
170
     0
171
     0
290
     0
174
     0
 93
        1
 44
0.0
173
     0
291
     1
 45
0.0
1001
ACAD
1000
AcDbSavedByObjectVersion
1070
     0
  0
VISUALSTYLE
  5
36
102
{ACAD_REACTORS
330
2A
102
}
102
{ACAD_XDICTIONARY
360
22F
102
}
330
2A
100
AcDbVisualStyle
  2
Brighten
 70
    12
 71
     2
 72
     2
 73
     0
 90
        0
 40
-0.6
 41
-30.0
 62
     5
 63
     7
 74
     1
 91
        4
 64
     7
 65
   257
 75
     1
175
     1
 42
1.0
 92
        8
 66
     7
 43
1.0
 76
     1
 77
     6
 78
     2
 67
     7
 79
     5
170
     0
171
     0
290
     0
174
     0
 93
        1
 44
50.0
173
     0
291
     1
 45
0.0
1001
ACAD
1000
AcDbSavedByObjectVersion
1070
     0
  0
VISUALSTYLE
  5
3A
102
{ACAD_REACTORS
330
2A
102
}
102
{ACAD_XDICTIONARY
360
237
102
}
330
2A
100
AcDbVisualStyle
  2
ColorChange
 70
    16
 71
     2
 72
     2
 73
     3
 90
        0
 40
-0.6
 41
-30.0
 62
     5
 63
     8
 74
     1
 91
        4
 64
     7
 65
   257
 75
     1
175
     1
 42
1.0
 92
        8
 66
     8
 43
1.0
 76
     1
 77
     6
 78
     2
 67
     7
 79
     5
170
     0
171
     0
290
     0
174
     0
 93
        1
 44
0.0
173
     0
291
     1
 45
0.0
1001
ACAD
1000
AcDbSavedByObjectVersion
1070
     0
  0
VISUALSTYLE
  5
34
102
{ACAD_REACTORS
330
2A
102
}
102
{ACAD_XDICTIONARY
360
22B
102
}
330
2A
100
AcDbVisualStyle
  2
Conceptual
 70
     9
 71
     3
 72
     2
 73
     0
 90
        0
 40
-0.6
 41
-30.0
 62
     5
 63
     7
 74
     2
 91
        2
 64
     7
 65
   257
 75
     1
175
     1
 42
40.0
 92
        8
 66
     7
 43
1.0
 76
     1
 77
     6
 78
     2
 67
     7
 79
     3
170
     0
171
     0
290
     0
174
     0
 93
        1
 44
0.0
173
     0
291
     0
 45
0.0
1001
ACAD
1000
AcDbSavedByObjectVersion
1070
     0
  0
VISUALSTYLE
  5
35
102
{ACAD_REACTORS
330
2A
102
}
102
{ACAD_XDICTIONARY
360
22D
102
}
330
2A
100
AcDbVisualStyle
  2
Dim
 70
    11
 71
     2
 72
     2
 73
     0
 90
        0
 40
-0.6
 41
-30.0
 62
     5
 63
     7
 74
     1
 91
        4
 64
     7
 65
   257
 75
     1
175
     1
 42
1.0
 92
        8
 66
     7
 43
1.0
 76
     1
 77
     6
 78
     2
 67
     7
 79
     5
170
     0
171
     0
290
     0
174
     0
 93
        1
 44
-50.0
173
     0
291
     1
 45
0.0
1001
ACAD
1000
AcDbSavedByObjectVersion
1070
     0
  0
VISUALSTYLE
  5
39
102
{ACAD_REACTORS
330
2A
102
}
102
{ACAD_XDICTIONARY
360
235
102
}
330
2A
100
AcDbVisualStyle
  2
Facepattern
 70
    15
 71
     2
 72
     2
 73
     0
 90
        0
 40
-0.6
 41
-30.0
 62
     5
 63
     7
 74
     1
 91
        4
 64
     7
 65
   257
 75
     1
175
     1
 42
1.0
 92
        8
 66
     7
 43
1.0
 76
     1
 77
     6
 78
     2
 67
     7
 79
     5
170
     0
171
     0
290
     0
174
     0
 93
        1
 44
0.0
173
     0
291
     1
 45
0.0
1001
ACAD
1000
AcDbSavedByObjectVersion
1070
     0
  0
VISUALSTYLE
  5
2B
102
{ACAD_REACTORS
330
2A
102
}
102
{ACAD_XDICTIONARY
360
219
102
}
330
2A
100
AcDbVisualStyle
  2
Flat
 70
     0
 71
     2
 72
     1
 73
     1
 90
        2
 40
-0.6
 41
30.0
 62
     5
 63
     7
 74
     0
 91
        4
 64
     7
 65
   257
 75
     1
175
     1
 42
1.0
 92
        8
 66
     7
 43
1.0
 76
     1
 77
     6
 78
     2
 67
     7
 79
     5
170
     0
171
     0
290
     0
174
     0
 93
       13
 44
0.0
173
     0
291
     1
 45
0.0
1001
ACAD
1000
AcDbSavedByObjectVersion
1070
     0
  0
VISUALSTYLE
  5
2C
102
{ACAD_REACTORS
330
2A
102
}
102
{ACAD_XDICTIONARY
360
21B
102
}
330
2A
100
AcDbVisualStyle
  2
FlatWithEdges
 70
     1
 71
     2
 72
     1
 73
     1
 90
        2
 40
-0.6
 41
30.0
 62
     5
 63
     7
 74
     1
 91
        4
 64
     7
 65
   257
 75
     1
175
     1
 42
1.0
 92
        0
 66
   257
 43
1.0
 76
     1
 77
     6
 78
     2
 67
     7
 79
     5
170
     0
171
     0
290
     0
174
     0
 93
       13
 44
0.0
173
     0
291
     1
 45
0.0
1001
ACAD
1000
AcDbSavedByObjectVersion
1070
     0
  0
VISUALSTYLE
  5
2D
102
{ACAD_REACTORS
330
2A
102
}
102
{ACAD_XDICTIONARY
360
21D
102
}
330
2A
100
AcDbVisualStyle
  2
Gouraud
 70
     2
 71
     2
 72
     2
 73
     1
 90
        2
 40
-0.6
 41
30.0
 62
     5
 63
     7
 74
     0
 91
        4
 64
     7
 65
   257
 75
     1
175
     1
 42
1.0
 92
        0
 66
     7
 43
1.0
 76
     1
 77
     6
 78
     2
 67
     7
 79
     5
170
     0
171
     0
290
     0
174
     0
 93
       13
 44
0.0
173
     0
291
     1
 45
0.0
1001
ACAD
1000
AcDbSavedByObjectVersion
1070
     0
  0
VISUALSTYLE
  5
2E
102
{ACAD_REACTORS
330
2A
102
}
102
{ACAD_XDICTIONARY
360
21F
102
}
330
2A
100
AcDbVisualStyle
  2
GouraudWithEdges
 70
     3
 71
     2
 72
     2
 73
     1
 90
        2
 40
-0.6
 41
30.0
 62
     5
 63
     7
 74
     1
 91
        4
 64
     7
 65
   257
 75
     1
175
     1
 42
1.0
 92
        0
 66
   257
 43
1.0
 76
     1
 77
     6
 78
     2
 67
     7
 79
     5
170
     0
171
     0
290
     0
174
     0
 93
       13
 44
0.0
173
     0
291
     1
 45
0.0
1001
ACAD
1000
AcDbSavedByObjectVersion
1070
     0
  0
VISUALSTYLE
  5
38
102
{ACAD_REACTORS
330
2A
102
}
102
{ACAD_XDICTIONARY
360
233
102
}
330
2A
100
AcDbVisualStyle
  2
Linepattern
 70
    14
 71
     2
 72
     2
 73
     0
 90
        0
 40
-0.6
 41
-30.0
 62
     5
 63
     7
 74
     1
 91
        4
 64
     7
 65
   257
 75
     7
175
     7
 42
1.0
 92
        8
 66
     7
 43
1.0
 76
     1
 77
     6
 78
     2
 67
     7
 79
     5
170
     0
171
     0
290
     0
174
     0
 93
        1
 44
0.0
173
     0
291
     1
 45
0.0
1001
ACAD
1000
AcDbSavedByObjectVersion
1070
     0
  0
VISUALSTYLE
  5
33
102
{ACAD_REACTORS
330
2A
102
}
102
{ACAD_XDICTIONARY
360
229
102
}
330
2A
100
AcDbVisualStyle
  2
Realistic
 70
     8
 71
     2
 72
     2
 73
     0
 90
        0
 40
-0.6
 41
-30.0
 62
     5
 63
     7
 74
     1
 91
        0
 64
     7
 65
   257
 75
     1
175
     1
 42
1.0
 92
        8
 66
     8
 43
1.0
 76
     1
 77
     6
 78
     2
 67
     7
 79
     5
170
     0
171
     0
290
     0
174
     0
 93
       13
 44
0.0
173
     0
291
     0
 45
0.0
1001
ACAD
1000
AcDbSavedByObjectVersion
1070
     0
  0
VISUALSTYLE
  5
37
102
{ACAD_REACTORS
330
2A
102
}
102
{ACAD_XDICTIONARY
360
231
102
}
330
2A
100
AcDbVisualStyle
  2
Thicken
 70
    13
 71
     2
 72
     2
 73
     0
 90
        0
 40
-0.6
 41
-30.0
 62
     5
 63
     7
 74
     1
 91
        4
 64
     7
 65
   257
 75
     1
175
     1
 42
1.0
 92
       12
 66
     7
 43
1.0
 76
     1
 77
     6
 78
     2
 67
     7
 79
     5
170
     0
171
     0
290
     0
174
     0
 93
        1
 44
0.0
173
     0
291
     1
 45
0.0
1001
ACAD
1000
AcDbSavedByObjectVersion
1070
     0
  0
DICTIONARYVAR
  5
211
102
{ACAD_REACTORS
330
20C
102
}
330
20C
100
DictionaryVariables
280
     0
  1
2
  0
DICTIONARYVAR
  5
212
102
{ACAD_REACTORS
330
20C
102
}
330
20C
100
DictionaryVariables
280
     0
  1
1
  0
DICTIONARYVAR
  5
210
102
{ACAD_REACTORS
330
20C
102
}
330
20C
100
DictionaryVariables
280
     0
  1
80.000000
  0
DICTIONARYVAR
  5
20F
102
{ACAD_REACTORS
330
20C
102
}
330
20C
100
DictionaryVariables
280
     0
  1
5.000000
  0
DICTIONARY
  5
23B
330
3D
100
AcDbDictionary
280
     1
281
     1
  3
ACAD_XREC_ROUNDTRIP
360
23C
  0
DICTIONARY
  5
239
330
3C
100
AcDbDictionary
280
     1
281
     1
  3
ACAD_XREC_ROUNDTRIP
360
23A
  0
DICTIONARY
  5
23D
330
3E
100
AcDbDictionary
280
     1
281
     1
  3
ACAD_XREC_ROUNDTRIP
360
23E
  0
DICTIONARY
  5
221
330
2F
100
AcDbDictionary
280
     1
281
     1
  3
ACAD_XREC_ROUNDTRIP
360
222
  0
DICTIONARY
  5
225
330
31
100
AcDbDictionary
280
     1
281
     1
  3
ACAD_XREC_ROUNDTRIP
360
226
  0
DICTIONARY
  5
223
330
30
100
AcDbDictionary
280
     1
281
     1
  3
ACAD_XREC_ROUNDTRIP
360
224
  0
DICTIONARY
  5
227
330
32
100
AcDbDictionary
280
     1
281
     1
  3
ACAD_XREC_ROUNDTRIP
360
228
  0
DICTIONARY
  5
22F
330
36
100
AcDbDictionary
280
     1
281
     1
  3
ACAD_XREC_ROUNDTRIP
360
230
  0
DICTIONARY
  5
237
330
3A
100
AcDbDictionary
280
     1
281
     1
  3
ACAD_XREC_ROUNDTRIP
360
238
  0
DICTIONARY
  5
22B
330
34
100
AcDbDictionary
280
     1
281
     1
  3
ACAD_XREC_ROUNDTRIP
360
22C
  0
DICTIONARY
  5
22D
330
35
100
AcDbDictionary
280
     1
281
     1
  3
ACAD_XREC_ROUNDTRIP
360
22E
  0
DICTIONARY
  5
235
330
39
100
AcDbDictionary
280
     1
281
     1
  3
ACAD_XREC_ROUNDTRIP
360
236
  0
DICTIONARY
  5
219
330
2B
100
AcDbDictionary
280
     1
281
     1
  3
ACAD_XREC_ROUNDTRIP
360
21A
  0
DICTIONARY
  5
21B
330
2C
100
AcDbDictionary
280
     1
281
     1
  3
ACAD_XREC_ROUNDTRIP
360
21C
  0
DICTIONARY
  5
21D
330
2D
100
AcDbDictionary
280
     1
281
     1
  3
ACAD_XREC_ROUNDTRIP
360
21E
  0
DICTIONARY
  5
21F
330
2E
100
AcDbDictionary
280
     1
281
     1
  3
ACAD_XREC_ROUNDTRIP
360
220
  0
DICTIONARY
  5
233
330
38
100
AcDbDictionary
280
     1
281
     1
  3
ACAD_XREC_ROUNDTRIP
360
234
  0
DICTIONARY
  5
229
330
33
100
AcDbDictionary
280
     1
281
     1
  3
ACAD_XREC_ROUNDTRIP
360
22A
  0
DICTIONARY
  5
231
330
37
100
AcDbDictionary
280
     1
281
     1
  3
ACAD_XREC_ROUNDTRIP
360
232
  0
XRECORD
  5
23C
102
{ACAD_REACTORS
330
23B
102
}
330
23B
100
AcDbXrecord
280
     1
102
MATERIAL
148
0.0
149
0.0
149
0.0
 93
        0
 94
      127
282
     0
 72
     1
 77
     1
171
     1
175
     1
179
     1
273
     0
  0
XRECORD
  5
23A
102
{ACAD_REACTORS
330
239
102
}
330
239
100
AcDbXrecord
280
     1
102
MATERIAL
148
0.0
149
0.0
149
0.0
 93
        0
 94
      127
282
     0
 72
     1
 77
     1
171
     1
175
     1
179
     1
273
     0
  0
XRECORD
  5
23E
102
{ACAD_REACTORS
330
23D
102
}
330
23D
100
AcDbXrecord
280
     1
102
MATERIAL
148
0.0
149
0.0
149
0.0
 93
        0
 94
      127
282
     0
 72
     1
 77
     1
171
     1
175
     1
179
     1
273
     0
  0
XRECORD
  5
222
102
{ACAD_REACTORS
330
221
102
}
330
221
100
AcDbXrecord
280
     1
102
RTVSPropertyOp0
 70
     1
102
RTVSPropertyOp1
 70
     1
102
RTVSPropertyOp2
 70
     1
102
RTVSPropertyOp3
 70
     1
102
RTVSPropertyOp4
 70
     1
102
RTVSPropertyOp5
 70
     1
102
RTVSPropertyOp6
 70
     1
102
RTVSPropertyOp7
 70
     1
102
RTVSPropertyOp8
 70
     1
102
RTVSPropertyOp9
 70
     1
102
RTVSPropertyOp10
 70
     1
102
RTVSPropertyOp11
 70
     1
102
RTVSPropertyOp12
 70
     1
102
RTVSPropertyOp13
 70
     1
102
RTVSPropertyOp14
 70
     1
102
RTVSPropertyOp15
 70
     1
102
RTVSPropertyOp16
 70
     1
102
RTVSPropertyOp17
 70
     1
102
RTVSPropertyOp18
 70
     1
102
RTVSPropertyOp19
 70
     1
102
RTVSPropertyOp20
 70
     1
102
RTVSPropertyOp21
 70
     1
102
RTVSPropertyOp22
 70
     1
102
RTVSPropertyOp23
 70
     1
102
RTVSPropertyOp24
 70
     1
102
RTVSPropertyOp25
 70
     1
102
RTVSPropertyOp26
 70
     1
102
RTVSPropertyOp27
 70
     1
102
RTVSPropertyOp28
 70
     1
102
RTVSPropertyOp29
 70
     1
102
RTVSPropertyOp30
 70
     1
102
RTVSPropertyOp31
 70
     1
102
RTVSPropertyOp32
 70
     1
  0
XRECORD
  5
226
102
{ACAD_REACTORS
330
225
102
}
330
225
100
AcDbXrecord
280
     1
102
RTVSPropertyOp0
 70
     1
102
RTVSPropertyOp1
 70
     1
102
RTVSPropertyOp2
 70
     1
102
RTVSPropertyOp3
 70
     1
102
RTVSPropertyOp4
 70
     1
102
RTVSPropertyOp5
 70
     1
102
RTVSPropertyOp6
 70
     1
102
RTVSPropertyOp7
 70
     1
102
RTVSPropertyOp8
 70
     1
102
RTVSPropertyOp9
 70
     1
102
RTVSPropertyOp10
 70
     1
102
RTVSPropertyOp11
 70
     1
102
RTVSPropertyOp12
 70
     1
102
RTVSPropertyOp13
 70
     1
102
RTVSPropertyOp14
 70
     1
102
RTVSPropertyOp15
 70
     1
102
RTVSPropertyOp16
 70
     1
102
RTVSPropertyOp17
 70
     1
102
RTVSPropertyOp18
 70
     1
102
RTVSPropertyOp19
 70
     1
102
RTVSPropertyOp20
 70
     1
102
RTVSPropertyOp21
 70
     1
102
RTVSPropertyOp22
 70
     1
102
RTVSPropertyOp23
 70
     1
102
RTVSPropertyOp24
 70
     1
102
RTVSPropertyOp25
 70
     1
102
RTVSPropertyOp26
 70
     1
102
RTVSPropertyOp27
 70
     1
102
RTVSPropertyOp28
 70
     1
102
RTVSPropertyOp29
 70
     1
102
RTVSPropertyOp30
 70
     1
102
RTVSPropertyOp31
 70
     1
102
RTVSPropertyOp32
 70
     1
  0
XRECORD
  5
224
102
{ACAD_REACTORS
330
223
102
}
330
223
100
AcDbXrecord
280
     1
102
RTVSPropertyOp0
 70
     1
102
RTVSPropertyOp1
 70
     1
102
RTVSPropertyOp2
 70
     1
102
RTVSPropertyOp3
 70
     1
102
RTVSPropertyOp4
 70
     1
102
RTVSPropertyOp5
 70
     1
102
RTVSPropertyOp6
 70
     1
102
RTVSPropertyOp7
 70
     1
102
RTVSPropertyOp8
 70
     1
102
RTVSPropertyOp9
 70
     1
102
RTVSPropertyOp10
 70
     1
102
RTVSPropertyOp11
 70
     1
102
RTVSPropertyOp12
 70
     1
102
RTVSPropertyOp13
 70
     1
102
RTVSPropertyOp14
 70
     1
102
RTVSPropertyOp15
 70
     1
102
RTVSPropertyOp16
 70
     1
102
RTVSPropertyOp17
 70
     1
102
RTVSPropertyOp18
 70
     1
102
RTVSPropertyOp19
 70
     1
102
RTVSPropertyOp20
 70
     1
102
RTVSPropertyOp21
 70
     1
102
RTVSPropertyOp22
 70
     1
102
RTVSPropertyOp23
 70
     1
102
RTVSPropertyOp24
 70
     1
102
RTVSPropertyOp25
 70
     1
102
RTVSPropertyOp26
 70
     1
102
RTVSPropertyOp27
 70
     1
102
RTVSPropertyOp28
 70
     1
102
RTVSPropertyOp29
 70
     1
102
RTVSPropertyOp30
 70
     1
102
RTVSPropertyOp31
 70
     1
102
RTVSPropertyOp32
 70
     1
  0
XRECORD
  5
228
102
{ACAD_REACTORS
330
227
102
}
330
227
100
AcDbXrecord
280
     1
102
RTVSPropertyOp0
 70
     1
102
RTVSPropertyOp1
 70
     1
102
RTVSPropertyOp2
 70
     1
102
RTVSPropertyOp3
 70
     1
102
RTVSPropertyOp4
 70
     1
102
RTVSPropertyOp5
 70
     1
102
RTVSPropertyOp6
 70
     1
102
RTVSPropertyOp7
 70
     1
102
RTVSPropertyOp8
 70
     1
102
RTVSPropertyOp9
 70
     1
102
RTVSPropertyOp10
 70
     1
102
RTVSPropertyOp11
 70
     1
102
RTVSPropertyOp12
 70
     1
102
RTVSPropertyOp13
 70
     1
102
RTVSPropertyOp14
 70
     1
102
RTVSPropertyOp15
 70
     1
102
RTVSPropertyOp16
 70
     1
102
RTVSPropertyOp17
 70
     1
102
RTVSPropertyOp18
 70
     1
102
RTVSPropertyOp19
 70
     1
102
RTVSPropertyOp20
 70
     1
102
RTVSPropertyOp21
 70
     1
102
RTVSPropertyOp22
 70
     1
102
RTVSPropertyOp23
 70
     1
102
RTVSPropertyOp24
 70
     1
102
RTVSPropertyOp25
 70
     1
102
RTVSPropertyOp26
 70
     1
102
RTVSPropertyOp27
 70
     1
102
RTVSPropertyOp28
 70
     1
102
RTVSPropertyOp29
 70
     1
102
RTVSPropertyOp30
 70
     1
102
RTVSPropertyOp31
 70
     1
102
RTVSPropertyOp32
 70
     1
  0
XRECORD
  5
230
102
{ACAD_REACTORS
330
22F
102
}
330
22F
100
AcDbXrecord
280
     1
102
RTVSPropertyOp0
 70
     1
102
RTVSPropertyOp1
 70
     1
102
RTVSPropertyOp2
 70
     1
102
RTVSPropertyOp3
 70
     1
102
RTVSPropertyOp4
 70
     1
102
RTVSPropertyOp5
 70
     1
102
RTVSPropertyOp6
 70
     1
102
RTVSPropertyOp7
 70
     1
102
RTVSPropertyOp8
 70
     1
102
RTVSPropertyOp9
 70
     1
102
RTVSPropertyOp10
 70
     1
102
RTVSPropertyOp11
 70
     1
102
RTVSPropertyOp12
 70
     1
102
RTVSPropertyOp13
 70
     1
102
RTVSPropertyOp14
 70
     1
102
RTVSPropertyOp15
 70
     1
102
RTVSPropertyOp16
 70
     1
102
RTVSPropertyOp17
 70
     1
102
RTVSPropertyOp18
 70
     1
102
RTVSPropertyOp19
 70
     1
102
RTVSPropertyOp20
 70
     1
102
RTVSPropertyOp21
 70
     1
102
RTVSPropertyOp22
 70
     1
102
RTVSPropertyOp23
 70
     1
102
RTVSPropertyOp24
 70
     1
102
RTVSPropertyOp25
 70
     1
102
RTVSPropertyOp26
 70
     1
102
RTVSPropertyOp27
 70
     1
102
RTVSPropertyOp28
 70
     1
102
RTVSPropertyOp29
 70
     1
102
RTVSPropertyOp30
 70
     1
102
RTVSPropertyOp31
 70
     1
102
RTVSPropertyOp32
 70
     1
  0
XRECORD
  5
238
102
{ACAD_REACTORS
330
237
102
}
330
237
100
AcDbXrecord
280
     1
102
RTVSPropertyOp0
 70
     1
102
RTVSPropertyOp1
 70
     1
102
RTVSPropertyOp2
 70
     1
102
RTVSPropertyOp3
 70
     1
102
RTVSPropertyOp4
 70
     1
102
RTVSPropertyOp5
 70
     1
102
RTVSPropertyOp6
 70
     1
102
RTVSPropertyOp7
 70
     1
102
RTVSPropertyOp8
 70
     1
102
RTVSPropertyOp9
 70
     1
102
RTVSPropertyOp10
 70
     1
102
RTVSPropertyOp11
 70
     1
102
RTVSPropertyOp12
 70
     1
102
RTVSPropertyOp13
 70
     1
102
RTVSPropertyOp14
 70
     1
102
RTVSPropertyOp15
 70
     1
102
RTVSPropertyOp16
 70
     1
102
RTVSPropertyOp17
 70
     1
102
RTVSPropertyOp18
 70
     1
102
RTVSPropertyOp19
 70
     1
102
RTVSPropertyOp20
 70
     1
102
RTVSPropertyOp21
 70
     1
102
RTVSPropertyOp22
 70
     1
102
RTVSPropertyOp23
 70
     1
102
RTVSPropertyOp24
 70
     1
102
RTVSPropertyOp25
 70
     1
102
RTVSPropertyOp26
 70
     1
102
RTVSPropertyOp27
 70
     1
102
RTVSPropertyOp28
 70
     1
102
RTVSPropertyOp29
 70
     1
102
RTVSPropertyOp30
 70
     1
102
RTVSPropertyOp31
 70
     1
102
RTVSPropertyOp32
 70
     1
  0
XRECORD
  5
22C
102
{ACAD_REACTORS
330
22B
102
}
330
22B
100
AcDbXrecord
280
     1
102
RTVSPropertyOp0
 70
     1
102
RTVSPropertyOp1
 70
     1
102
RTVSPropertyOp2
 70
     1
102
RTVSPropertyOp3
 70
     1
102
RTVSPropertyOp4
 70
     1
102
RTVSPropertyOp5
 70
     1
102
RTVSPropertyOp6
 70
     1
102
RTVSPropertyOp7
 70
     1
102
RTVSPropertyOp8
 70
     1
102
RTVSPropertyOp9
 70
     1
102
RTVSPropertyOp10
 70
     1
102
RTVSPropertyOp11
 70
     1
102
RTVSPropertyOp12
 70
     1
102
RTVSPropertyOp13
 70
     1
102
RTVSPropertyOp14
 70
     1
102
RTVSPropertyOp15
 70
     1
102
RTVSPropertyOp16
 70
     1
102
RTVSPropertyOp17
 70
     1
102
RTVSPropertyOp18
 70
     1
102
RTVSPropertyOp19
 70
     1
102
RTVSPropertyOp20
 70
     1
102
RTVSPropertyOp21
 70
     1
102
RTVSPropertyOp22
 70
     1
102
RTVSPropertyOp23
 70
     1
102
RTVSPropertyOp24
 70
     1
102
RTVSPropertyOp25
 70
     1
102
RTVSPropertyOp26
 70
     1
102
RTVSPropertyOp27
 70
     1
102
RTVSPropertyOp28
 70
     1
102
RTVSPropertyOp29
 70
     1
102
RTVSPropertyOp30
 70
     1
102
RTVSPropertyOp31
 70
     1
102
RTVSPropertyOp32
 70
     1
  0
XRECORD
  5
22E
102
{ACAD_REACTORS
330
22D
102
}
330
22D
100
AcDbXrecord
280
     1
102
RTVSPropertyOp0
 70
     1
102
RTVSPropertyOp1
 70
     1
102
RTVSPropertyOp2
 70
     1
102
RTVSPropertyOp3
 70
     1
102
RTVSPropertyOp4
 70
     1
102
RTVSPropertyOp5
 70
     1
102
RTVSPropertyOp6
 70
     1
102
RTVSPropertyOp7
 70
     1
102
RTVSPropertyOp8
 70
     1
102
RTVSPropertyOp9
 70
     1
102
RTVSPropertyOp10
 70
     1
102
RTVSPropertyOp11
 70
     1
102
RTVSPropertyOp12
 70
     1
102
RTVSPropertyOp13
 70
     1
102
RTVSPropertyOp14
 70
     1
102
RTVSPropertyOp15
 70
     1
102
RTVSPropertyOp16
 70
     1
102
RTVSPropertyOp17
 70
     1
102
RTVSPropertyOp18
 70
     1
102
RTVSPropertyOp19
 70
     1
102
RTVSPropertyOp20
 70
     1
102
RTVSPropertyOp21
 70
     1
102
RTVSPropertyOp22
 70
     1
102
RTVSPropertyOp23
 70
     1
102
RTVSPropertyOp24
 70
     1
102
RTVSPropertyOp25
 70
     1
102
RTVSPropertyOp26
 70
     1
102
RTVSPropertyOp27
 70
     1
102
RTVSPropertyOp28
 70
     1
102
RTVSPropertyOp29
 70
     1
102
RTVSPropertyOp30
 70
     1
102
RTVSPropertyOp31
 70
     1
102
RTVSPropertyOp32
 70
     1
  0
XRECORD
  5
236
102
{ACAD_REACTORS
330
235
102
}
330
235
100
AcDbXrecord
280
     1
102
RTVSPropertyOp0
 70
     1
102
RTVSPropertyOp1
 70
     1
102
RTVSPropertyOp2
 70
     1
102
RTVSPropertyOp3
 70
     1
102
RTVSPropertyOp4
 70
     1
102
RTVSPropertyOp5
 70
     1
102
RTVSPropertyOp6
 70
     1
102
RTVSPropertyOp7
 70
     1
102
RTVSPropertyOp8
 70
     1
102
RTVSPropertyOp9
 70
     1
102
RTVSPropertyOp10
 70
     1
102
RTVSPropertyOp11
 70
     1
102
RTVSPropertyOp12
 70
     1
102
RTVSPropertyOp13
 70
     1
102
RTVSPropertyOp14
 70
     1
102
RTVSPropertyOp15
 70
     1
102
RTVSPropertyOp16
 70
     1
102
RTVSPropertyOp17
 70
     1
102
RTVSPropertyOp18
 70
     1
102
RTVSPropertyOp19
 70
     1
102
RTVSPropertyOp20
 70
     1
102
RTVSPropertyOp21
 70
     1
102
RTVSPropertyOp22
 70
     1
102
RTVSPropertyOp23
 70
     1
102
RTVSPropertyOp24
 70
     1
102
RTVSPropertyOp25
 70
     1
102
RTVSPropertyOp26
 70
     1
102
RTVSPropertyOp27
 70
     1
102
RTVSPropertyOp28
 70
     1
102
RTVSPropertyOp29
 70
     1
102
RTVSPropertyOp30
 70
     1
102
RTVSPropertyOp31
 70
     1
102
RTVSPropertyOp32
 70
     1
  0
XRECORD
  5
21A
102
{ACAD_REACTORS
330
219
102
}
330
219
100
AcDbXrecord
280
     1
102
RTVSPropertyOp0
 70
     1
102
RTVSPropertyOp1
 70
     1
102
RTVSPropertyOp2
 70
     1
102
RTVSPropertyOp3
 70
     1
102
RTVSPropertyOp4
 70
     1
102
RTVSPropertyOp5
 70
     1
102
RTVSPropertyOp6
 70
     1
102
RTVSPropertyOp7
 70
     1
102
RTVSPropertyOp8
 70
     1
102
RTVSPropertyOp9
 70
     1
102
RTVSPropertyOp10
 70
     1
102
RTVSPropertyOp11
 70
     1
102
RTVSPropertyOp12
 70
     1
102
RTVSPropertyOp13
 70
     1
102
RTVSPropertyOp14
 70
     1
102
RTVSPropertyOp15
 70
     1
102
RTVSPropertyOp16
 70
     1
102
RTVSPropertyOp17
 70
     1
102
RTVSPropertyOp18
 70
     1
102
RTVSPropertyOp19
 70
     1
102
RTVSPropertyOp20
 70
     1
102
RTVSPropertyOp21
 70
     1
102
RTVSPropertyOp22
 70
     1
102
RTVSPropertyOp23
 70
     1
102
RTVSPropertyOp24
 70
     1
102
RTVSPropertyOp25
 70
     1
102
RTVSPropertyOp26
 70
     1
102
RTVSPropertyOp27
 70
     1
102
RTVSPropertyOp28
 70
     1
102
RTVSPropertyOp29
 70
     1
102
RTVSPropertyOp30
 70
     1
102
RTVSPropertyOp31
 70
     1
102
RTVSPropertyOp32
 70
     1
  0
XRECORD
  5
21C
102
{ACAD_REACTORS
330
21B
102
}
330
21B
100
AcDbXrecord
280
     1
102
RTVSPropertyOp0
 70
     1
102
RTVSPropertyOp1
 70
     1
102
RTVSPropertyOp2
 70
     1
102
RTVSPropertyOp3
 70
     1
102
RTVSPropertyOp4
 70
     1
102
RTVSPropertyOp5
 70
     1
102
RTVSPropertyOp6
 70
     1
102
RTVSPropertyOp7
 70
     1
102
RTVSPropertyOp8
 70
     1
102
RTVSPropertyOp9
 70
     1
102
RTVSPropertyOp10
 70
     1
102
RTVSPropertyOp11
 70
     1
102
RTVSPropertyOp12
 70
     1
102
RTVSPropertyOp13
 70
     1
102
RTVSPropertyOp14
 70
     1
102
RTVSPropertyOp15
 70
     1
102
RTVSPropertyOp16
 70
     1
102
RTVSPropertyOp17
 70
     1
102
RTVSPropertyOp18
 70
     1
102
RTVSPropertyOp19
 70
     1
102
RTVSPropertyOp20
 70
     1
102
RTVSPropertyOp21
 70
     1
102
RTVSPropertyOp22
 70
     1
102
RTVSPropertyOp23
 70
     1
102
RTVSPropertyOp24
 70
     1
102
RTVSPropertyOp25
 70
     1
102
RTVSPropertyOp26
 70
     1
102
RTVSPropertyOp27
 70
     1
102
RTVSPropertyOp28
 70
     1
102
RTVSPropertyOp29
 70
     1
102
RTVSPropertyOp30
 70
     1
102
RTVSPropertyOp31
 70
     1
102
RTVSPropertyOp32
 70
     1
  0
XRECORD
  5
21E
102
{ACAD_REACTORS
330
21D
102
}
330
21D
100
AcDbXrecord
280
     1
102
RTVSPropertyOp0
 70
     1
102
RTVSPropertyOp1
 70
     1
102
RTVSPropertyOp2
 70
     1
102
RTVSPropertyOp3
 70
     1
102
RTVSPropertyOp4
 70
     1
102
RTVSPropertyOp5
 70
     1
102
RTVSPropertyOp6
 70
     1
102
RTVSPropertyOp7
 70
     1
102
RTVSPropertyOp8
 70
     1
102
RTVSPropertyOp9
 70
     1
102
RTVSPropertyOp10
 70
     1
102
RTVSPropertyOp11
 70
     1
102
RTVSPropertyOp12
 70
     1
102
RTVSPropertyOp13
 70
     1
102
RTVSPropertyOp14
 70
     1
102
RTVSPropertyOp15
 70
     1
102
RTVSPropertyOp16
 70
     1
102
RTVSPropertyOp17
 70
     1
102
RTVSPropertyOp18
 70
     1
102
RTVSPropertyOp19
 70
     1
102
RTVSPropertyOp20
 70
     1
102
RTVSPropertyOp21
 70
     1
102
RTVSPropertyOp22
 70
     1
102
RTVSPropertyOp23
 70
     1
102
RTVSPropertyOp24
 70
     1
102
RTVSPropertyOp25
 70
     1
102
RTVSPropertyOp26
 70
     1
102
RTVSPropertyOp27
 70
     1
102
RTVSPropertyOp28
 70
     1
102
RTVSPropertyOp29
 70
     1
102
RTVSPropertyOp30
 70
     1
102
RTVSPropertyOp31
 70
     1
102
RTVSPropertyOp32
 70
     1
  0
XRECORD
  5
220
102
{ACAD_REACTORS
330
21F
102
}
330
21F
100
AcDbXrecord
280
     1
102
RTVSPropertyOp0
 70
     1
102
RTVSPropertyOp1
 70
     1
102
RTVSPropertyOp2
 70
     1
102
RTVSPropertyOp3
 70
     1
102
RTVSPropertyOp4
 70
     1
102
RTVSPropertyOp5
 70
     1
102
RTVSPropertyOp6
 70
     1
102
RTVSPropertyOp7
 70
     1
102
RTVSPropertyOp8
 70
     1
102
RTVSPropertyOp9
 70
     1
102
RTVSPropertyOp10
 70
     1
102
RTVSPropertyOp11
 70
     1
102
RTVSPropertyOp12
 70
     1
102
RTVSPropertyOp13
 70
     1
102
RTVSPropertyOp14
 70
     1
102
RTVSPropertyOp15
 70
     1
102
RTVSPropertyOp16
 70
     1
102
RTVSPropertyOp17
 70
     1
102
RTVSPropertyOp18
 70
     1
102
RTVSPropertyOp19
 70
     1
102
RTVSPropertyOp20
 70
     1
102
RTVSPropertyOp21
 70
     1
102
RTVSPropertyOp22
 70
     1
102
RTVSPropertyOp23
 70
     1
102
RTVSPropertyOp24
 70
     1
102
RTVSPropertyOp25
 70
     1
102
RTVSPropertyOp26
 70
     1
102
RTVSPropertyOp27
 70
     1
102
RTVSPropertyOp28
 70
     1
102
RTVSPropertyOp29
 70
     1
102
RTVSPropertyOp30
 70
     1
102
RTVSPropertyOp31
 70
     1
102
RTVSPropertyOp32
 70
     1
  0
XRECORD
  5
234
102
{ACAD_REACTORS
330
233
102
}
330
233
100
AcDbXrecord
280
     1
102
RTVSPropertyOp0
 70
     1
102
RTVSPropertyOp1
 70
     1
102
RTVSPropertyOp2
 70
     1
102
RTVSPropertyOp3
 70
     1
102
RTVSPropertyOp4
 70
     1
102
RTVSPropertyOp5
 70
     1
102
RTVSPropertyOp6
 70
     1
102
RTVSPropertyOp7
 70
     1
102
RTVSPropertyOp8
 70
     1
102
RTVSPropertyOp9
 70
     1
102
RTVSPropertyOp10
 70
     1
102
RTVSPropertyOp11
 70
     1
102
RTVSPropertyOp12
 70
     1
102
RTVSPropertyOp13
 70
     1
102
RTVSPropertyOp14
 70
     1
102
RTVSPropertyOp15
 70
     1
102
RTVSPropertyOp16
 70
     1
102
RTVSPropertyOp17
 70
     1
102
RTVSPropertyOp18
 70
     1
102
RTVSPropertyOp19
 70
     1
102
RTVSPropertyOp20
 70
     1
102
RTVSPropertyOp21
 70
     1
102
RTVSPropertyOp22
 70
     1
102
RTVSPropertyOp23
 70
     1
102
RTVSPropertyOp24
 70
     1
102
RTVSPropertyOp25
 70
     1
102
RTVSPropertyOp26
 70
     1
102
RTVSPropertyOp27
 70
     1
102
RTVSPropertyOp28
 70
     1
102
RTVSPropertyOp29
 70
     1
102
RTVSPropertyOp30
 70
     1
102
RTVSPropertyOp31
 70
     1
102
RTVSPropertyOp32
 70
     1
  0
XRECORD
  5
22A
102
{ACAD_REACTORS
330
229
102
}
330
229
100
AcDbXrecord
280
     1
102
RTVSPropertyOp0
 70
     1
102
RTVSPropertyOp1
 70
     1
102
RTVSPropertyOp2
 70
     1
102
RTVSPropertyOp3
 70
     1
102
RTVSPropertyOp4
 70
     1
102
RTVSPropertyOp5
 70
     1
102
RTVSPropertyOp6
 70
     1
102
RTVSPropertyOp7
 70
     1
102
RTVSPropertyOp8
 70
     1
102
RTVSPropertyOp9
 70
     1
102
RTVSPropertyOp10
 70
     1
102
RTVSPropertyOp11
 70
     1
102
RTVSPropertyOp12
 70
     1
102
RTVSPropertyOp13
 70
     1
102
RTVSPropertyOp14
 70
     1
102
RTVSPropertyOp15
 70
     1
102
RTVSPropertyOp16
 70
     1
102
RTVSPropertyOp17
 70
     1
102
RTVSPropertyOp18
 70
     1
102
RTVSPropertyOp19
 70
     1
102
RTVSPropertyOp20
 70
     1
102
RTVSPropertyOp21
 70
     1
102
RTVSPropertyOp22
 70
     1
102
RTVSPropertyOp23
 70
     1
102
RTVSPropertyOp24
 70
     1
102
RTVSPropertyOp25
 70
     1
102
RTVSPropertyOp26
 70
     1
102
RTVSPropertyOp27
 70
     1
102
RTVSPropertyOp28
 70
     1
102
RTVSPropertyOp29
 70
     1
102
RTVSPropertyOp30
 70
     1
102
RTVSPropertyOp31
 70
     1
102
RTVSPropertyOp32
 70
     1
  0
XRECORD
  5
232
102
{ACAD_REACTORS
330
231
102
}
330
231
100
AcDbXrecord
280
     1
102
RTVSPropertyOp0
 70
     1
102
RTVSPropertyOp1
 70
     1
102
RTVSPropertyOp2
 70
     1
102
RTVSPropertyOp3
 70
     1
102
RTVSPropertyOp4
 70
     1
102
RTVSPropertyOp5
 70
     1
102
RTVSPropertyOp6
 70
     1
102
RTVSPropertyOp7
 70
     1
102
RTVSPropertyOp8
 70
     1
102
RTVSPropertyOp9
 70
     1
102
RTVSPropertyOp10
 70
     1
102
RTVSPropertyOp11
 70
     1
102
RTVSPropertyOp12
 70
     1
102
RTVSPropertyOp13
 70
     1
102
RTVSPropertyOp14
 70
     1
102
RTVSPropertyOp15
 70
     1
102
RTVSPropertyOp16
 70
     1
102
RTVSPropertyOp17
 70
     1
102
RTVSPropertyOp18
 70
     1
102
RTVSPropertyOp19
 70
     1
102
RTVSPropertyOp20
 70
     1
102
RTVSPropertyOp21
 70
     1
102
RTVSPropertyOp22
 70
     1
102
RTVSPropertyOp23
 70
     1
102
RTVSPropertyOp24
 70
     1
102
RTVSPropertyOp25
 70
     1
102
RTVSPropertyOp26
 70
     1
102
RTVSPropertyOp27
 70
     1
102
RTVSPropertyOp28
 70
     1
102
RTVSPropertyOp29
 70
     1
102
RTVSPropertyOp30
 70
     1
102
RTVSPropertyOp31
 70
     1
102
RTVSPropertyOp32
 70
     1
  0
ENDSEC
  0
EOF
