  0
SECTION
  2
HEADER
  9
$ACADVER
  1
AC1021
  9
$ACADMAINTVER
 70
    25
  9
$DWGCODEPAGE
  3
ANSI_1252
  9
$INSBASE
 10
0.0
 20
0.0
 30
0.0
  9
$EXTMIN
 10
0.0
 20
0.0
 30
0.0
  9
$EXTMAX
 10
594.0
 20
420.0
 30
0.0
  9
$LIMMIN
 10
0.0
 20
0.0
  9
$LIMMAX
 10
594.0
 20
420.0
  9
$ORTHOMODE
 70
     0
  9
$REGENMODE
 70
     1
  9
$FILLMODE
 70
     1
  9
$QTEXTMODE
 70
     0
  9
$MIRRTEXT
 70
     1
  9
$LTSCALE
 40
1.0
  9
$ATTMODE
 70
     1
  9
$TEXTSIZE
 40
4.57
  9
$TRACEWID
 40
1.0
  9
$TEXTSTYLE
  7
Standard
  9
$CLAYER
  8
0
  9
$CELTYPE
  6
ByLayer
  9
$CECOLOR
 62
   256
  9
$CELTSCALE
 40
1.0
  9
$DISPSILH
 70
     0
  9
$DIMSCALE
 40
1.0
  9
$DIMASZ
 40
2.5
  9
$DIMEXO
 40
0.625
  9
$DIMDLI
 40
3.75
  9
$DIMRND
 40
0.0
  9
$DIMDLE
 40
0.0
  9
$DIMEXE
 40
1.25
  9
$DIMTP
 40
0.0
  9
$DIMTM
 40
0.0
  9
$DIMTXT
 40
2.5
  9
$DIMCEN
 40
2.5
  9
$DIMTSZ
 40
0.0
  9
$DIMTOL
 70
     0
  9
$DIMLIM
 70
     0
  9
$DIMTIH
 70
     0
  9
$DIMTOH
 70
     0
  9
$DIMSE1
 70
     0
  9
$DIMSE2
 70
     0
  9
$DIMTAD
 70
     1
  9
$DIMZIN
 70
     8
  9
$DIMBLK
  1

  9
$DIMASO
 70
     1
  9
$DIMSHO
 70
     1
  9
$DIMPOST
  1

  9
$DIMAPOST
  1

  9
$DIMALT
 70
     0
  9
$DIMALTD
 70
     3
  9
$DIMALTF
 40
0.0393700787
  9
$DIMLFAC
 40
1.0
  9
$DIMTOFL
 70
     1
  9
$DIMTVP
 40
0.0
  9
$DIMTIX
 70
     0
  9
$DIMSOXD
 70
     0
  9
$DIMSAH
 70
     0
  9
$DIMBLK1
  1

  9
$DIMBLK2
  1

  9
$DIMSTYLE
  2
ISO-25
  9
$DIMCLRD
 70
     0
  9
$DIMCLRE
 70
     0
  9
$DIMCLRT
 70
     0
  9
$DIMTFAC
 40
1.0
  9
$DIMGAP
 40
0.625
  9
$DIMJUST
 70
     0
  9
$DIMSD1
 70
     0
  9
$DIMSD2
 70
     0
  9
$DIMTOLJ
 70
     0
  9
$DIMTZIN
 70
     8
  9
$DIMALTZ
 70
     0
  9
$DIMALTTZ
 70
     0
  9
$DIMUPT
 70
     0
  9
$DIMDEC
 70
     2
  9
$DIMTDEC
 70
     2
  9
$DIMALTU
 70
     2
  9
$DIMALTTD
 70
     3
  9
$DIMTXSTY
  7
Standard
  9
$DIMAUNIT
 70
     0
  9
$DIMADEC
 70
     0
  9
$DIMALTRND
 40
0.0
  9
$DIMAZIN
 70
     0
  9
$DIMDSEP
 70
    44
  9
$DIMATFIT
 70
     3
  9
$DIMFRAC
 70
     0
  9
$DIMLDRBLK
  1

  9
$DIMLUNIT
 70
     2
  9
$DIMLWD
 70
    -2
  9
$DIMLWE
 70
    -2
  9
$DIMTMOVE
 70
     0
  9
$DIMFXL
 40
1.0
  9
$DIMFXLON
 70
     0
  9
$DIMJOGANG
 40
0.7853981634
  9
$DIMTFILL
 70
     0
  9
$DIMTFILLCLR
 70
     0
  9
$DIMARCSYM
 70
     0
  9
$DIMLTYPE
  6

  9
$DIMLTEX1
  6

  9
$DIMLTEX2
  6

  9
$LUNITS
 70
     2
  9
$LUPREC
 70
     4
  9
$SKETCHINC
 40
1.0
  9
$FILLETRAD
 40
10.0
  9
$AUNITS
 70
     0
  9
$AUPREC
 70
     0
  9
$MENU
  1
.
  9
$ELEVATION
 40
0.0
  9
$PELEVATION
 40
0.0
  9
$THICKNESS
 40
0.0
  9
$LIMCHECK
 70
     0
  9
$CHAMFERA
 40
0.0
  9
$CHAMFERB
 40
0.0
  9
$CHAMFERC
 40
0.0
  9
$CHAMFERD
 40
0.0
  9
$SKPOLY
 70
     0
  9
$TDCREATE
 40
2460686.348569259
  9
$TDUCREATE
 40
2460686.306902593
  9
$TDUPDATE
 40
2460686.348571574
  9
$TDUUPDATE
 40
2460686.306904907
  9
$TDINDWG
 40
0.0000000116
  9
$TDUSRTIMER
 40
0.0000000116
  9
$USRTIMER
 70
     1
  9
$ANGBASE
 50
0.0
  9
$ANGDIR
 70
     0
  9
$PDMODE
 70
     0
  9
$PDSIZE
 40
0.0
  9
$PLINEWID
 40
0.0
  9
$SPLFRAME
 70
     0
  9
$SPLINETYPE
 70
     6
  9
$SPLINESEGS
 70
     8
  9
$HANDSEED
  5
202
  9
$SURFTAB1
 70
     6
  9
$SURFTAB2
 70
     6
  9
$SURFTYPE
 70
     6
  9
$SURFU
 70
     6
  9
$SURFV
 70
     6
  9
$UCSBASE
  2

  9
$UCSNAME
  2

  9
$UCSORG
 10
0.0
 20
0.0
 30
0.0
  9
$UCSXDIR
 10
1.0
 20
0.0
 30
0.0
  9
$UCSYDIR
 10
0.0
 20
1.0
 30
0.0
  9
$UCSORTHOREF
  2

  9
$UCSORTHOVIEW
 70
     0
  9
$UCSORGTOP
 10
0.0
 20
0.0
 30
0.0
  9
$UCSORGBOTTOM
 10
0.0
 20
0.0
 30
0.0
  9
$UCSORGLEFT
 10
0.0
 20
0.0
 30
0.0
  9
$UCSORGRIGHT
 10
0.0
 20
0.0
 30
0.0
  9
$UCSORGFRONT
 10
0.0
 20
0.0
 30
0.0
  9
$UCSORGBACK
 10
0.0
 20
0.0
 30
0.0
  9
$PUCSBASE
  2

  9
$PUCSNAME
  2

  9
$PUCSORG
 10
0.0
 20
0.0
 30
0.0
  9
$PUCSXDIR
 10
1.0
 20
0.0
 30
0.0
  9
$PUCSYDIR
 10
0.0
 20
1.0
 30
0.0
  9
$PUCSORTHOREF
  2

  9
$PUCSORTHOVIEW
 70
     0
  9
$PUCSORGTOP
 10
0.0
 20
0.0
 30
0.0
  9
$PUCSORGBOTTOM
 10
0.0
 20
0.0
 30
0.0
  9
$PUCSORGLEFT
 10
0.0
 20
0.0
 30
0.0
  9
$PUCSORGRIGHT
 10
0.0
 20
0.0
 30
0.0
  9
$PUCSORGFRONT
 10
0.0
 20
0.0
 30
0.0
  9
$PUCSORGBACK
 10
0.0
 20
0.0
 30
0.0
  9
$USERI1
 70
     0
  9
$USERI2
 70
     0
  9
$USERI3
 70
     0
  9
$USERI4
 70
     0
  9
$USERI5
 70
     0
  9
$USERR1
 40
0.0
  9
$USERR2
 40
0.0
  9
$USERR3
 40
0.0
  9
$USERR4
 40
0.0
  9
$USERR5
 40
0.0
  9
$WORLDVIEW
 70
     1
  9
$SHADEDGE
 70
     3
  9
$SHADEDIF
 70
    70
  9
$TILEMODE
 70
     1
  9
$MAXACTVP
 70
    64
  9
$PINSBASE
 10
0.0
 20
0.0
 30
0.0
  9
$PLIMCHECK
 70
     0
  9
$PEXTMIN
 10
0.0
 20
0.0
 30
0.0
  9
$PEXTMAX
 10
594.0
 20
420.0
 30
0.0
  9
$PLIMMIN
 10
0.0
 20
0.0
  9
$PLIMMAX
 10
594.0
 20
420.0
  9
$UNITMODE
 70
     0
  9
$VISRETAIN
 70
     1
  9
$PLINEGEN
 70
     0
  9
$PSLTSCALE
 70
     1
  9
$TREEDEPTH
 70
  3020
  9
$CMLSTYLE
  2
Standard
  9
$CMLJUST
 70
     0
  9
$CMLSCALE
 40
20.0
  9
$PROXYGRAPHICS
 70
     1
  9
$MEASUREMENT
 70
     1
  9
$CELWEIGHT
370
    -1
  9
$ENDCAPS
280
     0
  9
$JOINSTYLE
280
     0
  9
$LWDISPLAY
290
     0
  9
$INSUNITS
 70
     4
  9
$HYPERLINKBASE
  1

  9
$STYLESHEET
  1

  9
$XEDIT
290
     1
  9
$CEPSNTYPE
380
     0
  9
$PSTYLEMODE
290
     1
  9
$FINGERPRINTGUID
  2
{20fefbf1-3f15-4bb9-9ccd-043a923748af}
  9
$VERSIONGUID
  2
{FAEB1C32-E019-11D5-929B-00C0DF256EC4}
  9
$EXTNAMES
290
     1
  9
$PSVPSCALE
 40
0.0
  9
$OLESTARTUP
290
     0
  9
$SORTENTS
280
   127
  9
$INDEXCTL
280
     0
  9
$HIDETEXT
280
     1
  9
$XCLIPFRAME
290
     0
  9
$HALOGAP
280
     0
  9
$OBSCOLOR
 70
   257
  9
$OBSLTYPE
280
     0
  9
$INTERSECTIONDISPLAY
280
     0
  9
$INTERSECTIONCOLOR
 70
   257
  9
$DIMASSOC
280
     2
  9
$PROJECTNAME
  1

  9
$CAMERADISPLAY
290
     0
  9
$LENSLENGTH
 40
50.0
  9
$CAMERAHEIGHT
 40
0.0
  9
$STEPSPERSEC
 40
2.0
  9
$STEPSIZE
 40
6.0
  9
$3DDWFPREC
 40
2.0
  9
$PSOLWIDTH
 40
5.0
  9
$PSOLHEIGHT
 40
80.0
  9
$LOFTANG1
 40
1.5707963268
  9
$LOFTANG2
 40
1.5707963268
  9
$LOFTMAG1
 40
0.0
  9
$LOFTMAG2
 40
0.0
  9
$LOFTPARAM
 70
     7
  9
$LOFTNORMALS
280
     1
  9
$LATITUDE
 40
37.795
  9
$LONGITUDE
 40
-122.394
  9
$NORTHDIRECTION
 40
0.0
  9
$TIMEZONE
 70
 -8000
  9
$LIGHTGLYPHDISPLAY
280
     1
  9
$TILEMODELIGHTSYNCH
280
     1
  9
$CMATERIAL
347
44
  9
$SOLIDHIST
280
     0
  9
$SHOWHIST
280
     1
  9
$DWFFRAME
280
     2
  9
$DGNFRAME
280
     2
  9
$REALWORLDSCALE
290
     1
  9
$INTERFERECOLOR
 62
   256
  9
$CSHADOW
280
     0
  9
$SHADOWPLANELOCATION
 40
0.0
  0
ENDSEC
  0
SECTION
  2
CLASSES
  0
CLASS
  1
ACDBDICTIONARYWDFLT
  2
AcDbDictionaryWithDefault
  3
ObjectDBX Classes
 90
        0
 91
        3
280
     0
281
     0
  0
CLASS
  1
VISUALSTYLE
  2
AcDbVisualStyle
  3
ObjectDBX Classes
 90
     4095
 91
        3
280
     0
281
     0
  0
CLASS
  1
MATERIAL
  2
AcDbMaterial
  3
ObjectDBX Classes
 90
     1153
 91
        3
280
     0
281
     0
  0
CLASS
  1
SCALE
  2
AcDbScale
  3
ObjectDBX Classes
 90
     1153
 91
        3
280
     0
281
     0
  0
CLASS
  1
TABLESTYLE
  2
AcDbTableStyle
  3
ObjectDBX Classes
 90
     4095
 91
        3
280
     0
281
     0
  0
CLASS
  1
MLEADERSTYLE
  2
AcDbMLeaderStyle
  3
ACDB_MLEADERSTYLE_CLASS
 90
     4095
 91
        3
280
     0
281
     0
  0
CLASS
  1
SUN
  2
AcDbSun
  3
SCENEOE
 90
     1153
 91
        3
280
     0
281
     0
  0
CLASS
  1
DICTIONARYVAR
  2
AcDbDictionaryVar
  3
ObjectDBX Classes
 90
        0
 91
        3
280
     0
281
     0
  0
CLASS
  1
CELLSTYLEMAP
  2
AcDbCellStyleMap
  3
ObjectDBX Classes
 90
     1152
 91
        3
280
     0
281
     0
  0
ENDSEC
  0
SECTION
  2
TABLES
  0
TABLE
  2
VPORT
  5
8
330
0
100
AcDbSymbolTable
 70
     1
  0
VPORT
  5
29
330
8
100
AcDbSymbolTableRecord
100
AcDbViewportTableRecord
  2
*Active
 70
     0
 10
0.0
 20
0.0
 11
1.0
 21
1.0
 12
344.1869158879
 22
148.5
 13
0.0
 23
0.0
 14
10.0
 24
10.0
 15
10.0
 25
10.0
 16
0.0
 26
0.0
 36
1.0
 17
0.0
 27
0.0
 37
0.0
 40
297.0
 41
1.9729729729
 42
50.0
 43
0.0
 44
0.0
 50
0.0
 51
0.0
 71
     0
 72
   100
 73
     1
 74
     3
 75
     0
 76
     0
 77
     0
 78
     0
281
     0
 65
     1
110
0.0
120
0.0
130
0.0
111
1.0
121
0.0
131
0.0
112
0.0
122
1.0
132
0.0
 79
     0
146
0.0
348
2F
 60
     3
 61
     5
292
     1
282
     1
141
0.0
142
0.0
 63
   250
361
6D
  0
ENDTAB
  0
TABLE
  2
LTYPE
  5
5
330
0
100
AcDbSymbolTable
 70
     3
  0
LTYPE
  5
14
330
5
100
AcDbSymbolTableRecord
100
AcDbLinetypeTableRecord
  2
ByBlock
 70
     0
  3

 72
    65
 73
     0
 40
0.0
  0
LTYPE
  5
15
330
5
100
AcDbSymbolTableRecord
100
AcDbLinetypeTableRecord
  2
ByLayer
 70
     0
  3

 72
    65
 73
     0
 40
0.0
  0
LTYPE
  5
16
330
5
100
AcDbSymbolTableRecord
100
AcDbLinetypeTableRecord
  2
Continuous
 70
     0
  3
Solid line
 72
    65
 73
     0
 40
0.0
  0
LTYPE
  5
6F
330
5
100
AcDbSymbolTableRecord
100
AcDbLinetypeTableRecord
  2
HIDDEN2
 70
     0
  3
Hidden (.5x) _ _ _ _ _ _ _ _ _ _ _ _ _ _ _ _ _ 
 72
    65
 73
     2
 40
4.7625
 49
3.175
 74
     4
 75
     0
340
0
 46
0.0
 50
0.0
 44
0.0
 45
0.0
 49
-1.5875
 74
     4
 75
     0
340
0
 46
0.0
 50
0.0
 44
0.0
 45
0.0
  0
LTYPE
  5
15F
330
5
100
AcDbSymbolTableRecord
100
AcDbLinetypeTableRecord
  2
CENTER2
 70
     0
  3
Center (.5x) ___ _ ___ _ ___ _ ___ _ ___ _ ___
 72
    65
 73
     4
 40
28.575
 49
19.05
 74
     4
 75
     0
340
0
 46
0.0
 50
0.0
 44
0.0
 45
0.0
 49
-3.175
 74
     4
 75
     0
340
0
 46
0.0
 50
0.0
 44
0.0
 45
0.0
 49
3.175
 74
     4
 75
     0
340
0
 46
0.0
 50
0.0
 44
0.0
 45
0.0
 49
-3.175
 74
     4
 75
     0
340
0
 46
0.0
 50
0.0
 44
0.0
 45
0.0
  0
ENDTAB
  0
TABLE
  2
LAYER
  5
2
330
0
100
AcDbSymbolTable
 70
    10
  0
LAYER
  5
10
330
2
100
AcDbSymbolTableRecord
100
AcDbLayerTableRecord
  2
0
 70
     0
 62
     7
  6
Continuous
370
    -3
390
F
347
46
  0
LAYER
  5
6E
330
2
100
AcDbSymbolTableRecord
100
AcDbLayerTableRecord
  2
Verdeckt_(ISO)
 70
     0
 62
     7
  6
Continuous
370
    -3
390
F
347
46
  0
LAYER
  5
7F
330
2
100
AcDbSymbolTableRecord
100
AcDbLayerTableRecord
  2
Sichtbar_(ISO)
 70
     0
 62
     7
  6
Continuous
370
    -3
390
F
347
46
  0
LAYER
  5
154
330
2
100
AcDbSymbolTableRecord
100
AcDbLayerTableRecord
  2
Sichtbar_schmal_(ISO)
 70
     0
 62
     7
  6
Continuous
370
    -3
390
F
347
46
  0
LAYER
  5
159
330
2
100
AcDbSymbolTableRecord
100
AcDbLayerTableRecord
  2
Skizziergeometrie_(ISO)
 70
     0
 62
     7
  6
Continuous
370
    -3
390
F
347
46
  0
LAYER
  5
15B
330
2
100
AcDbSymbolTableRecord
100
AcDbLayerTableRecord
  2
_Konvertierung
 70
     1
 62
    -7
  6
Continuous
370
    -3
390
F
347
46
  0
LAYER
  5
15E
330
2
100
AcDbSymbolTableRecord
100
AcDbLayerTableRecord
  2
Mittellinie_(ISO)
 70
     0
 62
     7
  6
Continuous
370
    -3
390
F
347
46
  0
LAYER
  5
161
330
2
100
AcDbSymbolTableRecord
100
AcDbLayerTableRecord
  2
Mittelpunktmarkierung_(ISO)
 70
     0
 62
     7
  6
Continuous
370
    -3
390
F
347
46
  0
LAYER
  5
16F
330
2
100
AcDbSymbolTableRecord
100
AcDbLayerTableRecord
  2
6
 70
     0
 62
     7
  6
Continuous
370
    -3
390
F
347
46
  0
LAYER
  5
172
330
2
100
AcDbSymbolTableRecord
100
AcDbLayerTableRecord
  2
Bemaßung_(ISO)
 70
     0
 62
     7
  6
Continuous
370
    -3
390
F
347
46
  0
ENDTAB
  0
TABLE
  2
STYLE
  5
3
330
0
100
AcDbSymbolTable
 70
     2
  0
STYLE
  5
11
330
3
100
AcDbSymbolTableRecord
100
AcDbTextStyleTableRecord
  2
Standard
 70
     0
 40
0.0
 41
1.0
 50
0.0
 71
     0
 42
4.57
  3
txt
  4

  0
STYLE
  5
182
330
3
100
AcDbSymbolTableRecord
100
AcDbTextStyleTableRecord
  2
SEACAD_Arial
 70
     0
 40
0.0
 41
1.0
 50
0.0
 71
     0
 42
4.57
  3
arial.ttf
  4

1001
ACAD
1000
Arial
1071
        0
  0
ENDTAB
  0
TABLE
  2
VIEW
  5
6
330
0
100
AcDbSymbolTable
 70
     0
  0
ENDTAB
  0
TABLE
  2
UCS
  5
7
330
0
100
AcDbSymbolTable
 70
     0
  0
ENDTAB
  0
TABLE
  2
APPID
  5
9
330
0
100
AcDbSymbolTable
 70
     2
  0
APPID
  5
12
330
9
100
AcDbSymbolTableRecord
100
AcDbRegAppTableRecord
  2
ACAD
 70
     0
  0
APPID
  5
1F8
330
9
100
AcDbSymbolTableRecord
100
AcDbRegAppTableRecord
  2
ACAD_MLEADERVER
 70
     0
  0
ENDTAB
  0
TABLE
  2
DIMSTYLE
  5
A
330
0
100
AcDbSymbolTable
 70
     3
100
AcDbDimStyleTable
  0
DIMSTYLE
105
27
330
A
100
AcDbSymbolTableRecord
100
AcDbDimStyleTableRecord
  2
ISO-25
 70
     0
 41
2.5
 42
0.625
 43
3.75
 44
1.25
 73
     0
 74
     0
 77
     1
 78
     8
140
2.5
141
2.5
143
0.0393700787
147
0.625
171
     3
172
     1
178
     0
271
     2
272
     2
274
     3
278
    44
283
     0
284
     8
340
11
  0
DIMSTYLE
105
173
330
A
100
AcDbSymbolTableRecord
100
AcDbDimStyleTableRecord
  2
Standard
 70
     0
178
     0
340
11
  0
DIMSTYLE
105
183
102
{ACAD_REACTORS
330
184
330
18E
330
199
330
1A3
330
1AD
330
1B8
102
}
330
A
100
AcDbSymbolTableRecord
100
AcDbDimStyleTableRecord
  2
Standard_(DIN)
 70
     0
 41
2.5
 42
1.75
 44
1.75
 73
     0
 74
     0
 77
     1
140
3.5
141
1.75
143
1.0
144
1.0
147
0.875
173
     1
178
     0
271
     1
272
     2
278
    44
340
182
343
17D
344
17D
  0
ENDTAB
  0
TABLE
  2
BLOCK_RECORD
  5
1
330
0
100
AcDbSymbolTable
 70
     9
  0
BLOCK_RECORD
  5
1F
330
1
100
AcDbSymbolTableRecord
100
AcDbBlockTableRecord
  2
*Model_Space
340
22
 70
     0
280
     1
281
     0
  0
BLOCK_RECORD
  5
1B
330
1
100
AcDbSymbolTableRecord
100
AcDbBlockTableRecord
  2
*Paper_Space
340
1E
 70
     0
280
     1
281
     0
  0
BLOCK_RECORD
  5
174
330
1
100
AcDbSymbolTableRecord
100
AcDbBlockTableRecord
  2
_Oblique
340
0
 70
     0
280
     1
281
     0
  0
BLOCK_RECORD
  5
178
330
1
100
AcDbSymbolTableRecord
100
AcDbBlockTableRecord
  2
_Dot
340
0
 70
     0
280
     1
281
     0
  0
BLOCK_RECORD
  5
17D
330
1
100
AcDbSymbolTableRecord
100
AcDbBlockTableRecord
  2
_SE_FILLED
340
0
 70
     0
280
     1
281
     0
  0
BLOCK_RECORD
  5
185
330
1
100
AcDbSymbolTableRecord
100
AcDbBlockTableRecord
  2
DMBLK7
340
0
 70
     0
280
     1
281
     0
  0
BLOCK_RECORD
  5
18F
330
1
100
AcDbSymbolTableRecord
100
AcDbBlockTableRecord
  2
DMBLK8
340
0
 70
     0
280
     1
281
     0
  0
BLOCK_RECORD
  5
19A
330
1
100
AcDbSymbolTableRecord
100
AcDbBlockTableRecord
  2
DMBLK9
340
0
 70
     0
280
     1
281
     0
  0
BLOCK_RECORD
  5
1A4
330
1
100
AcDbSymbolTableRecord
100
AcDbBlockTableRecord
  2
DMBLK10
340
0
 70
     0
280
     1
281
     0
  0
BLOCK_RECORD
  5
1AE
330
1
100
AcDbSymbolTableRecord
100
AcDbBlockTableRecord
  2
DMBLK11
340
0
 70
     0
280
     1
281
     0
  0
BLOCK_RECORD
  5
1B9
330
1
100
AcDbSymbolTableRecord
100
AcDbBlockTableRecord
  2
DMBLK12
340
0
 70
     0
280
     1
281
     0
  0
ENDTAB
  0
ENDSEC
  0
SECTION
  2
BLOCKS
  0
BLOCK
  5
20
330
1F
100
AcDbEntity
  8
0
100
AcDbBlockBegin
  2
*Model_Space
 70
     0
 10
0.0
 20
0.0
 30
0.0
  3
*Model_Space
  1

  0
ENDBLK
  5
21
330
1F
100
AcDbEntity
  8
0
100
AcDbBlockEnd
  0
BLOCK
  5
1C
330
1B
100
AcDbEntity
 67
     1
  8
0
100
AcDbBlockBegin
  2
*Paper_Space
 70
     0
 10
0.0
 20
0.0
 30
0.0
  3
*Paper_Space
  1

  0
ENDBLK
  5
1D
330
1B
100
AcDbEntity
 67
     1
  8
0
100
AcDbBlockEnd
  0
BLOCK
  5
175
330
174
100
AcDbEntity
  8
0
100
AcDbBlockBegin
  2
_Oblique
 70
     0
 10
0.0
 20
0.0
 30
0.0
  3
_Oblique
  1

  0
LINE
  5
177
330
174
100
AcDbEntity
  8
0
  6
ByBlock
 62
     0
370
    -2
100
AcDbLine
 10
-0.5
 20
-0.5
 30
0.0
 11
0.5
 21
0.5
 31
0.0
  0
ENDBLK
  5
176
330
174
100
AcDbEntity
  8
0
100
AcDbBlockEnd
  0
BLOCK
  5
179
330
178
100
AcDbEntity
  8
0
100
AcDbBlockBegin
  2
_Dot
 70
     0
 10
0.0
 20
0.0
 30
0.0
  3
_Dot
  1

  0
LWPOLYLINE
  5
17B
330
178
100
AcDbEntity
  8
0
  6
ByBlock
 62
     0
100
AcDbPolyline
 90
        2
 70
     1
 43
0.5
 10
-0.25
 20
0.0
 42
1.0
 10
0.25
 20
0.0
 42
1.0
  0
LINE
  5
17C
330
178
100
AcDbEntity
  8
0
  6
ByBlock
 62
     0
370
    -2
100
AcDbLine
 10
-0.5
 20
0.0
 30
0.0
 11
-1.0
 21
0.0
 31
0.0
  0
ENDBLK
  5
17A
330
178
100
AcDbEntity
  8
0
100
AcDbBlockEnd
  0
BLOCK
  5
180
330
17D
100
AcDbEntity
  8
0
100
AcDbBlockBegin
  2
_SE_FILLED
 70
     0
 10
0.0
 20
0.0
 30
0.0
  3
_SE_FILLED
  1

  0
SOLID
  5
17E
330
17D
100
AcDbEntity
  8
0
 62
     0
100
AcDbTrace
 10
0.0
 20
0.0
 30
0.0
 11
-1.0
 21
-0.1665
 31
0.0
 12
-1.0
 22
0.1665
 32
0.0
 13
0.0
 23
0.0
 33
0.0
  0
LINE
  5
17F
330
17D
100
AcDbEntity
  8
0
 62
     0
100
AcDbLine
 10
0.0
 20
0.0
 30
0.0
 11
-1.0
 21
0.0
 31
0.0
  0
ENDBLK
  5
181
330
17D
100
AcDbEntity
  8
0
100
AcDbBlockEnd
  0
BLOCK
  5
18C
330
185
100
AcDbEntity
  8
0
100
AcDbBlockBegin
  2
DMBLK7
 70
     0
 10
0.0
 20
0.0
 30
0.0
  3
DMBLK7
  1

  0
HATCH
  5
186
330
185
100
AcDbEntity
  8
Bemaßung_(ISO)
  6
Continuous
 62
     7
100
AcDbHatch
 10
0.0
 20
0.0
 30
0.0
210
0.0
220
0.0
230
1.0
  2
SOLID
 70
     1
 71
     0
 91
        1
 92
        1
 93
        3
 72
     1
 10
-2.500034360296588
 20
32.34170935738956
 11
-2.500034360296588
 21
31.50837604268268
 72
     1
 10
-2.500034360296588
 20
31.50837604268268
 11
-0.000034416175942
 21
31.92504270003612
 72
     1
 10
-0.0000344161759421
 20
31.92504270003612
 11
-2.500034360296588
 21
32.34170935738956
 97
        0
 75
     0
 76
     1
 98
        0
  0
HATCH
  5
187
330
185
100
AcDbEntity
  8
Bemaßung_(ISO)
  6
Continuous
 62
     7
100
AcDbHatch
 10
0.0
 20
0.0
 30
0.0
210
0.0
220
0.0
230
1.0
  2
SOLID
 70
     1
 71
     0
 91
        1
 92
        1
 93
        3
 72
     1
 10
-45.90003420979486
 20
32.34170935738956
 11
-48.40003415391551
 21
31.92504270003612
 72
     1
 10
-48.40003415391551
 20
31.92504270003612
 11
-45.90003420979486
 21
31.50837604268268
 72
     1
 10
-45.90003420979486
 20
31.50837604268268
 11
-45.90003420979486
 21
32.34170935738956
 97
        0
 75
     0
 76
     1
 98
        0
  0
LINE
  5
188
330
185
100
AcDbEntity
  8
Bemaßung_(ISO)
  6
Continuous
 62
     7
100
AcDbLine
 10
-0.0000344162
 20
17.6750419941
 30
0.0
 11
-0.0000344162
 21
33.6750427541
 31
0.0
  0
LINE
  5
189
330
185
100
AcDbEntity
  8
Bemaßung_(ISO)
  6
Continuous
 62
     7
100
AcDbLine
 10
-48.4000344162
 20
9.7018987901
 30
0.0
 11
-48.4000344162
 21
33.6750427541
 31
0.0
  0
LINE
  5
18A
330
185
100
AcDbEntity
  8
Bemaßung_(ISO)
  6
Continuous
 62
     7
100
AcDbLine
 10
-0.0000344162
 20
31.9250427
 30
0.0
 11
-48.4000341539
 21
31.9250427
 31
0.0
  0
TEXT
  5
18B
330
185
100
AcDbEntity
  8
Bemaßung_(ISO)
  6
Continuous
 62
     7
100
AcDbText
 10
-28.9935125459
 20
32.8000427
 30
0.0
 40
3.5
  1
48,4
  7
SEACAD_Arial
 11
-28.9935125459
 21
36.3000427
 31
0.0
100
AcDbText
 73
     3
  0
ENDBLK
  5
18D
330
185
100
AcDbEntity
  8
0
100
AcDbBlockEnd
  0
BLOCK
  5
197
330
18F
100
AcDbEntity
  8
0
100
AcDbBlockBegin
  2
DMBLK8
 70
     0
 10
0.0
 20
0.0
 30
0.0
  3
DMBLK8
  1

  0
HATCH
  5
190
330
18F
100
AcDbEntity
  8
Bemaßung_(ISO)
  6
Continuous
 62
     7
100
AcDbHatch
 10
0.0
 20
0.0
 30
0.0
210
0.0
220
0.0
230
1.0
  2
SOLID
 70
     1
 71
     0
 91
        1
 92
        1
 93
        3
 72
     1
 10
-62.91484789359773
 20
20.50004199595626
 11
-62.08151457889085
 21
20.50004199595626
 72
     1
 10
-62.08151457889085
 20
20.50004199595626
 11
-62.49818123624429
 21
23.0000419400769
 72
     1
 10
-62.49818123624429
 20
23.0000419400769
 11
-62.91484789359773
 21
20.50004199595626
 97
        0
 75
     0
 76
     1
 98
        0
  0
HATCH
  5
191
330
18F
100
AcDbEntity
  8
Bemaßung_(ISO)
  6
Continuous
 62
     7
100
AcDbHatch
 10
0.0
 20
0.0
 30
0.0
210
0.0
220
0.0
230
1.0
  2
SOLID
 70
     1
 71
     0
 91
        1
 92
        1
 93
        3
 72
     1
 10
-62.91484789359773
 20
-20.49995820520942
 11
-62.49818123624429
 21
-22.99995814933007
 72
     1
 10
-62.49818123624429
 20
-22.99995814933007
 11
-62.08151457889085
 21
-20.49995820520942
 72
     1
 10
-62.08151457889085
 20
-20.49995820520942
 11
-62.91484789359773
 21
-20.49995820520942
 97
        0
 75
     0
 76
     1
 98
        0
  0
LINE
  5
192
330
18F
100
AcDbEntity
  8
Bemaßung_(ISO)
  6
Continuous
 62
     7
100
AcDbLine
 10
1.4499655298
 20
23.0000419401
 30
0.0
 11
-64.2481812903
 21
23.0000419401
 31
0.0
  0
LINE
  5
193
330
18F
100
AcDbEntity
  8
Bemaßung_(ISO)
  6
Continuous
 62
     7
100
AcDbLine
 10
1.4499655298
 20
-22.9999580599
 30
0.0
 11
-64.2481812903
 21
-22.9999580599
 31
0.0
  0
LINE
  5
194
330
18F
100
AcDbEntity
  8
Bemaßung_(ISO)
  6
Continuous
 62
     7
100
AcDbLine
 10
-62.4981812362
 20
23.0000419401
 30
0.0
 11
-62.4981812362
 21
-22.9999581493
 31
0.0
  0
TEXT
  5
195
330
18F
100
AcDbEntity
  8
Bemaßung_(ISO)
  6
Continuous
 62
     7
100
AcDbText
 10
-63.3731812362
 20
-0.144523322
 30
0.0
 40
3.5
  1
46
 50
90.0
  7
SEACAD_Arial
 11
-66.8731812362
 21
-0.144523322
 31
0.0
100
AcDbText
 73
     3
  0
TEXT
  5
196
330
18F
100
AcDbEntity
  8
Bemaßung_(ISO)
  6
Continuous
 62
     7
100
AcDbText
 10
-63.3731812362
 20
-5.3336537568
 30
0.0
 40
3.5
  1
n
 50
90.0
  7
SEACAD_Arial
 11
-66.8731812362
 21
-5.3336537568
 31
0.0
100
AcDbText
 73
     3
  0
ENDBLK
  5
198
330
18F
100
AcDbEntity
  8
0
100
AcDbBlockEnd
  0
BLOCK
  5
1A1
330
19A
100
AcDbEntity
  8
0
100
AcDbBlockBegin
  2
DMBLK9
 70
     0
 10
0.0
 20
0.0
 30
0.0
  3
DMBLK9
  1

  0
HATCH
  5
19B
330
19A
100
AcDbEntity
  8
Bemaßung_(ISO)
  6
Continuous
 62
     7
100
AcDbHatch
 10
0.0
 20
0.0
 30
0.0
210
0.0
220
0.0
230
1.0
  2
SOLID
 70
     1
 71
     0
 91
        1
 92
        1
 93
        3
 72
     1
 10
2.499965527944704
 20
32.34170935738956
 11
-0.000034416175942
 21
31.92504270003612
 72
     1
 10
-0.0000344161759421
 20
31.92504270003612
 11
2.499965527944704
 21
31.50837604268268
 72
     1
 10
2.499965527944704
 20
31.50837604268268
 11
2.499965527944704
 21
32.34170935738956
 97
        0
 75
     0
 76
     1
 98
        0
  0
HATCH
  5
19C
330
19A
100
AcDbEntity
  8
Bemaßung_(ISO)
  6
Continuous
 62
     7
100
AcDbHatch
 10
0.0
 20
0.0
 30
0.0
210
0.0
220
0.0
230
1.0
  2
SOLID
 70
     1
 71
     0
 91
        1
 92
        1
 93
        3
 72
     1
 10
19.49996552049413
 20
32.34170935738956
 11
19.49996552049413
 21
31.50837604268268
 72
     1
 10
19.49996552049413
 20
31.50837604268268
 11
21.99996546461477
 21
31.92504270003612
 72
     1
 10
21.99996546461477
 20
31.92504270003612
 11
19.49996552049413
 21
32.34170935738956
 97
        0
 75
     0
 76
     1
 98
        0
  0
LINE
  5
19D
330
19A
100
AcDbEntity
  8
Bemaßung_(ISO)
  6
Continuous
 62
     7
100
AcDbLine
 10
-0.0000344162
 20
17.6750419941
 30
0.0
 11
-0.0000344162
 21
33.6750427541
 31
0.0
  0
LINE
  5
19E
330
19A
100
AcDbEntity
  8
Bemaßung_(ISO)
  6
Continuous
 62
     7
100
AcDbLine
 10
21.9999655838
 20
23.5500419941
 30
0.0
 11
21.9999655838
 21
33.6750427541
 31
0.0
  0
LINE
  5
19F
330
19A
100
AcDbEntity
  8
Bemaßung_(ISO)
  6
Continuous
 62
     7
100
AcDbLine
 10
-0.0000344162
 20
31.9250427
 30
0.0
 11
21.9999654646
 21
31.9250427
 31
0.0
  0
TEXT
  5
1A0
330
19A
100
AcDbEntity
  8
Bemaßung_(ISO)
  6
Continuous
 62
     7
100
AcDbText
 10
8.2608350894
 20
32.8000427
 30
0.0
 40
3.5
  1
22
  7
SEACAD_Arial
 11
8.2608350894
 21
36.3000427
 31
0.0
100
AcDbText
 73
     3
  0
ENDBLK
  5
1A2
330
19A
100
AcDbEntity
  8
0
100
AcDbBlockEnd
  0
BLOCK
  5
1AB
330
1A4
100
AcDbEntity
  8
0
100
AcDbBlockBegin
  2
DMBLK10
 70
     0
 10
0.0
 20
0.0
 30
0.0
  3
DMBLK10
  1

  0
HATCH
  5
1A5
330
1A4
100
AcDbEntity
  8
Bemaßung_(ISO)
  6
Continuous
 62
     7
100
AcDbHatch
 10
0.0
 20
0.0
 30
0.0
210
0.0
220
0.0
230
1.0
  2
SOLID
 70
     1
 71
     0
 91
        1
 92
        1
 93
        3
 72
     1
 10
2.499965527944704
 20
41.36603139031803
 11
-0.000034416175942
 21
40.94936473296459
 72
     1
 10
-0.0000344161759421
 20
40.94936473296459
 11
2.499965527944704
 21
40.53269807561115
 72
     1
 10
2.499965527944704
 20
40.53269807561115
 11
2.499965527944704
 21
41.36603139031803
 97
        0
 75
     0
 76
     1
 98
        0
  0
HATCH
  5
1A6
330
1A4
100
AcDbEntity
  8
Bemaßung_(ISO)
  6
Continuous
 62
     7
100
AcDbHatch
 10
0.0
 20
0.0
 30
0.0
210
0.0
220
0.0
230
1.0
  2
SOLID
 70
     1
 71
     0
 91
        1
 92
        1
 93
        3
 72
     1
 10
47.49580523549809
 20
41.36603139031803
 11
47.49580523549809
 21
40.53269807561115
 72
     1
 10
47.49580523549809
 20
40.53269807561115
 11
49.99580517961873
 21
40.94936473296459
 72
     1
 10
49.99580517961873
 20
40.94936473296459
 11
47.49580523549809
 21
41.36603139031803
 97
        0
 75
     0
 76
     1
 98
        0
  0
LINE
  5
1A7
330
1A4
100
AcDbEntity
  8
Bemaßung_(ISO)
  6
Continuous
 62
     7
100
AcDbLine
 10
-0.0000344162
 20
17.6750419941
 30
0.0
 11
-0.0000344162
 21
42.699364787
 31
0.0
  0
LINE
  5
1A8
330
1A4
100
AcDbEntity
  8
Bemaßung_(ISO)
  6
Continuous
 62
     7
100
AcDbLine
 10
49.9958042781
 20
8.7458806883
 30
0.0
 11
49.9958042781
 21
42.699364787
 31
0.0
  0
LINE
  5
1A9
330
1A4
100
AcDbEntity
  8
Bemaßung_(ISO)
  6
Continuous
 62
     7
100
AcDbLine
 10
-0.0000344162
 20
40.949364733
 30
0.0
 11
49.9958051796
 21
40.949364733
 31
0.0
  0
TEXT
  5
1AA
330
1A4
100
AcDbEntity
  8
Bemaßung_(ISO)
  6
Continuous
 62
     7
100
AcDbText
 10
22.2587549469
 20
41.824364733
 30
0.0
 40
3.5
  1
50
  7
SEACAD_Arial
 11
22.2587549469
 21
45.324364733
 31
0.0
100
AcDbText
 73
     3
  0
ENDBLK
  5
1AC
330
1A4
100
AcDbEntity
  8
0
100
AcDbBlockEnd
  0
BLOCK
  5
1B6
330
1AE
100
AcDbEntity
  8
0
100
AcDbBlockBegin
  2
DMBLK11
 70
     0
 10
0.0
 20
0.0
 30
0.0
  3
DMBLK11
  1

  0
HATCH
  5
1AF
330
1AE
100
AcDbEntity
  8
Bemaßung_(ISO)
  6
Continuous
 62
     7
100
AcDbHatch
 10
0.0
 20
0.0
 30
0.0
210
0.0
220
0.0
230
1.0
  2
SOLID
 70
     1
 71
     0
 91
        1
 92
        1
 93
        3
 72
     1
 10
69.57111427342684
 20
9.750041995956254
 11
69.1544476160734
 21
12.2500419400769
 72
     1
 10
69.1544476160734
 20
12.2500419400769
 11
68.73778095871995
 21
9.750041995956254
 72
     1
 10
68.73778095871995
 20
9.750041995956254
 11
69.57111427342684
 21
9.750041995956254
 97
        0
 75
     0
 76
     1
 98
        0
  0
HATCH
  5
1B0
330
1AE
100
AcDbEntity
  8
Bemaßung_(ISO)
  6
Continuous
 62
     7
100
AcDbHatch
 10
0.0
 20
0.0
 30
0.0
210
0.0
220
0.0
230
1.0
  2
SOLID
 70
     1
 71
     0
 91
        1
 92
        1
 93
        3
 72
     1
 10
69.57111427342684
 20
-9.749957475052524
 11
68.73778095871995
 21
-9.749957475052524
 72
     1
 10
68.73778095871995
 20
-9.749957475052524
 11
69.1544476160734
 21
-12.24995741917317
 72
     1
 10
69.1544476160734
 20
-12.24995741917317
 11
69.57111427342684
 21
-9.749957475052524
 97
        0
 75
     0
 76
     1
 98
        0
  0
LINE
  5
1B1
330
1AE
100
AcDbEntity
  8
Bemaßung_(ISO)
  6
Continuous
 62
     7
100
AcDbLine
 10
40.58404171
 20
12.2500419401
 30
0.0
 11
70.9044476701
 21
12.2500419401
 31
0.0
  0
LINE
  5
1B2
330
1AE
100
AcDbEntity
  8
Bemaßung_(ISO)
  6
Continuous
 62
     7
100
AcDbLine
 10
40.58404171
 20
-12.2499580599
 30
0.0
 11
70.9044476701
 21
-12.2499580599
 31
0.0
  0
LINE
  5
1B3
330
1AE
100
AcDbEntity
  8
Bemaßung_(ISO)
  6
Continuous
 62
     7
100
AcDbLine
 10
69.1544476161
 20
12.2500419401
 30
0.0
 11
69.1544476161
 21
-12.2499574192
 31
0.0
  0
TEXT
  5
1B4
330
1AE
100
AcDbEntity
  8
Bemaßung_(ISO)
  6
Continuous
 62
     7
100
AcDbText
 10
68.2794476161
 20
-2.198870783
 30
0.0
 40
3.5
  1
24,5
 50
90.0
  7
SEACAD_Arial
 11
64.7794476161
 21
-2.198870783
 31
0.0
100
AcDbText
 73
     3
  0
TEXT
  5
1B5
330
1AE
100
AcDbEntity
  8
Bemaßung_(ISO)
  6
Continuous
 62
     7
100
AcDbText
 10
68.2794476161
 20
-7.3880012178
 30
0.0
 40
3.5
  1
n
 50
90.0
  7
SEACAD_Arial
 11
64.7794476161
 21
-7.3880012178
 31
0.0
100
AcDbText
 73
     3
  0
ENDBLK
  5
1B7
330
1AE
100
AcDbEntity
  8
0
100
AcDbBlockEnd
  0
BLOCK
  5
1C1
330
1B9
100
AcDbEntity
  8
0
100
AcDbBlockBegin
  2
DMBLK12
 70
     0
 10
0.0
 20
0.0
 30
0.0
  3
DMBLK12
  1

  0
HATCH
  5
1BA
330
1B9
100
AcDbEntity
  8
Bemaßung_(ISO)
  6
Continuous
 62
     7
100
AcDbHatch
 10
0.0
 20
0.0
 30
0.0
210
0.0
220
0.0
230
1.0
  2
SOLID
 70
     1
 71
     0
 91
        1
 92
        1
 93
        3
 72
     1
 10
56.43704285712833
 20
5.500041884197548
 11
55.60370954242146
 21
5.500041884197548
 72
     1
 10
55.60370954242146
 20
5.500041884197548
 11
56.02037619977489
 21
3.000041940076902
 72
     1
 10
56.02037619977489
 20
3.000041940076902
 11
56.43704285712833
 21
5.500041884197548
 97
        0
 75
     0
 76
     1
 98
        0
  0
HATCH
  5
1BB
330
1B9
100
AcDbEntity
  8
Bemaßung_(ISO)
  6
Continuous
 62
     7
100
AcDbHatch
 10
0.0
 20
0.0
 30
0.0
210
0.0
220
0.0
230
1.0
  2
SOLID
 70
     1
 71
     0
 91
        1
 92
        1
 93
        3
 72
     1
 10
56.43704285712833
 20
-5.499958004043742
 11
56.02037619977489
 21
-2.999958059923096
 72
     1
 10
56.02037619977489
 20
-2.999958059923097
 11
55.60370954242146
 21
-5.499958004043743
 72
     1
 10
55.60370954242146
 20
-5.499958004043742
 11
56.43704285712833
 21
-5.499958004043742
 97
        0
 75
     0
 76
     1
 98
        0
  0
LINE
  5
1BC
330
1B9
100
AcDbEntity
  8
Bemaßung_(ISO)
  6
Continuous
 62
     7
100
AcDbLine
 10
50.7499656378
 20
3.0000419401
 30
0.0
 11
57.7703762538
 21
3.0000419401
 31
0.0
  0
LINE
  5
1BD
330
1B9
100
AcDbEntity
  8
Bemaßung_(ISO)
  6
Continuous
 62
     7
100
AcDbLine
 10
50.7499656378
 20
-2.9999580599
 30
0.0
 11
57.7703762538
 21
-2.9999580599
 31
0.0
  0
LINE
  5
1BE
330
1B9
100
AcDbEntity
  8
Bemaßung_(ISO)
  6
Continuous
 62
     7
100
AcDbLine
 10
56.0203761998
 20
8.0000418283
 30
0.0
 11
56.0203761998
 21
-28.0851251401
 31
0.0
  0
TEXT
  5
1BF
330
1B9
100
AcDbEntity
  8
Bemaßung_(ISO)
  6
Continuous
 62
     7
100
AcDbText
 10
55.1453761998
 20
-21.6709935468
 30
0.0
 40
3.5
  1
6
 50
90.0
  7
SEACAD_Arial
 11
51.6453761998
 21
-21.6709935468
 31
0.0
100
AcDbText
 73
     3
  0
TEXT
  5
1C0
330
1B9
100
AcDbEntity
  8
Bemaßung_(ISO)
  6
Continuous
 62
     7
100
AcDbText
 10
55.1453761998
 20
-26.8601239816
 30
0.0
 40
3.5
  1
n
 50
90.0
  7
SEACAD_Arial
 11
51.6453761998
 21
-26.8601239816
 31
0.0
100
AcDbText
 73
     3
  0
ENDBLK
  5
1C2
330
1B9
100
AcDbEntity
  8
0
100
AcDbBlockEnd
  0
ENDSEC
  0
SECTION
  2
ENTITIES
  0
SPLINE
  5
70
330
1F
100
AcDbEntity
  8
Verdeckt_(ISO)
  6
HIDDEN2
 62
     7
100
AcDbSpline
210
0.0
220
0.0
230
1.0
 70
    15
 71
     3
 72
    24
 73
    20
 74
     0
 42
0.000000001
 43
0.0000000001
 40
0.0
 40
0.0
 40
0.0
 40
0.0
 40
0.0477173970602358
 40
0.0477173970602358
 40
0.1240652323566135
 40
0.1240652323566135
 40
0.2233174182419042
 40
0.2233174182419042
 40
0.3398992504639289
 40
0.3398992504639289
 40
0.4613696511136241
 40
0.4613696511136241
 40
0.5914494244595526
 40
0.5914494244595526
 40
0.7404605155746719
 40
0.7404605155746719
 40
0.8864017164904163
 40
0.8864017164904163
 40
1.0
 40
1.0
 40
1.0
 40
1.0
 10
49.70002650112216
 20
-3.626815189790103
 30
0.0
 41
1.0
 10
49.70002650112216
 20
-3.579080901953385
 30
0.0
 41
1.0
 10
49.70002462733712
 20
-3.551119669818386
 30
0.0
 41
1.0
 10
49.70001571249955
 20
-3.533048538901781
 30
0.0
 41
1.0
 10
49.70000618037123
 20
-3.576326298337589
 30
0.0
 41
1.0
 10
49.69998379826608
 20
-3.790189515429104
 30
0.0
 41
1.0
 10
49.69997149842687
 20
-3.995689336491374
 30
0.0
 41
1.0
 10
49.69996237778971
 20
-4.545284225940948
 30
0.0
 41
1.0
 10
49.69996953293629
 20
-4.905827013735056
 30
0.0
 41
1.0
 10
49.69999698518588
 20
-5.589205017488291
 30
0.0
 41
1.0
 10
49.70001572244978
 20
-5.906024205705812
 30
0.0
 41
1.0
 10
49.70003073671204
 20
-6.318947322382892
 30
0.0
 41
1.0
 10
49.70002363534081
 20
-6.394075146512709
 30
0.0
 41
1.0
 10
49.69999108791604
 20
-6.209356998548538
 30
0.0
 41
1.0
 10
49.69996801949019
 20
-5.898436461475927
 30
0.0
 41
1.0
 10
49.69996361313225
 20
-5.103459585146864
 30
0.0
 41
1.0
 10
49.69998202812548
 20
-4.632622306170254
 30
0.0
 41
1.0
 10
49.70001476494036
 20
-3.969274564567685
 30
0.0
 41
1.0
 10
49.70002650112216
 20
-3.740453684277941
 30
0.0
 41
1.0
 10
49.70002650112216
 20
-3.626815189790103
 30
0.0
 41
1.0
  0
SPLINE
  5
71
330
1F
100
AcDbEntity
  8
Verdeckt_(ISO)
  6
HIDDEN2
 62
     7
100
AcDbSpline
210
0.0
220
0.0
230
1.0
 70
     8
 71
     3
 72
    47
 73
    43
 74
     0
 42
0.000000001
 43
0.0000000001
 40
0.0
 40
0.0
 40
0.0
 40
0.0
 40
0.0306624121896721
 40
0.0306624121896721
 40
0.0970405944182191
 40
0.0970405944182191
 40
0.1654657870821649
 40
0.1654657870821649
 40
0.1996783834141378
 40
0.1996783834141378
 40
0.2338909797461109
 40
0.2338909797461109
 40
0.2338909797461109
 40
0.2676879270922705
 40
0.2676879270922705
 40
0.3014848744384301
 40
0.3014848744384301
 40
0.3690787691307487
 40
0.3690787691307487
 40
0.4345444243500144
 40
0.4345444243500144
 40
0.5000100795692815
 40
0.5000100795692815
 40
0.5654757347885475
 40
0.5654757347885475
 40
0.6309413900078122
 40
0.6309413900078122
 40
0.6985352847001328
 40
0.6985352847001328
 40
0.7323322320462907
 40
0.7323322320462907
 40
0.7661291793924521
 40
0.7661291793924521
 40
0.8001974043970196
 40
0.8001974043970196
 40
0.8342656294015859
 40
0.8342656294015859
 40
0.9024020794107208
 40
0.9024020794107208
 40
0.9690637453180075
 40
0.9690637453180075
 40
0.9999999999999999
 40
0.9999999999999999
 40
0.9999999999999999
 40
0.9999999999999999
 10
15.37458502576759
 20
-4.887043813321048
 30
0.0
 10
15.36010517954258
 20
-4.934368852729331
 30
0.0
 10
15.33951835665319
 20
-4.988835788241478
 30
0.0
 10
15.25919807690694
 20
-5.177744592524573
 30
0.0
 10
15.18092722013722
 20
-5.332520759379147
 30
0.0
 10
15.02326916077422
 20
-5.644696912419686
 30
0.0
 10
14.93088009069983
 20
-5.825692372761015
 30
0.0
 10
14.82031856563142
 20
-6.104616126318033
 30
0.0
 10
14.7883855328685
 20
-6.199018685582967
 30
0.0
 10
14.74382889290867
 20
-6.386474736113489
 30
0.0
 10
14.73133643372253
 20
-6.479560278203838
 30
0.0
 10
14.73133643372253
 20
-6.569505157817933
 30
0.0
 10
14.73133643372253
 20
-6.658357296687419
 30
0.0
 10
14.74357816896378
 20
-6.743682784818361
 30
0.0
 10
14.78801167549532
 20
-6.90261545962484
 30
0.0
 10
14.82007524690062
 20
-6.976246689229735
 30
0.0
 10
14.93144850935458
 20
-7.175533998530812
 30
0.0
 10
15.02490480702212
 20
-7.279617367448955
 30
0.0
 10
15.18330389146012
 20
-7.417540236712922
 30
0.0
 10
15.26121233500468
 20
-7.462794874116049
 30
0.0
 10
15.36987792760201
 20
-7.47810839041132
 30
0.0
 10
15.39996558382406
 20
-7.4477502029315
 30
0.0
 10
15.39996558382406
 20
-7.32246499607671
 30
0.0
 10
15.36987792760201
 20
-7.222495362768601
 30
0.0
 10
15.26121233500468
 20
-6.973102998377183
 30
0.0
 10
15.18330389146012
 20
-6.823862467764276
 30
0.0
 10
15.02490480702212
 20
-6.520643277359562
 30
0.0
 10
14.93144850935458
 20
-6.343948833209822
 30
0.0
 10
14.82007524690062
 20
-6.070306770212678
 30
0.0
 10
14.78801167549532
 20
-5.97742404759697
 30
0.0
 10
14.74357816896378
 20
-5.79263645018734
 30
0.0
 10
14.73133643372253
 20
-5.700700895375547
 30
0.0
 10
14.73133643372253
 20
-5.5222834289592
 30
0.0
 10
14.74372479067957
 20
-5.436262026073359
 30
0.0
 10
14.78796657037216
 20
-5.275254894647526
 30
0.0
 10
14.81969110267819
 20
-5.200248832184975
 30
0.0
 10
14.92961145962144
 20
-4.995597395076264
 30
0.0
 10
15.02156443700981
 20
-4.886384318651279
 30
0.0
 10
15.17937731402243
 20
-4.737096617599646
 30
0.0
 10
15.25816136847256
 20
-4.685258545285455
 30
0.0
 10
15.33916818672923
 20
-4.667312082745698
 30
0.0
 10
15.35998216063912
 20
-4.669881227788645
 30
0.0
 10
15.37458502576759
 20
-4.681005886960599
 30
0.0
  0
SPLINE
  5
72
330
1F
100
AcDbEntity
  8
Verdeckt_(ISO)
  6
HIDDEN2
 62
     7
100
AcDbSpline
210
0.0
220
0.0
230
1.0
 70
     8
 71
     3
 72
    10
 73
     6
 74
     0
 42
0.000000001
 43
0.0000000001
 40
0.0
 40
0.0
 40
0.0
 40
0.0
 40
0.060550081090648
 40
0.060550081090648
 40
0.9999999999999999
 40
0.9999999999999999
 40
0.9999999999999999
 40
0.9999999999999999
 10
16.59996558382406
 20
-4.921505540194049
 30
0.0
 10
16.57477446148152
 20
-4.920932686444828
 30
0.0
 10
16.54960837269624
 20
-4.920354319660356
 30
0.0
 10
16.13440506975212
 20
-4.910707995141618
 30
0.0
 10
15.75044488326341
 20
-4.900489249310891
 30
0.0
 10
15.37458502576759
 20
-4.887043813321048
 30
0.0
  0
SPLINE
  5
73
330
1F
100
AcDbEntity
  8
Verdeckt_(ISO)
  6
HIDDEN2
 62
     7
100
AcDbSpline
210
0.0
220
0.0
230
1.0
 70
     8
 71
     3
 72
    10
 73
     6
 74
     0
 42
0.000000001
 43
0.0000000001
 40
0.0
 40
0.0
 40
0.0
 40
0.0
 40
0.4999999999999987
 40
0.4999999999999987
 40
1.0
 40
1.0
 40
1.0
 40
1.0
 10
16.59996558382406
 20
-4.629681815135661
 30
0.0
 10
16.62070848866757
 20
-4.634756807031081
 30
0.0
 10
16.63111688198961
 20
-4.664451832039745
 30
0.0
 10
16.63111688198961
 20
-4.759477157454925
 30
0.0
 10
16.62070848866757
 20
-4.830992494694412
 30
0.0
 10
16.59996558382406
 20
-4.921505540194049
 30
0.0
  0
SPLINE
  5
74
330
1F
100
AcDbEntity
  8
Verdeckt_(ISO)
  6
HIDDEN2
 62
     7
100
AcDbSpline
210
0.0
220
0.0
230
1.0
 70
     8
 71
     3
 72
    10
 73
     6
 74
     0
 42
0.000000001
 43
0.0000000001
 40
0.0
 40
0.0
 40
0.0
 40
0.0
 40
0.9394499189093584
 40
0.9394499189093584
 40
0.9999999999999999
 40
0.9999999999999999
 40
0.9999999999999999
 40
0.9999999999999999
 10
15.37458502576759
 20
-4.681005886960599
 30
0.0
 10
15.75044488326341
 20
-4.662340884398606
 30
0.0
 10
16.13440506975213
 20
-4.64683352896788
 30
0.0
 10
16.54960837269624
 20
-4.631519802756558
 30
0.0
 10
16.57477446148152
 20
-4.630598123812732
 30
0.0
 10
16.59996558382406
 20
-4.629681815135661
 30
0.0
  0
LINE
  5
75
330
1F
100
AcDbEntity
  8
Verdeckt_(ISO)
  6
HIDDEN2
 62
     7
100
AcDbLine
 10
49.7000193631
 20
-3.5424334272
 30
0.0
 11
49.7999655838
 21
-3.4391537125
 31
0.0
  0
LINE
  5
76
330
1F
100
AcDbEntity
  8
Verdeckt_(ISO)
  6
HIDDEN2
 62
     7
100
AcDbLine
 10
49.7999655838
 20
-6.4406608414
 30
0.0
 11
49.7000193965
 21
-6.343940554
 31
0.0
  0
LINE
  5
77
330
1F
100
AcDbEntity
  8
Verdeckt_(ISO)
  6
HIDDEN2
 62
     7
100
AcDbLine
 10
15.3351803186
 20
-4.6701083828
 30
0.0
 11
49.7000193642
 21
-3.5424334266
 31
0.0
  0
LINE
  5
78
330
1F
100
AcDbEntity
  8
Verdeckt_(ISO)
  6
HIDDEN2
 62
     7
100
AcDbLine
 10
15.3351803186
 20
-7.4716155117
 30
0.0
 11
49.7000193976
 21
-6.3439405545
 31
0.0
  0
LINE
  5
79
330
1F
100
AcDbEntity
  8
Verdeckt_(ISO)
  6
HIDDEN2
 62
     7
100
AcDbLine
 10
49.7999655838
 20
6.8000419401
 30
0.0
 11
49.7999655838
 21
-6.7999580599
 31
0.0
  0
LINE
  5
7A
330
1F
100
AcDbEntity
  8
Verdeckt_(ISO)
  6
HIDDEN2
 62
     7
100
AcDbLine
 10
49.9114034116
 20
-3.5885202322
 30
0.0
 11
49.9114034116
 21
3.5886041123
 31
0.0
  0
LINE
  5
7B
330
1F
100
AcDbEntity
  8
Verdeckt_(ISO)
  6
HIDDEN2
 62
     7
100
AcDbLine
 10
49.9114034116
 20
-3.5885202322
 30
0.0
 11
49.7999655838
 21
-3.6999580599
 31
0.0
  0
LINE
  5
7C
330
1F
100
AcDbEntity
  8
Verdeckt_(ISO)
  6
HIDDEN2
 62
     7
100
AcDbLine
 10
49.9114034116
 20
3.5886041123
 30
0.0
 11
49.7999655838
 21
3.7000419401
 31
0.0
  0
LINE
  5
7D
330
1F
100
AcDbEntity
  8
Verdeckt_(ISO)
  6
HIDDEN2
 62
     7
100
AcDbLine
 10
49.7999655838
 20
6.8000419401
 30
0.0
 11
49.9958042781
 21
6.9958806343
 31
0.0
  0
LINE
  5
7E
330
1F
100
AcDbEntity
  8
Verdeckt_(ISO)
  6
HIDDEN2
 62
     7
100
AcDbLine
 10
49.7999655838
 20
-6.7999580599
 30
0.0
 11
49.9958042781
 21
-6.9957967542
 31
0.0
  0
LINE
  5
80
330
1F
100
AcDbEntity
  8
Sichtbar_(ISO)
  6
Continuous
 62
     7
100
AcDbLine
 10
49.9958042781
 20
6.9958806343
 30
0.0
 11
49.9958042781
 21
-6.9957967542
 31
0.0
  0
LINE
  5
81
330
1F
100
AcDbEntity
  8
Verdeckt_(ISO)
  6
HIDDEN2
 62
     7
100
AcDbLine
 10
17.3643030758
 20
3.0000419401
 30
0.0
 11
17.3643030758
 21
-2.9999580599
 31
0.0
  0
LINE
  5
82
330
1F
100
AcDbEntity
  8
Verdeckt_(ISO)
  6
HIDDEN2
 62
     7
100
AcDbLine
 10
16.5999655838
 20
4.6297656953
 30
0.0
 11
16.5999655838
 21
-5.0999580599
 31
0.0
  0
LINE
  5
83
330
1F
100
AcDbEntity
  8
Verdeckt_(ISO)
  6
HIDDEN2
 62
     7
100
AcDbLine
 10
16.5999655838
 20
5.1000419401
 30
0.0
 11
16.5999655838
 21
4.9215894203
 31
0.0
  0
LINE
  5
84
330
1F
100
AcDbEntity
  8
Verdeckt_(ISO)
  6
HIDDEN2
 62
     7
100
AcDbLine
 10
16.5999655838
 20
4.9215894203
 30
0.0
 11
16.5999655838
 21
4.6297656953
 31
0.0
  0
LINE
  5
85
330
1F
100
AcDbEntity
  8
Verdeckt_(ISO)
  6
HIDDEN2
 62
     7
100
AcDbLine
 10
15.5999655838
 20
18.2511040384
 30
0.0
 11
15.5999655838
 21
18.0634419328
 31
0.0
  0
LINE
  5
86
330
1F
100
AcDbEntity
  8
Verdeckt_(ISO)
  6
HIDDEN2
 62
     7
100
AcDbLine
 10
11.5999655838
 20
18.2511040384
 30
0.0
 11
11.5999655838
 21
18.0634419328
 31
0.0
  0
LINE
  5
87
330
1F
100
AcDbEntity
  8
Verdeckt_(ISO)
  6
HIDDEN2
 62
     7
100
AcDbLine
 10
-43.4000344162
 20
6.4250419401
 30
0.0
 11
-43.4000344162
 21
-6.4249580599
 31
0.0
  0
LINE
  5
88
330
1F
100
AcDbEntity
  8
Verdeckt_(ISO)
  6
HIDDEN2
 62
     7
100
AcDbLine
 10
-41.4000344162
 20
6.4250419401
 30
0.0
 11
-41.4000344162
 21
-6.4249580599
 31
0.0
  0
LINE
  5
89
330
1F
100
AcDbEntity
  8
Verdeckt_(ISO)
  6
HIDDEN2
 62
     7
100
AcDbLine
 10
17.3643030758
 20
-2.9999580599
 30
0.0
 11
16.5999655838
 21
-5.0999580599
 31
0.0
  0
LINE
  5
8A
330
1F
100
AcDbEntity
  8
Verdeckt_(ISO)
  6
HIDDEN2
 62
     7
100
AcDbLine
 10
17.3643030758
 20
3.0000419401
 30
0.0
 11
16.5999655838
 21
5.1000419401
 31
0.0
  0
ARC
  5
8B
330
1F
100
AcDbEntity
  8
Verdeckt_(ISO)
  6
HIDDEN2
 62
     7
100
AcDbCircle
 10
-47.6000344162
 20
7.0500419401
 30
0.0
 40
0.8000000000000002
100
AcDbArc
 50
180.0
 51
270.0
  0
ARC
  5
8C
330
1F
100
AcDbEntity
  8
Verdeckt_(ISO)
  6
HIDDEN2
 62
     7
100
AcDbCircle
 10
-47.6000344162
 20
-7.0499580599
 30
0.0
 40
0.8000000000000002
100
AcDbArc
 50
90.0
 51
180.0
  0
LINE
  5
8D
330
1F
100
AcDbEntity
  8
Verdeckt_(ISO)
  6
HIDDEN2
 62
     7
100
AcDbLine
 10
-43.4000344162
 20
-6.2499580599
 30
0.0
 11
-47.6000344162
 21
-6.2499580599
 31
0.0
  0
LINE
  5
8E
330
1F
100
AcDbEntity
  8
Verdeckt_(ISO)
  6
HIDDEN2
 62
     7
100
AcDbLine
 10
-43.4000344162
 20
6.2500419401
 30
0.0
 11
-47.6000344162
 21
6.2500419401
 31
0.0
  0
LINE
  5
8F
330
1F
100
AcDbEntity
  8
Verdeckt_(ISO)
  6
HIDDEN2
 62
     7
100
AcDbLine
 10
-41.4000344162
 20
-6.4249580599
 30
0.0
 11
-43.4000344162
 21
-6.4249580599
 31
0.0
  0
LINE
  5
90
330
1F
100
AcDbEntity
  8
Verdeckt_(ISO)
  6
HIDDEN2
 62
     7
100
AcDbLine
 10
-41.4000344162
 20
6.4250419401
 30
0.0
 11
-43.4000344162
 21
6.4250419401
 31
0.0
  0
LINE
  5
91
330
1F
100
AcDbEntity
  8
Verdeckt_(ISO)
  6
HIDDEN2
 62
     7
100
AcDbLine
 10
16.5999655838
 20
-5.0999580599
 30
0.0
 11
14.0442717651
 21
-5.0999580599
 31
0.0
  0
LINE
  5
92
330
1F
100
AcDbEntity
  8
Verdeckt_(ISO)
  6
HIDDEN2
 62
     7
100
AcDbLine
 10
13.1556594025
 20
-5.0999580599
 30
0.0
 11
-41.4000344162
 21
-5.0999580599
 31
0.0
  0
LINE
  5
93
330
1F
100
AcDbEntity
  8
Verdeckt_(ISO)
  6
HIDDEN2
 62
     7
100
AcDbLine
 10
16.5999655838
 20
5.1000419401
 30
0.0
 11
14.0442717651
 21
5.1000419401
 31
0.0
  0
LINE
  5
94
330
1F
100
AcDbEntity
  8
Verdeckt_(ISO)
  6
HIDDEN2
 62
     7
100
AcDbLine
 10
13.1556594025
 20
5.1000419401
 30
0.0
 11
-41.4000344162
 21
5.1000419401
 31
0.0
  0
LINE
  5
95
330
1F
100
AcDbEntity
  8
Verdeckt_(ISO)
  6
HIDDEN2
 62
     7
100
AcDbLine
 10
48.9999655838
 20
-2.9999580599
 30
0.0
 11
17.3643030758
 21
-2.9999580599
 31
0.0
  0
LINE
  5
96
330
1F
100
AcDbEntity
  8
Verdeckt_(ISO)
  6
HIDDEN2
 62
     7
100
AcDbLine
 10
48.9999655838
 20
3.0000419401
 30
0.0
 11
17.3643030758
 21
3.0000419401
 31
0.0
  0
ARC
  5
97
330
1F
100
AcDbEntity
  8
Verdeckt_(ISO)
  6
HIDDEN2
 62
     7
100
AcDbCircle
 10
48.9999655838
 20
4.0000419401
 30
0.0
 40
1.0
100
AcDbArc
 50
270.0
 51
335.7048110546
  0
ARC
  5
98
330
1F
100
AcDbEntity
  8
Verdeckt_(ISO)
  6
HIDDEN2
 62
     7
100
AcDbCircle
 10
48.9999655838
 20
-3.9999580599
 30
0.0
 40
1.0
100
AcDbArc
 50
24.2951889454
 51
90.0
  0
LINE
  5
99
330
1F
100
AcDbEntity
  8
Sichtbar_(ISO)
  6
Continuous
 62
     7
100
AcDbLine
 10
17.6299065433
 20
-5.4852995804
 30
0.0
 11
17.6299065433
 21
-22.9999580599
 31
0.0
  0
LINE
  5
9A
330
1F
100
AcDbEntity
  8
Sichtbar_(ISO)
  6
Continuous
 62
     7
100
AcDbLine
 10
15.5999655838
 20
-7.672506661
 30
0.0
 11
15.5999655838
 21
-19.4662153839
 31
0.0
  0
LINE
  5
9B
330
1F
100
AcDbEntity
  8
Sichtbar_(ISO)
  6
Continuous
 62
     7
100
AcDbLine
 10
15.5999655838
 20
19.466299264
 30
0.0
 11
15.5999655838
 21
18.5014414266
 31
0.0
  0
LINE
  5
9C
330
1F
100
AcDbEntity
  8
Sichtbar_(ISO)
  6
Continuous
 62
     7
100
AcDbLine
 10
15.5999655838
 20
18.0634419328
 30
0.0
 11
15.5999655838
 21
7.6725905412
 31
0.0
  0
LINE
  5
9D
330
1F
100
AcDbEntity
  8
Sichtbar_(ISO)
  6
Continuous
 62
     7
100
AcDbLine
 10
11.5999655838
 20
19.466299264
 30
0.0
 11
11.5999655838
 21
18.5014414266
 31
0.0
  0
LINE
  5
9E
330
1F
100
AcDbEntity
  8
Sichtbar_(ISO)
  6
Continuous
 62
     7
100
AcDbLine
 10
9.5700246243
 20
23.0000419401
 30
0.0
 11
9.5700246243
 21
8.7679864828
 31
0.0
  0
LINE
  5
9F
330
1F
100
AcDbEntity
  8
Sichtbar_(ISO)
  6
Continuous
 62
     7
100
AcDbLine
 10
11.5999655838
 20
18.0634419328
 30
0.0
 11
11.5999655838
 21
8.914669707
 31
0.0
  0
LINE
  5
A0
330
1F
100
AcDbEntity
  8
Sichtbar_(ISO)
  6
Continuous
 62
     7
100
AcDbLine
 10
17.6299065433
 20
23.0000419401
 30
0.0
 11
17.6299065433
 21
5.4853834605
 31
0.0
  0
LINE
  5
A1
330
1F
100
AcDbEntity
  8
Sichtbar_(ISO)
  6
Continuous
 62
     7
100
AcDbLine
 10
11.5999655838
 20
-8.9145858269
 30
0.0
 11
11.5999655838
 21
-19.4662153839
 31
0.0
  0
LINE
  5
A2
330
1F
100
AcDbEntity
  8
Sichtbar_(ISO)
  6
Continuous
 62
     7
100
AcDbLine
 10
9.5700246243
 20
-8.7679026027
 30
0.0
 11
9.5700246243
 21
-22.9999580599
 31
0.0
  0
LINE
  5
A3
330
1F
100
AcDbEntity
  8
Sichtbar_(ISO)
  6
Continuous
 62
     7
100
AcDbLine
 10
-48.4000344162
 20
7.951898736
 30
0.0
 11
-48.4000344162
 21
-7.9518148559
 31
0.0
  0
LINE
  5
A4
330
1F
100
AcDbEntity
  8
Sichtbar_(ISO)
  6
Continuous
 62
     7
100
AcDbLine
 10
-0.2000344162
 20
15.845874998
 30
0.0
 11
-0.2000344162
 21
-15.8457911179
 31
0.0
  0
LINE
  5
A5
330
1F
100
AcDbEntity
  8
Sichtbar_(ISO)
  6
Continuous
 62
     7
100
AcDbLine
 10
38.834041656
 20
-12.2499580599
 30
0.0
 11
24.9999655838
 21
-12.2499580599
 31
0.0
  0
LINE
  5
A6
330
1F
100
AcDbEntity
  8
Sichtbar_(ISO)
  6
Continuous
 62
     7
100
AcDbLine
 10
38.834041656
 20
12.2500419401
 30
0.0
 11
24.9999655838
 21
12.2500419401
 31
0.0
  0
LINE
  5
A7
330
1F
100
AcDbEntity
  8
Sichtbar_(ISO)
  6
Continuous
 62
     7
100
AcDbLine
 10
15.5999655838
 20
-19.4662153839
 30
0.0
 11
17.6299065433
 21
-22.9999580599
 31
0.0
  0
ARC
  5
A8
330
1F
100
AcDbEntity
  8
Sichtbar_(ISO)
  6
Continuous
 62
     7
100
AcDbCircle
 10
15.3999655838
 20
19.2000419401
 30
0.0
 40
0.2
100
AcDbArc
 50
270.0
 51
360.0
  0
LINE
  5
A9
330
1F
100
AcDbEntity
  8
Sichtbar_(ISO)
  6
Continuous
 62
     7
100
AcDbLine
 10
15.3999655838
 20
19.0000419401
 30
0.0
 11
11.7999655838
 21
19.0000419401
 31
0.0
  0
ARC
  5
AA
330
1F
100
AcDbEntity
  8
Sichtbar_(ISO)
  6
Continuous
 62
     7
100
AcDbCircle
 10
11.7999655838
 20
19.2000419401
 30
0.0
 40
0.2
100
AcDbArc
 50
180.0
 51
270.0
  0
LINE
  5
AB
330
1F
100
AcDbEntity
  8
Sichtbar_(ISO)
  6
Continuous
 62
     7
100
AcDbLine
 10
11.5999655838
 20
19.466299264
 30
0.0
 11
9.5700246243
 21
23.0000419401
 31
0.0
  0
ARC
  5
AC
330
1F
100
AcDbEntity
  8
Sichtbar_(ISO)
  6
Continuous
 62
     7
100
AcDbCircle
 10
1.4999655838
 20
16.245874998
 30
0.0
 40
0.5
100
AcDbArc
 50
270.0
 51
360.0
  0
ARC
  5
AD
330
1F
100
AcDbEntity
  8
Sichtbar_(ISO)
  6
Continuous
 62
     7
100
AcDbCircle
 10
1.4999655838
 20
-16.2457911179
 30
0.0
 40
0.5
100
AcDbArc
 50
0.0
 51
90.0
  0
LINE
  5
AE
330
1F
100
AcDbEntity
  8
Sichtbar_(ISO)
  6
Continuous
 62
     7
100
AcDbLine
 10
15.5999655838
 20
19.466299264
 30
0.0
 11
17.6299065433
 21
23.0000419401
 31
0.0
  0
ARC
  5
AF
330
1F
100
AcDbEntity
  8
Sichtbar_(ISO)
  6
Continuous
 62
     7
100
AcDbCircle
 10
15.3999655838
 20
-19.1999580599
 30
0.0
 40
0.2
100
AcDbArc
 50
0.0
 51
90.0
  0
ARC
  5
B0
330
1F
100
AcDbEntity
  8
Sichtbar_(ISO)
  6
Continuous
 62
     7
100
AcDbCircle
 10
11.7999655838
 20
-19.1999580599
 30
0.0
 40
0.2
100
AcDbArc
 50
90.0
 51
180.0
  0
LINE
  5
B1
330
1F
100
AcDbEntity
  8
Sichtbar_(ISO)
  6
Continuous
 62
     7
100
AcDbLine
 10
11.5999655838
 20
-19.4662153839
 30
0.0
 11
9.5700246243
 21
-22.9999580599
 31
0.0
  0
LINE
  5
B2
330
1F
100
AcDbEntity
  8
Sichtbar_(ISO)
  6
Continuous
 62
     7
100
AcDbLine
 10
9.5700246243
 20
23.0000419401
 30
0.0
 11
3.1999655838
 21
23.0000419401
 31
0.0
  0
LINE
  5
B3
330
1F
100
AcDbEntity
  8
Sichtbar_(ISO)
  6
Continuous
 62
     7
100
AcDbLine
 10
15.3999655838
 20
-18.9999580599
 30
0.0
 11
11.7999655838
 21
-18.9999580599
 31
0.0
  0
LINE
  5
B4
330
1F
100
AcDbEntity
  8
Sichtbar_(ISO)
  6
Continuous
 62
     7
100
AcDbLine
 10
9.5700246243
 20
-22.9999580599
 30
0.0
 11
3.1999655838
 21
-22.9999580599
 31
0.0
  0
LINE
  5
B5
330
1F
100
AcDbEntity
  8
Sichtbar_(ISO)
  6
Continuous
 62
     7
100
AcDbLine
 10
20.7999655838
 20
-22.9999580599
 30
0.0
 11
17.6299065433
 21
-22.9999580599
 31
0.0
  0
LINE
  5
B6
330
1F
100
AcDbEntity
  8
Sichtbar_(ISO)
  6
Continuous
 62
     7
100
AcDbLine
 10
20.7999655838
 20
23.0000419401
 30
0.0
 11
17.6299065433
 21
23.0000419401
 31
0.0
  0
ARC
  5
B7
330
1F
100
AcDbEntity
  8
Sichtbar_(ISO)
  6
Continuous
 62
     7
100
AcDbCircle
 10
-47.4000344162
 20
7.951898736
 30
0.0
 40
1.0
100
AcDbArc
 50
98.2972222222
 51
180.0
  0
ARC
  5
B8
330
1F
100
AcDbEntity
  8
Sichtbar_(ISO)
  6
Continuous
 62
     7
100
AcDbCircle
 10
-47.4000344162
 20
-7.9518148559
 30
0.0
 40
1.0
100
AcDbArc
 50
180.0
 51
261.7027777778
  0
ARC
  5
B9
330
1F
100
AcDbEntity
  8
Sichtbar_(ISO)
  6
Continuous
 62
     7
100
AcDbCircle
 10
49.4999655838
 20
6.9315068097
 30
0.0
 40
0.5
100
AcDbArc
 50
7.3972297579
 51
65.0
  0
ARC
  5
BA
330
1F
100
AcDbEntity
  8
Sichtbar_(ISO)
  6
Continuous
 62
     7
100
AcDbCircle
 10
49.4999655838
 20
-6.9314229295
 30
0.0
 40
0.5
100
AcDbArc
 50
295.0
 51
352.6027702421
  0
LINE
  5
BB
330
1F
100
AcDbEntity
  8
Sichtbar_(ISO)
  6
Continuous
 62
     7
100
AcDbLine
 10
49.7112747147
 20
-7.384576823
 30
0.0
 11
39.6792781795
 21
-12.062573634
 31
0.0
  0
LINE
  5
BC
330
1F
100
AcDbEntity
  8
Sichtbar_(ISO)
  6
Continuous
 62
     7
100
AcDbLine
 10
49.7112747147
 20
7.3846607032
 30
0.0
 11
39.6792781795
 21
12.0626575142
 31
0.0
  0
ARC
  5
BD
330
1F
100
AcDbEntity
  8
Sichtbar_(ISO)
  6
Continuous
 62
     7
100
AcDbCircle
 10
38.834041656
 20
10.2500419401
 30
0.0
 40
1.999999999999979
100
AcDbArc
 50
65.0
 51
90.0
  0
ARC
  5
BE
330
1F
100
AcDbEntity
  8
Sichtbar_(ISO)
  6
Continuous
 62
     7
100
AcDbCircle
 10
38.834041656
 20
-10.2499580599
 30
0.0
 40
1.99999999999998
100
AcDbArc
 50
270.0
 51
295.0
  0
ARC
  5
BF
330
1F
100
AcDbEntity
  8
Sichtbar_(ISO)
  6
Continuous
 62
     7
100
AcDbCircle
 10
24.9999655838
 20
15.2500419401
 30
0.0
 40
3.0
100
AcDbArc
 50
180.0
 51
270.0
  0
ARC
  5
C0
330
1F
100
AcDbEntity
  8
Sichtbar_(ISO)
  6
Continuous
 62
     7
100
AcDbCircle
 10
24.9999655838
 20
-15.2499580599
 30
0.0
 40
3.0
100
AcDbArc
 50
90.0
 51
180.0
  0
LINE
  5
C1
330
1F
100
AcDbEntity
  8
Sichtbar_(ISO)
  6
Continuous
 62
     7
100
AcDbLine
 10
1.4999655838
 20
-15.7457911179
 30
0.0
 11
0.2389969134
 21
-15.7457911179
 31
0.0
  0
LINE
  5
C2
330
1F
100
AcDbEntity
  8
Sichtbar_(ISO)
  6
Continuous
 62
     7
100
AcDbLine
 10
1.4999655838
 20
15.745874998
 30
0.0
 11
0.2389969134
 21
15.745874998
 31
0.0
  0
ARC
  5
C3
330
1F
100
AcDbEntity
  8
Sichtbar_(ISO)
  6
Continuous
 62
     7
100
AcDbCircle
 10
0.2389969134
 20
16.245874998
 30
0.0
 40
0.5
100
AcDbArc
 50
255.0
 51
270.0
  0
ARC
  5
C4
330
1F
100
AcDbEntity
  8
Sichtbar_(ISO)
  6
Continuous
 62
     7
100
AcDbCircle
 10
0.2389969134
 20
-16.2457911179
 30
0.0
 40
0.5
100
AcDbArc
 50
90.0
 51
105.0
  0
LINE
  5
C5
330
1F
100
AcDbEntity
  8
Sichtbar_(ISO)
  6
Continuous
 62
     7
100
AcDbLine
 10
0.1095873908
 20
-15.7628282047
 30
0.0
 11
-0.2000344162
 21
-15.8457911179
 31
0.0
  0
LINE
  5
C6
330
1F
100
AcDbEntity
  8
Sichtbar_(ISO)
  6
Continuous
 62
     7
100
AcDbLine
 10
0.1095873908
 20
15.7629120849
 30
0.0
 11
-0.2000344162
 21
15.845874998
 31
0.0
  0
LINE
  5
C7
330
1F
100
AcDbEntity
  8
Sichtbar_(ISO)
  6
Continuous
 62
     7
100
AcDbLine
 10
-47.5443426434
 20
8.9414315225
 30
0.0
 11
-0.2000344162
 21
15.845874998
 31
0.0
  0
LINE
  5
C8
330
1F
100
AcDbEntity
  8
Sichtbar_(ISO)
  6
Continuous
 62
     7
100
AcDbLine
 10
-47.5443426434
 20
-8.9413476424
 30
0.0
 11
-0.2000344162
 21
-15.8457911179
 31
0.0
  0
SPLINE
  5
C9
330
1F
100
AcDbEntity
  8
Verdeckt_(ISO)
  6
HIDDEN2
 62
     7
100
AcDbSpline
210
0.0
220
0.0
230
1.0
 70
     8
 71
     3
 72
    10
 73
     6
 74
     0
 42
0.000000001
 43
0.0000000001
 40
0.0
 40
0.0
 40
0.0
 40
0.0
 40
0.5
 40
0.5
 40
1.0
 40
1.0
 40
1.0
 40
1.0
 10
16.59996558382406
 20
4.629765695289468
 30
0.0
 10
16.62070848866757
 20
4.634840687184888
 30
0.0
 10
16.63111688198961
 20
4.664535712193552
 30
0.0
 10
16.63111688198961
 20
4.759561037608731
 30
0.0
 10
16.62070848866757
 20
4.831076374848216
 30
0.0
 10
16.59996558382406
 20
4.921589420347855
 30
0.0
  0
SPLINE
  5
CA
330
1F
100
AcDbEntity
  8
Verdeckt_(ISO)
  6
HIDDEN2
 62
     7
100
AcDbSpline
210
0.0
220
0.0
230
1.0
 70
     8
 71
     3
 72
    47
 73
    43
 74
     0
 42
0.000000001
 43
0.0000000001
 40
0.0
 40
0.0
 40
0.0
 40
0.0
 40
0.0309368783428113
 40
0.0309368783428113
 40
0.0975998881189472
 40
0.0975998881189472
 40
0.1657377117279097
 40
0.1657377117279097
 40
0.1998066235323911
 40
0.1998066235323911
 40
0.2338755353368722
 40
0.2338755353368722
 40
0.2676731640141114
 40
0.2676731640141114
 40
0.3014707926913506
 40
0.3014707926913506
 40
0.3690660500458294
 40
0.3690660500458294
 40
0.434533025022915
 40
0.434533025022915
 40
0.5000000000000003
 40
0.5000000000000003
 40
0.5654669749770862
 40
0.5654669749770862
 40
0.6309339499541715
 40
0.6309339499541715
 40
0.6985292073086499
 40
0.6985292073086499
 40
0.7323268359858889
 40
0.7323268359858889
 40
0.7661244646631282
 40
0.7661244646631282
 40
0.7661244646631282
 40
0.8001933764676098
 40
0.8001933764676098
 40
0.834262288272091
 40
0.834262288272091
 40
0.9024001118810532
 40
0.9024001118810532
 40
0.9690631216571881
 40
0.9690631216571881
 40
1.0
 40
1.0
 40
1.0
 40
1.0
 10
15.37458502576759
 20
4.887127693474853
 30
0.0
 10
15.35998216063912
 20
4.934854800305919
 30
0.0
 10
15.33916818672923
 20
4.989843319638108
 30
0.0
 10
15.25816136847256
 20
5.180047075198746
 30
0.0
 10
15.17937731402243
 20
5.335657091918616
 30
0.0
 10
15.02156443700982
 20
5.648173554798631
 30
0.0
 10
14.92961145962144
 20
5.828558455727645
 30
0.0
 10
14.81969110267819
 20
6.106495721308883
 30
0.0
 10
14.78796657037217
 20
6.200557505733048
 30
0.0
 10
14.74372479067959
 20
6.387305814495009
 30
0.0
 10
14.73133643372255
 20
6.480023710424879
 30
0.0
 10
14.73133643372255
 20
6.658441176841225
 30
0.0
 10
14.74357816896378
 20
6.743766664972168
 30
0.0
 10
14.78801167549532
 20
6.902699339778646
 30
0.0
 10
14.82007524690063
 20
6.97633056938354
 30
0.0
 10
14.93144850935459
 20
7.175617878684617
 30
0.0
 10
15.02490480702212
 20
7.27970124760276
 30
0.0
 10
15.18330389146012
 20
7.417624116866731
 30
0.0
 10
15.26121233500468
 20
7.462878754269851
 30
0.0
 10
15.36987792760201
 20
7.47819227056512
 30
0.0
 10
15.39996558382406
 20
7.447834083085302
 30
0.0
 10
15.39996558382406
 20
7.322548876230509
 30
0.0
 10
15.36987792760201
 20
7.222579242922406
 30
0.0
 10
15.26121233500468
 20
6.97318687853099
 30
0.0
 10
15.18330389146012
 20
6.823946347918081
 30
0.0
 10
15.02490480702212
 20
6.520727157513368
 30
0.0
 10
14.93144850935458
 20
6.344032713363628
 30
0.0
 10
14.82007524690062
 20
6.070390650366483
 30
0.0
 10
14.78801167549532
 20
5.977507927750782
 30
0.0
 10
14.74357816896378
 20
5.792720330341147
 30
0.0
 10
14.73133643372253
 20
5.700784775529356
 30
0.0
 10
14.73133643372253
 20
5.611932636659867
 30
0.0
 10
14.73133643372253
 20
5.522367309113008
 30
0.0
 10
14.74372479067957
 20
5.436345906227165
 30
0.0
 10
14.78796657037216
 20
5.275338774801332
 30
0.0
 10
14.81969110267819
 20
5.200332712338783
 30
0.0
 10
14.92961145962144
 20
4.995681275230071
 30
0.0
 10
15.02156443700981
 20
4.886468198805085
 30
0.0
 10
15.17937731402243
 20
4.737180497753452
 30
0.0
 10
15.25816136847256
 20
4.685342425439261
 30
0.0
 10
15.33916818672923
 20
4.667395962899503
 30
0.0
 10
15.35998216063912
 20
4.66996510794245
 30
0.0
 10
15.37458502576759
 20
4.681089767114404
 30
0.0
  0
SPLINE
  5
CB
330
1F
100
AcDbEntity
  8
Verdeckt_(ISO)
  6
HIDDEN2
 62
     7
100
AcDbSpline
210
0.0
220
0.0
230
1.0
 70
     8
 71
     3
 72
    10
 73
     6
 74
     0
 42
0.000000001
 43
0.0000000001
 40
0.0
 40
0.0
 40
0.0
 40
0.0
 40
0.0606776502037051
 40
0.0606776502037051
 40
1.0
 40
1.0
 40
1.0
 40
1.0
 10
16.59996558382406
 20
4.921589420347855
 30
0.0
 10
16.5747213737621
 20
4.921015359367821
 30
0.0
 10
16.5495023034115
 20
4.920435762137961
 30
0.0
 10
16.13430056161035
 20
4.91078903261067
 30
0.0
 10
15.75039355227574
 20
4.900571293228411
 30
0.0
 10
15.37458502576759
 20
4.887127693474853
 30
0.0
  0
SPLINE
  5
CC
330
1F
100
AcDbEntity
  8
Verdeckt_(ISO)
  6
HIDDEN2
 62
     7
100
AcDbSpline
210
0.0
220
0.0
230
1.0
 70
     8
 71
     3
 72
    10
 73
     6
 74
     0
 42
0.000000001
 43
0.0000000001
 40
0.0
 40
0.0
 40
0.0
 40
0.0
 40
0.939322349796301
 40
0.939322349796301
 40
1.0
 40
1.0
 40
1.0
 40
1.0
 10
15.37458502576759
 20
4.681089767114404
 30
0.0
 10
15.75039355227574
 20
4.662427313622225
 30
0.0
 10
16.13430056161035
 20
4.64692169122673
 30
0.0
 10
16.5495023034115
 20
4.631607567569352
 30
0.0
 10
16.57472137376211
 20
4.63068393499356
 30
0.0
 10
16.59996558382406
 20
4.629765695289468
 30
0.0
  0
LINE
  5
CD
330
1F
100
AcDbEntity
  8
Verdeckt_(ISO)
  6
HIDDEN2
 62
     7
100
AcDbLine
 10
15.3351803186
 20
7.4716993919
 30
0.0
 11
49.7000193976
 21
6.3440244346
 31
0.0
  0
LINE
  5
CE
330
1F
100
AcDbEntity
  8
Verdeckt_(ISO)
  6
HIDDEN2
 62
     7
100
AcDbLine
 10
15.3351803186
 20
4.6701922629
 30
0.0
 11
49.7000193642
 21
3.5425173068
 31
0.0
  0
SPLINE
  5
CF
330
1F
100
AcDbEntity
  8
Verdeckt_(ISO)
  6
HIDDEN2
 62
     7
100
AcDbSpline
210
0.0
220
0.0
230
1.0
 70
    15
 71
     3
 72
    24
 73
    20
 74
     0
 42
0.000000001
 43
0.0000000001
 40
0.0
 40
0.0
 40
0.0
 40
0.0
 40
0.0477173970602358
 40
0.0477173970602358
 40
0.1240652323566135
 40
0.1240652323566135
 40
0.2233174182419042
 40
0.2233174182419042
 40
0.3398992504639245
 40
0.3398992504639245
 40
0.4613696511136228
 40
0.4613696511136228
 40
0.5914494244595437
 40
0.5914494244595437
 40
0.7404605155746868
 40
0.7404605155746868
 40
0.8864017164903872
 40
0.8864017164903872
 40
1.0
 40
1.0
 40
1.0
 40
1.0
 10
49.70002650112216
 20
3.62689906994391
 30
0.0
 41
1.0
 10
49.70002650112216
 20
3.579164782107191
 30
0.0
 41
1.0
 10
49.70002462733712
 20
3.551203549972191
 30
0.0
 41
1.0
 10
49.70001571249955
 20
3.533132419055585
 30
0.0
 41
1.0
 10
49.70000618037123
 20
3.576410178491394
 30
0.0
 41
1.0
 10
49.69998379826608
 20
3.79027339558291
 30
0.0
 41
1.0
 10
49.69997149842687
 20
3.995773216645182
 30
0.0
 41
1.0
 10
49.69996237778971
 20
4.545368106094742
 30
0.0
 41
1.0
 10
49.69996953293626
 20
4.905910893888833
 30
0.0
 41
1.0
 10
49.69999698518583
 20
5.589288897642068
 30
0.0
 41
1.0
 10
49.70001572244978
 20
5.906108085859607
 30
0.0
 41
1.0
 10
49.70003073671204
 20
6.319031202536684
 30
0.0
 41
1.0
 10
49.70002363534081
 20
6.394159026666505
 30
0.0
 41
1.0
 10
49.69999108791604
 20
6.20944087870237
 30
0.0
 41
1.0
 10
49.69996801949019
 20
5.898520341629691
 30
0.0
 41
1.0
 10
49.69996361313225
 20
5.103543465300647
 30
0.0
 41
1.0
 10
49.69998202812548
 20
4.632706186324211
 30
0.0
 41
1.0
 10
49.70001476494036
 20
3.969358444721613
 30
0.0
 41
1.0
 10
49.70002650112216
 20
3.740537564431777
 30
0.0
 41
1.0
 10
49.70002650112216
 20
3.62689906994391
 30
0.0
 41
1.0
  0
LINE
  5
D0
330
1F
100
AcDbEntity
  8
Verdeckt_(ISO)
  6
HIDDEN2
 62
     7
100
AcDbLine
 10
49.7000193965
 20
6.3440244341
 30
0.0
 11
49.7999655838
 21
6.4407447216
 31
0.0
  0
LINE
  5
D1
330
1F
100
AcDbEntity
  8
Verdeckt_(ISO)
  6
HIDDEN2
 62
     7
100
AcDbLine
 10
49.7999655838
 20
3.4392375926
 30
0.0
 11
49.7000193631
 21
3.5425173073
 31
0.0
  0
SPLINE
  5
D2
330
1F
100
AcDbEntity
  8
Verdeckt_(ISO)
  6
HIDDEN2
 62
     7
100
AcDbSpline
210
0.0
220
0.0
230
1.0
 70
    11
 71
     3
 72
    46
 73
    42
 74
     0
 42
0.000000001
 43
0.0000000001
 40
0.0
 40
0.0
 40
0.0
 40
0.0
 40
0.0892993174497037
 40
0.0892993174497037
 40
0.1339489761745557
 40
0.1339489761745557
 40
0.1785986348994075
 40
0.1785986348994075
 40
0.2142993174497038
 40
0.2142993174497038
 40
0.2500000000000002
 40
0.2500000000000002
 40
0.2857006825502965
 40
0.2857006825502965
 40
0.3214013651005926
 40
0.3214013651005926
 40
0.3660510238254447
 40
0.3660510238254447
 40
0.4107006825502962
 40
0.4107006825502962
 40
0.5000000000000003
 40
0.5000000000000003
 40
0.5892993174497037
 40
0.5892993174497037
 40
0.6339489761745557
 40
0.6339489761745557
 40
0.6785986348994079
 40
0.6785986348994079
 40
0.7142993174497042
 40
0.7142993174497042
 40
0.7500000000000002
 40
0.7500000000000002
 40
0.7857006825502963
 40
0.7857006825502963
 40
0.8214013651005926
 40
0.8214013651005926
 40
0.8660510238254447
 40
0.8660510238254447
 40
0.9107006825502968
 40
0.9107006825502968
 40
1.0
 40
1.0
 40
1.0
 40
1.0
 10
32.4958042780597
 20
-4.68792261366133
 30
0.0
 10
33.45458340589865
 20
-4.68792261366133
 30
0.0
 10
34.46904893753063
 20
-4.493322102823302
 30
0.0
 10
35.81176300105084
 20
-3.881716369266595
 30
0.0
 10
36.23055240240014
 20
-3.625692389089048
 30
0.0
 10
36.97385884626516
 20
-3.016880110411736
 30
0.0
 10
37.29855963571505
 20
-2.664277723880703
 30
0.0
 10
37.76931797974015
 20
-1.953860217453005
 30
0.0
 10
37.95382989936626
 20
-1.581618613313667
 30
0.0
 10
38.19810707586384
 20
-0.7964030145896323
 30
0.0
 10
38.25753144966373
 20
-0.38326523691364
 30
0.0
 10
38.25753144966373
 20
0.3833491170674459
 30
0.0
 10
38.19810707586384
 20
0.7964868947434383
 30
0.0
 10
37.95382989936626
 20
1.581702493467473
 30
0.0
 10
37.76931797974015
 20
1.953944097606812
 30
0.0
 10
37.29855963571505
 20
2.664361604034509
 30
0.0
 10
36.97385884626516
 20
3.01696399056554
 30
0.0
 10
36.23055240240014
 20
3.625776269242853
 30
0.0
 10
35.81176300105085
 20
3.881800249420402
 30
0.0
 10
34.46904893753063
 20
4.493405982977108
 30
0.0
 10
33.45458340589865
 20
4.688006493815137
 30
0.0
 10
31.53702515022074
 20
4.688006493815137
 30
0.0
 10
30.52255961858876
 20
4.493405982977108
 30
0.0
 10
29.17984555506855
 20
3.881800249420402
 30
0.0
 10
28.76105615371926
 20
3.625776269242853
 30
0.0
 10
28.01774970985423
 20
3.01696399056554
 30
0.0
 10
27.69304892040435
 20
2.664361604034509
 30
0.0
 10
27.22229057637925
 20
1.953944097606812
 30
0.0
 10
27.03777865675313
 20
1.581702493467473
 30
0.0
 10
26.79350148025554
 20
0.7964868947434383
 30
0.0
 10
26.73407710645568
 20
0.3833491170674459
 30
0.0
 10
26.73407710645568
 20
-0.38326523691364
 30
0.0
 10
26.79350148025554
 20
-0.7964030145896323
 30
0.0
 10
27.03777865675313
 20
-1.581618613313667
 30
0.0
 10
27.22229057637925
 20
-1.953860217453005
 30
0.0
 10
27.69304892040435
 20
-2.664277723880702
 30
0.0
 10
28.01774970985423
 20
-3.016880110411735
 30
0.0
 10
28.76105615371926
 20
-3.625692389089044
 30
0.0
 10
29.17984555506854
 20
-3.881716369266592
 30
0.0
 10
30.52255961858876
 20
-4.493322102823297
 30
0.0
 10
31.53702515022074
 20
-4.68792261366133
 30
0.0
 10
32.4958042780597
 20
-4.68792261366133
 30
0.0
  0
SPLINE
  5
D3
330
1F
100
AcDbEntity
  8
Sichtbar_(ISO)
  6
Continuous
 62
     7
100
AcDbSpline
210
0.0
220
0.0
230
1.0
 70
     8
 71
     3
 72
    22
 73
    18
 74
     0
 42
0.000000001
 43
0.0000000001
 40
0.0
 40
0.0
 40
0.0
 40
0.0
 40
0.1270958780953227
 40
0.1270958780953227
 40
0.2541917561906456
 40
0.2541917561906456
 40
0.3770958780953229
 40
0.3770958780953229
 40
0.4999999999999991
 40
0.4999999999999991
 40
0.6229041219046775
 40
0.6229041219046775
 40
0.745808243809355
 40
0.745808243809355
 40
0.8729041219046775
 40
0.8729041219046775
 40
1.0
 40
1.0
 40
1.0
 40
1.0
 10
36.49580427805971
 20
0.0000419400769029
 30
0.0
 10
36.49580427805971
 20
-0.481277019559281
 30
0.0
 10
36.37361501429886
 20
-0.9817921956977479
 30
0.0
 10
35.91174475542957
 20
-1.874100500296257
 30
0.0
 10
35.57285613961514
 20
-2.266517575412775
 30
0.0
 10
34.84162296680259
 20
-2.854562266836821
 30
0.0
 10
34.40215799026907
 20
-3.097191175577279
 30
0.0
 10
33.46202771385144
 20
-3.415804971382604
 30
0.0
 10
32.96124883044552
 20
-3.491756928214161
 30
0.0
 10
32.0303597256739
 20
-3.491756928214161
 30
0.0
 10
31.52958084226798
 20
-3.415804971382604
 30
0.0
 10
30.58945056585035
 20
-3.097191175577283
 30
0.0
 10
30.14998558931683
 20
-2.854562266836822
 30
0.0
 10
29.41875241650427
 20
-2.266517575412776
 30
0.0
 10
29.07986380068983
 20
-1.874100500296256
 30
0.0
 10
28.61799354182055
 20
-0.9817921956977471
 30
0.0
 10
28.49580427805971
 20
-0.4812770195592826
 30
0.0
 10
28.49580427805971
 20
0.0000419400769021
 30
0.0
  0
SPLINE
  5
D4
330
1F
100
AcDbEntity
  8
Sichtbar_(ISO)
  6
Continuous
 62
     7
100
AcDbSpline
210
0.0
220
0.0
230
1.0
 70
     8
 71
     3
 72
    23
 73
    19
 74
     0
 42
0.000000001
 43
0.0000000001
 40
0.0
 40
0.0
 40
0.0
 40
0.0
 40
0.1270958780953224
 40
0.1270958780953224
 40
0.254191756190644
 40
0.254191756190644
 40
0.3770958780953215
 40
0.3770958780953215
 40
0.5000000000000006
 40
0.5000000000000006
 40
0.5000000000000006
 40
0.6229041219046769
 40
0.6229041219046769
 40
0.7458082438093544
 40
0.7458082438093544
 40
0.8729041219046778
 40
0.8729041219046778
 40
1.0
 40
1.0
 40
1.0
 40
1.0
 10
28.49580427805971
 20
0.0000419400769021
 30
0.0
 10
28.49580427805971
 20
0.481360899713085
 30
0.0
 10
28.61799354182054
 20
0.9818760758515522
 30
0.0
 10
29.07986380068983
 20
1.874184380450059
 30
0.0
 10
29.41875241650426
 20
2.266601455566577
 30
0.0
 10
30.14998558931682
 20
2.854646146990623
 30
0.0
 10
30.58945056585033
 20
3.097275055731082
 30
0.0
 10
31.52958084226796
 20
3.415888851536408
 30
0.0
 10
32.0303597256739
 20
3.491840808367967
 30
0.0
 10
32.4958042780597
 20
3.491840808367967
 30
0.0
 10
32.96124883044552
 20
3.491840808367967
 30
0.0
 10
33.46202771385144
 20
3.415888851536409
 30
0.0
 10
34.40215799026907
 20
3.097275055731087
 30
0.0
 10
34.84162296680259
 20
2.854646146990626
 30
0.0
 10
35.57285613961514
 20
2.266601455566581
 30
0.0
 10
35.91174475542957
 20
1.874184380450062
 30
0.0
 10
36.37361501429886
 20
0.9818760758515542
 30
0.0
 10
36.49580427805971
 20
0.4813608997130872
 30
0.0
 10
36.49580427805971
 20
0.0000419400769029
 30
0.0
  0
CIRCLE
  5
D5
330
1F
100
AcDbEntity
  8
Sichtbar_(ISO)
  6
Continuous
 62
     7
100
AcDbCircle
 10
32.4958042781
 20
0.0000419401
 30
0.0
 40
2.5
  0
ARC
  5
D6
330
1F
100
AcDbEntity
  8
Sichtbar_(ISO)
  6
Continuous
 62
     7
100
AcDbCircle
 10
10.9499655838
 20
0.0000419401
 30
0.0
 40
8.050000000000013
100
AcDbArc
 50
24.5077695961
 51
42.3641324302
  0
SPLINE
  5
D7
330
1F
100
AcDbEntity
  8
Sichtbar_(ISO)
  6
Continuous
 62
     7
100
AcDbSpline
210
0.0
220
0.0
230
1.0
 70
     8
 71
     3
 72
    12
 73
     8
 74
     0
 42
0.000000001
 43
0.0000000001
 40
0.0
 40
0.0
 40
0.0
 40
0.0
 40
0.4129822599542061
 40
0.4129822599542061
 40
0.8706197770484758
 40
0.8706197770484758
 40
1.0
 40
1.0
 40
1.0
 40
1.0
 10
17.62990654333036
 20
5.485383460528213
 30
0.0
 10
17.71043509484265
 20
5.177507008663598
 30
0.0
 10
17.79327056557483
 20
4.877874686619396
 30
0.0
 10
17.97424244794445
 20
4.259444594989163
 30
0.0
 10
18.07484210573188
 20
3.936020238245157
 30
0.0
 10
18.21262321822722
 20
3.521244637146486
 30
0.0
 10
18.24342791783549
 20
3.430154190401879
 30
0.0
 10
18.27470105938083
 20
3.33931584515338
 30
0.0
  0
ELLIPSE
  5
D8
330
1F
100
AcDbEntity
  8
Sichtbar_(ISO)
  6
Continuous
 62
     7
100
AcDbEllipse
 10
26.6841088102
 20
-22.1910503334
 30
0.0
 11
-16.52186021807461
 21
31.55563493059068
 31
0.0
210
0.0
220
0.0
230
1.0
 40
0.228583678
 41
-0.6329760129766004
 42
-0.5224192673100827
  0
SPLINE
  5
D9
330
1F
100
AcDbEntity
  8
Sichtbar_(ISO)
  6
Continuous
 62
     7
100
AcDbSpline
210
0.0
220
0.0
230
1.0
 70
     8
 71
     3
 72
    12
 73
     8
 74
     0
 42
0.000000001
 43
0.0000000001
 40
0.0
 40
0.0
 40
0.0
 40
0.0
 40
0.5184592423468678
 40
0.5184592423468678
 40
0.8839469834500059
 40
0.8839469834500059
 40
1.0
 40
1.0
 40
1.0
 40
1.0
 10
11.59996558382407
 20
8.430789237914752
 30
0.0
 10
11.59996558382407
 20
8.359454910476552
 30
0.0
 10
11.60890489442031
 20
8.27432176207719
 30
0.0
 10
11.63747630178754
 20
8.156103949596131
 30
0.0
 10
11.65707162349457
 20
8.09902954749237
 30
0.0
 10
11.69040204178872
 20
8.04176896109433
 30
0.0
 10
11.70020419156381
 20
8.02712547916615
 30
0.0
 10
11.71145792475104
 20
8.013944198946142
 30
0.0
  0
SPLINE
  5
DA
330
1F
100
AcDbEntity
  8
Sichtbar_(ISO)
  6
Continuous
 62
     7
100
AcDbSpline
210
0.0
220
0.0
230
1.0
 70
    12
 71
     2
 72
     6
 73
     3
 74
     0
 42
0.000000001
 43
0.0000000001
 40
0.0
 40
0.0
 40
0.0
 40
1.0
 40
1.0
 40
1.0
 10
9.570024624317787
 20
8.767986482817651
 30
0.0
 41
1.0
 10
10.58292608280357
 20
8.7541235902696
 30
0.0
 41
1.001475069644458
 10
11.47221731298926
 20
8.70808255366185
 30
0.0
 41
1.0
  0
SPLINE
  5
DB
330
1F
100
AcDbEntity
  8
Sichtbar_(ISO)
  6
Continuous
 62
     7
100
AcDbSpline
210
0.0
220
0.0
230
1.0
 70
    28
 71
     2
 72
     6
 73
     3
 74
     0
 42
0.000000001
 43
0.0000000001
 40
0.0
 40
0.0
 40
0.0
 40
0.9999999999999999
 40
0.9999999999999999
 40
0.9999999999999999
 10
11.48039308459328
 20
8.70756406314897
 30
0.0
 41
1.00000109027056
 10
11.54075680916637
 20
8.812117101043633
 30
0.0
 41
1.000000723199403
 10
11.59996558382407
 20
8.91466970700489
 30
0.0
 41
1.0
  0
LINE
  5
DC
330
1F
100
AcDbEntity
  8
Sichtbar_(ISO)
  6
Continuous
 62
     7
100
AcDbLine
 10
11.5999655838
 20
8.914669707
 30
0.0
 11
11.5999655838
 21
8.5082811483
 31
0.0
  0
LINE
  5
DD
330
1F
100
AcDbEntity
  8
Sichtbar_(ISO)
  6
Continuous
 62
     7
100
AcDbLine
 10
11.5999655838
 20
8.5082811483
 30
0.0
 11
11.5999655838
 21
8.5076145824
 31
0.0
  0
LINE
  5
DE
330
1F
100
AcDbEntity
  8
Sichtbar_(ISO)
  6
Continuous
 62
     7
100
AcDbLine
 10
11.5999655838
 20
8.5076145824
 30
0.0
 11
11.5999655838
 21
8.5069480166
 31
0.0
  0
LINE
  5
DF
330
1F
100
AcDbEntity
  8
Sichtbar_(ISO)
  6
Continuous
 62
     7
100
AcDbLine
 10
11.5999655838
 20
8.5069480166
 30
0.0
 11
11.5999655838
 21
8.4307892379
 31
0.0
  0
ELLIPSE
  5
E0
330
1F
100
AcDbEntity
  8
Sichtbar_(ISO)
  6
Continuous
 62
     7
100
AcDbEllipse
 10
12.6671329687
 20
7.762244281
 30
0.0
 11
-1.5
 21
1.500000000000000E-15
 31
0.0
210
0.0
220
0.0
230
1.0
 40
0.7071067812
 41
-0.7792441291600571
 42
-0.7783611788961204
  0
LINE
  5
E1
330
1F
100
AcDbEntity
  8
Sichtbar_(ISO)
  6
Continuous
 62
     7
100
AcDbLine
 10
11.5990352708
 20
8.5069480166
 30
0.0
 11
11.5999655838
 21
8.5069480166
 31
0.0
  0
LINE
  5
E2
330
1F
100
AcDbEntity
  8
Sichtbar_(ISO)
  6
Continuous
 62
     7
100
AcDbLine
 10
11.0999655838
 20
8.0486443032
 30
0.0
 11
11.0916663589
 21
8.0487946938
 31
0.0
  0
LINE
  5
E3
330
1F
100
AcDbEntity
  8
Sichtbar_(ISO)
  6
Continuous
 62
     7
100
AcDbLine
 10
11.0999655838
 20
8.0486443032
 30
0.0
 11
11.109817833
 21
8.0657088993
 31
0.0
  0
LINE
  5
E4
330
1F
100
AcDbEntity
  8
Sichtbar_(ISO)
  6
Continuous
 62
     7
100
AcDbLine
 10
11.109817833
 20
8.0657088993
 30
0.0
 11
11.0916663589
 21
8.0487946938
 31
0.0
  0
LINE
  5
E5
330
1F
100
AcDbEntity
  8
Sichtbar_(ISO)
  6
Continuous
 62
     7
100
AcDbLine
 10
11.472217313
 20
8.6934032113
 30
0.0
 11
11.4803930846
 21
8.7075640631
 31
0.0
  0
ARC
  5
E6
330
1F
100
AcDbEntity
  8
Sichtbar_(ISO)
  6
Continuous
 62
     7
100
AcDbCircle
 10
10.9499655838
 20
0.0000419401
 30
0.0
 40
8.05
100
AcDbArc
 50
88.9913943235
 51
90.0
  0
LINE
  5
E7
330
1F
100
AcDbEntity
  8
Sichtbar_(ISO)
  6
Continuous
 62
     7
100
AcDbLine
 10
11.109817833
 20
8.0657088993
 30
0.0
 11
11.472217313
 21
8.6934032113
 31
0.0
  0
LINE
  5
E8
330
1F
100
AcDbEntity
  8
Sichtbar_(ISO)
  6
Continuous
 62
     7
100
AcDbLine
 10
9.5700246243
 20
8.0500419401
 30
0.0
 11
9.5700246243
 21
8.7679864828
 31
0.0
  0
LINE
  5
E9
330
1F
100
AcDbEntity
  8
Sichtbar_(ISO)
  6
Continuous
 62
     7
100
AcDbLine
 10
10.9499655838
 20
8.0500419401
 30
0.0
 11
9.5700246243
 21
8.0500419401
 31
0.0
  0
ARC
  5
EA
330
1F
100
AcDbEntity
  8
Sichtbar_(ISO)
  6
Continuous
 62
     7
100
AcDbCircle
 10
10.9499655838
 20
0.0000419401
 30
0.0
 40
8.05
100
AcDbArc
 50
84.5719714282
 51
88.9323149882
  0
ELLIPSE
  5
EB
330
1F
100
AcDbEntity
  8
Sichtbar_(ISO)
  6
Continuous
 62
     7
100
AcDbEllipse
 10
12.6671329687
 20
7.0175405454
 30
0.0
 11
0.0
 21
-2.121320343559642
 31
0.0
210
0.0
220
0.0
230
1.0
 40
0.7071067812
 41
3.933144851224631
 42
3.93402780148857
  0
LINE
  5
EC
330
1F
100
AcDbEntity
  8
Sichtbar_(ISO)
  6
Continuous
 62
     7
100
AcDbLine
 10
15.9652052331
 20
7.0399769116
 30
0.0
 11
16.8979279619
 21
5.424453756
 31
0.0
  0
LINE
  5
ED
330
1F
100
AcDbEntity
  8
Sichtbar_(ISO)
  6
Continuous
 62
     7
100
AcDbLine
 10
16.8979279619
 20
-5.4243698759
 30
0.0
 11
15.9652052331
 21
-7.0398930314
 31
0.0
  0
SPLINE
  5
EE
330
1F
100
AcDbEntity
  8
Sichtbar_(ISO)
  6
Continuous
 62
     7
100
AcDbSpline
210
0.0
220
0.0
230
1.0
 70
    28
 71
     2
 72
     6
 73
     3
 74
     0
 42
0.000000001
 43
0.0000000001
 40
0.0
 40
0.0
 40
0.0
 40
1.0
 40
1.0
 40
1.0
 10
15.96520523314452
 20
-7.039893031440051
 30
0.0
 41
1.000007103694986
 10
15.77791732653784
 20
-7.364285201326014
 30
0.0
 41
1.000005073957918
 10
15.59996558382407
 20
-7.672506661001705
 30
0.0
 41
1.000000034378182
  0
SPLINE
  5
EF
330
1F
100
AcDbEntity
  8
Sichtbar_(ISO)
  6
Continuous
 62
     7
100
AcDbSpline
210
0.0
220
0.0
230
1.0
 70
     8
 71
     3
 72
    14
 73
    10
 74
     0
 42
0.000000001
 43
0.0000000001
 40
0.0
 40
0.0
 40
0.0
 40
0.0
 40
0.0898107181189795
 40
0.0898107181189795
 40
0.1958015459092359
 40
0.1958015459092359
 40
0.5342424555596267
 40
0.5342424555596267
 40
1.0
 40
1.0
 40
1.0
 40
1.0
 10
15.39996558382406
 20
7.51652382989743
 30
0.0
 10
15.4082226329236
 20
7.51652382989743
 30
0.0
 10
15.41799088747406
 20
7.518184781791911
 30
0.0
 10
15.4350880845684
 20
7.523819140822471
 30
0.0
 10
15.44541787333441
 20
7.529299513249801
 30
0.0
 10
15.47890089465796
 20
7.552718587305101
 30
0.0
 10
15.50090658227642
 20
7.58288377472078
 30
0.0
 10
15.53704906012159
 20
7.64738457787244
 30
0.0
 10
15.55263583192022
 20
7.689396008185301
 30
0.0
 10
15.5648669768921
 20
7.73338311163658
 30
0.0
  0
LINE
  5
F0
330
1F
100
AcDbEntity
  8
Sichtbar_(ISO)
  6
Continuous
 62
     7
100
AcDbLine
 10
15.5648669769
 20
7.7333831116
 30
0.0
 11
15.5999655838
 21
7.6725905412
 31
0.0
  0
LINE
  5
F1
330
1F
100
AcDbEntity
  8
Sichtbar_(ISO)
  6
Continuous
 62
     7
100
AcDbLine
 10
13.8318052893
 20
7.516523824
 30
0.0
 11
15.3999655838
 21
7.5165238299
 31
0.0
  0
SPLINE
  5
F2
330
1F
100
AcDbEntity
  8
Sichtbar_(ISO)
  6
Continuous
 62
     7
100
AcDbSpline
210
0.0
220
0.0
230
1.0
 70
    28
 71
     2
 72
     6
 73
     3
 74
     0
 42
0.000000001
 43
0.0000000001
 40
0.0
 40
0.0
 40
0.0
 40
1.0
 40
1.0
 40
1.0
 10
15.96520523314452
 20
7.039976911593855
 30
0.0
 41
1.000007103694986
 10
15.77791732653784
 20
7.36436908147982
 30
0.0
 41
1.000005073957918
 10
15.59996558382407
 20
7.672590541155511
 30
0.0
 41
1.000000034378182
  0
LINE
  5
F3
330
1F
100
AcDbEntity
  8
Sichtbar_(ISO)
  6
Continuous
 62
     7
100
AcDbLine
 10
15.5999655838
 20
-7.672506661
 30
0.0
 11
15.5648669769
 21
-7.7332992315
 31
0.0
  0
SPLINE
  5
F4
330
1F
100
AcDbEntity
  8
Sichtbar_(ISO)
  6
Continuous
 62
     7
100
AcDbSpline
210
0.0
220
0.0
230
1.0
 70
     8
 71
     3
 72
    14
 73
    10
 74
     0
 42
0.000000001
 43
0.0000000001
 40
0.0
 40
0.0
 40
0.0
 40
0.0
 40
0.4657575444403746
 40
0.4657575444403746
 40
0.8041984540907673
 40
0.8041984540907673
 40
0.9101892818810241
 40
0.9101892818810241
 40
0.9999999999999999
 40
0.9999999999999999
 40
0.9999999999999999
 40
0.9999999999999999
 10
15.5648669768921
 20
-7.73329923148278
 30
0.0
 10
15.55263583192022
 20
-7.689312128031497
 30
0.0
 10
15.53704906012159
 20
-7.647300697718636
 30
0.0
 10
15.50090658227642
 20
-7.582799894566975
 30
0.0
 10
15.47890089465796
 20
-7.5526347071513
 30
0.0
 10
15.44541787333441
 20
-7.529215633095994
 30
0.0
 10
15.4350880845684
 20
-7.523735260668666
 30
0.0
 10
15.41799088747406
 20
-7.51810090163811
 30
0.0
 10
15.4082226329236
 20
-7.516439949743626
 30
0.0
 10
15.39996558382406
 20
-7.516439949743626
 30
0.0
  0
LINE
  5
F5
330
1F
100
AcDbEntity
  8
Sichtbar_(ISO)
  6
Continuous
 62
     7
100
AcDbLine
 10
15.3999655838
 20
-7.5164399497
 30
0.0
 11
13.8318052893
 21
-7.5164399439
 31
0.0
  0
ARC
  5
F6
330
1F
100
AcDbEntity
  8
Sichtbar_(ISO)
  6
Continuous
 62
     7
100
AcDbCircle
 10
10.9499655838
 20
0.0000419401
 30
0.0
 40
8.05
100
AcDbArc
 50
42.3641324302
 51
69.0230397313
  0
ARC
  5
F7
330
1F
100
AcDbEntity
  8
Sichtbar_(ISO)
  6
Continuous
 62
     7
100
AcDbCircle
 10
10.9499655838
 20
0.0000419401
 30
0.0
 40
8.05
100
AcDbArc
 50
290.9769602687
 51
317.6358675698
  0
ARC
  5
F8
330
1F
100
AcDbEntity
  8
Sichtbar_(ISO)
  6
Continuous
 62
     7
100
AcDbCircle
 10
10.9499655838
 20
0.0000419401
 30
0.0
 40
8.050000000000013
100
AcDbArc
 50
317.6358675698
 51
335.4922304039
  0
ELLIPSE
  5
F9
330
1F
100
AcDbEntity
  8
Sichtbar_(ISO)
  6
Continuous
 62
     7
100
AcDbEllipse
 10
26.6841088102
 20
22.1911342135
 30
0.0
 11
16.52186021807555
 21
31.5556349305899
 31
0.0
210
0.0
220
0.0
230
1.0
 40
0.228583678
 41
3.664011920902942
 42
3.774568666569264
  0
SPLINE
  5
FA
330
1F
100
AcDbEntity
  8
Sichtbar_(ISO)
  6
Continuous
 62
     7
100
AcDbSpline
210
0.0
220
0.0
230
1.0
 70
     8
 71
     3
 72
    12
 73
     8
 74
     0
 42
0.000000001
 43
0.0000000001
 40
0.0
 40
0.0
 40
0.0
 40
0.0
 40
0.1704347821672576
 40
0.1704347821672576
 40
0.6683724158222657
 40
0.6683724158222657
 40
1.0
 40
1.0
 40
1.0
 40
1.0
 10
18.27470105938079
 20
-3.339231964999669
 30
0.0
 10
18.23307526256499
 20
-3.460141420064064
 30
0.0
 10
18.19230351599631
 20
-3.581427440340136
 30
0.0
 10
18.03547208095888
 20
-4.059202525608164
 30
0.0
 10
17.92689293273413
 20
-4.41494258134794
 30
0.0
 10
17.75689168859556
 20
-5.009976901148162
 30
0.0
 10
17.69197873083066
 20
-5.247985429204613
 30
0.0
 10
17.62990654333036
 20
-5.485299580374409
 30
0.0
  0
LINE
  5
FB
330
1F
100
AcDbEntity
  8
Sichtbar_(ISO)
  6
Continuous
 62
     7
100
AcDbLine
 10
9.5700246243
 20
-8.7679026027
 30
0.0
 11
9.5700246243
 21
-8.0499580599
 31
0.0
  0
SPLINE
  5
FC
330
1F
100
AcDbEntity
  8
Sichtbar_(ISO)
  6
Continuous
 62
     7
100
AcDbSpline
210
0.0
220
0.0
230
1.0
 70
    12
 71
     2
 72
     6
 73
     3
 74
     0
 42
0.000000001
 43
0.0000000001
 40
0.0
 40
0.0
 40
0.0
 40
1.0
 40
1.0
 40
1.0
 10
11.47221731298926
 20
-8.707998673508047
 30
0.0
 41
1.0
 10
10.58292608280357
 20
-8.754039710115794
 30
0.0
 41
1.001475069644458
 10
9.570024624317787
 20
-8.76790260266385
 30
0.0
 41
1.0
  0
LINE
  5
FD
330
1F
100
AcDbEntity
  8
Sichtbar_(ISO)
  6
Continuous
 62
     7
100
AcDbLine
 10
11.5999655838
 20
-8.5068641364
 30
0.0
 11
11.5999655838
 21
-8.5075307023
 31
0.0
  0
LINE
  5
FE
330
1F
100
AcDbEntity
  8
Sichtbar_(ISO)
  6
Continuous
 62
     7
100
AcDbLine
 10
11.5999655838
 20
-8.5075307023
 30
0.0
 11
11.5999655838
 21
-8.5081972681
 31
0.0
  0
ARC
  5
FF
330
1F
100
AcDbEntity
  8
Sichtbar_(ISO)
  6
Continuous
 62
     7
100
AcDbCircle
 10
10.9499655838
 20
0.0000419401
 30
0.0
 40
8.05
100
AcDbArc
 50
270.0
 51
271.0086056765
  0
LINE
  5
100
330
1F
100
AcDbEntity
  8
Sichtbar_(ISO)
  6
Continuous
 62
     7
100
AcDbLine
 10
11.0916663589
 20
-8.0487108136
 30
0.0
 11
11.0999655838
 21
-8.0485604231
 31
0.0
  0
ELLIPSE
  5
101
330
1F
100
AcDbEntity
  8
Sichtbar_(ISO)
  6
Continuous
 62
     7
100
AcDbEllipse
 10
12.6671329687
 20
-7.7621604008
 30
0.0
 11
-1.5
 21
3.000000000000000E-16
 31
0.0
210
0.0
220
0.0
230
1.0
 40
0.7071067812
 41
0.7783611788961196
 42
0.7792441291600567
  0
LINE
  5
102
330
1F
100
AcDbEntity
  8
Sichtbar_(ISO)
  6
Continuous
 62
     7
100
AcDbLine
 10
11.109817833
 20
-8.0656250192
 30
0.0
 11
11.0916663589
 21
-8.0487108136
 31
0.0
  0
LINE
  5
103
330
1F
100
AcDbEntity
  8
Sichtbar_(ISO)
  6
Continuous
 62
     7
100
AcDbLine
 10
9.5700246243
 20
-8.0499580599
 30
0.0
 11
10.9499655838
 21
-8.0499580599
 31
0.0
  0
SPLINE
  5
104
330
1F
100
AcDbEntity
  8
Verdeckt_(ISO)
  6
HIDDEN2
 62
     7
100
AcDbSpline
210
0.0
220
0.0
230
1.0
 70
     8
 71
     3
 72
    14
 73
    10
 74
     0
 42
0.000000001
 43
0.0000000001
 40
0.0
 40
0.0
 40
0.0
 40
0.0
 40
0.2803983962140109
 40
0.2803983962140109
 40
0.5607967924280214
 40
0.5607967924280214
 40
0.8410294739652401
 40
0.8410294739652401
 40
1.0
 40
1.0
 40
1.0
 40
1.0
 10
13.59996558382406
 20
3.868423521585709
 30
0.0
 10
13.82818828630691
 20
3.868423521585707
 30
0.0
 10
14.0701187215216
 20
3.901166789532058
 30
0.0
 10
14.51292434854529
 20
4.023870056949911
 30
0.0
 10
14.71399472456587
 20
4.112759899524404
 30
0.0
 10
15.03142702682119
 20
4.298203745306932
 30
0.0
 10
15.16966164399007
 20
4.407459251164398
 30
0.0
 10
15.31410309322314
 20
4.57081815926733
 30
0.0
 10
15.35208279203397
 20
4.628375414935534
 30
0.0
 10
15.37458502576757
 20
4.681089767114039
 30
0.0
  0
SPLINE
  5
105
330
1F
100
AcDbEntity
  8
Verdeckt_(ISO)
  6
HIDDEN2
 62
     7
100
AcDbSpline
210
0.0
220
0.0
230
1.0
 70
     8
 71
     3
 72
    30
 73
    26
 74
     0
 42
0.000000001
 43
0.0000000001
 40
0.0
 40
0.0
 40
0.0
 40
0.0
 40
0.0490267799982949
 40
0.0490267799982949
 40
0.1354510145325212
 40
0.1354510145325212
 40
0.221926355754284
 40
0.221926355754284
 40
0.3084016969760465
 40
0.3084016969760465
 40
0.3948770381978093
 40
0.3948770381978093
 40
0.4813523794195719
 40
0.4813523794195719
 40
0.5677766139537979
 40
0.5677766139537979
 40
0.6542008484880238
 40
0.6542008484880238
 40
0.7406250830222494
 40
0.7406250830222494
 40
0.8270493175564754
 40
0.8270493175564754
 40
0.9135246587782359
 40
0.9135246587782359
 40
0.9999999999999999
 40
0.9999999999999999
 40
0.9999999999999999
 40
0.9999999999999999
 10
15.37458502576757
 20
4.887127693474544
 30
0.0
 10
15.35208279203397
 20
4.925100763427563
 30
0.0
 10
15.31410309322314
 20
4.957921216687108
 30
0.0
 10
15.16966164399007
 20
5.031998784204926
 30
0.0
 10
15.03142702682119
 20
5.060308740574259
 30
0.0
 10
14.71399472456586
 20
5.092001377818855
 30
0.0
 10
14.51292434854527
 20
5.097620365103871
 30
0.0
 10
14.0701187215216
 20
5.100963217075703
 30
0.0
 10
13.82818828630691
 20
5.099696037558118
 30
0.0
 10
13.37174288134122
 20
5.099696037558118
 30
0.0
 10
13.12981244612651
 20
5.100963217075703
 30
0.0
 10
12.68700681910283
 20
5.097620365103871
 30
0.0
 10
12.48593644308225
 20
5.092001377818855
 30
0.0
 10
12.16850414082692
 20
5.060308740574259
 30
0.0
 10
12.03026952365805
 20
5.031998784204926
 30
0.0
 10
11.84594839873971
 20
4.93746871234123
 30
0.0
 10
11.79996558382406
 20
4.870484936168232
 30
0.0
 10
11.79996558382406
 20
4.714463676001824
 30
0.0
 10
11.84594839873971
 20
4.615920865658294
 30
0.0
 10
12.03026952365806
 20
4.407459251164398
 30
0.0
 10
12.16850414082692
 20
4.298203745306933
 30
0.0
 10
12.48593644308225
 20
4.112759899524404
 30
0.0
 10
12.68700681910283
 20
4.023870056949912
 30
0.0
 10
13.12981244612651
 20
3.901166789532058
 30
0.0
 10
13.37174288134122
 20
3.868423521585709
 30
0.0
 10
13.59996558382406
 20
3.868423521585707
 30
0.0
  0
SPLINE
  5
106
330
1F
100
AcDbEntity
  8
Verdeckt_(ISO)
  6
HIDDEN2
 62
     7
100
AcDbSpline
210
0.0
220
0.0
230
1.0
 70
     8
 71
     3
 72
    30
 73
    26
 74
     0
 42
0.000000001
 43
0.0000000001
 40
0.0
 40
0.0
 40
0.0
 40
0.0
 40
0.0864753412217626
 40
0.0864753412217626
 40
0.1729506824435251
 40
0.1729506824435251
 40
0.259374916977751
 40
0.259374916977751
 40
0.3457991515119768
 40
0.3457991515119768
 40
0.4322233860462025
 40
0.4322233860462025
 40
0.5186476205804283
 40
0.5186476205804283
 40
0.6051229618021913
 40
0.6051229618021913
 40
0.6915983030239536
 40
0.6915983030239536
 40
0.7780736442457163
 40
0.7780736442457163
 40
0.8645489854674788
 40
0.8645489854674788
 40
0.9509732200017048
 40
0.9509732200017048
 40
1.0
 40
1.0
 40
1.0
 40
1.0
 10
13.59996558382406
 20
-5.09961215740431
 30
0.0
 10
13.37174288134122
 20
-5.09961215740431
 30
0.0
 10
13.12981244612651
 20
-5.100879336921895
 30
0.0
 10
12.68700681910283
 20
-5.097536484950064
 30
0.0
 10
12.48593644308225
 20
-5.091917497665049
 30
0.0
 10
12.16850414082692
 20
-5.060224860420454
 30
0.0
 10
12.03026952365805
 20
-5.03191490405112
 30
0.0
 10
11.84594839873971
 20
-4.937384832187424
 30
0.0
 10
11.79996558382406
 20
-4.870401056014427
 30
0.0
 10
11.79996558382406
 20
-4.714379795848019
 30
0.0
 10
11.84594839873971
 20
-4.615836985504488
 30
0.0
 10
12.03026952365805
 20
-4.407375371010592
 30
0.0
 10
12.16850414082692
 20
-4.298119865153125
 30
0.0
 10
12.48593644308225
 20
-4.112676019370598
 30
0.0
 10
12.68700681910283
 20
-4.023786176796106
 30
0.0
 10
13.12981244612651
 20
-3.901082909378251
 30
0.0
 10
13.37174288134122
 20
-3.868339641431902
 30
0.0
 10
13.8281882863069
 20
-3.868339641431902
 30
0.0
 10
14.07011872152159
 20
-3.901082909378251
 30
0.0
 10
14.51292434854527
 20
-4.023786176796105
 30
0.0
 10
14.71399472456586
 20
-4.112676019370597
 30
0.0
 10
15.03142702682119
 20
-4.298119865153124
 30
0.0
 10
15.16966164399007
 20
-4.407375371010592
 30
0.0
 10
15.31410309322314
 20
-4.570734279113523
 30
0.0
 10
15.35208279203398
 20
-4.628291534781727
 30
0.0
 10
15.37458502576757
 20
-4.681005886960232
 30
0.0
  0
SPLINE
  5
107
330
1F
100
AcDbEntity
  8
Verdeckt_(ISO)
  6
HIDDEN2
 62
     7
100
AcDbSpline
210
0.0
220
0.0
230
1.0
 70
     8
 71
     3
 72
    14
 73
    10
 74
     0
 42
0.000000001
 43
0.0000000001
 40
0.0
 40
0.0
 40
0.0
 40
0.0
 40
0.1589705260347585
 40
0.1589705260347585
 40
0.4392032075719793
 40
0.4392032075719793
 40
0.7196016037859911
 40
0.7196016037859911
 40
0.9999999999999999
 40
0.9999999999999999
 40
0.9999999999999999
 40
0.9999999999999999
 10
15.37458502576757
 20
-4.887043813320735
 30
0.0
 10
15.35208279203398
 20
-4.925016883273758
 30
0.0
 10
15.31410309322314
 20
-4.957837336533303
 30
0.0
 10
15.16966164399007
 20
-5.03191490405112
 30
0.0
 10
15.03142702682119
 20
-5.060224860420454
 30
0.0
 10
14.71399472456586
 20
-5.091917497665049
 30
0.0
 10
14.51292434854527
 20
-5.097536484950064
 30
0.0
 10
14.0701187215216
 20
-5.100879336921895
 30
0.0
 10
13.82818828630691
 20
-5.09961215740431
 30
0.0
 10
13.59996558382406
 20
-5.09961215740431
 30
0.0
  0
ELLIPSE
  5
108
330
1F
100
AcDbEntity
  8
Verdeckt_(ISO)
  6
HIDDEN2
 62
     7
100
AcDbEllipse
 10
13.5999655838
 20
-17.6661793307
 30
0.0
 11
1.8
 21
0.0
 31
0.0
210
0.0
220
0.0
230
1.0
 40
0.3420201433
 41
0.0
 42
6.283185307179586
  0
ELLIPSE
  5
109
330
1F
100
AcDbEntity
  8
Verdeckt_(ISO)
  6
HIDDEN2
 62
     7
100
AcDbEllipse
 10
13.5999655838
 20
-17.6661793307
 30
0.0
 11
2.099999999999996
 21
0.0
 31
0.0
210
0.0
220
0.0
230
1.0
 40
0.3420201433
 41
0.0
 42
6.283185307179586
  0
SPLINE
  5
10A
330
1F
100
AcDbEntity
  8
Verdeckt_(ISO)
  6
HIDDEN2
 62
     7
100
AcDbSpline
210
0.0
220
0.0
230
1.0
 70
     8
 71
     3
 72
    14
 73
    10
 74
     0
 42
0.000000001
 43
0.0000000001
 40
0.0
 40
0.0
 40
0.0
 40
0.0
 40
0.1774003138860124
 40
0.1774003138860124
 40
0.4999999999999987
 40
0.4999999999999987
 40
0.8225996861139868
 40
0.8225996861139868
 40
1.0
 40
1.0
 40
1.0
 40
1.0
 10
11.59996558382405
 20
-18.06335805261057
 30
0.0
 10
11.57835809773714
 20
-18.12389362978567
 30
0.0
 10
11.55899075531559
 20
-18.18227077593716
 30
0.0
 10
11.51506701177619
 20
-18.33118581710225
 30
0.0
 10
11.49996558382405
 20
-18.40794727442617
 30
0.0
 10
11.49996558382405
 20
-18.50373093776688
 30
0.0
 10
11.51506701177619
 20
-18.52803395827734
 30
0.0
 10
11.55899075531559
 20
-18.52453250324643
 30
0.0
 10
11.57835809773714
 20
-18.51572693844909
 30
0.0
 10
11.59996558382405
 20
-18.50135754649432
 30
0.0
  0
SPLINE
  5
10B
330
1F
100
AcDbEntity
  8
Verdeckt_(ISO)
  6
HIDDEN2
 62
     7
100
AcDbSpline
210
0.0
220
0.0
230
1.0
 70
     8
 71
     3
 72
    16
 73
    12
 74
     0
 42
0.000000001
 43
0.0000000001
 40
0.0
 40
0.0
 40
0.0
 40
0.0
 40
0.4516859581651824
 40
0.4516859581651824
 40
0.7404681079595731
 40
0.7404681079595731
 40
0.874445302705766
 40
0.874445302705766
 40
0.9468968261289252
 40
0.9468968261289252
 40
1.0
 40
1.0
 40
1.0
 40
1.0
 10
11.79996558382362
 20
-17.45521038371762
 30
0.0
 10
11.74848329589951
 20
-17.4891024188429
 30
0.0
 10
11.70339479895607
 20
-17.5427025750423
 30
0.0
 10
11.64935671054779
 20
-17.63408581542516
 30
0.0
 10
11.63270151232422
 20
-17.67122904893749
 30
0.0
 10
11.61556016806007
 20
-17.72172717727673
 30
0.0
 10
11.61022869024098
 20
-17.74005352965327
 30
0.0
 10
11.60421531384731
 20
-17.76873726455805
 30
0.0
 10
11.60240658585328
 20
-17.77941581370505
 30
0.0
 10
11.60042800854981
 20
-17.79794973286214
 30
0.0
 10
11.59996558382405
 20
-17.80562889349172
 30
0.0
 10
11.59996558382405
 20
-17.81302066438325
 30
0.0
  0
SPLINE
  5
10C
330
1F
100
AcDbEntity
  8
Verdeckt_(ISO)
  6
HIDDEN2
 62
     7
100
AcDbSpline
210
0.0
220
0.0
230
1.0
 70
     8
 71
     3
 72
    18
 73
    14
 74
     0
 42
0.000000001
 43
0.0000000001
 40
0.0
 40
0.0
 40
0.0
 40
0.0
 40
0.1195616728058655
 40
0.1195616728058655
 40
0.3097808364029333
 40
0.3097808364029333
 40
0.5000000000000001
 40
0.5000000000000001
 40
0.6902191635970675
 40
0.6902191635970675
 40
0.8804383271941348
 40
0.8804383271941348
 40
1.0
 40
1.0
 40
1.0
 40
1.0
 10
15.39996558382406
 20
-17.45521038371733
 30
0.0
 10
15.30996119442106
 20
-17.39595832980335
 30
0.0
 10
15.20200606426002
 20
-17.34031702903966
 30
0.0
 10
14.89856127367738
 20
-17.214179242899
 30
0.0
 10
14.66256615442294
 20
-17.14427550302631
 30
0.0
 10
14.14523401821072
 20
-17.0502759019709
 30
0.0
 10
13.86387848897717
 20
-17.02648665027217
 30
0.0
 10
13.33605267867095
 20
-17.02648665027217
 30
0.0
 10
13.0546971494374
 20
-17.0502759019709
 30
0.0
 10
12.53736501322517
 20
-17.14427550302631
 30
0.0
 10
12.30136989397073
 20
-17.214179242899
 30
0.0
 10
11.99792510338808
 20
-17.34031702903966
 30
0.0
 10
11.88996997322705
 20
-17.39595832980335
 30
0.0
 10
11.79996558382406
 20
-17.45521038371733
 30
0.0
  0
SPLINE
  5
10D
330
1F
100
AcDbEntity
  8
Verdeckt_(ISO)
  6
HIDDEN2
 62
     7
100
AcDbSpline
210
0.0
220
0.0
230
1.0
 70
     8
 71
     3
 72
    16
 73
    12
 74
     0
 42
0.000000001
 43
0.0000000001
 40
0.0
 40
0.0
 40
0.0
 40
0.0
 40
0.0465631701296923
 40
0.0465631701296923
 40
0.1273039932594647
 40
0.1273039932594647
 40
0.2593014750685334
 40
0.2593014750685334
 40
0.5446804632716797
 40
0.5446804632716797
 40
1.0
 40
1.0
 40
1.0
 40
1.0
 10
15.59996558382406
 20
-17.81302066438325
 30
0.0
 10
15.59996558382406
 20
-17.80659868360008
 30
0.0
 10
15.59961641205366
 20
-17.79991806872101
 30
0.0
 10
15.59782820640586
 20
-17.78111996887577
 30
0.0
 10
15.59582427252827
 20
-17.76915035655109
 30
0.0
 10
15.5895796772874
 20
-17.73964697961767
 30
0.0
 10
15.58433691864206
 20
-17.72164177052504
 30
0.0
 10
15.56742165193033
 20
-17.67176246284975
 30
0.0
 10
15.55102533606563
 20
-17.63507819710719
 30
0.0
 10
15.49726350107761
 20
-17.54357685984011
 30
0.0
 10
15.45186016034723
 20
-17.48937383137127
 30
0.0
 10
15.39996558382406
 20
-17.45521038371733
 30
0.0
  0
SPLINE
  5
10E
330
1F
100
AcDbEntity
  8
Verdeckt_(ISO)
  6
HIDDEN2
 62
     7
100
AcDbSpline
210
0.0
220
0.0
230
1.0
 70
     8
 71
     3
 72
    14
 73
    10
 74
     0
 42
0.000000001
 43
0.0000000001
 40
0.0
 40
0.0
 40
0.0
 40
0.0
 40
0.1774003138860062
 40
0.1774003138860062
 40
0.5000000000000026
 40
0.5000000000000026
 40
0.8225996861139956
 40
0.8225996861139956
 40
1.0
 40
1.0
 40
1.0
 40
1.0
 10
15.59996558382406
 20
-18.50135754649432
 30
0.0
 10
15.62157306991097
 20
-18.51572693844907
 30
0.0
 10
15.64094041233252
 20
-18.52453250324643
 30
0.0
 10
15.68486415587192
 20
-18.52803395827734
 30
0.0
 10
15.69996558382405
 20
-18.50373093776688
 30
0.0
 10
15.69996558382405
 20
-18.40794727442617
 30
0.0
 10
15.68486415587192
 20
-18.33118581710225
 30
0.0
 10
15.64094041233252
 20
-18.18227077593716
 30
0.0
 10
15.62157306991097
 20
-18.12389362978567
 30
0.0
 10
15.59996558382406
 20
-18.06335805261057
 30
0.0
  0
SPLINE
  5
10F
330
1F
100
AcDbEntity
  8
Verdeckt_(ISO)
  6
HIDDEN2
 62
     7
100
AcDbSpline
210
0.0
220
0.0
230
1.0
 70
     8
 71
     3
 72
    16
 73
    12
 74
     0
 42
0.000000001
 43
0.0000000001
 40
0.0
 40
0.0
 40
0.0
 40
0.0
 40
0.4640239818067253
 40
0.4640239818067253
 40
0.7454749812873191
 40
0.7454749812873191
 40
0.8767919577323358
 40
0.8767919577323358
 40
0.9485780577999504
 40
0.9485780577999504
 40
1.0
 40
1.0
 40
1.0
 40
1.0
 10
15.39996558382406
 20
-18.19511308211867
 30
0.0
 10
15.45305567851206
 20
-18.16963048456339
 30
0.0
 10
15.49925805138699
 20
-18.1616198018055
 30
0.0
 10
15.55258577025952
 20
-18.16817653245376
 30
0.0
 10
15.56852744622809
 20
-18.17528215553257
 30
0.0
 10
15.58500060201018
 20
-18.19275060282432
 30
0.0
 10
15.59012923293304
 20
-18.20033615029066
 30
0.0
 10
15.59592728621363
 20
-18.21649170543657
 30
0.0
 10
15.59767122231306
 20
-18.22334016982404
 30
0.0
 10
15.59953883983093
 20
-18.23745692495277
 30
0.0
 10
15.59996558382406
 20
-18.24391967565331
 30
0.0
 10
15.59996558382406
 20
-18.25102015826701
 30
0.0
  0
SPLINE
  5
110
330
1F
100
AcDbEntity
  8
Verdeckt_(ISO)
  6
HIDDEN2
 62
     7
100
AcDbSpline
210
0.0
220
0.0
230
1.0
 70
     8
 71
     3
 72
    19
 73
    15
 74
     0
 42
0.000000001
 43
0.0000000001
 40
0.0
 40
0.0
 40
0.0
 40
0.0
 40
0.1195616727870715
 40
0.1195616727870715
 40
0.3097808363881994
 40
0.3097808363881994
 40
0.4999999999893275
 40
0.4999999999893275
 40
0.4999999999893275
 40
0.6902191635904554
 40
0.6902191635904554
 40
0.8804383271915833
 40
0.8804383271915833
 40
1.0
 40
1.0
 40
1.0
 40
1.0
 10
11.79996558382406
 20
-18.19511308211867
 30
0.0
 10
11.88996997321554
 20
-18.23831409064107
 30
0.0
 10
11.99792510340899
 20
-18.2759528058238
 30
0.0
 10
12.30136989397073
 20
-18.35738348121053
 30
0.0
 10
12.53736501322517
 20
-18.39800730636042
 30
0.0
 10
13.0546971494374
 20
-18.4506519032026
 30
0.0
 10
13.33605267867095
 20
-18.46297125223998
 30
0.0
 10
13.59996558382406
 20
-18.46297125223998
 30
0.0
 10
13.86387848897717
 20
-18.46297125223998
 30
0.0
 10
14.14523401821072
 20
-18.4506519032026
 30
0.0
 10
14.66256615442294
 20
-18.39800730636042
 30
0.0
 10
14.89856127367738
 20
-18.35738348121054
 30
0.0
 10
15.20200606426002
 20
-18.27595280581819
 30
0.0
 10
15.30996119442106
 20
-18.23831409064661
 30
0.0
 10
15.39996558382406
 20
-18.19511308211867
 30
0.0
  0
SPLINE
  5
111
330
1F
100
AcDbEntity
  8
Verdeckt_(ISO)
  6
HIDDEN2
 62
     7
100
AcDbSpline
210
0.0
220
0.0
230
1.0
 70
     8
 71
     3
 72
    16
 73
    12
 74
     0
 42
0.000000001
 43
0.0000000001
 40
0.0
 40
0.0
 40
0.0
 40
0.0
 40
0.044453693805303
 40
0.044453693805303
 40
0.1242856923319876
 40
0.1242856923319876
 40
0.2548360156774023
 40
0.2548360156774023
 40
0.5377990263816647
 40
0.5377990263816647
 40
1.0
 40
1.0
 40
1.0
 40
1.0
 10
11.59996558382405
 20
-18.25102015826702
 30
0.0
 10
11.59996558382405
 20
-18.24493702028135
 30
0.0
 10
11.6002789299478
 20
-18.23928111258819
 30
0.0
 10
11.60193558564093
 20
-18.22457030252033
 30
0.0
 10
11.60385228375956
 20
-18.21685195886345
 30
0.0
 10
11.60988646658965
 20
-18.2002055074946
 30
0.0
 10
11.61498412844077
 20
-18.19268722416097
 30
0.0
 10
11.63149205782614
 20
-18.17520279230179
 30
0.0
 10
11.64754821012491
 20
-18.16808984047735
 30
0.0
 10
11.70098850547012
 20
-18.16168336426776
 30
0.0
 10
11.74704218824996
 20
-18.16971047602093
 30
0.0
 10
11.79996558382365
 20
-18.19511308211848
 30
0.0
  0
ELLIPSE
  5
112
330
1F
100
AcDbEntity
  8
Verdeckt_(ISO)
  6
HIDDEN2
 62
     7
100
AcDbEllipse
 10
13.5999655838
 20
17.6662632109
 30
0.0
 11
-2.1
 21
-1.000000000000000E-16
 31
0.0
210
0.0
220
0.0
230
1.0
 40
0.3420201433
 41
5.973340667437951
 42
9.734622600511
  0
LINE
  5
113
330
1F
100
AcDbEntity
  8
Verdeckt_(ISO)
  6
HIDDEN2
 62
     7
100
AcDbLine
 10
15.3999655838
 20
17.6662632109
 30
0.0
 11
15.3999655838
 21
7.3851914797
 31
0.0
  0
LINE
  5
114
330
1F
100
AcDbEntity
  8
Verdeckt_(ISO)
  6
HIDDEN2
 62
     7
100
AcDbLine
 10
11.7999655838
 20
17.6662632109
 30
0.0
 11
11.7999655838
 21
4.7924743061
 31
0.0
  0
LINE
  5
115
330
1F
100
AcDbEntity
  8
Verdeckt_(ISO)
  6
HIDDEN2
 62
     7
100
AcDbLine
 10
15.3999655838
 20
-7.3851075995
 30
0.0
 11
15.3999655838
 21
-17.6661793307
 31
0.0
  0
LINE
  5
116
330
1F
100
AcDbEntity
  8
Verdeckt_(ISO)
  6
HIDDEN2
 62
     7
100
AcDbLine
 10
11.7999655838
 20
-4.7923904259
 30
0.0
 11
11.7999655838
 21
-17.6661793307
 31
0.0
  0
LINE
  5
117
330
1F
100
AcDbEntity
  8
Verdeckt_(ISO)
  6
HIDDEN2
 62
     7
100
AcDbLine
 10
15.6999655838
 20
-17.6661793307
 30
0.0
 11
15.6999655838
 21
-18.4558391061
 31
0.0
  0
LINE
  5
118
330
1F
100
AcDbEntity
  8
Verdeckt_(ISO)
  6
HIDDEN2
 62
     7
100
AcDbLine
 10
11.4999655838
 20
-17.6661793307
 30
0.0
 11
11.4999655838
 21
-18.4558391061
 31
0.0
  0
LINE
  5
119
330
1F
100
AcDbEntity
  8
Verdeckt_(ISO)
  6
HIDDEN2
 62
     7
100
AcDbLine
 10
15.6999655838
 20
18.4559229863
 30
0.0
 11
15.6999655838
 21
17.6662632109
 31
0.0
  0
LINE
  5
11A
330
1F
100
AcDbEntity
  8
Verdeckt_(ISO)
  6
HIDDEN2
 62
     7
100
AcDbLine
 10
11.4999655838
 20
18.4559229863
 30
0.0
 11
11.4999655838
 21
17.6662632109
 31
0.0
  0
ELLIPSE
  5
11B
330
1F
100
AcDbEntity
  8
Sichtbar_(ISO)
  6
Continuous
 62
     7
100
AcDbEllipse
 10
13.5999655838
 20
17.6662632109
 30
0.0
 11
1.8
 21
0.0
 31
0.0
210
0.0
220
0.0
230
1.0
 40
0.3420201433
 41
0.0
 42
6.283185307179586
  0
LINE
  5
11C
330
1F
100
AcDbEntity
  8
Sichtbar_(ISO)
  6
Continuous
 62
     7
100
AcDbLine
 10
11.5999655838
 20
18.5014414266
 30
0.0
 11
11.5999655838
 21
18.2511040384
 31
0.0
  0
SPLINE
  5
11D
330
1F
100
AcDbEntity
  8
Sichtbar_(ISO)
  6
Continuous
 62
     7
100
AcDbSpline
210
0.0
220
0.0
230
1.0
 70
     8
 71
     3
 72
    14
 73
    10
 74
     0
 42
0.000000001
 43
0.0000000001
 40
0.0
 40
0.0
 40
0.0
 40
0.0
 40
0.1774003138860274
 40
0.1774003138860274
 40
0.5000000000000111
 40
0.5000000000000111
 40
0.8225996861139947
 40
0.8225996861139947
 40
0.9999999999999999
 40
0.9999999999999999
 40
0.9999999999999999
 40
0.9999999999999999
 10
11.59996558382407
 20
18.06344193276436
 30
0.0
 10
11.57835809773714
 20
18.12397750993947
 30
0.0
 10
11.55899075531559
 20
18.18235465609096
 30
0.0
 10
11.51506701177619
 20
18.33126969725607
 30
0.0
 10
11.49996558382406
 20
18.40803115457998
 30
0.0
 10
11.49996558382406
 20
18.50381481792069
 30
0.0
 10
11.51506701177619
 20
18.52811783843116
 30
0.0
 10
11.55899075531559
 20
18.52461638340024
 30
0.0
 10
11.57835809773715
 20
18.51581081860291
 30
0.0
 10
11.59996558382407
 20
18.50144142664814
 30
0.0
  0
SPLINE
  5
11E
330
1F
100
AcDbEntity
  8
Sichtbar_(ISO)
  6
Continuous
 62
     7
100
AcDbSpline
210
0.0
220
0.0
230
1.0
 70
     8
 71
     3
 72
    16
 73
    12
 74
     0
 42
0.000000001
 43
0.0000000001
 40
0.0
 40
0.0
 40
0.0
 40
0.0
 40
0.4516859580634495
 40
0.4516859580634495
 40
0.740468107918576
 40
0.740468107918576
 40
0.8744453026864121
 40
0.8744453026864121
 40
0.9468968261151276
 40
0.9468968261151276
 40
1.0
 40
1.0
 40
1.0
 40
1.0
 10
11.79996558382362
 20
17.45529426387142
 30
0.0
 10
11.74848329591269
 20
17.48918629898798
 30
0.0
 10
11.70339479897869
 20
17.54278645516872
 30
0.0
 10
11.64935671056469
 20
17.63416969554347
 30
0.0
 10
11.6327015123351
 20
17.67131292906384
 30
0.0
 10
11.61556016806533
 20
17.72181105741289
 30
0.0
 10
11.61022869024454
 20
17.74013740979279
 30
0.0
 10
11.60421531384908
 20
17.76882114470202
 30
0.0
 10
11.60240658585451
 20
17.77949969385023
 30
0.0
 10
11.60042800855011
 20
17.79803361301105
 30
0.0
 10
11.59996558382407
 20
17.80571277364313
 30
0.0
 10
11.59996558382407
 20
17.81310454453705
 30
0.0
  0
SPLINE
  5
11F
330
1F
100
AcDbEntity
  8
Sichtbar_(ISO)
  6
Continuous
 62
     7
100
AcDbSpline
210
0.0
220
0.0
230
1.0
 70
     8
 71
     3
 72
    19
 73
    15
 74
     0
 42
0.000000001
 43
0.0000000001
 40
0.0
 40
0.0
 40
0.0
 40
0.0
 40
0.1195616727870698
 40
0.1195616727870698
 40
0.3097808363881983
 40
0.3097808363881983
 40
0.4999999999893273
 40
0.4999999999893273
 40
0.4999999999893273
 40
0.6902191635904562
 40
0.6902191635904562
 40
0.880438327191585
 40
0.880438327191585
 40
1.0
 40
1.0
 40
1.0
 40
1.0
 10
15.39996558382406
 20
17.45529426387114
 30
0.0
 10
15.30996119443257
 20
17.39604220996473
 30
0.0
 10
15.20200606423912
 20
17.34040090918477
 30
0.0
 10
14.89856127367739
 20
17.2142631230528
 30
0.0
 10
14.66256615442295
 20
17.14435938318011
 30
0.0
 10
14.14523401821073
 20
17.05035978212469
 30
0.0
 10
13.86387848897717
 20
17.02657053042597
 30
0.0
 10
13.59996558382406
 20
17.02657053042598
 30
0.0
 10
13.33605267867095
 20
17.02657053042598
 30
0.0
 10
13.0546971494374
 20
17.05035978212469
 30
0.0
 10
12.53736501322517
 20
17.14435938318011
 30
0.0
 10
12.30136989397075
 20
17.2142631230528
 30
0.0
 10
11.99792510338809
 20
17.34040090919347
 30
0.0
 10
11.88996997322707
 20
17.39604220995716
 30
0.0
 10
11.79996558382407
 20
17.45529426387114
 30
0.0
  0
SPLINE
  5
120
330
1F
100
AcDbEntity
  8
Sichtbar_(ISO)
  6
Continuous
 62
     7
100
AcDbSpline
210
0.0
220
0.0
230
1.0
 70
     8
 71
     3
 72
    16
 73
    12
 74
     0
 42
0.000000001
 43
0.0000000001
 40
0.0
 40
0.0
 40
0.0
 40
0.0
 40
0.0465631701295646
 40
0.0465631701295646
 40
0.1273039932591398
 40
0.1273039932591398
 40
0.2593014750676979
 40
0.2593014750676979
 40
0.5446804632706254
 40
0.5446804632706254
 40
1.0
 40
1.0
 40
1.0
 40
1.0
 10
15.59996558382406
 20
17.81310454453705
 30
0.0
 10
15.59996558382406
 20
17.80668256375388
 30
0.0
 10
15.59961641205366
 20
17.8000019488748
 30
0.0
 10
15.59782820640586
 20
17.78120384902958
 30
0.0
 10
15.59582427252827
 20
17.76923423670491
 30
0.0
 10
15.5895796772874
 20
17.73973085977148
 30
0.0
 10
15.58433691864206
 20
17.72172565067884
 30
0.0
 10
15.56742165193029
 20
17.67184634300344
 30
0.0
 10
15.55102533606557
 20
17.63516207726088
 30
0.0
 10
15.49726350107761
 20
17.54366073999393
 30
0.0
 10
15.45186016034725
 20
17.48945771152508
 30
0.0
 10
15.39996558382406
 20
17.45529426387114
 30
0.0
  0
SPLINE
  5
121
330
1F
100
AcDbEntity
  8
Sichtbar_(ISO)
  6
Continuous
 62
     7
100
AcDbSpline
210
0.0
220
0.0
230
1.0
 70
     8
 71
     3
 72
    14
 73
    10
 74
     0
 42
0.000000001
 43
0.0000000001
 40
0.0
 40
0.0
 40
0.0
 40
0.0
 40
0.1774003138860089
 40
0.1774003138860089
 40
0.5000000000000026
 40
0.5000000000000026
 40
0.8225996861139979
 40
0.8225996861139979
 40
1.0
 40
1.0
 40
1.0
 40
1.0
 10
15.59996558382406
 20
18.50144142664814
 30
0.0
 10
15.62157306991099
 20
18.51581081860289
 30
0.0
 10
15.64094041233252
 20
18.52461638340024
 30
0.0
 10
15.68486415587193
 20
18.52811783843115
 30
0.0
 10
15.69996558382406
 20
18.50381481792069
 30
0.0
 10
15.69996558382406
 20
18.40803115457998
 30
0.0
 10
15.68486415587193
 20
18.33126969725607
 30
0.0
 10
15.64094041233252
 20
18.18235465609098
 30
0.0
 10
15.62157306991099
 20
18.12397750993947
 30
0.0
 10
15.59996558382406
 20
18.06344193276437
 30
0.0
  0
LINE
  5
122
330
1F
100
AcDbEntity
  8
Sichtbar_(ISO)
  6
Continuous
 62
     7
100
AcDbLine
 10
15.5999655838
 20
18.2511040384
 30
0.0
 11
15.5999655838
 21
18.5014414266
 31
0.0
  0
SPLINE
  5
123
330
1F
100
AcDbEntity
  8
Sichtbar_(ISO)
  6
Continuous
 62
     7
100
AcDbSpline
210
0.0
220
0.0
230
1.0
 70
     8
 71
     3
 72
    16
 73
    12
 74
     0
 42
0.000000001
 43
0.0000000001
 40
0.0
 40
0.0
 40
0.0
 40
0.0
 40
0.4640239818073764
 40
0.4640239818073764
 40
0.7454749812879489
 40
0.7454749812879489
 40
0.8767919577326614
 40
0.8767919577326614
 40
0.9485780577999261
 40
0.9485780577999261
 40
1.0
 40
1.0
 40
1.0
 40
1.0
 10
15.39996558382406
 20
18.19519696227248
 30
0.0
 10
15.45305567851204
 20
18.16971436471721
 30
0.0
 10
15.49925805138698
 20
18.16170368195932
 30
0.0
 10
15.55258577025951
 20
18.16826041260756
 30
0.0
 10
15.56852744622808
 20
18.17536603568637
 30
0.0
 10
15.58500060201018
 20
18.19283448297812
 30
0.0
 10
15.59012923293305
 20
18.20042003044447
 30
0.0
 10
15.59592728621363
 20
18.21657558559037
 30
0.0
 10
15.59767122231308
 20
18.22342404997784
 30
0.0
 10
15.59953883983094
 20
18.23754080510662
 30
0.0
 10
15.59996558382406
 20
18.24400355580715
 30
0.0
 10
15.59996558382406
 20
18.25110403842083
 30
0.0
  0
SPLINE
  5
124
330
1F
100
AcDbEntity
  8
Sichtbar_(ISO)
  6
Continuous
 62
     7
100
AcDbSpline
210
0.0
220
0.0
230
1.0
 70
     8
 71
     3
 72
    18
 73
    14
 74
     0
 42
0.000000001
 43
0.0000000001
 40
0.0
 40
0.0
 40
0.0
 40
0.0
 40
0.1195616728058627
 40
0.1195616728058627
 40
0.3097808364029314
 40
0.3097808364029314
 40
0.5000000000000001
 40
0.5000000000000001
 40
0.6902191635970686
 40
0.6902191635970686
 40
0.8804383271941368
 40
0.8804383271941368
 40
0.9999999999999999
 40
0.9999999999999999
 40
0.9999999999999999
 40
0.9999999999999999
 10
11.79996558382407
 20
18.19519696227248
 30
0.0
 10
11.88996997322707
 20
18.23839797080042
 30
0.0
 10
11.99792510338809
 20
18.27603668597198
 30
0.0
 10
12.30136989397075
 20
18.35746736136434
 30
0.0
 10
12.53736501322517
 20
18.39809118651422
 30
0.0
 10
13.0546971494374
 20
18.45073578335641
 30
0.0
 10
13.33605267867095
 20
18.46305513239379
 30
0.0
 10
13.86387848897717
 20
18.46305513239379
 30
0.0
 10
14.14523401821073
 20
18.45073578335641
 30
0.0
 10
14.66256615442295
 20
18.39809118651422
 30
0.0
 10
14.89856127367739
 20
18.35746736136434
 30
0.0
 10
15.20200606426002
 20
18.27603668597198
 30
0.0
 10
15.30996119442107
 20
18.23839797080042
 30
0.0
 10
15.39996558382406
 20
18.19519696227248
 30
0.0
  0
SPLINE
  5
125
330
1F
100
AcDbEntity
  8
Sichtbar_(ISO)
  6
Continuous
 62
     7
100
AcDbSpline
210
0.0
220
0.0
230
1.0
 70
     8
 71
     3
 72
    16
 73
    12
 74
     0
 42
0.000000001
 43
0.0000000001
 40
0.0
 40
0.0
 40
0.0
 40
0.0
 40
0.0444536937881184
 40
0.0444536937881184
 40
0.124285692307455
 40
0.124285692307455
 40
0.2548360156408782
 40
0.2548360156408782
 40
0.5377990263248683
 40
0.5377990263248683
 40
1.0
 40
1.0
 40
1.0
 40
1.0
 10
11.59996558382407
 20
18.25110403842083
 30
0.0
 10
11.59996558382407
 20
18.24502090043789
 30
0.0
 10
11.60027892994752
 20
18.23936499274698
 30
0.0
 10
11.60193558563962
 20
18.22465418268148
 30
0.0
 10
11.60385228375752
 20
18.21693583902475
 30
0.0
 10
11.60988646658593
 20
18.20028938765559
 30
0.0
 10
11.61498412843589
 20
18.19277110432157
 30
0.0
 10
11.63149205781793
 20
18.17528667246081
 30
0.0
 10
11.64754821011389
 20
18.16817372063496
 30
0.0
 10
11.70098850545636
 20
18.16176724441916
 30
0.0
 10
11.74704218824137
 20
18.16979435617077
 30
0.0
 10
11.79996558382367
 20
18.19519696227229
 30
0.0
  0
ELLIPSE
  5
126
330
1F
100
AcDbEntity
  8
Sichtbar_(ISO)
  6
Continuous
 62
     7
100
AcDbEllipse
 10
13.5999655838
 20
17.6662632109
 30
0.0
 11
-2.1
 21
6.000000000000000E-16
 31
0.0
210
0.0
220
0.0
230
1.0
 40
0.3420201433
 41
3.45143729333142
 42
5.973340667437962
  0
SPLINE
  5
127
330
1F
100
AcDbEntity
  8
Sichtbar_(ISO)
  6
Continuous
 62
     7
100
AcDbSpline
210
0.0
220
0.0
230
1.0
 70
     8
 71
     3
 72
     8
 73
     4
 74
     0
 42
0.000000001
 43
0.0000000001
 40
0.0
 40
0.0
 40
0.0
 40
0.0
 40
1.0
 40
1.0
 40
1.0
 40
1.0
 10
11.79996558382407
 20
8.0050403785527
 30
0.0
 10
12.48471683682756
 20
7.932330987098562
 30
0.0
 10
13.17594030329371
 20
7.76745623662242
 30
0.0
 10
13.83180528910708
 20
7.516523824113761
 30
0.0
  0
SPLINE
  5
128
330
1F
100
AcDbEntity
  8
Sichtbar_(ISO)
  6
Continuous
 62
     7
100
AcDbSpline
210
0.0
220
0.0
230
1.0
 70
     8
 71
     3
 72
    10
 73
     6
 74
     0
 42
0.000000001
 43
0.0000000001
 40
0.0
 40
0.0
 40
0.0
 40
0.0
 40
0.2316089471474974
 40
0.2316089471474974
 40
1.0
 40
1.0
 40
1.0
 40
1.0
 10
11.71145792475128
 20
8.01394419894612
 30
0.0
 10
11.71777460435976
 20
8.013343892928832
 30
0.0
 10
11.72428270122398
 20
8.012718023841321
 30
0.0
 10
11.75311648853657
 20
8.00990736717212
 30
0.0
 10
11.77647502933806
 20
8.0075346915081
 30
0.0
 10
11.79996558382407
 20
8.0050403785527
 30
0.0
  0
LINE
  5
129
330
1F
100
AcDbEntity
  8
Sichtbar_(ISO)
  6
Continuous
 62
     7
100
AcDbLine
 10
1.9999655838
 20
7.0972555356
 30
0.0
 11
1.9999655838
 21
9.0500419401
 31
0.0
  0
LINE
  5
12A
330
1F
100
AcDbEntity
  8
Sichtbar_(ISO)
  6
Continuous
 62
     7
100
AcDbLine
 10
1.9999655838
 20
-9.0499580599
 30
0.0
 11
1.9999655838
 21
-7.0971716554
 31
0.0
  0
SPLINE
  5
12B
330
1F
100
AcDbEntity
  8
Sichtbar_(ISO)
  6
Continuous
 62
     7
100
AcDbSpline
210
0.0
220
0.0
230
1.0
 70
     8
 71
     3
 72
    12
 73
     8
 74
     0
 42
0.000000001
 43
0.0000000001
 40
0.0
 40
0.0
 40
0.0
 40
0.0
 40
0.4201631969046516
 40
0.4201631969046516
 40
0.8395041517556018
 40
0.8395041517556018
 40
1.0
 40
1.0
 40
1.0
 40
1.0
 10
11.79996558382407
 20
-8.004956498398894
 30
0.0
 10
11.78716126820058
 20
-8.00631610744362
 30
0.0
 10
11.77434560941191
 20
-8.007645568788801
 30
0.0
 10
11.74907037084602
 20
-8.010207280356969
 30
0.0
 10
11.73672976381293
 20
-8.011427638866525
 30
0.0
 10
11.72028934948526
 20
-8.01301753791819
 30
0.0
 10
11.71582653997122
 20
-8.013445206787832
 30
0.0
 10
11.71145792475104
 20
-8.013860318792341
 30
0.0
  0
SPLINE
  5
12C
330
1F
100
AcDbEntity
  8
Sichtbar_(ISO)
  6
Continuous
 62
     7
100
AcDbSpline
210
0.0
220
0.0
230
1.0
 70
     8
 71
     3
 72
     8
 73
     4
 74
     0
 42
0.000000001
 43
0.0000000001
 40
0.0
 40
0.0
 40
0.0
 40
0.0
 40
1.0
 40
1.0
 40
1.0
 40
1.0
 10
13.83180528928434
 20
-7.516439943892001
 30
0.0
 10
13.1761663012755
 20
-7.76781372450623
 30
0.0
 10
12.48471683688926
 20
-7.9322471069382
 30
0.0
 10
11.79996558382407
 20
-8.0049564983989
 30
0.0
  0
SPLINE
  5
12D
330
1F
100
AcDbEntity
  8
Sichtbar_(ISO)
  6
Continuous
 62
     7
100
AcDbSpline
210
0.0
220
0.0
230
1.0
 70
     8
 71
     3
 72
     8
 73
     4
 74
     0
 42
0.000000001
 43
0.0000000001
 40
0.0
 40
0.0
 40
0.0
 40
0.0
 40
1.0
 40
1.0
 40
1.0
 40
1.0
 10
2.999965583824072
 20
-8.755047362955938
 30
0.0
 10
3.067916769069625
 20
-8.763845162799475
 30
0.0
 10
3.136485185903717
 20
-8.767902602663863
 30
0.0
 10
3.199965583824073
 20
-8.767902602663863
 30
0.0
  0
SPLINE
  5
12E
330
1F
100
AcDbEntity
  8
Sichtbar_(ISO)
  6
Continuous
 62
     7
100
AcDbSpline
210
0.0
220
0.0
230
1.0
 70
     8
 71
     3
 72
    18
 73
    14
 74
     0
 42
0.000000001
 43
0.0000000001
 40
0.0
 40
0.0
 40
0.0
 40
0.0
 40
0.1711338956343701
 40
0.1711338956343701
 40
0.3379009907704125
 40
0.3379009907704125
 40
0.5080118783812158
 40
0.5080118783812158
 40
0.6602172757488521
 40
0.6602172757488521
 40
0.8409563505076003
 40
0.8409563505076003
 40
1.0
 40
1.0
 40
1.0
 40
1.0
 10
2.099458836156427
 20
-8.615116022620999
 30
0.0
 10
2.12553394864842
 20
-8.663771096955745
 30
0.0
 10
2.157543248451195
 20
-8.708220334607809
 30
0.0
 10
2.232786556180298
 20
-8.778349852884944
 30
0.0
 10
2.274605470529158
 20
-8.803496476556518
 30
0.0
 10
2.369886211538099
 20
-8.831556182422352
 30
0.0
 10
2.419929437845516
 20
-8.832969164916465
 30
0.0
 10
2.520334699024622
 20
-8.821255915393836
 30
0.0
 10
2.569610461992124
 20
-8.809750492113645
 30
0.0
 10
2.680325003479128
 20
-8.78296166734562
 30
0.0
 10
2.744654635803953
 20
-8.766764827502556
 30
0.0
 10
2.872907267377598
 20
-8.749380708817222
 30
0.0
 10
2.935471404027198
 20
-8.746697149742204
 30
0.0
 10
2.999965583824072
 20
-8.755047362955935
 30
0.0
  0
SPLINE
  5
12F
330
1F
100
AcDbEntity
  8
Sichtbar_(ISO)
  6
Continuous
 62
     7
100
AcDbSpline
210
0.0
220
0.0
230
1.0
 70
     8
 71
     3
 72
    11
 73
     7
 74
     0
 42
0.000000001
 43
0.0000000001
 40
0.0
 40
0.0
 40
0.0
 40
0.0
 40
0.2814595575601179
 40
0.2814595575601179
 40
0.2814595575601179
 40
1.0
 40
1.0
 40
1.0
 40
1.0
 10
2.099458836195727
 20
-8.615116022539613
 30
0.0
 10
2.144360406299
 20
-8.52213014863376
 30
0.0
 10
2.204429082154371
 20
-8.43571583960845
 30
0.0
 10
2.273765568444432
 20
-8.362474578185093
 30
0.0
 10
2.450775260238058
 20
-8.17549635351865
 30
0.0
 10
2.735661773029788
 20
-8.049958059923098
 30
0.0
 10
2.999965583824072
 20
-8.049958059923098
 30
0.0
  0
LINE
  5
130
330
1F
100
AcDbEntity
  8
Sichtbar_(ISO)
  6
Continuous
 62
     7
100
AcDbLine
 10
9.5700246243
 20
-8.7679026027
 30
0.0
 11
3.1999655838
 21
-8.7679026027
 31
0.0
  0
LINE
  5
131
330
1F
100
AcDbEntity
  8
Sichtbar_(ISO)
  6
Continuous
 62
     7
100
AcDbLine
 10
2.9999655838
 20
-8.0499580599
 30
0.0
 11
9.5700246243
 21
-8.0499580599
 31
0.0
  0
SPLINE
  5
132
330
1F
100
AcDbEntity
  8
Sichtbar_(ISO)
  6
Continuous
 62
     7
100
AcDbSpline
210
0.0
220
0.0
230
1.0
 70
     8
 71
     3
 72
    10
 73
     6
 74
     0
 42
0.000000001
 43
0.0000000001
 40
0.0
 40
0.0
 40
0.0
 40
0.0
 40
0.0057628558003124
 40
0.0057628558003124
 40
1.0
 40
1.0
 40
1.0
 40
1.0
 10
1.999965583824072
 20
-9.04995805992311
 30
0.0
 10
1.999965583824072
 20
-9.049127449982205
 30
0.0
 10
1.999966618693378
 20
-9.048296780541714
 30
0.0
 10
2.00032584743206
 20
-8.904144813022107
 30
0.0
 10
2.031499075775258
 20
-8.755852698279133
 30
0.0
 10
2.099458836176322
 20
-8.615116022530247
 30
0.0
  0
SPLINE
  5
133
330
1F
100
AcDbEntity
  8
Sichtbar_(ISO)
  6
Continuous
 62
     7
100
AcDbSpline
210
0.0
220
0.0
230
1.0
 70
     8
 71
     3
 72
    10
 73
     6
 74
     0
 42
0.000000001
 43
0.0000000001
 40
0.0
 40
0.0
 40
0.0
 40
0.0
 40
0.9942371442047976
 40
0.9942371442047976
 40
1.0
 40
1.0
 40
1.0
 40
1.0
 10
2.099458836176322
 20
8.61519990268405
 30
0.0
 10
2.031499075771248
 20
8.755936578441242
 30
0.0
 10
2.000325847431922
 20
8.904228693233302
 30
0.0
 10
1.999966618693382
 20
9.048380660694423
 30
0.0
 10
1.999965583824072
 20
9.04921133013709
 30
0.0
 10
1.999965583824072
 20
9.050041940076932
 30
0.0
  0
LINE
  5
134
330
1F
100
AcDbEntity
  8
Sichtbar_(ISO)
  6
Continuous
 62
     7
100
AcDbLine
 10
1.9999655838
 20
-9.0499580599
 30
0.0
 11
1.9999655838
 21
-21.7999580599
 31
0.0
  0
LINE
  5
135
330
1F
100
AcDbEntity
  8
Sichtbar_(ISO)
  6
Continuous
 62
     7
100
AcDbLine
 10
1.9999655838
 20
21.8000419401
 30
0.0
 11
1.9999655838
 21
9.0500419401
 31
0.0
  0
LINE
  5
136
330
1F
100
AcDbEntity
  8
Sichtbar_(ISO)
  6
Continuous
 62
     7
100
AcDbLine
 10
21.9999655838
 20
-21.7999580599
 30
0.0
 11
21.9999655838
 21
21.8000419401
 31
0.0
  0
ARC
  5
137
330
1F
100
AcDbEntity
  8
Sichtbar_(ISO)
  6
Continuous
 62
     7
100
AcDbCircle
 10
3.1999655838
 20
-21.7999580599
 30
0.0
 40
1.199999999999999
100
AcDbArc
 50
180.0
 51
270.0
  0
ARC
  5
138
330
1F
100
AcDbEntity
  8
Sichtbar_(ISO)
  6
Continuous
 62
     7
100
AcDbCircle
 10
3.1999655838
 20
21.8000419401
 30
0.0
 40
1.199999999999999
100
AcDbArc
 50
90.0
 51
180.0
  0
ARC
  5
139
330
1F
100
AcDbEntity
  8
Sichtbar_(ISO)
  6
Continuous
 62
     7
100
AcDbCircle
 10
20.7999655838
 20
21.8000419401
 30
0.0
 40
1.199999999999999
100
AcDbArc
 50
0.0
 51
90.0
  0
ARC
  5
13A
330
1F
100
AcDbEntity
  8
Sichtbar_(ISO)
  6
Continuous
 62
     7
100
AcDbCircle
 10
20.7999655838
 20
-21.7999580599
 30
0.0
 40
1.199999999999999
100
AcDbArc
 50
270.0
 51
0.0
  0
SPLINE
  5
13B
330
1F
100
AcDbEntity
  8
Sichtbar_(ISO)
  6
Continuous
 62
     7
100
AcDbSpline
210
0.0
220
0.0
230
1.0
 70
     8
 71
     3
 72
    18
 73
    14
 74
     0
 42
0.000000001
 43
0.0000000001
 40
0.0
 40
0.0
 40
0.0
 40
0.0
 40
0.053728948855227
 40
0.053728948855227
 40
0.299426102366551
 40
0.299426102366551
 40
0.4566306815395763
 40
0.4566306815395763
 40
0.6131572309282884
 40
0.6131572309282884
 40
0.7959784077844657
 40
0.7959784077844657
 40
1.0
 40
1.0
 40
1.0
 40
1.0
 10
2.999965583824072
 20
8.755131243109744
 30
0.0
 10
2.982241876898285
 20
8.75283651307
 30
0.0
 10
2.964571688240926
 20
8.751366343385051
 30
0.0
 10
2.866494602975769
 20
8.747224438394781
 30
0.0
 10
2.785560395565398
 20
8.759315880969744
 30
0.0
 10
2.646007364871025
 20
8.79079354513579
 30
0.0
 10
2.593827486772287
 20
8.80474926609669
 30
0.0
 10
2.494488154130754
 20
8.82525687977578
 30
0.0
 10
2.446173253048606
 20
8.83202899403591
 30
0.0
 10
2.344883958127921
 20
8.82765420145488
 30
0.0
 10
2.291164047614413
 20
8.813326894340761
 30
0.0
 10
2.181460348788535
 20
8.739831514702242
 30
0.0
 10
2.13497614311696
 20
8.681473718884531
 30
0.0
 10
2.099458836156427
 20
8.615199902774801
 30
0.0
  0
SPLINE
  5
13C
330
1F
100
AcDbEntity
  8
Sichtbar_(ISO)
  6
Continuous
 62
     7
100
AcDbSpline
210
0.0
220
0.0
230
1.0
 70
     8
 71
     3
 72
     8
 73
     4
 74
     0
 42
0.000000001
 43
0.0000000001
 40
0.0
 40
0.0
 40
0.0
 40
0.0
 40
1.0
 40
1.0
 40
1.0
 40
1.0
 10
3.199965583824073
 20
8.767986482817662
 30
0.0
 10
3.136485185903717
 20
8.767986482817662
 30
0.0
 10
3.067916769069625
 20
8.76392904295328
 30
0.0
 10
2.999965583824072
 20
8.755131243109744
 30
0.0
  0
LINE
  5
13D
330
1F
100
AcDbEntity
  8
Sichtbar_(ISO)
  6
Continuous
 62
     7
100
AcDbLine
 10
3.1999655838
 20
8.7679864828
 30
0.0
 11
9.5700246243
 21
8.7679864828
 31
0.0
  0
LINE
  5
13E
330
1F
100
AcDbEntity
  8
Sichtbar_(ISO)
  6
Continuous
 62
     7
100
AcDbLine
 10
9.5700246243
 20
8.0500419401
 30
0.0
 11
2.9999655838
 21
8.0500419401
 31
0.0
  0
SPLINE
  5
13F
330
1F
100
AcDbEntity
  8
Sichtbar_(ISO)
  6
Continuous
 62
     7
100
AcDbSpline
210
0.0
220
0.0
230
1.0
 70
     8
 71
     3
 72
    11
 73
     7
 74
     0
 42
0.000000001
 43
0.0000000001
 40
0.0
 40
0.0
 40
0.0
 40
0.0
 40
0.7185404424398821
 40
0.7185404424398821
 40
0.7185404424398821
 40
1.0
 40
1.0
 40
1.0
 40
1.0
 10
2.999965583824072
 20
8.050041940076902
 30
0.0
 10
2.735661773029788
 20
8.050041940076902
 30
0.0
 10
2.450775260238058
 20
8.17558023367245
 30
0.0
 10
2.273765568444432
 20
8.3625584583389
 30
0.0
 10
2.204429082154371
 20
8.43579971976225
 30
0.0
 10
2.144360406299
 20
8.52221402878756
 30
0.0
 10
2.099458836195727
 20
8.61519990269342
 30
0.0
  0
LINE
  5
140
330
1F
100
AcDbEntity
  8
Sichtbar_(ISO)
  6
Continuous
 62
     7
100
AcDbLine
 10
1.9999655838
 20
0.7374335787
 30
0.0
 11
1.9999655838
 21
6.6500419401
 31
0.0
  0
LINE
  5
141
330
1F
100
AcDbEntity
  8
Sichtbar_(ISO)
  6
Continuous
 62
     7
100
AcDbLine
 10
1.9999655838
 20
-6.6499580599
 30
0.0
 11
1.9999655838
 21
-0.7373496986
 31
0.0
  0
SPLINE
  5
142
330
1F
100
AcDbEntity
  8
Sichtbar_(ISO)
  6
Continuous
 62
     7
100
AcDbSpline
210
0.0
220
0.0
230
1.0
 70
     8
 71
     3
 72
    10
 73
     6
 74
     0
 42
0.000000001
 43
0.0000000001
 40
0.0
 40
0.0
 40
0.0
 40
0.0
 40
0.4994242002760144
 40
0.4994242002760144
 40
1.0
 40
1.0
 40
1.0
 40
1.0
 10
1.99996558382407
 20
-0.737349698567305
 30
0.0
 10
1.999965583824071
 20
-0.5226835467641662
 30
0.0
 10
1.999682958907665
 20
-0.3034796822124841
 30
0.0
 10
1.999682098087219
 20
0.3029058271206524
 30
0.0
 10
1.999965583824071
 20
0.5224421093398824
 30
0.0
 10
1.99996558382407
 20
0.7374335787211102
 30
0.0
  0
LINE
  5
143
330
1F
100
AcDbEntity
  8
Sichtbar_(ISO)
  6
Continuous
 62
     7
100
AcDbLine
 10
2.1999655838
 20
6.6500419401
 30
0.0
 11
2.1999655838
 21
-6.6499580599
 31
0.0
  0
LINE
  5
144
330
1F
100
AcDbEntity
  8
Sichtbar_(ISO)
  6
Continuous
 62
     7
100
AcDbLine
 10
1.9999655838
 20
6.6500419401
 30
0.0
 11
1.9999655838
 21
7.0972555356
 31
0.0
  0
ARC
  5
145
330
1F
100
AcDbEntity
  8
Sichtbar_(ISO)
  6
Continuous
 62
     7
100
AcDbCircle
 10
1.5999655838
 20
6.6500419401
 30
0.0
 40
0.6000000000000076
100
AcDbArc
 50
0.0
 51
48.1896851042
  0
LINE
  5
146
330
1F
100
AcDbEntity
  8
Sichtbar_(ISO)
  6
Continuous
 62
     7
100
AcDbLine
 10
1.9999655838
 20
-7.0971716554
 30
0.0
 11
1.9999655838
 21
-6.6499580599
 31
0.0
  0
ARC
  5
147
330
1F
100
AcDbEntity
  8
Sichtbar_(ISO)
  6
Continuous
 62
     7
100
AcDbCircle
 10
1.5999655838
 20
-6.6499580599
 30
0.0
 40
0.6000000000000075
100
AcDbArc
 50
311.8103148958
 51
0.0
  0
SPLINE
  5
148
330
1F
100
AcDbEntity
  8
Sichtbar_(ISO)
  6
Continuous
 62
     7
100
AcDbSpline
210
0.0
220
0.0
230
1.0
 70
     8
 71
     3
 72
    12
 73
     8
 74
     0
 42
0.000000001
 43
0.0000000001
 40
0.0
 40
0.0
 40
0.0
 40
0.0
 40
0.1160530165499942
 40
0.1160530165499942
 40
0.4815407576531322
 40
0.4815407576531322
 40
1.0
 40
1.0
 40
1.0
 40
1.0
 10
11.71145792475104
 20
-8.013860318792341
 30
0.0
 10
11.70020419156381
 20
-8.027041599012351
 30
0.0
 10
11.69040204178872
 20
-8.041685080940521
 30
0.0
 10
11.65707162349457
 20
-8.098945667338567
 30
0.0
 10
11.63747630178754
 20
-8.156020069442327
 30
0.0
 10
11.60890489442031
 20
-8.274237881923382
 30
0.0
 10
11.59996558382407
 20
-8.359371030322754
 30
0.0
 10
11.59996558382407
 20
-8.430705357760946
 30
0.0
  0
SPLINE
  5
149
330
1F
100
AcDbEntity
  8
Sichtbar_(ISO)
  6
Continuous
 62
     7
100
AcDbSpline
210
0.0
220
0.0
230
1.0
 70
    28
 71
     2
 72
     6
 73
     3
 74
     0
 42
0.000000001
 43
0.0000000001
 40
0.0
 40
0.0
 40
0.0
 40
1.0
 40
1.0
 40
1.0
 10
11.59996558382407
 20
-8.914585826851088
 30
0.0
 41
1.000000026602694
 10
11.54075680916635
 20
-8.812033220889822
 30
0.0
 41
1.00000074652714
 10
11.48039308459328
 20
-8.707480182995162
 30
0.0
 41
1.000001110323305
  0
LINE
  5
14A
330
1F
100
AcDbEntity
  8
Sichtbar_(ISO)
  6
Continuous
 62
     7
100
AcDbLine
 10
11.5999655838
 20
-8.4307053578
 30
0.0
 11
11.5999655838
 21
-8.5068641364
 31
0.0
  0
LINE
  5
14B
330
1F
100
AcDbEntity
  8
Sichtbar_(ISO)
  6
Continuous
 62
     7
100
AcDbLine
 10
11.5999655838
 20
-8.5081972681
 30
0.0
 11
11.5999655838
 21
-8.9145858269
 31
0.0
  0
ARC
  5
14C
330
1F
100
AcDbEntity
  8
Sichtbar_(ISO)
  6
Continuous
 62
     7
100
AcDbCircle
 10
10.9499655838
 20
0.0000419401
 30
0.0
 40
8.05
100
AcDbArc
 50
271.0676850118
 51
275.4280285718
  0
ELLIPSE
  5
14D
330
1F
100
AcDbEntity
  8
Sichtbar_(ISO)
  6
Continuous
 62
     7
100
AcDbEllipse
 10
12.6671329687
 20
-7.0174566652
 30
0.0
 11
0.0
 21
2.121320343559642
 31
0.0
210
0.0
220
0.0
230
1.0
 40
0.7071067812
 41
-3.934027801488572
 42
-3.933144851224633
  0
LINE
  5
14E
330
1F
100
AcDbEntity
  8
Sichtbar_(ISO)
  6
Continuous
 62
     7
100
AcDbLine
 10
11.5999655838
 20
-8.5068641364
 30
0.0
 11
11.5990352708
 21
-8.5068641364
 31
0.0
  0
LINE
  5
14F
330
1F
100
AcDbEntity
  8
Sichtbar_(ISO)
  6
Continuous
 62
     7
100
AcDbLine
 10
11.109817833
 20
-8.0656250192
 30
0.0
 11
11.0999655838
 21
-8.0485604231
 31
0.0
  0
LINE
  5
150
330
1F
100
AcDbEntity
  8
Sichtbar_(ISO)
  6
Continuous
 62
     7
100
AcDbLine
 10
11.472217313
 20
-8.6933193312
 30
0.0
 11
11.109817833
 21
-8.0656250192
 31
0.0
  0
LINE
  5
151
330
1F
100
AcDbEntity
  8
Sichtbar_(ISO)
  6
Continuous
 62
     7
100
AcDbLine
 10
11.4803930846
 20
-8.707480183
 30
0.0
 11
11.472217313
 21
-8.6933193312
 31
0.0
  0
SPLINE
  5
152
330
1F
100
AcDbEntity
  8
Sichtbar_(ISO)
  6
Continuous
 62
     7
100
AcDbSpline
210
0.0
220
0.0
230
1.0
 70
    12
 71
     3
 72
    15
 73
    11
 74
     0
 42
0.000000001
 43
0.0000000001
 40
0.0
 40
0.0
 40
0.0
 40
0.0
 40
0.2745256879925837
 40
0.2745256879925837
 40
0.4999999999999979
 40
0.4999999999999979
 40
0.4999999999999979
 40
0.7254743120074135
 40
0.7254743120074135
 40
1.0
 40
1.0
 40
1.0
 40
1.0
 10
18.27470105938057
 20
3.339315845153286
 30
0.0
 41
1.0
 10
18.54068565219471
 20
2.755875600860836
 30
0.0
 41
1.0
 10
18.73615127671122
 20
2.139538312134236
 30
0.0
 41
1.0
 10
18.95336569925323
 20
1.008836918417562
 30
0.0
 41
1.0
 10
18.99996558382407
 20
0.4966974637991819
 30
0.0
 41
1.0
 10
18.99996558382407
 20
0.0000419400769029
 30
0.0
 41
1.0
 10
18.99996558382407
 20
-0.4966135836453742
 30
0.0
 41
1.0
 10
18.95336569925323
 20
-1.008753038263758
 30
0.0
 41
1.0
 10
18.73615127671122
 20
-2.139454431980431
 30
0.0
 41
1.0
 10
18.54068565219471
 20
-2.75579172070703
 30
0.0
 41
1.0
 10
18.27470105938057
 20
-3.339231964999484
 30
0.0
 41
1.0
  0
SPLINE
  5
153
330
1F
100
AcDbEntity
  8
Sichtbar_(ISO)
  6
Continuous
 62
     7
100
AcDbSpline
210
0.0
220
0.0
230
1.0
 70
    12
 71
     3
 72
    19
 73
    15
 74
     0
 42
0.000000001
 43
0.0000000001
 40
0.0
 40
0.0
 40
0.0
 40
0.0
 40
0.1275185994278742
 40
0.1275185994278742
 40
0.3567379228568761
 40
0.3567379228568761
 40
0.5000000000000012
 40
0.5000000000000012
 40
0.5000000000000012
 40
0.6432620771431256
 40
0.6432620771431256
 40
0.872481400572125
 40
0.872481400572125
 40
1.0
 40
1.0
 40
1.0
 40
1.0
 10
17.62990654333036
 20
-5.485299580374407
 30
0.0
 41
1.0
 10
17.94905441221768
 20
-5.099540563132642
 30
0.0
 41
1.0
 10
18.23443137336768
 20
-4.686096296493312
 30
0.0
 41
1.0
 10
18.9334189617862
 20
-3.450856022209217
 30
0.0
 41
1.0
 10
19.25958996748478
 20
-2.569938227452823
 30
0.0
 41
1.0
 10
19.54707230725862
 20
-1.112981044989731
 30
0.0
 41
1.0
 10
19.59996558382408
 20
-0.5479262079074942
 30
0.0
 41
1.0
 10
19.59996558382408
 20
0.0000419400769043
 30
0.0
 41
1.0
 10
19.59996558382408
 20
0.5480100880613046
 30
0.0
 41
1.0
 10
19.54707230725863
 20
1.113064925143537
 30
0.0
 41
1.0
 10
19.25958996748478
 20
2.570022107606631
 30
0.0
 41
1.0
 10
18.9334189617862
 20
3.450939902363023
 30
0.0
 41
1.0
 10
18.2344313733677
 20
4.686180176647122
 30
0.0
 41
1.0
 10
17.94905441221769
 20
5.099624443286443
 30
0.0
 41
1.0
 10
17.62990654333036
 20
5.485383460528217
 30
0.0
 41
1.0
  0
ARC
  5
155
330
1F
100
AcDbEntity
  8
Sichtbar_schmal_(ISO)
  6
Continuous
 62
     7
100
AcDbCircle
 10
32.4958042781
 20
0.0000419401
 30
0.0
 40
3.041499999999997
100
AcDbArc
 50
190.0
 51
100.0
  0
LINE
  5
156
330
1F
100
AcDbEntity
  8
Verdeckt_(ISO)
  6
HIDDEN2
 62
     7
100
AcDbLine
 10
-41.4000344162
 20
-6.0469580599
 30
0.0
 11
-25.0500344162
 21
-6.0469580599
 31
0.0
  0
LINE
  5
157
330
1F
100
AcDbEntity
  8
Verdeckt_(ISO)
  6
HIDDEN2
 62
     7
100
AcDbLine
 10
-25.0500344162
 20
6.0470419401
 30
0.0
 11
-41.4000344162
 21
6.0470419401
 31
0.0
  0
LINE
  5
158
330
1F
100
AcDbEntity
  8
Verdeckt_(ISO)
  6
HIDDEN2
 62
     7
100
AcDbLine
 10
-25.0500344162
 20
-6.0469580599
 30
0.0
 11
-25.0500344162
 21
6.0470419401
 31
0.0
  0
LINE
  5
15A
330
1F
100
AcDbEntity
  8
Skizziergeometrie_(ISO)
  6
Continuous
 62
     7
100
AcDbLine
 10
-0.0000344162
 20
15.9250419401
 30
0.0
 11
-0.0000344162
 21
15.8250419401
 31
0.0
  0
CIRCLE
  5
15C
330
1F
100
AcDbEntity
  8
_Konvertierung
  6
Continuous
 62
     7
100
AcDbCircle
 10
-0.0000344162
 20
15.9250419401
 30
0.0
 40
0.01
  0
CIRCLE
  5
15D
330
1F
100
AcDbEntity
  8
_Konvertierung
  6
Continuous
 62
     7
100
AcDbCircle
 10
-48.4000344162
 20
7.951898736
 30
0.0
 40
0.01
  0
LINE
  5
160
330
1F
100
AcDbEntity
  8
Mittellinie_(ISO)
  6
CENTER2
 62
     7
100
AcDbLine
 10
52.0894536214
 20
0.0000419401
 30
0.0
 11
-50.7247250046
 21
0.0000419401
 31
0.0
  0
LINE
  5
162
330
1F
100
AcDbEntity
  8
Mittelpunktmarkierung_(ISO)
  6
CENTER2
 62
     7
100
AcDbLine
 10
37.4958042781
 20
0.0000419401
 30
0.0
 11
27.4958042781
 21
0.0000419401
 31
0.0
  0
LINE
  5
163
330
1F
100
AcDbEntity
  8
Mittelpunktmarkierung_(ISO)
  6
CENTER2
 62
     7
100
AcDbLine
 10
32.4958042781
 20
5.0000419401
 30
0.0
 11
32.4958042781
 21
-4.9999580599
 31
0.0
  0
LINE
  5
164
330
1F
100
AcDbEntity
  8
Mittellinie_(ISO)
  6
CENTER2
 62
     7
100
AcDbLine
 10
13.5999655838
 20
20.1662632109
 30
0.0
 11
13.5999655838
 21
-19.6745997836
 31
0.0
  0
CIRCLE
  5
165
330
1F
100
AcDbEntity
  8
_Konvertierung
  6
Continuous
 62
     7
100
AcDbCircle
 10
3.1999655838
 20
23.0000419401
 30
0.0
 40
0.01
  0
CIRCLE
  5
166
330
1F
100
AcDbEntity
  8
_Konvertierung
  6
Continuous
 62
     7
100
AcDbCircle
 10
3.1999655838
 20
-22.9999580599
 30
0.0
 40
0.01
  0
CIRCLE
  5
167
330
1F
100
AcDbEntity
  8
_Konvertierung
  6
Continuous
 62
     7
100
AcDbCircle
 10
-0.0000344162
 20
15.9250419401
 30
0.0
 40
0.01
  0
CIRCLE
  5
168
330
1F
100
AcDbEntity
  8
_Konvertierung
  6
Continuous
 62
     7
100
AcDbCircle
 10
21.9999655838
 20
21.8000419401
 30
0.0
 40
0.01
  0
CIRCLE
  5
169
330
1F
100
AcDbEntity
  8
_Konvertierung
  6
Continuous
 62
     7
100
AcDbCircle
 10
-0.0000344162
 20
15.9250419401
 30
0.0
 40
0.01
  0
CIRCLE
  5
16A
330
1F
100
AcDbEntity
  8
_Konvertierung
  6
Continuous
 62
     7
100
AcDbCircle
 10
49.9958042781
 20
6.9958806343
 30
0.0
 40
0.01
  0
CIRCLE
  5
16B
330
1F
100
AcDbEntity
  8
_Konvertierung
  6
Continuous
 62
     7
100
AcDbCircle
 10
38.834041656
 20
12.2500419401
 30
0.0
 40
0.01
  0
CIRCLE
  5
16C
330
1F
100
AcDbEntity
  8
_Konvertierung
  6
Continuous
 62
     7
100
AcDbCircle
 10
38.834041656
 20
-12.2499580599
 30
0.0
 40
0.01
  0
CIRCLE
  5
16D
330
1F
100
AcDbEntity
  8
_Konvertierung
  6
Continuous
 62
     7
100
AcDbCircle
 10
48.9999655838
 20
3.0000419401
 30
0.0
 40
0.01
  0
CIRCLE
  5
16E
330
1F
100
AcDbEntity
  8
_Konvertierung
  6
Continuous
 62
     7
100
AcDbCircle
 10
48.9999655838
 20
-2.9999580599
 30
0.0
 40
0.01
  0
MTEXT
  5
170
330
1F
100
AcDbEntity
  8
6
100
AcDbMText
 10
-42.8064556873
 20
-34.6114601405
 30
0.0
 40
4.57
 41
76.2241609434
 46
7.6741609434
 71
     7
 72
     1
  1
{\fsimplex|b0||i0||c0|p34;\C7;\H4.57;\W0.94;BT 30 JD ISO 7388-2}
 73
     1
 44
1.0
1001
ACAD
1000
ACAD_MTEXT_DEFINED_HEIGHT_BEGIN
1070
    46
1040
7.6741609434
1000
ACAD_MTEXT_DEFINED_HEIGHT_END
  0
MTEXT
  5
171
330
1F
100
AcDbEntity
  8
6
100
AcDbMText
 10
-43.0497403314
 20
-54.2932025757
 30
0.0
 40
4.57
 41
43.2856703774
 46
7.6741609434
 71
     7
 72
     1
  1
{\fsimplex|b0||i0||c0|p34;\C7;\H4.57;\W0.94;BT 30-6-50}
 73
     1
 44
1.0
1001
ACAD
1000
ACAD_MTEXT_DEFINED_HEIGHT_BEGIN
1070
    46
1040
7.6741609434
1000
ACAD_MTEXT_DEFINED_HEIGHT_END
  0
DIMENSION
  5
184
330
1F
100
AcDbEntity
  8
Bemaßung_(ISO)
  6
Continuous
 62
     7
100
AcDbDimension
  2
DMBLK7
 10
-48.4000344162
 20
31.9250427
 30
0.0
 11
-24.200034285
 21
31.9250427
 31
0.0
 70
   160
  1
\A1;<>
 71
     5
 42
-1.0
 73
     0
 74
     0
 75
     0
  3
Standard_(DIN)
100
AcDbAlignedDimension
 13
-0.0000344162
 23
15.9250419401
 33
0.0
 14
-48.4000344162
 24
7.951898736
 34
0.0
100
AcDbRotatedDimension
  0
DIMENSION
  5
18E
330
1F
100
AcDbEntity
  8
Bemaßung_(ISO)
  6
Continuous
 62
     7
100
AcDbDimension
  2
DMBLK8
 10
-62.4981812362
 20
23.0000419401
 30
0.0
 11
-62.4981812362
 21
0.0000418954
 31
0.0
 70
   161
  1
\A1;n <>
 71
     5
 42
-1.0
 73
     0
 74
     0
 75
     0
  3
Standard_(DIN)
100
AcDbAlignedDimension
 13
3.1999655838
 23
23.0000419401
 33
0.0
 14
3.1999655838
 24
-22.9999580599
 34
0.0
1001
ACAD
1000
DSTYLE
1002
{
1070
   144
1041
1.0
1070
   271
1070
     0
1070
     0
1002
}
  0
DIMENSION
  5
199
330
1F
100
AcDbEntity
  8
Bemaßung_(ISO)
  6
Continuous
 62
     7
100
AcDbDimension
  2
DMBLK9
 10
21.9999655838
 20
31.9250427
 30
0.0
 11
10.9999655242
 21
31.9250427
 31
0.0
 70
   160
  1
\A1;<>
 71
     5
 42
-1.0
 73
     0
 74
     0
 75
     0
  3
Standard_(DIN)
100
AcDbAlignedDimension
 13
-0.0000344162
 23
15.9250419401
 33
0.0
 14
21.9999655838
 24
21.8000419401
 34
0.0
100
AcDbRotatedDimension
1001
ACAD
1000
DSTYLE
1002
{
1070
   144
1041
1.0
1070
   271
1070
     0
1070
     0
1002
}
  0
DIMENSION
  5
1A3
330
1F
100
AcDbEntity
  8
Bemaßung_(ISO)
  6
Continuous
 62
     7
100
AcDbDimension
  2
DMBLK10
 10
49.9958042781
 20
40.949364733
 30
0.0
 11
24.9978853817
 21
40.949364733
 31
0.0
 70
   160
  1
\A1;<>
 71
     5
 42
-1.0
 73
     0
 74
     0
 75
     0
  3
Standard_(DIN)
100
AcDbAlignedDimension
 13
-0.0000344162
 23
15.9250419401
 33
0.0
 14
49.9958042781
 24
6.9958806343
 34
0.0
100
AcDbRotatedDimension
1001
ACAD
1000
DSTYLE
1002
{
1070
   144
1041
1.0
1070
   271
1070
     0
1070
     0
1002
}
  0
DIMENSION
  5
1AD
330
1F
100
AcDbEntity
  8
Bemaßung_(ISO)
  6
Continuous
 62
     7
100
AcDbDimension
  2
DMBLK11
 10
69.1544476161
 20
12.2500419401
 30
0.0
 11
69.1544476161
 21
0.0000422605
 31
0.0
 70
   161
  1
\A1;n <>
 71
     5
 42
-1.0
 73
     0
 74
     0
 75
     0
  3
Standard_(DIN)
100
AcDbAlignedDimension
 13
38.834041656
 23
12.2500419401
 33
0.0
 14
38.834041656
 24
-12.2499580599
 34
0.0
1001
ACAD
1000
DSTYLE
1002
{
1070
   144
1041
1.0
1070
     0
1002
}
  0
DIMENSION
  5
1B8
330
1F
100
AcDbEntity
  8
Bemaßung_(ISO)
  6
Continuous
 62
     7
100
AcDbDimension
  2
DMBLK12
 10
56.0203761998
 20
3.0000419401
 30
0.0
 11
56.0203761998
 21
-17.706863112
 31
0.0
 70
   161
  1
\A1;n <>
 71
     5
 42
-1.0
 73
     0
 74
     0
 75
     0
  3
Standard_(DIN)
100
AcDbAlignedDimension
 13
48.9999655838
 23
3.0000419401
 33
0.0
 14
48.9999655838
 24
-2.9999580599
 34
0.0
1001
ACAD
1000
DSTYLE
1002
{
1070
   144
1041
1.0
1070
   172
1070
     1
1070
   271
1070
     0
1070
     0
1002
}
  0
ENDSEC
  0
SECTION
  2
OBJECTS
  0
DICTIONARY
  5
C
330
0
100
AcDbDictionary
281
     1
  3
ACAD_DETAILVIEWSTYLE
350
1FE
  3
ACAD_GROUP
350
D
  3
ACAD_LAYOUT
350
1A
  3
ACAD_MATERIAL
350
43
  3
ACAD_MLEADERSTYLE
350
6B
  3
ACAD_MLINESTYLE
350
17
  3
ACAD_PLOTSETTINGS
350
19
  3
ACAD_PLOTSTYLENAME
350
E
  3
ACAD_SCALELIST
350
47
  3
ACAD_SECTIONVIEWSTYLE
350
1FF
  3
ACAD_TABLESTYLE
350
69
  3
ACAD_VISUALSTYLE
350
2A
  3
ACDB_RECOMPOSE_DATA
350
1FB
  3
AcDbVariableDictionary
350
1C3
  0
SUN
  5
6D
330
29
100
AcDbSun
 90
        1
290
     0
 63
     7
421
 16777215
 40
1.0
291
     1
 91
  2455826
 92
 54000000
292
     0
 70
     2
 71
   256
280
     1
  0
DICTIONARY
  5
1FE
102
{ACAD_REACTORS
330
C
102
}
330
C
100
AcDbDictionary
281
     1
  0
DICTIONARY
  5
D
102
{ACAD_REACTORS
330
C
102
}
330
C
100
AcDbDictionary
281
     1
  0
DICTIONARY
  5
1A
102
{ACAD_REACTORS
330
C
102
}
330
C
100
AcDbDictionary
281
     1
  3
Layout1
350
1E
  3
Model
350
22
  0
DICTIONARY
  5
43
102
{ACAD_REACTORS
330
C
102
}
330
C
100
AcDbDictionary
281
     1
  3
ByBlock
350
45
  3
ByLayer
350
44
  3
Global
350
46
  0
DICTIONARY
  5
6B
102
{ACAD_REACTORS
330
C
102
}
330
C
100
AcDbDictionary
281
     1
  3
Standard
350
6C
  0
DICTIONARY
  5
17
102
{ACAD_REACTORS
330
C
102
}
330
C
100
AcDbDictionary
281
     1
  3
Standard
350
18
  0
DICTIONARY
  5
19
102
{ACAD_REACTORS
330
C
102
}
330
C
100
AcDbDictionary
281
     1
  0
ACDBDICTIONARYWDFLT
  5
E
102
{ACAD_REACTORS
330
C
102
}
330
C
100
AcDbDictionary
281
     1
  3
Normal
350
F
100
AcDbDictionaryWithDefault
340
F
  0
DICTIONARY
  5
47
102
{ACAD_REACTORS
330
C
102
}
330
C
100
AcDbDictionary
281
     1
  3
A0
350
48
  3
A1
350
49
  3
A2
350
4A
  3
A3
350
4B
  3
A4
350
4C
  3
A5
350
4D
  3
A6
350
4E
  3
A7
350
4F
  3
A8
350
50
  3
A9
350
51
  3
B0
350
52
  3
B1
350
53
  3
B2
350
54
  3
B3
350
55
  3
B4
350
56
  3
B5
350
57
  3
B6
350
58
  3
B7
350
59
  3
B8
350
5A
  3
B9
350
5B
  3
C0
350
5C
  3
C1
350
5D
  3
C2
350
5E
  3
C3
350
5F
  3
C4
350
60
  3
C5
350
61
  3
C6
350
62
  3
C7
350
63
  3
C8
350
64
  3
C9
350
65
  3
D0
350
66
  3
D1
350
67
  3
D2
350
68
  0
DICTIONARY
  5
1FF
102
{ACAD_REACTORS
330
C
102
}
330
C
100
AcDbDictionary
281
     1
  0
DICTIONARY
  5
69
102
{ACAD_REACTORS
330
C
102
}
330
C
100
AcDbDictionary
281
     1
  3
Standard
350
6A
  0
DICTIONARY
  5
2A
102
{ACAD_REACTORS
330
C
102
}
330
C
100
AcDbDictionary
281
     1
  3
2dWireframe
350
2F
  3
Basic
350
32
  3
Brighten
350
36
  3
ColorChange
350
3A
  3
Conceptual
350
34
  3
Dim
350
35
  3
EdgeColorOff
350
3D
  3
Facepattern
350
39
  3
Flat
350
2B
  3
FlatWithEdges
350
2C
  3
Gouraud
350
2D
  3
GouraudWithEdges
350
2E
  3
Hidden
350
31
  3
JitterOff
350
3B
  3
Linepattern
350
38
  3
OverhangOff
350
3C
  3
Realistic
350
33
  3
Shaded
350
42
  3
Shaded with edges
350
41
  3
Shades of Gray
350
3E
  3
Sketchy
350
3F
  3
Thicken
350
37
  3
Wireframe
350
30
  3
X-Ray
350
40
  0
XRECORD
  5
1FB
102
{ACAD_REACTORS
330
C
102
}
330
C
100
AcDbXrecord
280
     1
 90
        1
330
6A
  0
DICTIONARY
  5
1C3
102
{ACAD_REACTORS
330
C
102
}
330
C
100
AcDbDictionary
281
     1
  3
CANNOSCALE
350
1C4
  3
CENTEREXE
350
200
  3
CENTERLTYPEFILE
350
201
  3
CMLEADERSTYLE
350
1FD
  3
CTABLESTYLE
350
1FC
  3
XCLIPFRAME
350
1C5
  0
LAYOUT
  5
1E
102
{ACAD_REACTORS
330
1A
102
}
330
1A
100
AcDbPlotSettings
  1

  2
none_device
  4

  6

 40
0.0
 41
0.0
 42
0.0
 43
0.0
 44
0.0
 45
0.0
 46
0.0
 47
0.0
 48
0.0
 49
0.0
140
0.0
141
0.0
142
1.0
143
1.0
 70
   688
 72
     1
 73
     0
 74
     5
  7

 75
    16
 76
     0
 77
     2
 78
   300
147
1.0
148
0.0
149
0.0
100
AcDbLayout
  1
Layout1
 70
     1
 71
     1
 10
0.0
 20
0.0
 11
594.0
 21
420.0
 12
0.0
 22
0.0
 32
0.0
 14
0.0
 24
0.0
 34
0.0
 15
594.0
 25
420.0
 35
0.0
146
0.0
 13
0.0
 23
0.0
 33
0.0
 16
1.0
 26
0.0
 36
0.0
 17
0.0
 27
1.0
 37
0.0
 76
     0
330
1B
  0
LAYOUT
  5
22
102
{ACAD_REACTORS
330
1A
102
}
330
1A
100
AcDbPlotSettings
  1

  2
none_device
  4
Letter_(8.50_x_11.00_Inches)
  6

 40
6.35
 41
6.35
 42
6.35000508
 43
6.35000508
 44
215.9
 45
279.4
 46
0.0
 47
0.0
 48
0.0
 49
0.0
140
0.0
141
0.0
142
1.0
143
1.0
 70
  1712
 72
     1
 73
     0
 74
     0
  7

 75
     0
 76
     0
 77
     2
 78
   300
147
1.0
148
0.0
149
0.0
100
AcDbLayout
  1
Model
 70
     1
 71
     0
 10
0.0
 20
0.0
 11
594.0
 21
420.0
 12
0.0
 22
0.0
 32
0.0
 14
0.0
 24
0.0
 34
0.0
 15
594.0
 25
420.0
 35
0.0
146
0.0
 13
0.0
 23
0.0
 33
0.0
 16
1.0
 26
0.0
 36
0.0
 17
0.0
 27
1.0
 37
0.0
 76
     0
330
1F
331
29
  0
MATERIAL
  5
45
102
{ACAD_REACTORS
330
43
102
}
330
43
100
AcDbMaterial
  1
ByBlock
 72
     1
 94
      127
  0
MATERIAL
  5
44
102
{ACAD_REACTORS
330
43
102
}
330
43
100
AcDbMaterial
  1
ByLayer
 72
     1
 94
      127
  0
MATERIAL
  5
46
102
{ACAD_REACTORS
330
43
102
}
330
43
100
AcDbMaterial
  1
Global
 72
     1
 94
      127
  0
MLEADERSTYLE
  5
6C
102
{ACAD_REACTORS
330
6B
102
}
102
{ACAD_XDICTIONARY
360
1F9
102
}
330
6B
100
AcDbMLeaderStyle
170
     2
171
     1
172
     0
 90
        2
 40
0.0
 41
0.0
173
     1
 91
-1056964608
340
14
 92
       -2
290
     1
 42
2.0
291
     1
 43
8.0
  3
Standard
341
0
 44
4.0
300

342
11
174
     1
178
     6
175
     1
176
     0
 93
-1056964608
 45
4.0
292
     0
297
     0
 46
4.0
343
0
 94
-1056964608
 47
1.0
 49
1.0
140
1.0
293
     1
141
0.0
294
     1
177
     0
142
1.0
295
     0
296
     0
143
3.75
1001
ACAD_MLEADERVER
1070
     2
  0
MLINESTYLE
  5
18
102
{ACAD_REACTORS
330
17
102
}
330
17
100
AcDbMlineStyle
  2
Standard
 70
     0
  3

 62
   256
 51
90.0
 52
90.0
 71
     2
 49
0.5
 62
   256
  6
BYLAYER
 49
-0.5
 62
   256
  6
BYLAYER
  0
ACDBPLACEHOLDER
  5
F
102
{ACAD_REACTORS
330
E
102
}
330
E
  0
SCALE
  5
48
102
{ACAD_REACTORS
330
47
102
}
330
47
100
AcDbScale
 70
     0
300
1:1
140
1.0
141
1.0
290
     1
  0
SCALE
  5
49
102
{ACAD_REACTORS
330
47
102
}
330
47
100
AcDbScale
 70
     0
300
1:2
140
1.0
141
2.0
290
     0
  0
SCALE
  5
4A
102
{ACAD_REACTORS
330
47
102
}
330
47
100
AcDbScale
 70
     0
300
1:4
140
1.0
141
4.0
290
     0
  0
SCALE
  5
4B
102
{ACAD_REACTORS
330
47
102
}
330
47
100
AcDbScale
 70
     0
300
1:5
140
1.0
141
5.0
290
     0
  0
SCALE
  5
4C
102
{ACAD_REACTORS
330
47
102
}
330
47
100
AcDbScale
 70
     0
300
1:8
140
1.0
141
8.0
290
     0
  0
SCALE
  5
4D
102
{ACAD_REACTORS
330
47
102
}
330
47
100
AcDbScale
 70
     0
300
1:10
140
1.0
141
10.0
290
     0
  0
SCALE
  5
4E
102
{ACAD_REACTORS
330
47
102
}
330
47
100
AcDbScale
 70
     0
300
1:16
140
1.0
141
16.0
290
     0
  0
SCALE
  5
4F
102
{ACAD_REACTORS
330
47
102
}
330
47
100
AcDbScale
 70
     0
300
1:20
140
1.0
141
20.0
290
     0
  0
SCALE
  5
50
102
{ACAD_REACTORS
330
47
102
}
330
47
100
AcDbScale
 70
     0
300
1:30
140
1.0
141
30.0
290
     0
  0
SCALE
  5
51
102
{ACAD_REACTORS
330
47
102
}
330
47
100
AcDbScale
 70
     0
300
1:40
140
1.0
141
40.0
290
     0
  0
SCALE
  5
52
102
{ACAD_REACTORS
330
47
102
}
330
47
100
AcDbScale
 70
     0
300
1:50
140
1.0
141
50.0
290
     0
  0
SCALE
  5
53
102
{ACAD_REACTORS
330
47
102
}
330
47
100
AcDbScale
 70
     0
300
1:100
140
1.0
141
100.0
290
     0
  0
SCALE
  5
54
102
{ACAD_REACTORS
330
47
102
}
330
47
100
AcDbScale
 70
     0
300
2:1
140
2.0
141
1.0
290
     0
  0
SCALE
  5
55
102
{ACAD_REACTORS
330
47
102
}
330
47
100
AcDbScale
 70
     0
300
4:1
140
4.0
141
1.0
290
     0
  0
SCALE
  5
56
102
{ACAD_REACTORS
330
47
102
}
330
47
100
AcDbScale
 70
     0
300
8:1
140
8.0
141
1.0
290
     0
  0
SCALE
  5
57
102
{ACAD_REACTORS
330
47
102
}
330
47
100
AcDbScale
 70
     0
300
10:1
140
10.0
141
1.0
290
     0
  0
SCALE
  5
58
102
{ACAD_REACTORS
330
47
102
}
330
47
100
AcDbScale
 70
     0
300
100:1
140
100.0
141
1.0
290
     0
  0
SCALE
  5
59
102
{ACAD_REACTORS
330
47
102
}
330
47
100
AcDbScale
 70
     0
300
1/128" = 1'-0"
140
0.0078125
141
12.0
290
     0
  0
SCALE
  5
5A
102
{ACAD_REACTORS
330
47
102
}
330
47
100
AcDbScale
 70
     0
300
1/64" = 1'-0"
140
0.015625
141
12.0
290
     0
  0
SCALE
  5
5B
102
{ACAD_REACTORS
330
47
102
}
330
47
100
AcDbScale
 70
     0
300
1/32" = 1'-0"
140
0.03125
141
12.0
290
     0
  0
SCALE
  5
5C
102
{ACAD_REACTORS
330
47
102
}
330
47
100
AcDbScale
 70
     0
300
1/16" = 1'-0"
140
0.0625
141
12.0
290
     0
  0
SCALE
  5
5D
102
{ACAD_REACTORS
330
47
102
}
330
47
100
AcDbScale
 70
     0
300
3/32" = 1'-0"
140
0.09375
141
12.0
290
     0
  0
SCALE
  5
5E
102
{ACAD_REACTORS
330
47
102
}
330
47
100
AcDbScale
 70
     0
300
1/8" = 1'-0"
140
0.125
141
12.0
290
     0
  0
SCALE
  5
5F
102
{ACAD_REACTORS
330
47
102
}
330
47
100
AcDbScale
 70
     0
300
3/16" = 1'-0"
140
0.1875
141
12.0
290
     0
  0
SCALE
  5
60
102
{ACAD_REACTORS
330
47
102
}
330
47
100
AcDbScale
 70
     0
300
1/4" = 1'-0"
140
0.25
141
12.0
290
     0
  0
SCALE
  5
61
102
{ACAD_REACTORS
330
47
102
}
330
47
100
AcDbScale
 70
     0
300
3/8" = 1'-0"
140
0.375
141
12.0
290
     0
  0
SCALE
  5
62
102
{ACAD_REACTORS
330
47
102
}
330
47
100
AcDbScale
 70
     0
300
1/2" = 1'-0"
140
0.5
141
12.0
290
     0
  0
SCALE
  5
63
102
{ACAD_REACTORS
330
47
102
}
330
47
100
AcDbScale
 70
     0
300
3/4" = 1'-0"
140
0.75
141
12.0
290
     0
  0
SCALE
  5
64
102
{ACAD_REACTORS
330
47
102
}
330
47
100
AcDbScale
 70
     0
300
1" = 1'-0"
140
1.0
141
12.0
290
     0
  0
SCALE
  5
65
102
{ACAD_REACTORS
330
47
102
}
330
47
100
AcDbScale
 70
     0
300
1-1/2" = 1'-0"
140
1.5
141
12.0
290
     0
  0
SCALE
  5
66
102
{ACAD_REACTORS
330
47
102
}
330
47
100
AcDbScale
 70
     0
300
3" = 1'-0"
140
3.0
141
12.0
290
     0
  0
SCALE
  5
67
102
{ACAD_REACTORS
330
47
102
}
330
47
100
AcDbScale
 70
     0
300
6" = 1'-0"
140
6.0
141
12.0
290
     0
  0
SCALE
  5
68
102
{ACAD_REACTORS
330
47
102
}
330
47
100
AcDbScale
 70
     0
300
1'-0" = 1'-0"
140
12.0
141
12.0
290
     0
  0
TABLESTYLE
  5
6A
102
{ACAD_REACTORS
330
69
102
}
102
{ACAD_XDICTIONARY
360
1F6
102
}
330
69
100
AcDbTableStyle
  3
Standard
 70
     0
 71
     0
 40
0.06
 41
0.06
280
     0
281
     0
  7
Standard
140
4.5
170
     2
 62
     0
 63
   257
283
     0
 90
        4
 91
        0
  1

274
    -2
284
     1
 64
     0
275
    -2
285
     1
 65
     0
276
    -2
286
     1
 66
     0
277
    -2
287
     1
 67
     0
278
    -2
288
     1
 68
     0
279
    -2
289
     1
 69
     0
  7
Standard
140
6.0
170
     5
 62
     0
 63
   257
283
     0
 90
        4
 91
        0
  1

274
    -2
284
     1
 64
     0
275
    -2
285
     1
 65
     0
276
    -2
286
     1
 66
     0
277
    -2
287
     1
 67
     0
278
    -2
288
     1
 68
     0
279
    -2
289
     1
 69
     0
  7
Standard
140
4.5
170
     5
 62
     0
 63
   257
283
     0
 90
        4
 91
        0
  1

274
    -2
284
     1
 64
     0
275
    -2
285
     1
 65
     0
276
    -2
286
     1
 66
     0
277
    -2
287
     1
 67
     0
278
    -2
288
     1
 68
     0
279
    -2
289
     1
 69
     0
  0
VISUALSTYLE
  5
2F
102
{ACAD_REACTORS
330
2A
102
}
102
{ACAD_XDICTIONARY
360
1CE
102
}
330
2A
100
AcDbVisualStyle
  2
2dWireframe
 70
     4
 71
     0
 72
     2
 73
     0
 90
        0
 40
0.6
 41
30.0
 62
     5
 63
     7
421
 16777215
 74
     1
 91
        4
 64
     7
 65
   257
 75
     1
175
     1
 42
1.0
 92
        0
 66
   257
 43
1.0
 76
     1
 77
     6
 78
     2
 67
     7
 79
     5
170
     0
171
     0
290
     0
174
     0
 93
        1
 44
0.0
173
     0
291
     0
 45
0.0
  0
VISUALSTYLE
  5
32
102
{ACAD_REACTORS
330
2A
102
}
102
{ACAD_XDICTIONARY
360
1D4
102
}
330
2A
100
AcDbVisualStyle
  2
Basic
 70
     7
 71
     1
 72
     0
 73
     1
 90
        0
 40
0.6
 41
30.0
 62
     5
 63
     7
421
 16777215
 74
     0
 91
        4
 64
     7
 65
   257
 75
     1
175
     1
 42
1.0
 92
        8
 66
     7
 43
1.0
 76
     1
 77
     6
 78
     2
 67
     7
 79
     5
170
     0
171
     0
290
     0
174
     0
 93
        1
 44
0.0
173
     0
291
     1
 45
0.0
  0
VISUALSTYLE
  5
36
102
{ACAD_REACTORS
330
2A
102
}
102
{ACAD_XDICTIONARY
360
1DC
102
}
330
2A
100
AcDbVisualStyle
  2
Brighten
 70
    12
 71
     2
 72
     2
 73
     0
 90
        0
 40
0.6
 41
30.0
 62
     5
 63
     7
421
 16777215
 74
     1
 91
        4
 64
     7
 65
   257
 75
     1
175
     1
 42
1.0
 92
        8
 66
     7
 43
1.0
 76
     1
 77
     6
 78
     2
 67
     7
 79
     5
170
     0
171
     0
290
     0
174
     0
 93
        1
 44
50.0
173
     0
291
     1
 45
0.0
  0
VISUALSTYLE
  5
3A
102
{ACAD_REACTORS
330
2A
102
}
102
{ACAD_XDICTIONARY
360
1E4
102
}
330
2A
100
AcDbVisualStyle
  2
ColorChange
 70
    16
 71
     2
 72
     2
 73
     3
 90
        0
 40
0.6
 41
30.0
 62
     5
 63
     8
421
  8421504
 74
     1
 91
        4
 64
     7
 65
   257
 75
     1
175
     1
 42
1.0
 92
        8
 66
     8
424
  8421504
 43
1.0
 76
     1
 77
     6
 78
     2
 67
     7
 79
     5
170
     0
171
     0
290
     0
174
     0
 93
        1
 44
0.0
173
     0
291
     1
 45
0.0
  0
VISUALSTYLE
  5
34
102
{ACAD_REACTORS
330
2A
102
}
102
{ACAD_XDICTIONARY
360
1D8
102
}
330
2A
100
AcDbVisualStyle
  2
Conceptual
 70
     9
 71
     3
 72
     2
 73
     0
 90
        0
 40
0.6
 41
30.0
 62
     5
 63
     7
421
 16777215
 74
     2
 91
        2
 64
     7
 65
   257
 75
     1
175
     1
 42
179.0
 92
        8
 66
     7
 43
1.0
 76
     1
 77
     6
 78
     2
 67
     7
 79
     3
170
     0
171
     0
290
     0
174
     0
 93
        1
 44
0.0
173
     0
291
     0
 45
0.0
  0
VISUALSTYLE
  5
35
102
{ACAD_REACTORS
330
2A
102
}
102
{ACAD_XDICTIONARY
360
1DA
102
}
330
2A
100
AcDbVisualStyle
  2
Dim
 70
    11
 71
     2
 72
     2
 73
     0
 90
        0
 40
0.6
 41
30.0
 62
     5
 63
     7
421
 16777215
 74
     1
 91
        4
 64
     7
 65
   257
 75
     1
175
     1
 42
1.0
 92
        8
 66
     7
 43
1.0
 76
     1
 77
     6
 78
     2
 67
     7
 79
     5
170
     0
171
     0
290
     0
174
     0
 93
        1
 44
-50.0
173
     0
291
     1
 45
0.0
  0
VISUALSTYLE
  5
3D
102
{ACAD_REACTORS
330
2A
102
}
102
{ACAD_XDICTIONARY
360
1EA
102
}
330
2A
100
AcDbVisualStyle
  2
EdgeColorOff
 70
    22
 71
     2
 72
     2
 73
     0
 90
        0
 40
0.6
 41
30.0
 62
     5
 63
     7
421
 16777215
 74
     1
 91
        4
 64
     7
 65
   257
 75
     1
175
     1
 42
1.0
 92
        8
 66
     7
 43
1.0
 76
     1
 77
     6
 78
     2
 67
     7
 79
     5
170
     0
171
     0
290
     0
174
     0
 93
        1
 44
0.0
173
     0
291
     1
 45
0.0
  0
VISUALSTYLE
  5
39
102
{ACAD_REACTORS
330
2A
102
}
102
{ACAD_XDICTIONARY
360
1E2
102
}
330
2A
100
AcDbVisualStyle
  2
Facepattern
 70
    15
 71
     2
 72
     2
 73
     0
 90
        0
 40
0.6
 41
30.0
 62
     5
 63
     7
421
 16777215
 74
     1
 91
        4
 64
     7
 65
   257
 75
     1
175
     1
 42
1.0
 92
        8
 66
     7
 43
1.0
 76
     1
 77
     6
 78
     2
 67
     7
 79
     5
170
     0
171
     0
290
     0
174
     0
 93
        1
 44
0.0
173
     0
291
     1
 45
0.0
  0
VISUALSTYLE
  5
2B
102
{ACAD_REACTORS
330
2A
102
}
102
{ACAD_XDICTIONARY
360
1C6
102
}
330
2A
100
AcDbVisualStyle
  2
Flat
 70
     0
 71
     2
 72
     1
 73
     1
 90
        2
 40
0.6
 41
30.0
 62
     5
 63
     7
421
 16777215
 74
     0
 91
        0
 64
     7
 65
   257
 75
     1
175
     1
 42
1.0
 92
        8
 66
     7
 43
1.0
 76
     1
 77
     6
 78
     2
 67
     7
 79
     5
170
     0
171
     0
290
     0
174
     0
 93
       13
 44
0.0
173
     0
291
     1
 45
0.0
  0
VISUALSTYLE
  5
2C
102
{ACAD_REACTORS
330
2A
102
}
102
{ACAD_XDICTIONARY
360
1C8
102
}
330
2A
100
AcDbVisualStyle
  2
FlatWithEdges
 70
     1
 71
     2
 72
     1
 73
     1
 90
        2
 40
0.6
 41
30.0
 62
     5
 63
     7
421
 16777215
 74
     1
 91
        0
 64
     7
 65
   257
 75
     1
175
     1
 42
1.0
 92
        0
 66
   257
 43
1.0
 76
     1
 77
     6
 78
     2
 67
     7
 79
     5
170
     0
171
     0
290
     0
174
     0
 93
       13
 44
0.0
173
     0
291
     1
 45
0.0
  0
VISUALSTYLE
  5
2D
102
{ACAD_REACTORS
330
2A
102
}
102
{ACAD_XDICTIONARY
360
1CA
102
}
330
2A
100
AcDbVisualStyle
  2
Gouraud
 70
     2
 71
     2
 72
     2
 73
     1
 90
        2
 40
0.6
 41
30.0
 62
     5
 63
     7
421
 16777215
 74
     0
 91
        0
 64
     7
 65
   257
 75
     1
175
     1
 42
1.0
 92
        0
 66
     7
 43
1.0
 76
     1
 77
     6
 78
     2
 67
     7
 79
     5
170
     0
171
     0
290
     0
174
     0
 93
       13
 44
0.0
173
     0
291
     1
 45
0.0
  0
VISUALSTYLE
  5
2E
102
{ACAD_REACTORS
330
2A
102
}
102
{ACAD_XDICTIONARY
360
1CC
102
}
330
2A
100
AcDbVisualStyle
  2
GouraudWithEdges
 70
     3
 71
     2
 72
     2
 73
     1
 90
        2
 40
0.6
 41
30.0
 62
     5
 63
     7
421
 16777215
 74
     1
 91
        0
 64
     7
 65
   257
 75
     1
175
     1
 42
1.0
 92
        0
 66
   257
 43
1.0
 76
     1
 77
     6
 78
     2
 67
     7
 79
     5
170
     0
171
     0
290
     0
174
     0
 93
       13
 44
0.0
173
     0
291
     1
 45
0.0
  0
VISUALSTYLE
  5
31
102
{ACAD_REACTORS
330
2A
102
}
102
{ACAD_XDICTIONARY
360
1D2
102
}
330
2A
100
AcDbVisualStyle
  2
Hidden
 70
     6
 71
     1
 72
     2
 73
     2
 90
        0
 40
0.6
 41
30.0
 62
     5
 63
     7
421
 16777215
 74
     2
 91
        2
 64
     7
 65
   257
 75
     2
175
     1
 42
40.0
 92
        0
 66
   257
 43
1.0
 76
     1
 77
     6
 78
     2
 67
     7
 79
     3
170
     0
171
     0
290
     0
174
     0
 93
        1
 44
0.0
173
     0
291
     0
 45
0.0
  0
VISUALSTYLE
  5
3B
102
{ACAD_REACTORS
330
2A
102
}
102
{ACAD_XDICTIONARY
360
1E6
102
}
330
2A
100
AcDbVisualStyle
  2
JitterOff
 70
    20
 71
     2
 72
     2
 73
     0
 90
        0
 40
0.6
 41
30.0
 62
     5
 63
     7
421
 16777215
 74
     1
 91
        4
 64
     7
 65
   257
 75
     1
175
     1
 42
1.0
 92
       10
 66
     7
 43
1.0
 76
     1
 77
     6
 78
     2
 67
     7
 79
     5
170
     0
171
     0
290
     0
174
     0
 93
        1
 44
0.0
173
     0
291
     1
 45
0.0
  0
VISUALSTYLE
  5
38
102
{ACAD_REACTORS
330
2A
102
}
102
{ACAD_XDICTIONARY
360
1E0
102
}
330
2A
100
AcDbVisualStyle
  2
Linepattern
 70
    14
 71
     2
 72
     2
 73
     0
 90
        0
 40
0.6
 41
30.0
 62
     5
 63
     7
421
 16777215
 74
     1
 91
        4
 64
     7
 65
   257
 75
     7
175
     7
 42
1.0
 92
        8
 66
     7
 43
1.0
 76
     1
 77
     6
 78
     2
 67
     7
 79
     5
170
     0
171
     0
290
     0
174
     0
 93
        1
 44
0.0
173
     0
291
     1
 45
0.0
  0
VISUALSTYLE
  5
3C
102
{ACAD_REACTORS
330
2A
102
}
102
{ACAD_XDICTIONARY
360
1E8
102
}
330
2A
100
AcDbVisualStyle
  2
OverhangOff
 70
    21
 71
     2
 72
     2
 73
     0
 90
        0
 40
0.6
 41
30.0
 62
     5
 63
     7
421
 16777215
 74
     1
 91
        4
 64
     7
 65
   257
 75
     1
175
     1
 42
1.0
 92
        9
 66
     7
 43
1.0
 76
     1
 77
     6
 78
     2
 67
     7
 79
     5
170
     0
171
     0
290
     0
174
     0
 93
        1
 44
0.0
173
     0
291
     1
 45
0.0
  0
VISUALSTYLE
  5
33
102
{ACAD_REACTORS
330
2A
102
}
102
{ACAD_XDICTIONARY
360
1D6
102
}
330
2A
100
AcDbVisualStyle
  2
Realistic
 70
     8
 71
     2
 72
     3
 73
     0
 90
        2
 40
0.6
 41
30.0
 62
     5
 63
     7
421
 16777215
 74
     0
 91
        0
 64
     7
 65
   257
 75
     1
175
     1
 42
1.0
 92
        8
 66
   257
 43
1.0
 76
     1
 77
     6
 78
     2
 67
     7
 79
     3
170
     0
171
     0
290
     0
174
     0
 93
       13
 44
0.0
173
     0
291
     0
 45
0.0
  0
VISUALSTYLE
  5
42
102
{ACAD_REACTORS
330
2A
102
}
102
{ACAD_XDICTIONARY
360
1F4
102
}
330
2A
100
AcDbVisualStyle
  2
Shaded
 70
    27
 71
     2
 72
     2
 73
     1
 90
        2
 40
0.6
 41
30.0
 62
     5
 63
     7
421
 16777215
 74
     0
 91
        4
 64
     7
 65
   257
 75
     1
175
     1
 42
1.0
 92
        8
 66
   257
 43
1.0
 76
     1
 77
     6
 78
     2
 67
     8
425
  7895160
 79
     3
170
     0
171
     0
290
     0
174
     0
 93
        5
 44
0.0
173
     0
291
     0
 45
0.0
  0
VISUALSTYLE
  5
41
102
{ACAD_REACTORS
330
2A
102
}
102
{ACAD_XDICTIONARY
360
1F2
102
}
330
2A
100
AcDbVisualStyle
  2
Shaded with edges
 70
    26
 71
     2
 72
     2
 73
     1
 90
        2
 40
0.6
 41
30.0
 62
     5
 63
     7
421
 16777215
 74
     1
 91
       10
 64
     7
 65
   257
 75
     2
175
     1
 42
1.0
 92
        8
 66
   257
 43
1.0
 76
     1
 77
     6
 78
     2
 67
     7
 79
     3
170
     0
171
     0
290
     0
174
     0
 93
        5
 44
0.0
173
     0
291
     0
 45
0.0
  0
VISUALSTYLE
  5
3E
102
{ACAD_REACTORS
330
2A
102
}
102
{ACAD_XDICTIONARY
360
1EC
102
}
330
2A
100
AcDbVisualStyle
  2
Shades of Gray
 70
    23
 71
     2
 72
     2
 73
     3
 90
        0
 40
0.6
 41
30.0
 62
     5
 63
     7
421
 16777215
 74
     2
 91
        2
 64
     7
 65
     7
 75
     1
175
     1
 42
40.0
 92
        8
 66
     7
 43
1.0
 76
     1
 77
     6
 78
     2
 67
     7
 79
     3
170
     0
171
     0
290
     0
174
     0
 93
        1
 44
0.0
173
     0
291
     0
 45
0.0
  0
VISUALSTYLE
  5
3F
102
{ACAD_REACTORS
330
2A
102
}
102
{ACAD_XDICTIONARY
360
1EE
102
}
330
2A
100
AcDbVisualStyle
  2
Sketchy
 70
    24
 71
     1
 72
     2
 73
     2
 90
        0
 40
0.6
 41
30.0
 62
     5
 63
     7
421
 16777215
 74
     2
 91
        2
 64
     7
 65
     7
 75
     1
175
     1
 42
40.0
 92
       11
 66
     7
 43
1.0
 76
     1
 77
     6
 78
     2
 67
     7
 79
     6
170
     0
171
     0
290
     0
174
     0
 93
        1
 44
0.0
173
     0
291
     0
 45
0.0
  0
VISUALSTYLE
  5
37
102
{ACAD_REACTORS
330
2A
102
}
102
{ACAD_XDICTIONARY
360
1DE
102
}
330
2A
100
AcDbVisualStyle
  2
Thicken
 70
    13
 71
     2
 72
     2
 73
     0
 90
        0
 40
0.6
 41
30.0
 62
     5
 63
     7
421
 16777215
 74
     1
 91
        4
 64
     7
 65
   257
 75
     1
175
     1
 42
1.0
 92
       12
 66
     7
 43
1.0
 76
     1
 77
     6
 78
     2
 67
     7
 79
     5
170
     0
171
     0
290
     0
174
     0
 93
        1
 44
0.0
173
     0
291
     1
 45
0.0
  0
VISUALSTYLE
  5
30
102
{ACAD_REACTORS
330
2A
102
}
102
{ACAD_XDICTIONARY
360
1D0
102
}
330
2A
100
AcDbVisualStyle
  2
Wireframe
 70
     5
 71
     0
 72
     2
 73
     0
 90
        0
 40
0.6
 41
30.0
 62
     5
 63
     7
421
 16777215
 74
     1
 91
        4
 64
     7
 65
   257
 75
     1
175
     1
 42
1.0
 92
        0
 66
   257
 43
1.0
 76
     1
 77
     6
 78
     2
 67
     7
 79
     3
170
     0
171
     0
290
     0
174
     0
 93
        1
 44
0.0
173
     0
291
     0
 45
0.0
  0
VISUALSTYLE
  5
40
102
{ACAD_REACTORS
330
2A
102
}
102
{ACAD_XDICTIONARY
360
1F0
102
}
330
2A
100
AcDbVisualStyle
  2
X-Ray
 70
    25
 71
     2
 72
     2
 73
     1
 90
        1
 40
0.5
 41
30.0
 62
     5
 63
     7
421
 16777215
 74
     1
 91
        0
 64
     7
 65
   257
 75
     1
175
     1
 42
1.0
 92
        8
 66
     7
 43
1.0
 76
     1
 77
     6
 78
     2
 67
     7
 79
     3
170
     0
171
     0
290
     0
174
     0
 93
       13
 44
0.0
173
     0
291
     0
 45
0.0
  0
DICTIONARYVAR
  5
1C4
102
{ACAD_REACTORS
330
1C3
102
}
330
1C3
100
DictionaryVariables
280
     0
  1
1:1
  0
DICTIONARYVAR
  5
200
102
{ACAD_REACTORS
330
1C3
102
}
330
1C3
100
DictionaryVariables
280
     0
  1
3.500000
  0
DICTIONARYVAR
  5
201
102
{ACAD_REACTORS
330
1C3
102
}
330
1C3
100
DictionaryVariables
280
     0
  1
acadiso.lin
  0
DICTIONARYVAR
  5
1FD
102
{ACAD_REACTORS
330
1C3
102
}
330
1C3
100
DictionaryVariables
280
     0
  1
Standard
  0
DICTIONARYVAR
  5
1FC
102
{ACAD_REACTORS
330
1C3
102
}
330
1C3
100
DictionaryVariables
280
     0
  1
Standard
  0
DICTIONARYVAR
  5
1C5
102
{ACAD_REACTORS
330
1C3
102
}
330
1C3
100
DictionaryVariables
280
     0
  1
2
  0
DICTIONARY
  5
1F9
330
6C
100
AcDbDictionary
280
     1
281
     1
  3
ACAD_XREC_ROUNDTRIP
360
1FA
  0
DICTIONARY
  5
1F6
330
6A
100
AcDbDictionary
280
     1
281
     1
  3
ACAD_ROUNDTRIP_2008_TABLESTYLE_CELLSTYLEMAP
360
1F7
  0
DICTIONARY
  5
1CE
330
2F
100
AcDbDictionary
280
     1
281
     1
  3
ACAD_XREC_ROUNDTRIP
360
1CF
  0
DICTIONARY
  5
1D4
330
32
100
AcDbDictionary
280
     1
281
     1
  3
ACAD_XREC_ROUNDTRIP
360
1D5
  0
DICTIONARY
  5
1DC
330
36
100
AcDbDictionary
280
     1
281
     1
  3
ACAD_XREC_ROUNDTRIP
360
1DD
  0
DICTIONARY
  5
1E4
330
3A
100
AcDbDictionary
280
     1
281
     1
  3
ACAD_XREC_ROUNDTRIP
360
1E5
  0
DICTIONARY
  5
1D8
330
34
100
AcDbDictionary
280
     1
281
     1
  3
ACAD_XREC_ROUNDTRIP
360
1D9
  0
DICTIONARY
  5
1DA
330
35
100
AcDbDictionary
280
     1
281
     1
  3
ACAD_XREC_ROUNDTRIP
360
1DB
  0
DICTIONARY
  5
1EA
330
3D
100
AcDbDictionary
280
     1
281
     1
  3
ACAD_XREC_ROUNDTRIP
360
1EB
  0
DICTIONARY
  5
1E2
330
39
100
AcDbDictionary
280
     1
281
     1
  3
ACAD_XREC_ROUNDTRIP
360
1E3
  0
DICTIONARY
  5
1C6
330
2B
100
AcDbDictionary
280
     1
281
     1
  3
ACAD_XREC_ROUNDTRIP
360
1C7
  0
DICTIONARY
  5
1C8
330
2C
100
AcDbDictionary
280
     1
281
     1
  3
ACAD_XREC_ROUNDTRIP
360
1C9
  0
DICTIONARY
  5
1CA
330
2D
100
AcDbDictionary
280
     1
281
     1
  3
ACAD_XREC_ROUNDTRIP
360
1CB
  0
DICTIONARY
  5
1CC
330
2E
100
AcDbDictionary
280
     1
281
     1
  3
ACAD_XREC_ROUNDTRIP
360
1CD
  0
DICTIONARY
  5
1D2
330
31
100
AcDbDictionary
280
     1
281
     1
  3
ACAD_XREC_ROUNDTRIP
360
1D3
  0
DICTIONARY
  5
1E6
330
3B
100
AcDbDictionary
280
     1
281
     1
  3
ACAD_XREC_ROUNDTRIP
360
1E7
  0
DICTIONARY
  5
1E0
330
38
100
AcDbDictionary
280
     1
281
     1
  3
ACAD_XREC_ROUNDTRIP
360
1E1
  0
DICTIONARY
  5
1E8
330
3C
100
AcDbDictionary
280
     1
281
     1
  3
ACAD_XREC_ROUNDTRIP
360
1E9
  0
DICTIONARY
  5
1D6
330
33
100
AcDbDictionary
280
     1
281
     1
  3
ACAD_XREC_ROUNDTRIP
360
1D7
  0
DICTIONARY
  5
1F4
330
42
100
AcDbDictionary
280
     1
281
     1
  3
ACAD_XREC_ROUNDTRIP
360
1F5
  0
DICTIONARY
  5
1F2
330
41
100
AcDbDictionary
280
     1
281
     1
  3
ACAD_XREC_ROUNDTRIP
360
1F3
  0
DICTIONARY
  5
1EC
330
3E
100
AcDbDictionary
280
     1
281
     1
  3
ACAD_XREC_ROUNDTRIP
360
1ED
  0
DICTIONARY
  5
1EE
330
3F
100
AcDbDictionary
280
     1
281
     1
  3
ACAD_XREC_ROUNDTRIP
360
1EF
  0
DICTIONARY
  5
1DE
330
37
100
AcDbDictionary
280
     1
281
     1
  3
ACAD_XREC_ROUNDTRIP
360
1DF
  0
DICTIONARY
  5
1D0
330
30
100
AcDbDictionary
280
     1
281
     1
  3
ACAD_XREC_ROUNDTRIP
360
1D1
  0
DICTIONARY
  5
1F0
330
40
100
AcDbDictionary
280
     1
281
     1
  3
ACAD_XREC_ROUNDTRIP
360
1F1
  0
XRECORD
  5
1FA
102
{ACAD_REACTORS
330
1F9
102
}
330
1F9
100
AcDbXrecord
280
     1
102
ACAD_ROUNDTRIP_2010_MLEADER_STYLE
  0
CELLSTYLEMAP
  5
1F7
102
{ACAD_REACTORS
330
1F6
102
}
330
1F6
100
AcDbCellStyleMap
 90
        3
300
CELLSTYLE
  1
TABLEFORMAT_BEGIN
 90
        5
170
     1
 91
        0
 92
    32768
 62
   257
 93
        1
300
CONTENTFORMAT
  1
CONTENTFORMAT_BEGIN
 90
        0
 91
        0
 92
        4
 93
        0
300

 40
0.0
140
1.0
 94
        5
 62
     0
340
11
144
6.0
309
CONTENTFORMAT_END
171
     1
301
MARGIN
  1
CELLMARGIN_BEGIN
 40
1.5
 40
1.5
 40
1.5
 40
1.5
 40
1.5
 40
1.5
309
CELLMARGIN_END
 94
        6
 95
        1
302
GRIDFORMAT
  1
GRIDFORMAT_BEGIN
 90
        0
 91
        1
 62
     0
 92
       -2
340
14
 93
        0
 40
0.045
309
GRIDFORMAT_END
 95
        2
302
GRIDFORMAT
  1
GRIDFORMAT_BEGIN
 90
        0
 91
        1
 62
     0
 92
       -2
340
14
 93
        0
 40
0.045
309
GRIDFORMAT_END
 95
        4
302
GRIDFORMAT
  1
GRIDFORMAT_BEGIN
 90
        0
 91
        1
 62
     0
 92
       -2
340
14
 93
        0
 40
0.045
309
GRIDFORMAT_END
 95
        8
302
GRIDFORMAT
  1
GRIDFORMAT_BEGIN
 90
        0
 91
        1
 62
     0
 92
       -2
340
14
 93
        0
 40
0.045
309
GRIDFORMAT_END
 95
       16
302
GRIDFORMAT
  1
GRIDFORMAT_BEGIN
 90
        0
 91
        1
 62
     0
 92
       -2
340
14
 93
        0
 40
0.045
309
GRIDFORMAT_END
 95
       32
302
GRIDFORMAT
  1
GRIDFORMAT_BEGIN
 90
        0
 91
        1
 62
     0
 92
       -2
340
14
 93
        0
 40
0.045
309
GRIDFORMAT_END
309
TABLEFORMAT_END
  1
CELLSTYLE_BEGIN
 90
        1
 91
        1
300
_TITLE
309
CELLSTYLE_END
300
CELLSTYLE
  1
TABLEFORMAT_BEGIN
 90
        5
170
     1
 91
        0
 92
        0
 62
   257
 93
        1
300
CONTENTFORMAT
  1
CONTENTFORMAT_BEGIN
 90
        0
 91
        0
 92
        4
 93
        0
300

 40
0.0
140
1.0
 94
        5
 62
     0
340
11
144
4.5
309
CONTENTFORMAT_END
171
     1
301
MARGIN
  1
CELLMARGIN_BEGIN
 40
1.5
 40
1.5
 40
1.5
 40
1.5
 40
1.5
 40
1.5
309
CELLMARGIN_END
 94
        6
 95
        1
302
GRIDFORMAT
  1
GRIDFORMAT_BEGIN
 90
        0
 91
        1
 62
     0
 92
       -2
340
14
 93
        0
 40
0.045
309
GRIDFORMAT_END
 95
        2
302
GRIDFORMAT
  1
GRIDFORMAT_BEGIN
 90
        0
 91
        1
 62
     0
 92
       -2
340
14
 93
        0
 40
0.045
309
GRIDFORMAT_END
 95
        4
302
GRIDFORMAT
  1
GRIDFORMAT_BEGIN
 90
        0
 91
        1
 62
     0
 92
       -2
340
14
 93
        0
 40
0.045
309
GRIDFORMAT_END
 95
        8
302
GRIDFORMAT
  1
GRIDFORMAT_BEGIN
 90
        0
 91
        1
 62
     0
 92
       -2
340
14
 93
        0
 40
0.045
309
GRIDFORMAT_END
 95
       16
302
GRIDFORMAT
  1
GRIDFORMAT_BEGIN
 90
        0
 91
        1
 62
     0
 92
       -2
340
14
 93
        0
 40
0.045
309
GRIDFORMAT_END
 95
       32
302
GRIDFORMAT
  1
GRIDFORMAT_BEGIN
 90
        0
 91
        1
 62
     0
 92
       -2
340
14
 93
        0
 40
0.045
309
GRIDFORMAT_END
309
TABLEFORMAT_END
  1
CELLSTYLE_BEGIN
 90
        2
 91
        1
300
_HEADER
309
CELLSTYLE_END
300
CELLSTYLE
  1
TABLEFORMAT_BEGIN
 90
        5
170
     1
 91
        0
 92
        0
 62
   257
 93
        1
300
CONTENTFORMAT
  1
CONTENTFORMAT_BEGIN
 90
        0
 91
        0
 92
        4
 93
        0
300

 40
0.0
140
1.0
 94
        2
 62
     0
340
11
144
4.5
309
CONTENTFORMAT_END
171
     1
301
MARGIN
  1
CELLMARGIN_BEGIN
 40
1.5
 40
1.5
 40
1.5
 40
1.5
 40
1.5
 40
1.5
309
CELLMARGIN_END
 94
        6
 95
        1
302
GRIDFORMAT
  1
GRIDFORMAT_BEGIN
 90
        0
 91
        1
 62
     0
 92
       -2
340
14
 93
        0
 40
0.045
309
GRIDFORMAT_END
 95
        2
302
GRIDFORMAT
  1
GRIDFORMAT_BEGIN
 90
        0
 91
        1
 62
     0
 92
       -2
340
14
 93
        0
 40
0.045
309
GRIDFORMAT_END
 95
        4
302
GRIDFORMAT
  1
GRIDFORMAT_BEGIN
 90
        0
 91
        1
 62
     0
 92
       -2
340
14
 93
        0
 40
0.045
309
GRIDFORMAT_END
 95
        8
302
GRIDFORMAT
  1
GRIDFORMAT_BEGIN
 90
        0
 91
        1
 62
     0
 92
       -2
340
14
 93
        0
 40
0.045
309
GRIDFORMAT_END
 95
       16
302
GRIDFORMAT
  1
GRIDFORMAT_BEGIN
 90
        0
 91
        1
 62
     0
 92
       -2
340
14
 93
        0
 40
0.045
309
GRIDFORMAT_END
 95
       32
302
GRIDFORMAT
  1
GRIDFORMAT_BEGIN
 90
        0
 91
        1
 62
     0
 92
       -2
340
14
 93
        0
 40
0.045
309
GRIDFORMAT_END
309
TABLEFORMAT_END
  1
CELLSTYLE_BEGIN
 90
        3
 91
        2
300
_DATA
309
CELLSTYLE_END
  0
XRECORD
  5
1CF
102
{ACAD_REACTORS
330
1CE
102
}
330
1CE
100
AcDbXrecord
280
     1
102
RTVSPropertyOp0
 70
     1
102
RTVSPropertyOp1
 70
     1
102
RTVSPropertyOp2
 70
     1
102
RTVSPropertyOp3
 70
     1
102
RTVSPropertyOp4
 70
     1
102
RTVSPropertyOp5
 70
     1
102
RTVSPropertyOp6
 70
     1
102
RTVSPropertyOp7
 70
     1
102
RTVSPropertyOp8
 70
     1
102
RTVSPropertyOp9
 70
     1
102
RTVSPropertyOp10
 70
     1
102
RTVSPropertyOp11
 70
     1
102
RTVSPropertyOp12
 70
     1
102
RTVSPropertyOp13
 70
     1
102
RTVSPropertyOp14
 70
     1
102
RTVSPropertyOp15
 70
     1
102
RTVSPropertyOp16
 70
     1
102
RTVSPropertyOp17
 70
     1
102
RTVSPropertyOp18
 70
     1
102
RTVSPropertyOp19
 70
     1
102
RTVSPropertyOp20
 70
     1
102
RTVSPropertyOp21
 70
     1
102
RTVSPropertyOp22
 70
     1
102
RTVSPropertyOp23
 70
     1
102
RTVSPropertyOp24
 70
     1
102
RTVSPropertyOp25
 70
     1
102
RTVSPropertyOp26
 70
     1
102
RTVSPropertyOp27
 70
     1
102
RTVSPropertyOp28
 70
     1
102
RTVSPropertyOp29
 70
     1
102
RTVSPropertyOp30
 70
     1
102
RTVSPropertyOp31
 70
     1
102
RTVSPropertyOp32
 70
     1
102
RTVSPropertyOp33
 70
     1
102
RTVSPropertyOp34
 70
     1
102
RTVSPropertyOp35
 70
     1
102
RTVSPropertyOp36
 70
     1
102
RTVSPropertyOp37
 70
     1
102
RTVSPropertyOp38
 70
     1
102
RTVSPropertyOp39
 70
     1
102
RTVSPropertyOp40
 70
     1
102
RTVSPropertyOp41
 70
     1
102
RTVSPropertyOp42
 70
     1
102
RTVSPropertyOp43
 70
     1
102
RTVSPropertyOp44
 70
     1
102
RTVSPropertyOp45
 70
     1
102
RTVSPropertyOp46
 70
     1
102
RTVSPropertyOp47
 70
     1
102
RTVSPropertyOp48
 70
     1
102
RTVSPropertyOp49
 70
     1
102
RTVSPropertyOp50
 70
     1
102
RTVSPropertyOp51
 70
     0
102
RTVSPropertyOp52
 70
     0
102
RTVSPropertyOp53
 70
     1
102
RTVSPropertyOp54
 70
     1
102
RTVSPropertyOp55
 70
     1
102
RTVSPropertyOp56
 70
     1
102
RTVSPropertyOp57
 70
     1
102
RTVSPost2010Prop28
280
     1
102
RTVSPost2010PropOp28
 70
     1
102
RTVSPost2010Prop29
280
     1
102
RTVSPost2010PropOp29
 70
     1
102
RTVSPost2010Prop30
280
     0
102
RTVSPost2010PropOp30
 70
     1
102
RTVSPost2010Prop31
280
     0
102
RTVSPost2010PropOp31
 70
     1
102
RTVSPost2010Prop32
280
     0
102
RTVSPost2010PropOp32
 70
     1
102
RTVSPost2010Prop33
280
     0
102
RTVSPost2010PropOp33
 70
     1
102
RTVSPost2010Prop34
280
     0
102
RTVSPost2010PropOp34
 70
     1
102
RTVSPost2010Prop35
280
     0
102
RTVSPost2010PropOp35
 70
     1
102
RTVSPost2010Prop36
280
     0
102
RTVSPost2010PropOp36
 70
     1
102
RTVSPost2010Prop37
 90
       50
102
RTVSPost2010PropOp37
 70
     1
102
RTVSPost2010Prop38
140
0.0
102
RTVSPost2010PropOp38
 70
     1
102
RTVSPost2010Prop39
140
1.0
102
RTVSPost2010PropOp39
 70
     1
102
RTVSPost2010Prop40
 90
        0
102
RTVSPost2010PropOp40
 70
     1
102
RTVSPost2010Prop41ColorIndex
 90
       18
102
RTVSPost2010Prop41ColorRGB
 90
        0
102
RTVSPost2010PropOp41
 70
     1
102
RTVSPost2010Prop42
 90
       50
102
RTVSPost2010PropOp42
 70
     1
102
RTVSPost2010Prop43
 90
        3
102
RTVSPost2010PropOp43
 70
     1
102
RTVSPost2010Prop44ColorIndex
 90
        5
102
RTVSPost2010Prop44ColorRGB
 90
      255
102
RTVSPost2010PropOp44
 70
     1
102
RTVSPost2010Prop45
280
     0
102
RTVSPost2010PropOp45
 70
     1
102
RTVSPost2010Prop46
 90
       50
102
RTVSPost2010PropOp46
 70
     1
102
RTVSPost2010Prop47
 90
       50
102
RTVSPost2010PropOp47
 70
     1
102
RTVSPost2010Prop48
 90
       50
102
RTVSPost2010PropOp48
 70
     1
102
RTVSPost2010Prop49
280
     0
102
RTVSPost2010PropOp49
 70
     1
102
RTVSPost2010Prop50
 90
       50
102
RTVSPost2010PropOp50
 70
     1
102
RTVSPost2010Prop51ColorIndex
 90
      256
102
RTVSPost2010Prop51ColorRGB
 90
-16777216
102
RTVSPost2010PropOp51
 70
     0
102
RTVSPost2010Prop52
140
1.0
102
RTVSPost2010PropOp52
 70
     0
102
RTVSPost2010Prop53
 90
        2
102
RTVSPost2010PropOp53
 70
     1
102
RTVSPost2010Prop54
  1
strokes_ogs.tif
102
RTVSPost2010PropOp54
 70
     1
102
RTVSPost2010Prop55
280
     0
102
RTVSPost2010PropOp55
 70
     1
102
RTVSPost2010Prop56
140
1.0
102
RTVSPost2010PropOp56
 70
     1
102
RTVSPost2010Prop57
140
1.0
102
RTVSPost2010PropOp57
 70
     1
  0
XRECORD
  5
1D5
102
{ACAD_REACTORS
330
1D4
102
}
330
1D4
100
AcDbXrecord
280
     1
102
RTVSPropertyOp0
 70
     1
102
RTVSPropertyOp1
 70
     1
102
RTVSPropertyOp2
 70
     1
102
RTVSPropertyOp3
 70
     1
102
RTVSPropertyOp4
 70
     1
102
RTVSPropertyOp5
 70
     1
102
RTVSPropertyOp6
 70
     1
102
RTVSPropertyOp7
 70
     1
102
RTVSPropertyOp8
 70
     1
102
RTVSPropertyOp9
 70
     1
102
RTVSPropertyOp10
 70
     1
102
RTVSPropertyOp11
 70
     1
102
RTVSPropertyOp12
 70
     1
102
RTVSPropertyOp13
 70
     1
102
RTVSPropertyOp14
 70
     1
102
RTVSPropertyOp15
 70
     1
102
RTVSPropertyOp16
 70
     1
102
RTVSPropertyOp17
 70
     1
102
RTVSPropertyOp18
 70
     1
102
RTVSPropertyOp19
 70
     1
102
RTVSPropertyOp20
 70
     1
102
RTVSPropertyOp21
 70
     1
102
RTVSPropertyOp22
 70
     1
102
RTVSPropertyOp23
 70
     1
102
RTVSPropertyOp24
 70
     1
102
RTVSPropertyOp25
 70
     1
102
RTVSPropertyOp26
 70
     1
102
RTVSPropertyOp27
 70
     1
102
RTVSPropertyOp28
 70
     1
102
RTVSPropertyOp29
 70
     1
102
RTVSPropertyOp30
 70
     1
102
RTVSPropertyOp31
 70
     1
102
RTVSPropertyOp32
 70
     1
102
RTVSPropertyOp33
 70
     1
102
RTVSPropertyOp34
 70
     1
102
RTVSPropertyOp35
 70
     1
102
RTVSPropertyOp36
 70
     1
102
RTVSPropertyOp37
 70
     1
102
RTVSPropertyOp38
 70
     1
102
RTVSPropertyOp39
 70
     1
102
RTVSPropertyOp40
 70
     1
102
RTVSPropertyOp41
 70
     1
102
RTVSPropertyOp42
 70
     1
102
RTVSPropertyOp43
 70
     1
102
RTVSPropertyOp44
 70
     1
102
RTVSPropertyOp45
 70
     1
102
RTVSPropertyOp46
 70
     1
102
RTVSPropertyOp47
 70
     1
102
RTVSPropertyOp48
 70
     1
102
RTVSPropertyOp49
 70
     1
102
RTVSPropertyOp50
 70
     1
102
RTVSPropertyOp51
 70
     0
102
RTVSPropertyOp52
 70
     0
102
RTVSPropertyOp53
 70
     1
102
RTVSPropertyOp54
 70
     1
102
RTVSPropertyOp55
 70
     1
102
RTVSPropertyOp56
 70
     1
102
RTVSPropertyOp57
 70
     1
102
RTVSPost2010Prop28
280
     0
102
RTVSPost2010PropOp28
 70
     1
102
RTVSPost2010Prop29
280
     1
102
RTVSPost2010PropOp29
 70
     1
102
RTVSPost2010Prop30
280
     1
102
RTVSPost2010PropOp30
 70
     1
102
RTVSPost2010Prop31
280
     0
102
RTVSPost2010PropOp31
 70
     1
102
RTVSPost2010Prop32
280
     0
102
RTVSPost2010PropOp32
 70
     1
102
RTVSPost2010Prop33
280
     0
102
RTVSPost2010PropOp33
 70
     1
102
RTVSPost2010Prop34
280
     0
102
RTVSPost2010PropOp34
 70
     1
102
RTVSPost2010Prop35
280
     0
102
RTVSPost2010PropOp35
 70
     1
102
RTVSPost2010Prop36
280
     0
102
RTVSPost2010PropOp36
 70
     1
102
RTVSPost2010Prop37
 90
       50
102
RTVSPost2010PropOp37
 70
     1
102
RTVSPost2010Prop38
140
0.0
102
RTVSPost2010PropOp38
 70
     1
102
RTVSPost2010Prop39
140
1.0
102
RTVSPost2010PropOp39
 70
     1
102
RTVSPost2010Prop40
 90
        0
102
RTVSPost2010PropOp40
 70
     1
102
RTVSPost2010Prop41ColorIndex
 90
       18
102
RTVSPost2010Prop41ColorRGB
 90
        0
102
RTVSPost2010PropOp41
 70
     1
102
RTVSPost2010Prop42
 90
       50
102
RTVSPost2010PropOp42
 70
     1
102
RTVSPost2010Prop43
 90
        3
102
RTVSPost2010PropOp43
 70
     1
102
RTVSPost2010Prop44ColorIndex
 90
        5
102
RTVSPost2010Prop44ColorRGB
 90
      255
102
RTVSPost2010PropOp44
 70
     1
102
RTVSPost2010Prop45
280
     0
102
RTVSPost2010PropOp45
 70
     1
102
RTVSPost2010Prop46
 90
       50
102
RTVSPost2010PropOp46
 70
     1
102
RTVSPost2010Prop47
 90
       50
102
RTVSPost2010PropOp47
 70
     1
102
RTVSPost2010Prop48
 90
       50
102
RTVSPost2010PropOp48
 70
     1
102
RTVSPost2010Prop49
280
     0
102
RTVSPost2010PropOp49
 70
     1
102
RTVSPost2010Prop50
 90
       50
102
RTVSPost2010PropOp50
 70
     1
102
RTVSPost2010Prop51ColorIndex
 90
      256
102
RTVSPost2010Prop51ColorRGB
 90
-16777216
102
RTVSPost2010PropOp51
 70
     0
102
RTVSPost2010Prop52
140
1.0
102
RTVSPost2010PropOp52
 70
     0
102
RTVSPost2010Prop53
 90
        2
102
RTVSPost2010PropOp53
 70
     1
102
RTVSPost2010Prop54
  1
strokes_ogs.tif
102
RTVSPost2010PropOp54
 70
     1
102
RTVSPost2010Prop55
280
     0
102
RTVSPost2010PropOp55
 70
     1
102
RTVSPost2010Prop56
140
1.0
102
RTVSPost2010PropOp56
 70
     1
102
RTVSPost2010Prop57
140
1.0
102
RTVSPost2010PropOp57
 70
     1
  0
XRECORD
  5
1DD
102
{ACAD_REACTORS
330
1DC
102
}
330
1DC
100
AcDbXrecord
280
     1
102
RTVSPropertyOp0
 70
     1
102
RTVSPropertyOp1
 70
     1
102
RTVSPropertyOp2
 70
     1
102
RTVSPropertyOp3
 70
     1
102
RTVSPropertyOp4
 70
     1
102
RTVSPropertyOp5
 70
     1
102
RTVSPropertyOp6
 70
     1
102
RTVSPropertyOp7
 70
     1
102
RTVSPropertyOp8
 70
     1
102
RTVSPropertyOp9
 70
     1
102
RTVSPropertyOp10
 70
     1
102
RTVSPropertyOp11
 70
     1
102
RTVSPropertyOp12
 70
     1
102
RTVSPropertyOp13
 70
     1
102
RTVSPropertyOp14
 70
     1
102
RTVSPropertyOp15
 70
     1
102
RTVSPropertyOp16
 70
     1
102
RTVSPropertyOp17
 70
     1
102
RTVSPropertyOp18
 70
     1
102
RTVSPropertyOp19
 70
     1
102
RTVSPropertyOp20
 70
     1
102
RTVSPropertyOp21
 70
     1
102
RTVSPropertyOp22
 70
     1
102
RTVSPropertyOp23
 70
     1
102
RTVSPropertyOp24
 70
     1
102
RTVSPropertyOp25
 70
     1
102
RTVSPropertyOp26
 70
     1
102
RTVSPropertyOp27
 70
     1
102
RTVSPropertyOp28
 70
     1
102
RTVSPropertyOp29
 70
     1
102
RTVSPropertyOp30
 70
     1
102
RTVSPropertyOp31
 70
     1
102
RTVSPropertyOp32
 70
     1
102
RTVSPropertyOp33
 70
     1
102
RTVSPropertyOp34
 70
     1
102
RTVSPropertyOp35
 70
     1
102
RTVSPropertyOp36
 70
     1
102
RTVSPropertyOp37
 70
     1
102
RTVSPropertyOp38
 70
     1
102
RTVSPropertyOp39
 70
     1
102
RTVSPropertyOp40
 70
     1
102
RTVSPropertyOp41
 70
     1
102
RTVSPropertyOp42
 70
     1
102
RTVSPropertyOp43
 70
     1
102
RTVSPropertyOp44
 70
     1
102
RTVSPropertyOp45
 70
     1
102
RTVSPropertyOp46
 70
     1
102
RTVSPropertyOp47
 70
     1
102
RTVSPropertyOp48
 70
     1
102
RTVSPropertyOp49
 70
     1
102
RTVSPropertyOp50
 70
     1
102
RTVSPropertyOp51
 70
     0
102
RTVSPropertyOp52
 70
     0
102
RTVSPropertyOp53
 70
     1
102
RTVSPropertyOp54
 70
     1
102
RTVSPropertyOp55
 70
     1
102
RTVSPropertyOp56
 70
     1
102
RTVSPropertyOp57
 70
     1
102
RTVSPost2010Prop28
280
     0
102
RTVSPost2010PropOp28
 70
     1
102
RTVSPost2010Prop29
280
     1
102
RTVSPost2010PropOp29
 70
     1
102
RTVSPost2010Prop30
280
     1
102
RTVSPost2010PropOp30
 70
     1
102
RTVSPost2010Prop31
280
     0
102
RTVSPost2010PropOp31
 70
     1
102
RTVSPost2010Prop32
280
     0
102
RTVSPost2010PropOp32
 70
     1
102
RTVSPost2010Prop33
280
     0
102
RTVSPost2010PropOp33
 70
     1
102
RTVSPost2010Prop34
280
     0
102
RTVSPost2010PropOp34
 70
     1
102
RTVSPost2010Prop35
280
     0
102
RTVSPost2010PropOp35
 70
     1
102
RTVSPost2010Prop36
280
     0
102
RTVSPost2010PropOp36
 70
     1
102
RTVSPost2010Prop37
 90
       50
102
RTVSPost2010PropOp37
 70
     1
102
RTVSPost2010Prop38
140
0.0
102
RTVSPost2010PropOp38
 70
     1
102
RTVSPost2010Prop39
140
1.0
102
RTVSPost2010PropOp39
 70
     1
102
RTVSPost2010Prop40
 90
        0
102
RTVSPost2010PropOp40
 70
     1
102
RTVSPost2010Prop41ColorIndex
 90
       18
102
RTVSPost2010Prop41ColorRGB
 90
        0
102
RTVSPost2010PropOp41
 70
     1
102
RTVSPost2010Prop42
 90
       50
102
RTVSPost2010PropOp42
 70
     1
102
RTVSPost2010Prop43
 90
        3
102
RTVSPost2010PropOp43
 70
     1
102
RTVSPost2010Prop44ColorIndex
 90
        5
102
RTVSPost2010Prop44ColorRGB
 90
      255
102
RTVSPost2010PropOp44
 70
     1
102
RTVSPost2010Prop45
280
     0
102
RTVSPost2010PropOp45
 70
     1
102
RTVSPost2010Prop46
 90
       50
102
RTVSPost2010PropOp46
 70
     1
102
RTVSPost2010Prop47
 90
       50
102
RTVSPost2010PropOp47
 70
     1
102
RTVSPost2010Prop48
 90
       50
102
RTVSPost2010PropOp48
 70
     1
102
RTVSPost2010Prop49
280
     0
102
RTVSPost2010PropOp49
 70
     1
102
RTVSPost2010Prop50
 90
       50
102
RTVSPost2010PropOp50
 70
     1
102
RTVSPost2010Prop51ColorIndex
 90
      256
102
RTVSPost2010Prop51ColorRGB
 90
-16777216
102
RTVSPost2010PropOp51
 70
     0
102
RTVSPost2010Prop52
140
1.0
102
RTVSPost2010PropOp52
 70
     0
102
RTVSPost2010Prop53
 90
        2
102
RTVSPost2010PropOp53
 70
     1
102
RTVSPost2010Prop54
  1
strokes_ogs.tif
102
RTVSPost2010PropOp54
 70
     1
102
RTVSPost2010Prop55
280
     0
102
RTVSPost2010PropOp55
 70
     1
102
RTVSPost2010Prop56
140
1.0
102
RTVSPost2010PropOp56
 70
     1
102
RTVSPost2010Prop57
140
1.0
102
RTVSPost2010PropOp57
 70
     1
  0
XRECORD
  5
1E5
102
{ACAD_REACTORS
330
1E4
102
}
330
1E4
100
AcDbXrecord
280
     1
102
RTVSPropertyOp0
 70
     1
102
RTVSPropertyOp1
 70
     1
102
RTVSPropertyOp2
 70
     1
102
RTVSPropertyOp3
 70
     1
102
RTVSPropertyOp4
 70
     1
102
RTVSPropertyOp5
 70
     1
102
RTVSPropertyOp6
 70
     1
102
RTVSPropertyOp7
 70
     1
102
RTVSPropertyOp8
 70
     1
102
RTVSPropertyOp9
 70
     1
102
RTVSPropertyOp10
 70
     1
102
RTVSPropertyOp11
 70
     1
102
RTVSPropertyOp12
 70
     1
102
RTVSPropertyOp13
 70
     1
102
RTVSPropertyOp14
 70
     1
102
RTVSPropertyOp15
 70
     1
102
RTVSPropertyOp16
 70
     1
102
RTVSPropertyOp17
 70
     1
102
RTVSPropertyOp18
 70
     1
102
RTVSPropertyOp19
 70
     1
102
RTVSPropertyOp20
 70
     1
102
RTVSPropertyOp21
 70
     1
102
RTVSPropertyOp22
 70
     1
102
RTVSPropertyOp23
 70
     1
102
RTVSPropertyOp24
 70
     1
102
RTVSPropertyOp25
 70
     1
102
RTVSPropertyOp26
 70
     1
102
RTVSPropertyOp27
 70
     1
102
RTVSPropertyOp28
 70
     1
102
RTVSPropertyOp29
 70
     1
102
RTVSPropertyOp30
 70
     1
102
RTVSPropertyOp31
 70
     1
102
RTVSPropertyOp32
 70
     1
102
RTVSPropertyOp33
 70
     1
102
RTVSPropertyOp34
 70
     1
102
RTVSPropertyOp35
 70
     1
102
RTVSPropertyOp36
 70
     1
102
RTVSPropertyOp37
 70
     1
102
RTVSPropertyOp38
 70
     1
102
RTVSPropertyOp39
 70
     1
102
RTVSPropertyOp40
 70
     1
102
RTVSPropertyOp41
 70
     1
102
RTVSPropertyOp42
 70
     1
102
RTVSPropertyOp43
 70
     1
102
RTVSPropertyOp44
 70
     1
102
RTVSPropertyOp45
 70
     1
102
RTVSPropertyOp46
 70
     1
102
RTVSPropertyOp47
 70
     1
102
RTVSPropertyOp48
 70
     1
102
RTVSPropertyOp49
 70
     1
102
RTVSPropertyOp50
 70
     1
102
RTVSPropertyOp51
 70
     0
102
RTVSPropertyOp52
 70
     0
102
RTVSPropertyOp53
 70
     1
102
RTVSPropertyOp54
 70
     1
102
RTVSPropertyOp55
 70
     1
102
RTVSPropertyOp56
 70
     1
102
RTVSPropertyOp57
 70
     1
102
RTVSPost2010Prop28
280
     0
102
RTVSPost2010PropOp28
 70
     1
102
RTVSPost2010Prop29
280
     1
102
RTVSPost2010PropOp29
 70
     1
102
RTVSPost2010Prop30
280
     1
102
RTVSPost2010PropOp30
 70
     1
102
RTVSPost2010Prop31
280
     0
102
RTVSPost2010PropOp31
 70
     1
102
RTVSPost2010Prop32
280
     0
102
RTVSPost2010PropOp32
 70
     1
102
RTVSPost2010Prop33
280
     0
102
RTVSPost2010PropOp33
 70
     1
102
RTVSPost2010Prop34
280
     0
102
RTVSPost2010PropOp34
 70
     1
102
RTVSPost2010Prop35
280
     0
102
RTVSPost2010PropOp35
 70
     1
102
RTVSPost2010Prop36
280
     0
102
RTVSPost2010PropOp36
 70
     1
102
RTVSPost2010Prop37
 90
       50
102
RTVSPost2010PropOp37
 70
     1
102
RTVSPost2010Prop38
140
0.0
102
RTVSPost2010PropOp38
 70
     1
102
RTVSPost2010Prop39
140
1.0
102
RTVSPost2010PropOp39
 70
     1
102
RTVSPost2010Prop40
 90
        0
102
RTVSPost2010PropOp40
 70
     1
102
RTVSPost2010Prop41ColorIndex
 90
       18
102
RTVSPost2010Prop41ColorRGB
 90
        0
102
RTVSPost2010PropOp41
 70
     1
102
RTVSPost2010Prop42
 90
       50
102
RTVSPost2010PropOp42
 70
     1
102
RTVSPost2010Prop43
 90
        3
102
RTVSPost2010PropOp43
 70
     1
102
RTVSPost2010Prop44ColorIndex
 90
        5
102
RTVSPost2010Prop44ColorRGB
 90
      255
102
RTVSPost2010PropOp44
 70
     1
102
RTVSPost2010Prop45
280
     0
102
RTVSPost2010PropOp45
 70
     1
102
RTVSPost2010Prop46
 90
       50
102
RTVSPost2010PropOp46
 70
     1
102
RTVSPost2010Prop47
 90
       50
102
RTVSPost2010PropOp47
 70
     1
102
RTVSPost2010Prop48
 90
       50
102
RTVSPost2010PropOp48
 70
     1
102
RTVSPost2010Prop49
280
     0
102
RTVSPost2010PropOp49
 70
     1
102
RTVSPost2010Prop50
 90
       50
102
RTVSPost2010PropOp50
 70
     1
102
RTVSPost2010Prop51ColorIndex
 90
      256
102
RTVSPost2010Prop51ColorRGB
 90
-16777216
102
RTVSPost2010PropOp51
 70
     0
102
RTVSPost2010Prop52
140
1.0
102
RTVSPost2010PropOp52
 70
     0
102
RTVSPost2010Prop53
 90
        2
102
RTVSPost2010PropOp53
 70
     1
102
RTVSPost2010Prop54
  1
strokes_ogs.tif
102
RTVSPost2010PropOp54
 70
     1
102
RTVSPost2010Prop55
280
     0
102
RTVSPost2010PropOp55
 70
     1
102
RTVSPost2010Prop56
140
1.0
102
RTVSPost2010PropOp56
 70
     1
102
RTVSPost2010Prop57
140
1.0
102
RTVSPost2010PropOp57
 70
     1
  0
XRECORD
  5
1D9
102
{ACAD_REACTORS
330
1D8
102
}
330
1D8
100
AcDbXrecord
280
     1
102
RTVSPropertyOp0
 70
     1
102
RTVSPropertyOp1
 70
     1
102
RTVSPropertyOp2
 70
     1
102
RTVSPropertyOp3
 70
     1
102
RTVSPropertyOp4
 70
     1
102
RTVSPropertyOp5
 70
     1
102
RTVSPropertyOp6
 70
     1
102
RTVSPropertyOp7
 70
     1
102
RTVSPropertyOp8
 70
     1
102
RTVSPropertyOp9
 70
     1
102
RTVSPropertyOp10
 70
     1
102
RTVSPropertyOp11
 70
     1
102
RTVSPropertyOp12
 70
     1
102
RTVSPropertyOp13
 70
     1
102
RTVSPropertyOp14
 70
     1
102
RTVSPropertyOp15
 70
     1
102
RTVSPropertyOp16
 70
     1
102
RTVSPropertyOp17
 70
     1
102
RTVSPropertyOp18
 70
     1
102
RTVSPropertyOp19
 70
     1
102
RTVSPropertyOp20
 70
     1
102
RTVSPropertyOp21
 70
     1
102
RTVSPropertyOp22
 70
     1
102
RTVSPropertyOp23
 70
     1
102
RTVSPropertyOp24
 70
     1
102
RTVSPropertyOp25
 70
     1
102
RTVSPropertyOp26
 70
     1
102
RTVSPropertyOp27
 70
     1
102
RTVSPropertyOp28
 70
     1
102
RTVSPropertyOp29
 70
     1
102
RTVSPropertyOp30
 70
     1
102
RTVSPropertyOp31
 70
     1
102
RTVSPropertyOp32
 70
     1
102
RTVSPropertyOp33
 70
     1
102
RTVSPropertyOp34
 70
     1
102
RTVSPropertyOp35
 70
     1
102
RTVSPropertyOp36
 70
     1
102
RTVSPropertyOp37
 70
     1
102
RTVSPropertyOp38
 70
     1
102
RTVSPropertyOp39
 70
     1
102
RTVSPropertyOp40
 70
     1
102
RTVSPropertyOp41
 70
     1
102
RTVSPropertyOp42
 70
     1
102
RTVSPropertyOp43
 70
     1
102
RTVSPropertyOp44
 70
     1
102
RTVSPropertyOp45
 70
     1
102
RTVSPropertyOp46
 70
     1
102
RTVSPropertyOp47
 70
     1
102
RTVSPropertyOp48
 70
     1
102
RTVSPropertyOp49
 70
     1
102
RTVSPropertyOp50
 70
     1
102
RTVSPropertyOp51
 70
     0
102
RTVSPropertyOp52
 70
     0
102
RTVSPropertyOp53
 70
     1
102
RTVSPropertyOp54
 70
     1
102
RTVSPropertyOp55
 70
     1
102
RTVSPropertyOp56
 70
     1
102
RTVSPropertyOp57
 70
     1
102
RTVSPost2010Prop28
280
     0
102
RTVSPost2010PropOp28
 70
     1
102
RTVSPost2010Prop29
280
     1
102
RTVSPost2010PropOp29
 70
     1
102
RTVSPost2010Prop30
280
     1
102
RTVSPost2010PropOp30
 70
     1
102
RTVSPost2010Prop31
280
     0
102
RTVSPost2010PropOp31
 70
     1
102
RTVSPost2010Prop32
280
     0
102
RTVSPost2010PropOp32
 70
     1
102
RTVSPost2010Prop33
280
     0
102
RTVSPost2010PropOp33
 70
     1
102
RTVSPost2010Prop34
280
     0
102
RTVSPost2010PropOp34
 70
     1
102
RTVSPost2010Prop35
280
     0
102
RTVSPost2010PropOp35
 70
     1
102
RTVSPost2010Prop36
280
     0
102
RTVSPost2010PropOp36
 70
     1
102
RTVSPost2010Prop37
 90
       50
102
RTVSPost2010PropOp37
 70
     1
102
RTVSPost2010Prop38
140
0.0
102
RTVSPost2010PropOp38
 70
     1
102
RTVSPost2010Prop39
140
1.0
102
RTVSPost2010PropOp39
 70
     1
102
RTVSPost2010Prop40
 90
        0
102
RTVSPost2010PropOp40
 70
     1
102
RTVSPost2010Prop41ColorIndex
 90
       18
102
RTVSPost2010Prop41ColorRGB
 90
        0
102
RTVSPost2010PropOp41
 70
     1
102
RTVSPost2010Prop42
 90
       50
102
RTVSPost2010PropOp42
 70
     1
102
RTVSPost2010Prop43
 90
        3
102
RTVSPost2010PropOp43
 70
     1
102
RTVSPost2010Prop44ColorIndex
 90
        5
102
RTVSPost2010Prop44ColorRGB
 90
      255
102
RTVSPost2010PropOp44
 70
     1
102
RTVSPost2010Prop45
280
     0
102
RTVSPost2010PropOp45
 70
     1
102
RTVSPost2010Prop46
 90
       50
102
RTVSPost2010PropOp46
 70
     1
102
RTVSPost2010Prop47
 90
       50
102
RTVSPost2010PropOp47
 70
     1
102
RTVSPost2010Prop48
 90
       50
102
RTVSPost2010PropOp48
 70
     1
102
RTVSPost2010Prop49
280
     0
102
RTVSPost2010PropOp49
 70
     1
102
RTVSPost2010Prop50
 90
       50
102
RTVSPost2010PropOp50
 70
     1
102
RTVSPost2010Prop51ColorIndex
 90
      256
102
RTVSPost2010Prop51ColorRGB
 90
-16777216
102
RTVSPost2010PropOp51
 70
     0
102
RTVSPost2010Prop52
140
1.0
102
RTVSPost2010PropOp52
 70
     0
102
RTVSPost2010Prop53
 90
        2
102
RTVSPost2010PropOp53
 70
     1
102
RTVSPost2010Prop54
  1
strokes_ogs.tif
102
RTVSPost2010PropOp54
 70
     1
102
RTVSPost2010Prop55
280
     0
102
RTVSPost2010PropOp55
 70
     1
102
RTVSPost2010Prop56
140
1.0
102
RTVSPost2010PropOp56
 70
     1
102
RTVSPost2010Prop57
140
1.0
102
RTVSPost2010PropOp57
 70
     1
  0
XRECORD
  5
1DB
102
{ACAD_REACTORS
330
1DA
102
}
330
1DA
100
AcDbXrecord
280
     1
102
RTVSPropertyOp0
 70
     1
102
RTVSPropertyOp1
 70
     1
102
RTVSPropertyOp2
 70
     1
102
RTVSPropertyOp3
 70
     1
102
RTVSPropertyOp4
 70
     1
102
RTVSPropertyOp5
 70
     1
102
RTVSPropertyOp6
 70
     1
102
RTVSPropertyOp7
 70
     1
102
RTVSPropertyOp8
 70
     1
102
RTVSPropertyOp9
 70
     1
102
RTVSPropertyOp10
 70
     1
102
RTVSPropertyOp11
 70
     1
102
RTVSPropertyOp12
 70
     1
102
RTVSPropertyOp13
 70
     1
102
RTVSPropertyOp14
 70
     1
102
RTVSPropertyOp15
 70
     1
102
RTVSPropertyOp16
 70
     1
102
RTVSPropertyOp17
 70
     1
102
RTVSPropertyOp18
 70
     1
102
RTVSPropertyOp19
 70
     1
102
RTVSPropertyOp20
 70
     1
102
RTVSPropertyOp21
 70
     1
102
RTVSPropertyOp22
 70
     1
102
RTVSPropertyOp23
 70
     1
102
RTVSPropertyOp24
 70
     1
102
RTVSPropertyOp25
 70
     1
102
RTVSPropertyOp26
 70
     1
102
RTVSPropertyOp27
 70
     1
102
RTVSPropertyOp28
 70
     1
102
RTVSPropertyOp29
 70
     1
102
RTVSPropertyOp30
 70
     1
102
RTVSPropertyOp31
 70
     1
102
RTVSPropertyOp32
 70
     1
102
RTVSPropertyOp33
 70
     1
102
RTVSPropertyOp34
 70
     1
102
RTVSPropertyOp35
 70
     1
102
RTVSPropertyOp36
 70
     1
102
RTVSPropertyOp37
 70
     1
102
RTVSPropertyOp38
 70
     1
102
RTVSPropertyOp39
 70
     1
102
RTVSPropertyOp40
 70
     1
102
RTVSPropertyOp41
 70
     1
102
RTVSPropertyOp42
 70
     1
102
RTVSPropertyOp43
 70
     1
102
RTVSPropertyOp44
 70
     1
102
RTVSPropertyOp45
 70
     1
102
RTVSPropertyOp46
 70
     1
102
RTVSPropertyOp47
 70
     1
102
RTVSPropertyOp48
 70
     1
102
RTVSPropertyOp49
 70
     1
102
RTVSPropertyOp50
 70
     1
102
RTVSPropertyOp51
 70
     0
102
RTVSPropertyOp52
 70
     0
102
RTVSPropertyOp53
 70
     1
102
RTVSPropertyOp54
 70
     1
102
RTVSPropertyOp55
 70
     1
102
RTVSPropertyOp56
 70
     1
102
RTVSPropertyOp57
 70
     1
102
RTVSPost2010Prop28
280
     0
102
RTVSPost2010PropOp28
 70
     1
102
RTVSPost2010Prop29
280
     1
102
RTVSPost2010PropOp29
 70
     1
102
RTVSPost2010Prop30
280
     1
102
RTVSPost2010PropOp30
 70
     1
102
RTVSPost2010Prop31
280
     0
102
RTVSPost2010PropOp31
 70
     1
102
RTVSPost2010Prop32
280
     0
102
RTVSPost2010PropOp32
 70
     1
102
RTVSPost2010Prop33
280
     0
102
RTVSPost2010PropOp33
 70
     1
102
RTVSPost2010Prop34
280
     0
102
RTVSPost2010PropOp34
 70
     1
102
RTVSPost2010Prop35
280
     0
102
RTVSPost2010PropOp35
 70
     1
102
RTVSPost2010Prop36
280
     0
102
RTVSPost2010PropOp36
 70
     1
102
RTVSPost2010Prop37
 90
       50
102
RTVSPost2010PropOp37
 70
     1
102
RTVSPost2010Prop38
140
0.0
102
RTVSPost2010PropOp38
 70
     1
102
RTVSPost2010Prop39
140
1.0
102
RTVSPost2010PropOp39
 70
     1
102
RTVSPost2010Prop40
 90
        0
102
RTVSPost2010PropOp40
 70
     1
102
RTVSPost2010Prop41ColorIndex
 90
       18
102
RTVSPost2010Prop41ColorRGB
 90
        0
102
RTVSPost2010PropOp41
 70
     1
102
RTVSPost2010Prop42
 90
       50
102
RTVSPost2010PropOp42
 70
     1
102
RTVSPost2010Prop43
 90
        3
102
RTVSPost2010PropOp43
 70
     1
102
RTVSPost2010Prop44ColorIndex
 90
        5
102
RTVSPost2010Prop44ColorRGB
 90
      255
102
RTVSPost2010PropOp44
 70
     1
102
RTVSPost2010Prop45
280
     0
102
RTVSPost2010PropOp45
 70
     1
102
RTVSPost2010Prop46
 90
       50
102
RTVSPost2010PropOp46
 70
     1
102
RTVSPost2010Prop47
 90
       50
102
RTVSPost2010PropOp47
 70
     1
102
RTVSPost2010Prop48
 90
       50
102
RTVSPost2010PropOp48
 70
     1
102
RTVSPost2010Prop49
280
     0
102
RTVSPost2010PropOp49
 70
     1
102
RTVSPost2010Prop50
 90
       50
102
RTVSPost2010PropOp50
 70
     1
102
RTVSPost2010Prop51ColorIndex
 90
      256
102
RTVSPost2010Prop51ColorRGB
 90
-16777216
102
RTVSPost2010PropOp51
 70
     0
102
RTVSPost2010Prop52
140
1.0
102
RTVSPost2010PropOp52
 70
     0
102
RTVSPost2010Prop53
 90
        2
102
RTVSPost2010PropOp53
 70
     1
102
RTVSPost2010Prop54
  1
strokes_ogs.tif
102
RTVSPost2010PropOp54
 70
     1
102
RTVSPost2010Prop55
280
     0
102
RTVSPost2010PropOp55
 70
     1
102
RTVSPost2010Prop56
140
1.0
102
RTVSPost2010PropOp56
 70
     1
102
RTVSPost2010Prop57
140
1.0
102
RTVSPost2010PropOp57
 70
     1
  0
XRECORD
  5
1EB
102
{ACAD_REACTORS
330
1EA
102
}
330
1EA
100
AcDbXrecord
280
     1
102
RTVSPropertyOp0
 70
     0
102
RTVSPropertyOp1
 70
     0
102
RTVSPropertyOp2
 70
     0
102
RTVSPropertyOp3
 70
     0
102
RTVSPropertyOp4
 70
     0
102
RTVSPropertyOp5
 70
     0
102
RTVSPropertyOp6
 70
     0
102
RTVSPropertyOp7
 70
     0
102
RTVSPropertyOp8
 70
     0
102
RTVSPropertyOp9
 70
     0
102
RTVSPropertyOp10
 70
     0
102
RTVSPropertyOp11
 70
     0
102
RTVSPropertyOp12
 70
     0
102
RTVSPropertyOp13
 70
     0
102
RTVSPropertyOp14
 70
     2
102
RTVSPropertyOp15
 70
     0
102
RTVSPropertyOp16
 70
     0
102
RTVSPropertyOp17
 70
     0
102
RTVSPropertyOp18
 70
     0
102
RTVSPropertyOp19
 70
     0
102
RTVSPropertyOp20
 70
     0
102
RTVSPropertyOp21
 70
     0
102
RTVSPropertyOp22
 70
     0
102
RTVSPropertyOp23
 70
     0
102
RTVSPropertyOp24
 70
     0
102
RTVSPropertyOp25
 70
     0
102
RTVSPropertyOp26
 70
     0
102
RTVSPropertyOp27
 70
     0
102
RTVSPropertyOp28
 70
     0
102
RTVSPropertyOp29
 70
     0
102
RTVSPropertyOp30
 70
     0
102
RTVSPropertyOp31
 70
     0
102
RTVSPropertyOp32
 70
     0
102
RTVSPropertyOp33
 70
     0
102
RTVSPropertyOp34
 70
     0
102
RTVSPropertyOp35
 70
     0
102
RTVSPropertyOp36
 70
     0
102
RTVSPropertyOp37
 70
     0
102
RTVSPropertyOp38
 70
     0
102
RTVSPropertyOp39
 70
     0
102
RTVSPropertyOp40
 70
     0
102
RTVSPropertyOp41
 70
     0
102
RTVSPropertyOp42
 70
     0
102
RTVSPropertyOp43
 70
     0
102
RTVSPropertyOp44
 70
     0
102
RTVSPropertyOp45
 70
     0
102
RTVSPropertyOp46
 70
     0
102
RTVSPropertyOp47
 70
     0
102
RTVSPropertyOp48
 70
     0
102
RTVSPropertyOp49
 70
     0
102
RTVSPropertyOp50
 70
     0
102
RTVSPropertyOp51
 70
     0
102
RTVSPropertyOp52
 70
     0
102
RTVSPropertyOp53
 70
     0
102
RTVSPropertyOp54
 70
     0
102
RTVSPropertyOp55
 70
     0
102
RTVSPropertyOp56
 70
     0
102
RTVSPropertyOp57
 70
     0
102
RTVSPost2010Prop28
280
     0
102
RTVSPost2010PropOp28
 70
     0
102
RTVSPost2010Prop29
280
     1
102
RTVSPost2010PropOp29
 70
     0
102
RTVSPost2010Prop30
280
     1
102
RTVSPost2010PropOp30
 70
     0
102
RTVSPost2010Prop31
280
     0
102
RTVSPost2010PropOp31
 70
     0
102
RTVSPost2010Prop32
280
     0
102
RTVSPost2010PropOp32
 70
     0
102
RTVSPost2010Prop33
280
     0
102
RTVSPost2010PropOp33
 70
     0
102
RTVSPost2010Prop34
280
     0
102
RTVSPost2010PropOp34
 70
     0
102
RTVSPost2010Prop35
280
     0
102
RTVSPost2010PropOp35
 70
     0
102
RTVSPost2010Prop36
280
     0
102
RTVSPost2010PropOp36
 70
     0
102
RTVSPost2010Prop37
 90
       50
102
RTVSPost2010PropOp37
 70
     0
102
RTVSPost2010Prop38
140
0.0
102
RTVSPost2010PropOp38
 70
     0
102
RTVSPost2010Prop39
140
1.0
102
RTVSPost2010PropOp39
 70
     0
102
RTVSPost2010Prop40
 90
        0
102
RTVSPost2010PropOp40
 70
     0
102
RTVSPost2010Prop41ColorIndex
 90
       18
102
RTVSPost2010Prop41ColorRGB
 90
        0
102
RTVSPost2010PropOp41
 70
     0
102
RTVSPost2010Prop42
 90
       50
102
RTVSPost2010PropOp42
 70
     0
102
RTVSPost2010Prop43
 90
        3
102
RTVSPost2010PropOp43
 70
     0
102
RTVSPost2010Prop44ColorIndex
 90
        5
102
RTVSPost2010Prop44ColorRGB
 90
      255
102
RTVSPost2010PropOp44
 70
     0
102
RTVSPost2010Prop45
280
     0
102
RTVSPost2010PropOp45
 70
     0
102
RTVSPost2010Prop46
 90
       50
102
RTVSPost2010PropOp46
 70
     0
102
RTVSPost2010Prop47
 90
       50
102
RTVSPost2010PropOp47
 70
     0
102
RTVSPost2010Prop48
 90
       50
102
RTVSPost2010PropOp48
 70
     0
102
RTVSPost2010Prop49
280
     0
102
RTVSPost2010PropOp49
 70
     0
102
RTVSPost2010Prop50
 90
       50
102
RTVSPost2010PropOp50
 70
     0
102
RTVSPost2010Prop51ColorIndex
 90
      256
102
RTVSPost2010Prop51ColorRGB
 90
-16777216
102
RTVSPost2010PropOp51
 70
     0
102
RTVSPost2010Prop52
140
1.0
102
RTVSPost2010PropOp52
 70
     0
102
RTVSPost2010Prop53
 90
        2
102
RTVSPost2010PropOp53
 70
     0
102
RTVSPost2010Prop54
  1
strokes_ogs.tif
102
RTVSPost2010PropOp54
 70
     0
102
RTVSPost2010Prop55
280
     0
102
RTVSPost2010PropOp55
 70
     0
102
RTVSPost2010Prop56
140
1.0
102
RTVSPost2010PropOp56
 70
     0
102
RTVSPost2010Prop57
140
1.0
102
RTVSPost2010PropOp57
 70
     0
  0
XRECORD
  5
1E3
102
{ACAD_REACTORS
330
1E2
102
}
330
1E2
100
AcDbXrecord
280
     1
102
RTVSPropertyOp0
 70
     1
102
RTVSPropertyOp1
 70
     1
102
RTVSPropertyOp2
 70
     1
102
RTVSPropertyOp3
 70
     1
102
RTVSPropertyOp4
 70
     1
102
RTVSPropertyOp5
 70
     1
102
RTVSPropertyOp6
 70
     1
102
RTVSPropertyOp7
 70
     1
102
RTVSPropertyOp8
 70
     1
102
RTVSPropertyOp9
 70
     1
102
RTVSPropertyOp10
 70
     1
102
RTVSPropertyOp11
 70
     1
102
RTVSPropertyOp12
 70
     1
102
RTVSPropertyOp13
 70
     1
102
RTVSPropertyOp14
 70
     1
102
RTVSPropertyOp15
 70
     1
102
RTVSPropertyOp16
 70
     1
102
RTVSPropertyOp17
 70
     1
102
RTVSPropertyOp18
 70
     1
102
RTVSPropertyOp19
 70
     1
102
RTVSPropertyOp20
 70
     1
102
RTVSPropertyOp21
 70
     1
102
RTVSPropertyOp22
 70
     1
102
RTVSPropertyOp23
 70
     1
102
RTVSPropertyOp24
 70
     1
102
RTVSPropertyOp25
 70
     1
102
RTVSPropertyOp26
 70
     1
102
RTVSPropertyOp27
 70
     1
102
RTVSPropertyOp28
 70
     1
102
RTVSPropertyOp29
 70
     1
102
RTVSPropertyOp30
 70
     1
102
RTVSPropertyOp31
 70
     1
102
RTVSPropertyOp32
 70
     1
102
RTVSPropertyOp33
 70
     1
102
RTVSPropertyOp34
 70
     1
102
RTVSPropertyOp35
 70
     1
102
RTVSPropertyOp36
 70
     1
102
RTVSPropertyOp37
 70
     1
102
RTVSPropertyOp38
 70
     1
102
RTVSPropertyOp39
 70
     1
102
RTVSPropertyOp40
 70
     1
102
RTVSPropertyOp41
 70
     1
102
RTVSPropertyOp42
 70
     1
102
RTVSPropertyOp43
 70
     1
102
RTVSPropertyOp44
 70
     1
102
RTVSPropertyOp45
 70
     1
102
RTVSPropertyOp46
 70
     1
102
RTVSPropertyOp47
 70
     1
102
RTVSPropertyOp48
 70
     1
102
RTVSPropertyOp49
 70
     1
102
RTVSPropertyOp50
 70
     1
102
RTVSPropertyOp51
 70
     0
102
RTVSPropertyOp52
 70
     0
102
RTVSPropertyOp53
 70
     1
102
RTVSPropertyOp54
 70
     1
102
RTVSPropertyOp55
 70
     1
102
RTVSPropertyOp56
 70
     1
102
RTVSPropertyOp57
 70
     1
102
RTVSPost2010Prop28
280
     0
102
RTVSPost2010PropOp28
 70
     1
102
RTVSPost2010Prop29
280
     1
102
RTVSPost2010PropOp29
 70
     1
102
RTVSPost2010Prop30
280
     1
102
RTVSPost2010PropOp30
 70
     1
102
RTVSPost2010Prop31
280
     0
102
RTVSPost2010PropOp31
 70
     1
102
RTVSPost2010Prop32
280
     0
102
RTVSPost2010PropOp32
 70
     1
102
RTVSPost2010Prop33
280
     0
102
RTVSPost2010PropOp33
 70
     1
102
RTVSPost2010Prop34
280
     0
102
RTVSPost2010PropOp34
 70
     1
102
RTVSPost2010Prop35
280
     0
102
RTVSPost2010PropOp35
 70
     1
102
RTVSPost2010Prop36
280
     0
102
RTVSPost2010PropOp36
 70
     1
102
RTVSPost2010Prop37
 90
       50
102
RTVSPost2010PropOp37
 70
     1
102
RTVSPost2010Prop38
140
0.0
102
RTVSPost2010PropOp38
 70
     1
102
RTVSPost2010Prop39
140
1.0
102
RTVSPost2010PropOp39
 70
     1
102
RTVSPost2010Prop40
 90
        0
102
RTVSPost2010PropOp40
 70
     1
102
RTVSPost2010Prop41ColorIndex
 90
       18
102
RTVSPost2010Prop41ColorRGB
 90
        0
102
RTVSPost2010PropOp41
 70
     1
102
RTVSPost2010Prop42
 90
       50
102
RTVSPost2010PropOp42
 70
     1
102
RTVSPost2010Prop43
 90
        3
102
RTVSPost2010PropOp43
 70
     1
102
RTVSPost2010Prop44ColorIndex
 90
        5
102
RTVSPost2010Prop44ColorRGB
 90
      255
102
RTVSPost2010PropOp44
 70
     1
102
RTVSPost2010Prop45
280
     0
102
RTVSPost2010PropOp45
 70
     1
102
RTVSPost2010Prop46
 90
       50
102
RTVSPost2010PropOp46
 70
     1
102
RTVSPost2010Prop47
 90
       50
102
RTVSPost2010PropOp47
 70
     1
102
RTVSPost2010Prop48
 90
       50
102
RTVSPost2010PropOp48
 70
     1
102
RTVSPost2010Prop49
280
     0
102
RTVSPost2010PropOp49
 70
     1
102
RTVSPost2010Prop50
 90
       50
102
RTVSPost2010PropOp50
 70
     1
102
RTVSPost2010Prop51ColorIndex
 90
      256
102
RTVSPost2010Prop51ColorRGB
 90
-16777216
102
RTVSPost2010PropOp51
 70
     0
102
RTVSPost2010Prop52
140
1.0
102
RTVSPost2010PropOp52
 70
     0
102
RTVSPost2010Prop53
 90
        2
102
RTVSPost2010PropOp53
 70
     1
102
RTVSPost2010Prop54
  1
strokes_ogs.tif
102
RTVSPost2010PropOp54
 70
     1
102
RTVSPost2010Prop55
280
     0
102
RTVSPost2010PropOp55
 70
     1
102
RTVSPost2010Prop56
140
1.0
102
RTVSPost2010PropOp56
 70
     1
102
RTVSPost2010Prop57
140
1.0
102
RTVSPost2010PropOp57
 70
     1
  0
XRECORD
  5
1C7
102
{ACAD_REACTORS
330
1C6
102
}
330
1C6
100
AcDbXrecord
280
     1
102
RTVSPropertyOp0
 70
     1
102
RTVSPropertyOp1
 70
     1
102
RTVSPropertyOp2
 70
     1
102
RTVSPropertyOp3
 70
     1
102
RTVSPropertyOp4
 70
     1
102
RTVSPropertyOp5
 70
     1
102
RTVSPropertyOp6
 70
     1
102
RTVSPropertyOp7
 70
     1
102
RTVSPropertyOp8
 70
     1
102
RTVSPropertyOp9
 70
     1
102
RTVSPropertyOp10
 70
     1
102
RTVSPropertyOp11
 70
     1
102
RTVSPropertyOp12
 70
     1
102
RTVSPropertyOp13
 70
     1
102
RTVSPropertyOp14
 70
     1
102
RTVSPropertyOp15
 70
     1
102
RTVSPropertyOp16
 70
     1
102
RTVSPropertyOp17
 70
     1
102
RTVSPropertyOp18
 70
     1
102
RTVSPropertyOp19
 70
     1
102
RTVSPropertyOp20
 70
     1
102
RTVSPropertyOp21
 70
     1
102
RTVSPropertyOp22
 70
     1
102
RTVSPropertyOp23
 70
     1
102
RTVSPropertyOp24
 70
     1
102
RTVSPropertyOp25
 70
     1
102
RTVSPropertyOp26
 70
     1
102
RTVSPropertyOp27
 70
     1
102
RTVSPropertyOp28
 70
     1
102
RTVSPropertyOp29
 70
     1
102
RTVSPropertyOp30
 70
     1
102
RTVSPropertyOp31
 70
     1
102
RTVSPropertyOp32
 70
     1
102
RTVSPropertyOp33
 70
     1
102
RTVSPropertyOp34
 70
     1
102
RTVSPropertyOp35
 70
     1
102
RTVSPropertyOp36
 70
     1
102
RTVSPropertyOp37
 70
     1
102
RTVSPropertyOp38
 70
     1
102
RTVSPropertyOp39
 70
     1
102
RTVSPropertyOp40
 70
     1
102
RTVSPropertyOp41
 70
     1
102
RTVSPropertyOp42
 70
     1
102
RTVSPropertyOp43
 70
     1
102
RTVSPropertyOp44
 70
     1
102
RTVSPropertyOp45
 70
     1
102
RTVSPropertyOp46
 70
     1
102
RTVSPropertyOp47
 70
     1
102
RTVSPropertyOp48
 70
     1
102
RTVSPropertyOp49
 70
     1
102
RTVSPropertyOp50
 70
     1
102
RTVSPropertyOp51
 70
     0
102
RTVSPropertyOp52
 70
     0
102
RTVSPropertyOp53
 70
     1
102
RTVSPropertyOp54
 70
     1
102
RTVSPropertyOp55
 70
     1
102
RTVSPropertyOp56
 70
     1
102
RTVSPropertyOp57
 70
     1
102
RTVSPost2010Prop28
280
     0
102
RTVSPost2010PropOp28
 70
     1
102
RTVSPost2010Prop29
280
     1
102
RTVSPost2010PropOp29
 70
     1
102
RTVSPost2010Prop30
280
     1
102
RTVSPost2010PropOp30
 70
     1
102
RTVSPost2010Prop31
280
     0
102
RTVSPost2010PropOp31
 70
     1
102
RTVSPost2010Prop32
280
     0
102
RTVSPost2010PropOp32
 70
     1
102
RTVSPost2010Prop33
280
     0
102
RTVSPost2010PropOp33
 70
     1
102
RTVSPost2010Prop34
280
     0
102
RTVSPost2010PropOp34
 70
     1
102
RTVSPost2010Prop35
280
     0
102
RTVSPost2010PropOp35
 70
     1
102
RTVSPost2010Prop36
280
     0
102
RTVSPost2010PropOp36
 70
     1
102
RTVSPost2010Prop37
 90
       50
102
RTVSPost2010PropOp37
 70
     1
102
RTVSPost2010Prop38
140
0.0
102
RTVSPost2010PropOp38
 70
     1
102
RTVSPost2010Prop39
140
1.0
102
RTVSPost2010PropOp39
 70
     1
102
RTVSPost2010Prop40
 90
        0
102
RTVSPost2010PropOp40
 70
     1
102
RTVSPost2010Prop41ColorIndex
 90
       18
102
RTVSPost2010Prop41ColorRGB
 90
        0
102
RTVSPost2010PropOp41
 70
     1
102
RTVSPost2010Prop42
 90
       50
102
RTVSPost2010PropOp42
 70
     1
102
RTVSPost2010Prop43
 90
        3
102
RTVSPost2010PropOp43
 70
     1
102
RTVSPost2010Prop44ColorIndex
 90
        5
102
RTVSPost2010Prop44ColorRGB
 90
      255
102
RTVSPost2010PropOp44
 70
     1
102
RTVSPost2010Prop45
280
     0
102
RTVSPost2010PropOp45
 70
     1
102
RTVSPost2010Prop46
 90
       50
102
RTVSPost2010PropOp46
 70
     1
102
RTVSPost2010Prop47
 90
       50
102
RTVSPost2010PropOp47
 70
     1
102
RTVSPost2010Prop48
 90
       50
102
RTVSPost2010PropOp48
 70
     1
102
RTVSPost2010Prop49
280
     0
102
RTVSPost2010PropOp49
 70
     1
102
RTVSPost2010Prop50
 90
       50
102
RTVSPost2010PropOp50
 70
     1
102
RTVSPost2010Prop51ColorIndex
 90
      256
102
RTVSPost2010Prop51ColorRGB
 90
-16777216
102
RTVSPost2010PropOp51
 70
     0
102
RTVSPost2010Prop52
140
1.0
102
RTVSPost2010PropOp52
 70
     0
102
RTVSPost2010Prop53
 90
        2
102
RTVSPost2010PropOp53
 70
     1
102
RTVSPost2010Prop54
  1
strokes_ogs.tif
102
RTVSPost2010PropOp54
 70
     1
102
RTVSPost2010Prop55
280
     0
102
RTVSPost2010PropOp55
 70
     1
102
RTVSPost2010Prop56
140
1.0
102
RTVSPost2010PropOp56
 70
     1
102
RTVSPost2010Prop57
140
1.0
102
RTVSPost2010PropOp57
 70
     1
  0
XRECORD
  5
1C9
102
{ACAD_REACTORS
330
1C8
102
}
330
1C8
100
AcDbXrecord
280
     1
102
RTVSPropertyOp0
 70
     1
102
RTVSPropertyOp1
 70
     1
102
RTVSPropertyOp2
 70
     1
102
RTVSPropertyOp3
 70
     1
102
RTVSPropertyOp4
 70
     1
102
RTVSPropertyOp5
 70
     1
102
RTVSPropertyOp6
 70
     1
102
RTVSPropertyOp7
 70
     1
102
RTVSPropertyOp8
 70
     1
102
RTVSPropertyOp9
 70
     1
102
RTVSPropertyOp10
 70
     1
102
RTVSPropertyOp11
 70
     1
102
RTVSPropertyOp12
 70
     1
102
RTVSPropertyOp13
 70
     1
102
RTVSPropertyOp14
 70
     1
102
RTVSPropertyOp15
 70
     1
102
RTVSPropertyOp16
 70
     1
102
RTVSPropertyOp17
 70
     1
102
RTVSPropertyOp18
 70
     1
102
RTVSPropertyOp19
 70
     1
102
RTVSPropertyOp20
 70
     1
102
RTVSPropertyOp21
 70
     1
102
RTVSPropertyOp22
 70
     1
102
RTVSPropertyOp23
 70
     1
102
RTVSPropertyOp24
 70
     1
102
RTVSPropertyOp25
 70
     1
102
RTVSPropertyOp26
 70
     1
102
RTVSPropertyOp27
 70
     1
102
RTVSPropertyOp28
 70
     1
102
RTVSPropertyOp29
 70
     1
102
RTVSPropertyOp30
 70
     1
102
RTVSPropertyOp31
 70
     1
102
RTVSPropertyOp32
 70
     1
102
RTVSPropertyOp33
 70
     1
102
RTVSPropertyOp34
 70
     1
102
RTVSPropertyOp35
 70
     1
102
RTVSPropertyOp36
 70
     1
102
RTVSPropertyOp37
 70
     1
102
RTVSPropertyOp38
 70
     1
102
RTVSPropertyOp39
 70
     1
102
RTVSPropertyOp40
 70
     1
102
RTVSPropertyOp41
 70
     1
102
RTVSPropertyOp42
 70
     1
102
RTVSPropertyOp43
 70
     1
102
RTVSPropertyOp44
 70
     1
102
RTVSPropertyOp45
 70
     1
102
RTVSPropertyOp46
 70
     1
102
RTVSPropertyOp47
 70
     1
102
RTVSPropertyOp48
 70
     1
102
RTVSPropertyOp49
 70
     1
102
RTVSPropertyOp50
 70
     1
102
RTVSPropertyOp51
 70
     0
102
RTVSPropertyOp52
 70
     0
102
RTVSPropertyOp53
 70
     1
102
RTVSPropertyOp54
 70
     1
102
RTVSPropertyOp55
 70
     1
102
RTVSPropertyOp56
 70
     1
102
RTVSPropertyOp57
 70
     1
102
RTVSPost2010Prop28
280
     0
102
RTVSPost2010PropOp28
 70
     1
102
RTVSPost2010Prop29
280
     1
102
RTVSPost2010PropOp29
 70
     1
102
RTVSPost2010Prop30
280
     1
102
RTVSPost2010PropOp30
 70
     1
102
RTVSPost2010Prop31
280
     0
102
RTVSPost2010PropOp31
 70
     1
102
RTVSPost2010Prop32
280
     0
102
RTVSPost2010PropOp32
 70
     1
102
RTVSPost2010Prop33
280
     0
102
RTVSPost2010PropOp33
 70
     1
102
RTVSPost2010Prop34
280
     0
102
RTVSPost2010PropOp34
 70
     1
102
RTVSPost2010Prop35
280
     0
102
RTVSPost2010PropOp35
 70
     1
102
RTVSPost2010Prop36
280
     0
102
RTVSPost2010PropOp36
 70
     1
102
RTVSPost2010Prop37
 90
       50
102
RTVSPost2010PropOp37
 70
     1
102
RTVSPost2010Prop38
140
0.0
102
RTVSPost2010PropOp38
 70
     1
102
RTVSPost2010Prop39
140
1.0
102
RTVSPost2010PropOp39
 70
     1
102
RTVSPost2010Prop40
 90
        0
102
RTVSPost2010PropOp40
 70
     1
102
RTVSPost2010Prop41ColorIndex
 90
       18
102
RTVSPost2010Prop41ColorRGB
 90
        0
102
RTVSPost2010PropOp41
 70
     1
102
RTVSPost2010Prop42
 90
       50
102
RTVSPost2010PropOp42
 70
     1
102
RTVSPost2010Prop43
 90
        3
102
RTVSPost2010PropOp43
 70
     1
102
RTVSPost2010Prop44ColorIndex
 90
        5
102
RTVSPost2010Prop44ColorRGB
 90
      255
102
RTVSPost2010PropOp44
 70
     1
102
RTVSPost2010Prop45
280
     0
102
RTVSPost2010PropOp45
 70
     1
102
RTVSPost2010Prop46
 90
       50
102
RTVSPost2010PropOp46
 70
     1
102
RTVSPost2010Prop47
 90
       50
102
RTVSPost2010PropOp47
 70
     1
102
RTVSPost2010Prop48
 90
       50
102
RTVSPost2010PropOp48
 70
     1
102
RTVSPost2010Prop49
280
     0
102
RTVSPost2010PropOp49
 70
     1
102
RTVSPost2010Prop50
 90
       50
102
RTVSPost2010PropOp50
 70
     1
102
RTVSPost2010Prop51ColorIndex
 90
      256
102
RTVSPost2010Prop51ColorRGB
 90
-16777216
102
RTVSPost2010PropOp51
 70
     0
102
RTVSPost2010Prop52
140
1.0
102
RTVSPost2010PropOp52
 70
     0
102
RTVSPost2010Prop53
 90
        2
102
RTVSPost2010PropOp53
 70
     1
102
RTVSPost2010Prop54
  1
strokes_ogs.tif
102
RTVSPost2010PropOp54
 70
     1
102
RTVSPost2010Prop55
280
     0
102
RTVSPost2010PropOp55
 70
     1
102
RTVSPost2010Prop56
140
1.0
102
RTVSPost2010PropOp56
 70
     1
102
RTVSPost2010Prop57
140
1.0
102
RTVSPost2010PropOp57
 70
     1
  0
XRECORD
  5
1CB
102
{ACAD_REACTORS
330
1CA
102
}
330
1CA
100
AcDbXrecord
280
     1
102
RTVSPropertyOp0
 70
     1
102
RTVSPropertyOp1
 70
     1
102
RTVSPropertyOp2
 70
     1
102
RTVSPropertyOp3
 70
     1
102
RTVSPropertyOp4
 70
     1
102
RTVSPropertyOp5
 70
     1
102
RTVSPropertyOp6
 70
     1
102
RTVSPropertyOp7
 70
     1
102
RTVSPropertyOp8
 70
     1
102
RTVSPropertyOp9
 70
     1
102
RTVSPropertyOp10
 70
     1
102
RTVSPropertyOp11
 70
     1
102
RTVSPropertyOp12
 70
     1
102
RTVSPropertyOp13
 70
     1
102
RTVSPropertyOp14
 70
     1
102
RTVSPropertyOp15
 70
     1
102
RTVSPropertyOp16
 70
     1
102
RTVSPropertyOp17
 70
     1
102
RTVSPropertyOp18
 70
     1
102
RTVSPropertyOp19
 70
     1
102
RTVSPropertyOp20
 70
     1
102
RTVSPropertyOp21
 70
     1
102
RTVSPropertyOp22
 70
     1
102
RTVSPropertyOp23
 70
     1
102
RTVSPropertyOp24
 70
     1
102
RTVSPropertyOp25
 70
     1
102
RTVSPropertyOp26
 70
     1
102
RTVSPropertyOp27
 70
     1
102
RTVSPropertyOp28
 70
     1
102
RTVSPropertyOp29
 70
     1
102
RTVSPropertyOp30
 70
     1
102
RTVSPropertyOp31
 70
     1
102
RTVSPropertyOp32
 70
     1
102
RTVSPropertyOp33
 70
     1
102
RTVSPropertyOp34
 70
     1
102
RTVSPropertyOp35
 70
     1
102
RTVSPropertyOp36
 70
     1
102
RTVSPropertyOp37
 70
     1
102
RTVSPropertyOp38
 70
     1
102
RTVSPropertyOp39
 70
     1
102
RTVSPropertyOp40
 70
     1
102
RTVSPropertyOp41
 70
     1
102
RTVSPropertyOp42
 70
     1
102
RTVSPropertyOp43
 70
     1
102
RTVSPropertyOp44
 70
     1
102
RTVSPropertyOp45
 70
     1
102
RTVSPropertyOp46
 70
     1
102
RTVSPropertyOp47
 70
     1
102
RTVSPropertyOp48
 70
     1
102
RTVSPropertyOp49
 70
     1
102
RTVSPropertyOp50
 70
     1
102
RTVSPropertyOp51
 70
     0
102
RTVSPropertyOp52
 70
     0
102
RTVSPropertyOp53
 70
     1
102
RTVSPropertyOp54
 70
     1
102
RTVSPropertyOp55
 70
     1
102
RTVSPropertyOp56
 70
     1
102
RTVSPropertyOp57
 70
     1
102
RTVSPost2010Prop28
280
     0
102
RTVSPost2010PropOp28
 70
     1
102
RTVSPost2010Prop29
280
     1
102
RTVSPost2010PropOp29
 70
     1
102
RTVSPost2010Prop30
280
     1
102
RTVSPost2010PropOp30
 70
     1
102
RTVSPost2010Prop31
280
     0
102
RTVSPost2010PropOp31
 70
     1
102
RTVSPost2010Prop32
280
     0
102
RTVSPost2010PropOp32
 70
     1
102
RTVSPost2010Prop33
280
     0
102
RTVSPost2010PropOp33
 70
     1
102
RTVSPost2010Prop34
280
     0
102
RTVSPost2010PropOp34
 70
     1
102
RTVSPost2010Prop35
280
     0
102
RTVSPost2010PropOp35
 70
     1
102
RTVSPost2010Prop36
280
     0
102
RTVSPost2010PropOp36
 70
     1
102
RTVSPost2010Prop37
 90
       50
102
RTVSPost2010PropOp37
 70
     1
102
RTVSPost2010Prop38
140
0.0
102
RTVSPost2010PropOp38
 70
     1
102
RTVSPost2010Prop39
140
1.0
102
RTVSPost2010PropOp39
 70
     1
102
RTVSPost2010Prop40
 90
        0
102
RTVSPost2010PropOp40
 70
     1
102
RTVSPost2010Prop41ColorIndex
 90
       18
102
RTVSPost2010Prop41ColorRGB
 90
        0
102
RTVSPost2010PropOp41
 70
     1
102
RTVSPost2010Prop42
 90
       50
102
RTVSPost2010PropOp42
 70
     1
102
RTVSPost2010Prop43
 90
        3
102
RTVSPost2010PropOp43
 70
     1
102
RTVSPost2010Prop44ColorIndex
 90
        5
102
RTVSPost2010Prop44ColorRGB
 90
      255
102
RTVSPost2010PropOp44
 70
     1
102
RTVSPost2010Prop45
280
     0
102
RTVSPost2010PropOp45
 70
     1
102
RTVSPost2010Prop46
 90
       50
102
RTVSPost2010PropOp46
 70
     1
102
RTVSPost2010Prop47
 90
       50
102
RTVSPost2010PropOp47
 70
     1
102
RTVSPost2010Prop48
 90
       50
102
RTVSPost2010PropOp48
 70
     1
102
RTVSPost2010Prop49
280
     0
102
RTVSPost2010PropOp49
 70
     1
102
RTVSPost2010Prop50
 90
       50
102
RTVSPost2010PropOp50
 70
     1
102
RTVSPost2010Prop51ColorIndex
 90
      256
102
RTVSPost2010Prop51ColorRGB
 90
-16777216
102
RTVSPost2010PropOp51
 70
     0
102
RTVSPost2010Prop52
140
1.0
102
RTVSPost2010PropOp52
 70
     0
102
RTVSPost2010Prop53
 90
        2
102
RTVSPost2010PropOp53
 70
     1
102
RTVSPost2010Prop54
  1
strokes_ogs.tif
102
RTVSPost2010PropOp54
 70
     1
102
RTVSPost2010Prop55
280
     0
102
RTVSPost2010PropOp55
 70
     1
102
RTVSPost2010Prop56
140
1.0
102
RTVSPost2010PropOp56
 70
     1
102
RTVSPost2010Prop57
140
1.0
102
RTVSPost2010PropOp57
 70
     1
  0
XRECORD
  5
1CD
102
{ACAD_REACTORS
330
1CC
102
}
330
1CC
100
AcDbXrecord
280
     1
102
RTVSPropertyOp0
 70
     1
102
RTVSPropertyOp1
 70
     1
102
RTVSPropertyOp2
 70
     1
102
RTVSPropertyOp3
 70
     1
102
RTVSPropertyOp4
 70
     1
102
RTVSPropertyOp5
 70
     1
102
RTVSPropertyOp6
 70
     1
102
RTVSPropertyOp7
 70
     1
102
RTVSPropertyOp8
 70
     1
102
RTVSPropertyOp9
 70
     1
102
RTVSPropertyOp10
 70
     1
102
RTVSPropertyOp11
 70
     1
102
RTVSPropertyOp12
 70
     1
102
RTVSPropertyOp13
 70
     1
102
RTVSPropertyOp14
 70
     1
102
RTVSPropertyOp15
 70
     1
102
RTVSPropertyOp16
 70
     1
102
RTVSPropertyOp17
 70
     1
102
RTVSPropertyOp18
 70
     1
102
RTVSPropertyOp19
 70
     1
102
RTVSPropertyOp20
 70
     1
102
RTVSPropertyOp21
 70
     1
102
RTVSPropertyOp22
 70
     1
102
RTVSPropertyOp23
 70
     1
102
RTVSPropertyOp24
 70
     1
102
RTVSPropertyOp25
 70
     1
102
RTVSPropertyOp26
 70
     1
102
RTVSPropertyOp27
 70
     1
102
RTVSPropertyOp28
 70
     1
102
RTVSPropertyOp29
 70
     1
102
RTVSPropertyOp30
 70
     1
102
RTVSPropertyOp31
 70
     1
102
RTVSPropertyOp32
 70
     1
102
RTVSPropertyOp33
 70
     1
102
RTVSPropertyOp34
 70
     1
102
RTVSPropertyOp35
 70
     1
102
RTVSPropertyOp36
 70
     1
102
RTVSPropertyOp37
 70
     1
102
RTVSPropertyOp38
 70
     1
102
RTVSPropertyOp39
 70
     1
102
RTVSPropertyOp40
 70
     1
102
RTVSPropertyOp41
 70
     1
102
RTVSPropertyOp42
 70
     1
102
RTVSPropertyOp43
 70
     1
102
RTVSPropertyOp44
 70
     1
102
RTVSPropertyOp45
 70
     1
102
RTVSPropertyOp46
 70
     1
102
RTVSPropertyOp47
 70
     1
102
RTVSPropertyOp48
 70
     1
102
RTVSPropertyOp49
 70
     1
102
RTVSPropertyOp50
 70
     1
102
RTVSPropertyOp51
 70
     0
102
RTVSPropertyOp52
 70
     0
102
RTVSPropertyOp53
 70
     1
102
RTVSPropertyOp54
 70
     1
102
RTVSPropertyOp55
 70
     1
102
RTVSPropertyOp56
 70
     1
102
RTVSPropertyOp57
 70
     1
102
RTVSPost2010Prop28
280
     0
102
RTVSPost2010PropOp28
 70
     1
102
RTVSPost2010Prop29
280
     1
102
RTVSPost2010PropOp29
 70
     1
102
RTVSPost2010Prop30
280
     1
102
RTVSPost2010PropOp30
 70
     1
102
RTVSPost2010Prop31
280
     0
102
RTVSPost2010PropOp31
 70
     1
102
RTVSPost2010Prop32
280
     0
102
RTVSPost2010PropOp32
 70
     1
102
RTVSPost2010Prop33
280
     0
102
RTVSPost2010PropOp33
 70
     1
102
RTVSPost2010Prop34
280
     0
102
RTVSPost2010PropOp34
 70
     1
102
RTVSPost2010Prop35
280
     0
102
RTVSPost2010PropOp35
 70
     1
102
RTVSPost2010Prop36
280
     0
102
RTVSPost2010PropOp36
 70
     1
102
RTVSPost2010Prop37
 90
       50
102
RTVSPost2010PropOp37
 70
     1
102
RTVSPost2010Prop38
140
0.0
102
RTVSPost2010PropOp38
 70
     1
102
RTVSPost2010Prop39
140
1.0
102
RTVSPost2010PropOp39
 70
     1
102
RTVSPost2010Prop40
 90
        0
102
RTVSPost2010PropOp40
 70
     1
102
RTVSPost2010Prop41ColorIndex
 90
       18
102
RTVSPost2010Prop41ColorRGB
 90
        0
102
RTVSPost2010PropOp41
 70
     1
102
RTVSPost2010Prop42
 90
       50
102
RTVSPost2010PropOp42
 70
     1
102
RTVSPost2010Prop43
 90
        3
102
RTVSPost2010PropOp43
 70
     1
102
RTVSPost2010Prop44ColorIndex
 90
        5
102
RTVSPost2010Prop44ColorRGB
 90
      255
102
RTVSPost2010PropOp44
 70
     1
102
RTVSPost2010Prop45
280
     0
102
RTVSPost2010PropOp45
 70
     1
102
RTVSPost2010Prop46
 90
       50
102
RTVSPost2010PropOp46
 70
     1
102
RTVSPost2010Prop47
 90
       50
102
RTVSPost2010PropOp47
 70
     1
102
RTVSPost2010Prop48
 90
       50
102
RTVSPost2010PropOp48
 70
     1
102
RTVSPost2010Prop49
280
     0
102
RTVSPost2010PropOp49
 70
     1
102
RTVSPost2010Prop50
 90
       50
102
RTVSPost2010PropOp50
 70
     1
102
RTVSPost2010Prop51ColorIndex
 90
      256
102
RTVSPost2010Prop51ColorRGB
 90
-16777216
102
RTVSPost2010PropOp51
 70
     0
102
RTVSPost2010Prop52
140
1.0
102
RTVSPost2010PropOp52
 70
     0
102
RTVSPost2010Prop53
 90
        2
102
RTVSPost2010PropOp53
 70
     1
102
RTVSPost2010Prop54
  1
strokes_ogs.tif
102
RTVSPost2010PropOp54
 70
     1
102
RTVSPost2010Prop55
280
     0
102
RTVSPost2010PropOp55
 70
     1
102
RTVSPost2010Prop56
140
1.0
102
RTVSPost2010PropOp56
 70
     1
102
RTVSPost2010Prop57
140
1.0
102
RTVSPost2010PropOp57
 70
     1
  0
XRECORD
  5
1D3
102
{ACAD_REACTORS
330
1D2
102
}
330
1D2
100
AcDbXrecord
280
     1
102
RTVSPropertyOp0
 70
     1
102
RTVSPropertyOp1
 70
     1
102
RTVSPropertyOp2
 70
     1
102
RTVSPropertyOp3
 70
     1
102
RTVSPropertyOp4
 70
     1
102
RTVSPropertyOp5
 70
     1
102
RTVSPropertyOp6
 70
     1
102
RTVSPropertyOp7
 70
     1
102
RTVSPropertyOp8
 70
     1
102
RTVSPropertyOp9
 70
     1
102
RTVSPropertyOp10
 70
     1
102
RTVSPropertyOp11
 70
     1
102
RTVSPropertyOp12
 70
     1
102
RTVSPropertyOp13
 70
     1
102
RTVSPropertyOp14
 70
     1
102
RTVSPropertyOp15
 70
     1
102
RTVSPropertyOp16
 70
     1
102
RTVSPropertyOp17
 70
     1
102
RTVSPropertyOp18
 70
     1
102
RTVSPropertyOp19
 70
     1
102
RTVSPropertyOp20
 70
     1
102
RTVSPropertyOp21
 70
     1
102
RTVSPropertyOp22
 70
     1
102
RTVSPropertyOp23
 70
     1
102
RTVSPropertyOp24
 70
     1
102
RTVSPropertyOp25
 70
     1
102
RTVSPropertyOp26
 70
     1
102
RTVSPropertyOp27
 70
     1
102
RTVSPropertyOp28
 70
     1
102
RTVSPropertyOp29
 70
     1
102
RTVSPropertyOp30
 70
     1
102
RTVSPropertyOp31
 70
     1
102
RTVSPropertyOp32
 70
     1
102
RTVSPropertyOp33
 70
     1
102
RTVSPropertyOp34
 70
     1
102
RTVSPropertyOp35
 70
     1
102
RTVSPropertyOp36
 70
     1
102
RTVSPropertyOp37
 70
     1
102
RTVSPropertyOp38
 70
     1
102
RTVSPropertyOp39
 70
     1
102
RTVSPropertyOp40
 70
     1
102
RTVSPropertyOp41
 70
     1
102
RTVSPropertyOp42
 70
     1
102
RTVSPropertyOp43
 70
     1
102
RTVSPropertyOp44
 70
     1
102
RTVSPropertyOp45
 70
     1
102
RTVSPropertyOp46
 70
     1
102
RTVSPropertyOp47
 70
     1
102
RTVSPropertyOp48
 70
     1
102
RTVSPropertyOp49
 70
     1
102
RTVSPropertyOp50
 70
     1
102
RTVSPropertyOp51
 70
     0
102
RTVSPropertyOp52
 70
     0
102
RTVSPropertyOp53
 70
     1
102
RTVSPropertyOp54
 70
     1
102
RTVSPropertyOp55
 70
     1
102
RTVSPropertyOp56
 70
     1
102
RTVSPropertyOp57
 70
     1
102
RTVSPost2010Prop28
280
     0
102
RTVSPost2010PropOp28
 70
     1
102
RTVSPost2010Prop29
280
     1
102
RTVSPost2010PropOp29
 70
     1
102
RTVSPost2010Prop30
280
     1
102
RTVSPost2010PropOp30
 70
     1
102
RTVSPost2010Prop31
280
     0
102
RTVSPost2010PropOp31
 70
     1
102
RTVSPost2010Prop32
280
     0
102
RTVSPost2010PropOp32
 70
     1
102
RTVSPost2010Prop33
280
     0
102
RTVSPost2010PropOp33
 70
     1
102
RTVSPost2010Prop34
280
     0
102
RTVSPost2010PropOp34
 70
     1
102
RTVSPost2010Prop35
280
     0
102
RTVSPost2010PropOp35
 70
     1
102
RTVSPost2010Prop36
280
     0
102
RTVSPost2010PropOp36
 70
     1
102
RTVSPost2010Prop37
 90
       50
102
RTVSPost2010PropOp37
 70
     1
102
RTVSPost2010Prop38
140
0.0
102
RTVSPost2010PropOp38
 70
     1
102
RTVSPost2010Prop39
140
1.0
102
RTVSPost2010PropOp39
 70
     1
102
RTVSPost2010Prop40
 90
        0
102
RTVSPost2010PropOp40
 70
     1
102
RTVSPost2010Prop41ColorIndex
 90
       18
102
RTVSPost2010Prop41ColorRGB
 90
        0
102
RTVSPost2010PropOp41
 70
     1
102
RTVSPost2010Prop42
 90
       50
102
RTVSPost2010PropOp42
 70
     1
102
RTVSPost2010Prop43
 90
        3
102
RTVSPost2010PropOp43
 70
     1
102
RTVSPost2010Prop44ColorIndex
 90
        5
102
RTVSPost2010Prop44ColorRGB
 90
      255
102
RTVSPost2010PropOp44
 70
     1
102
RTVSPost2010Prop45
280
     0
102
RTVSPost2010PropOp45
 70
     1
102
RTVSPost2010Prop46
 90
       50
102
RTVSPost2010PropOp46
 70
     1
102
RTVSPost2010Prop47
 90
       50
102
RTVSPost2010PropOp47
 70
     1
102
RTVSPost2010Prop48
 90
       50
102
RTVSPost2010PropOp48
 70
     1
102
RTVSPost2010Prop49
280
     0
102
RTVSPost2010PropOp49
 70
     1
102
RTVSPost2010Prop50
 90
       50
102
RTVSPost2010PropOp50
 70
     1
102
RTVSPost2010Prop51ColorIndex
 90
      256
102
RTVSPost2010Prop51ColorRGB
 90
-16777216
102
RTVSPost2010PropOp51
 70
     0
102
RTVSPost2010Prop52
140
1.0
102
RTVSPost2010PropOp52
 70
     0
102
RTVSPost2010Prop53
 90
        2
102
RTVSPost2010PropOp53
 70
     1
102
RTVSPost2010Prop54
  1
strokes_ogs.tif
102
RTVSPost2010PropOp54
 70
     1
102
RTVSPost2010Prop55
280
     0
102
RTVSPost2010PropOp55
 70
     1
102
RTVSPost2010Prop56
140
1.0
102
RTVSPost2010PropOp56
 70
     1
102
RTVSPost2010Prop57
140
1.0
102
RTVSPost2010PropOp57
 70
     1
  0
XRECORD
  5
1E7
102
{ACAD_REACTORS
330
1E6
102
}
330
1E6
100
AcDbXrecord
280
     1
102
RTVSPropertyOp0
 70
     0
102
RTVSPropertyOp1
 70
     0
102
RTVSPropertyOp2
 70
     0
102
RTVSPropertyOp3
 70
     0
102
RTVSPropertyOp4
 70
     0
102
RTVSPropertyOp5
 70
     0
102
RTVSPropertyOp6
 70
     0
102
RTVSPropertyOp7
 70
     0
102
RTVSPropertyOp8
 70
     0
102
RTVSPropertyOp9
 70
     0
102
RTVSPropertyOp10
 70
     0
102
RTVSPropertyOp11
 70
     0
102
RTVSPropertyOp12
 70
     0
102
RTVSPropertyOp13
 70
     0
102
RTVSPropertyOp14
 70
     2
102
RTVSPropertyOp15
 70
     0
102
RTVSPropertyOp16
 70
     0
102
RTVSPropertyOp17
 70
     0
102
RTVSPropertyOp18
 70
     0
102
RTVSPropertyOp19
 70
     0
102
RTVSPropertyOp20
 70
     0
102
RTVSPropertyOp21
 70
     0
102
RTVSPropertyOp22
 70
     0
102
RTVSPropertyOp23
 70
     0
102
RTVSPropertyOp24
 70
     0
102
RTVSPropertyOp25
 70
     0
102
RTVSPropertyOp26
 70
     0
102
RTVSPropertyOp27
 70
     0
102
RTVSPropertyOp28
 70
     0
102
RTVSPropertyOp29
 70
     0
102
RTVSPropertyOp30
 70
     0
102
RTVSPropertyOp31
 70
     0
102
RTVSPropertyOp32
 70
     0
102
RTVSPropertyOp33
 70
     0
102
RTVSPropertyOp34
 70
     0
102
RTVSPropertyOp35
 70
     0
102
RTVSPropertyOp36
 70
     0
102
RTVSPropertyOp37
 70
     0
102
RTVSPropertyOp38
 70
     0
102
RTVSPropertyOp39
 70
     0
102
RTVSPropertyOp40
 70
     0
102
RTVSPropertyOp41
 70
     0
102
RTVSPropertyOp42
 70
     0
102
RTVSPropertyOp43
 70
     0
102
RTVSPropertyOp44
 70
     0
102
RTVSPropertyOp45
 70
     0
102
RTVSPropertyOp46
 70
     0
102
RTVSPropertyOp47
 70
     0
102
RTVSPropertyOp48
 70
     0
102
RTVSPropertyOp49
 70
     0
102
RTVSPropertyOp50
 70
     0
102
RTVSPropertyOp51
 70
     0
102
RTVSPropertyOp52
 70
     0
102
RTVSPropertyOp53
 70
     0
102
RTVSPropertyOp54
 70
     0
102
RTVSPropertyOp55
 70
     0
102
RTVSPropertyOp56
 70
     0
102
RTVSPropertyOp57
 70
     0
102
RTVSPost2010Prop28
280
     0
102
RTVSPost2010PropOp28
 70
     0
102
RTVSPost2010Prop29
280
     1
102
RTVSPost2010PropOp29
 70
     0
102
RTVSPost2010Prop30
280
     1
102
RTVSPost2010PropOp30
 70
     0
102
RTVSPost2010Prop31
280
     0
102
RTVSPost2010PropOp31
 70
     0
102
RTVSPost2010Prop32
280
     0
102
RTVSPost2010PropOp32
 70
     0
102
RTVSPost2010Prop33
280
     0
102
RTVSPost2010PropOp33
 70
     0
102
RTVSPost2010Prop34
280
     0
102
RTVSPost2010PropOp34
 70
     0
102
RTVSPost2010Prop35
280
     0
102
RTVSPost2010PropOp35
 70
     0
102
RTVSPost2010Prop36
280
     0
102
RTVSPost2010PropOp36
 70
     0
102
RTVSPost2010Prop37
 90
       50
102
RTVSPost2010PropOp37
 70
     0
102
RTVSPost2010Prop38
140
0.0
102
RTVSPost2010PropOp38
 70
     0
102
RTVSPost2010Prop39
140
1.0
102
RTVSPost2010PropOp39
 70
     0
102
RTVSPost2010Prop40
 90
        0
102
RTVSPost2010PropOp40
 70
     0
102
RTVSPost2010Prop41ColorIndex
 90
       18
102
RTVSPost2010Prop41ColorRGB
 90
        0
102
RTVSPost2010PropOp41
 70
     0
102
RTVSPost2010Prop42
 90
       50
102
RTVSPost2010PropOp42
 70
     0
102
RTVSPost2010Prop43
 90
        3
102
RTVSPost2010PropOp43
 70
     0
102
RTVSPost2010Prop44ColorIndex
 90
        5
102
RTVSPost2010Prop44ColorRGB
 90
      255
102
RTVSPost2010PropOp44
 70
     0
102
RTVSPost2010Prop45
280
     0
102
RTVSPost2010PropOp45
 70
     0
102
RTVSPost2010Prop46
 90
       50
102
RTVSPost2010PropOp46
 70
     0
102
RTVSPost2010Prop47
 90
       50
102
RTVSPost2010PropOp47
 70
     0
102
RTVSPost2010Prop48
 90
       50
102
RTVSPost2010PropOp48
 70
     0
102
RTVSPost2010Prop49
280
     0
102
RTVSPost2010PropOp49
 70
     0
102
RTVSPost2010Prop50
 90
       50
102
RTVSPost2010PropOp50
 70
     0
102
RTVSPost2010Prop51ColorIndex
 90
      256
102
RTVSPost2010Prop51ColorRGB
 90
-16777216
102
RTVSPost2010PropOp51
 70
     0
102
RTVSPost2010Prop52
140
1.0
102
RTVSPost2010PropOp52
 70
     0
102
RTVSPost2010Prop53
 90
        2
102
RTVSPost2010PropOp53
 70
     0
102
RTVSPost2010Prop54
  1
strokes_ogs.tif
102
RTVSPost2010PropOp54
 70
     0
102
RTVSPost2010Prop55
280
     0
102
RTVSPost2010PropOp55
 70
     0
102
RTVSPost2010Prop56
140
1.0
102
RTVSPost2010PropOp56
 70
     0
102
RTVSPost2010Prop57
140
1.0
102
RTVSPost2010PropOp57
 70
     0
  0
XRECORD
  5
1E1
102
{ACAD_REACTORS
330
1E0
102
}
330
1E0
100
AcDbXrecord
280
     1
102
RTVSPropertyOp0
 70
     1
102
RTVSPropertyOp1
 70
     1
102
RTVSPropertyOp2
 70
     1
102
RTVSPropertyOp3
 70
     1
102
RTVSPropertyOp4
 70
     1
102
RTVSPropertyOp5
 70
     1
102
RTVSPropertyOp6
 70
     1
102
RTVSPropertyOp7
 70
     1
102
RTVSPropertyOp8
 70
     1
102
RTVSPropertyOp9
 70
     1
102
RTVSPropertyOp10
 70
     1
102
RTVSPropertyOp11
 70
     1
102
RTVSPropertyOp12
 70
     1
102
RTVSPropertyOp13
 70
     1
102
RTVSPropertyOp14
 70
     1
102
RTVSPropertyOp15
 70
     1
102
RTVSPropertyOp16
 70
     1
102
RTVSPropertyOp17
 70
     1
102
RTVSPropertyOp18
 70
     1
102
RTVSPropertyOp19
 70
     1
102
RTVSPropertyOp20
 70
     1
102
RTVSPropertyOp21
 70
     1
102
RTVSPropertyOp22
 70
     1
102
RTVSPropertyOp23
 70
     1
102
RTVSPropertyOp24
 70
     1
102
RTVSPropertyOp25
 70
     1
102
RTVSPropertyOp26
 70
     1
102
RTVSPropertyOp27
 70
     1
102
RTVSPropertyOp28
 70
     1
102
RTVSPropertyOp29
 70
     1
102
RTVSPropertyOp30
 70
     1
102
RTVSPropertyOp31
 70
     1
102
RTVSPropertyOp32
 70
     1
102
RTVSPropertyOp33
 70
     1
102
RTVSPropertyOp34
 70
     1
102
RTVSPropertyOp35
 70
     1
102
RTVSPropertyOp36
 70
     1
102
RTVSPropertyOp37
 70
     1
102
RTVSPropertyOp38
 70
     1
102
RTVSPropertyOp39
 70
     1
102
RTVSPropertyOp40
 70
     1
102
RTVSPropertyOp41
 70
     1
102
RTVSPropertyOp42
 70
     1
102
RTVSPropertyOp43
 70
     1
102
RTVSPropertyOp44
 70
     1
102
RTVSPropertyOp45
 70
     1
102
RTVSPropertyOp46
 70
     1
102
RTVSPropertyOp47
 70
     1
102
RTVSPropertyOp48
 70
     1
102
RTVSPropertyOp49
 70
     1
102
RTVSPropertyOp50
 70
     1
102
RTVSPropertyOp51
 70
     0
102
RTVSPropertyOp52
 70
     0
102
RTVSPropertyOp53
 70
     1
102
RTVSPropertyOp54
 70
     1
102
RTVSPropertyOp55
 70
     1
102
RTVSPropertyOp56
 70
     1
102
RTVSPropertyOp57
 70
     1
102
RTVSPost2010Prop28
280
     0
102
RTVSPost2010PropOp28
 70
     1
102
RTVSPost2010Prop29
280
     1
102
RTVSPost2010PropOp29
 70
     1
102
RTVSPost2010Prop30
280
     1
102
RTVSPost2010PropOp30
 70
     1
102
RTVSPost2010Prop31
280
     0
102
RTVSPost2010PropOp31
 70
     1
102
RTVSPost2010Prop32
280
     0
102
RTVSPost2010PropOp32
 70
     1
102
RTVSPost2010Prop33
280
     0
102
RTVSPost2010PropOp33
 70
     1
102
RTVSPost2010Prop34
280
     0
102
RTVSPost2010PropOp34
 70
     1
102
RTVSPost2010Prop35
280
     0
102
RTVSPost2010PropOp35
 70
     1
102
RTVSPost2010Prop36
280
     0
102
RTVSPost2010PropOp36
 70
     1
102
RTVSPost2010Prop37
 90
       50
102
RTVSPost2010PropOp37
 70
     1
102
RTVSPost2010Prop38
140
0.0
102
RTVSPost2010PropOp38
 70
     1
102
RTVSPost2010Prop39
140
1.0
102
RTVSPost2010PropOp39
 70
     1
102
RTVSPost2010Prop40
 90
        0
102
RTVSPost2010PropOp40
 70
     1
102
RTVSPost2010Prop41ColorIndex
 90
       18
102
RTVSPost2010Prop41ColorRGB
 90
        0
102
RTVSPost2010PropOp41
 70
     1
102
RTVSPost2010Prop42
 90
       50
102
RTVSPost2010PropOp42
 70
     1
102
RTVSPost2010Prop43
 90
        3
102
RTVSPost2010PropOp43
 70
     1
102
RTVSPost2010Prop44ColorIndex
 90
        5
102
RTVSPost2010Prop44ColorRGB
 90
      255
102
RTVSPost2010PropOp44
 70
     1
102
RTVSPost2010Prop45
280
     0
102
RTVSPost2010PropOp45
 70
     1
102
RTVSPost2010Prop46
 90
       50
102
RTVSPost2010PropOp46
 70
     1
102
RTVSPost2010Prop47
 90
       50
102
RTVSPost2010PropOp47
 70
     1
102
RTVSPost2010Prop48
 90
       50
102
RTVSPost2010PropOp48
 70
     1
102
RTVSPost2010Prop49
280
     0
102
RTVSPost2010PropOp49
 70
     1
102
RTVSPost2010Prop50
 90
       50
102
RTVSPost2010PropOp50
 70
     1
102
RTVSPost2010Prop51ColorIndex
 90
      256
102
RTVSPost2010Prop51ColorRGB
 90
-16777216
102
RTVSPost2010PropOp51
 70
     0
102
RTVSPost2010Prop52
140
1.0
102
RTVSPost2010PropOp52
 70
     0
102
RTVSPost2010Prop53
 90
        2
102
RTVSPost2010PropOp53
 70
     1
102
RTVSPost2010Prop54
  1
strokes_ogs.tif
102
RTVSPost2010PropOp54
 70
     1
102
RTVSPost2010Prop55
280
     0
102
RTVSPost2010PropOp55
 70
     1
102
RTVSPost2010Prop56
140
1.0
102
RTVSPost2010PropOp56
 70
     1
102
RTVSPost2010Prop57
140
1.0
102
RTVSPost2010PropOp57
 70
     1
  0
XRECORD
  5
1E9
102
{ACAD_REACTORS
330
1E8
102
}
330
1E8
100
AcDbXrecord
280
     1
102
RTVSPropertyOp0
 70
     0
102
RTVSPropertyOp1
 70
     0
102
RTVSPropertyOp2
 70
     0
102
RTVSPropertyOp3
 70
     0
102
RTVSPropertyOp4
 70
     0
102
RTVSPropertyOp5
 70
     0
102
RTVSPropertyOp6
 70
     0
102
RTVSPropertyOp7
 70
     0
102
RTVSPropertyOp8
 70
     0
102
RTVSPropertyOp9
 70
     0
102
RTVSPropertyOp10
 70
     0
102
RTVSPropertyOp11
 70
     0
102
RTVSPropertyOp12
 70
     0
102
RTVSPropertyOp13
 70
     0
102
RTVSPropertyOp14
 70
     2
102
RTVSPropertyOp15
 70
     0
102
RTVSPropertyOp16
 70
     0
102
RTVSPropertyOp17
 70
     0
102
RTVSPropertyOp18
 70
     0
102
RTVSPropertyOp19
 70
     0
102
RTVSPropertyOp20
 70
     0
102
RTVSPropertyOp21
 70
     0
102
RTVSPropertyOp22
 70
     0
102
RTVSPropertyOp23
 70
     0
102
RTVSPropertyOp24
 70
     0
102
RTVSPropertyOp25
 70
     0
102
RTVSPropertyOp26
 70
     0
102
RTVSPropertyOp27
 70
     0
102
RTVSPropertyOp28
 70
     0
102
RTVSPropertyOp29
 70
     0
102
RTVSPropertyOp30
 70
     0
102
RTVSPropertyOp31
 70
     0
102
RTVSPropertyOp32
 70
     0
102
RTVSPropertyOp33
 70
     0
102
RTVSPropertyOp34
 70
     0
102
RTVSPropertyOp35
 70
     0
102
RTVSPropertyOp36
 70
     0
102
RTVSPropertyOp37
 70
     0
102
RTVSPropertyOp38
 70
     0
102
RTVSPropertyOp39
 70
     0
102
RTVSPropertyOp40
 70
     0
102
RTVSPropertyOp41
 70
     0
102
RTVSPropertyOp42
 70
     0
102
RTVSPropertyOp43
 70
     0
102
RTVSPropertyOp44
 70
     0
102
RTVSPropertyOp45
 70
     0
102
RTVSPropertyOp46
 70
     0
102
RTVSPropertyOp47
 70
     0
102
RTVSPropertyOp48
 70
     0
102
RTVSPropertyOp49
 70
     0
102
RTVSPropertyOp50
 70
     0
102
RTVSPropertyOp51
 70
     0
102
RTVSPropertyOp52
 70
     0
102
RTVSPropertyOp53
 70
     0
102
RTVSPropertyOp54
 70
     0
102
RTVSPropertyOp55
 70
     0
102
RTVSPropertyOp56
 70
     0
102
RTVSPropertyOp57
 70
     0
102
RTVSPost2010Prop28
280
     0
102
RTVSPost2010PropOp28
 70
     0
102
RTVSPost2010Prop29
280
     1
102
RTVSPost2010PropOp29
 70
     0
102
RTVSPost2010Prop30
280
     1
102
RTVSPost2010PropOp30
 70
     0
102
RTVSPost2010Prop31
280
     0
102
RTVSPost2010PropOp31
 70
     0
102
RTVSPost2010Prop32
280
     0
102
RTVSPost2010PropOp32
 70
     0
102
RTVSPost2010Prop33
280
     0
102
RTVSPost2010PropOp33
 70
     0
102
RTVSPost2010Prop34
280
     0
102
RTVSPost2010PropOp34
 70
     0
102
RTVSPost2010Prop35
280
     0
102
RTVSPost2010PropOp35
 70
     0
102
RTVSPost2010Prop36
280
     0
102
RTVSPost2010PropOp36
 70
     0
102
RTVSPost2010Prop37
 90
       50
102
RTVSPost2010PropOp37
 70
     0
102
RTVSPost2010Prop38
140
0.0
102
RTVSPost2010PropOp38
 70
     0
102
RTVSPost2010Prop39
140
1.0
102
RTVSPost2010PropOp39
 70
     0
102
RTVSPost2010Prop40
 90
        0
102
RTVSPost2010PropOp40
 70
     0
102
RTVSPost2010Prop41ColorIndex
 90
       18
102
RTVSPost2010Prop41ColorRGB
 90
        0
102
RTVSPost2010PropOp41
 70
     0
102
RTVSPost2010Prop42
 90
       50
102
RTVSPost2010PropOp42
 70
     0
102
RTVSPost2010Prop43
 90
        3
102
RTVSPost2010PropOp43
 70
     0
102
RTVSPost2010Prop44ColorIndex
 90
        5
102
RTVSPost2010Prop44ColorRGB
 90
      255
102
RTVSPost2010PropOp44
 70
     0
102
RTVSPost2010Prop45
280
     0
102
RTVSPost2010PropOp45
 70
     0
102
RTVSPost2010Prop46
 90
       50
102
RTVSPost2010PropOp46
 70
     0
102
RTVSPost2010Prop47
 90
       50
102
RTVSPost2010PropOp47
 70
     0
102
RTVSPost2010Prop48
 90
       50
102
RTVSPost2010PropOp48
 70
     0
102
RTVSPost2010Prop49
280
     0
102
RTVSPost2010PropOp49
 70
     0
102
RTVSPost2010Prop50
 90
       50
102
RTVSPost2010PropOp50
 70
     0
102
RTVSPost2010Prop51ColorIndex
 90
      256
102
RTVSPost2010Prop51ColorRGB
 90
-16777216
102
RTVSPost2010PropOp51
 70
     0
102
RTVSPost2010Prop52
140
1.0
102
RTVSPost2010PropOp52
 70
     0
102
RTVSPost2010Prop53
 90
        2
102
RTVSPost2010PropOp53
 70
     0
102
RTVSPost2010Prop54
  1
strokes_ogs.tif
102
RTVSPost2010PropOp54
 70
     0
102
RTVSPost2010Prop55
280
     0
102
RTVSPost2010PropOp55
 70
     0
102
RTVSPost2010Prop56
140
1.0
102
RTVSPost2010PropOp56
 70
     0
102
RTVSPost2010Prop57
140
1.0
102
RTVSPost2010PropOp57
 70
     0
  0
XRECORD
  5
1D7
102
{ACAD_REACTORS
330
1D6
102
}
330
1D6
100
AcDbXrecord
280
     1
102
RTVSPropertyOp0
 70
     1
102
RTVSPropertyOp1
 70
     1
102
RTVSPropertyOp2
 70
     1
102
RTVSPropertyOp3
 70
     1
102
RTVSPropertyOp4
 70
     1
102
RTVSPropertyOp5
 70
     1
102
RTVSPropertyOp6
 70
     1
102
RTVSPropertyOp7
 70
     1
102
RTVSPropertyOp8
 70
     1
102
RTVSPropertyOp9
 70
     1
102
RTVSPropertyOp10
 70
     1
102
RTVSPropertyOp11
 70
     1
102
RTVSPropertyOp12
 70
     1
102
RTVSPropertyOp13
 70
     1
102
RTVSPropertyOp14
 70
     1
102
RTVSPropertyOp15
 70
     1
102
RTVSPropertyOp16
 70
     1
102
RTVSPropertyOp17
 70
     1
102
RTVSPropertyOp18
 70
     1
102
RTVSPropertyOp19
 70
     1
102
RTVSPropertyOp20
 70
     1
102
RTVSPropertyOp21
 70
     1
102
RTVSPropertyOp22
 70
     1
102
RTVSPropertyOp23
 70
     1
102
RTVSPropertyOp24
 70
     1
102
RTVSPropertyOp25
 70
     1
102
RTVSPropertyOp26
 70
     1
102
RTVSPropertyOp27
 70
     1
102
RTVSPropertyOp28
 70
     1
102
RTVSPropertyOp29
 70
     1
102
RTVSPropertyOp30
 70
     1
102
RTVSPropertyOp31
 70
     1
102
RTVSPropertyOp32
 70
     1
102
RTVSPropertyOp33
 70
     1
102
RTVSPropertyOp34
 70
     1
102
RTVSPropertyOp35
 70
     1
102
RTVSPropertyOp36
 70
     1
102
RTVSPropertyOp37
 70
     1
102
RTVSPropertyOp38
 70
     1
102
RTVSPropertyOp39
 70
     1
102
RTVSPropertyOp40
 70
     1
102
RTVSPropertyOp41
 70
     1
102
RTVSPropertyOp42
 70
     1
102
RTVSPropertyOp43
 70
     1
102
RTVSPropertyOp44
 70
     1
102
RTVSPropertyOp45
 70
     1
102
RTVSPropertyOp46
 70
     1
102
RTVSPropertyOp47
 70
     1
102
RTVSPropertyOp48
 70
     1
102
RTVSPropertyOp49
 70
     1
102
RTVSPropertyOp50
 70
     1
102
RTVSPropertyOp51
 70
     0
102
RTVSPropertyOp52
 70
     0
102
RTVSPropertyOp53
 70
     1
102
RTVSPropertyOp54
 70
     1
102
RTVSPropertyOp55
 70
     1
102
RTVSPropertyOp56
 70
     1
102
RTVSPropertyOp57
 70
     1
102
RTVSPost2010Prop28
280
     0
102
RTVSPost2010PropOp28
 70
     1
102
RTVSPost2010Prop29
280
     1
102
RTVSPost2010PropOp29
 70
     1
102
RTVSPost2010Prop30
280
     1
102
RTVSPost2010PropOp30
 70
     1
102
RTVSPost2010Prop31
280
     0
102
RTVSPost2010PropOp31
 70
     1
102
RTVSPost2010Prop32
280
     0
102
RTVSPost2010PropOp32
 70
     1
102
RTVSPost2010Prop33
280
     0
102
RTVSPost2010PropOp33
 70
     1
102
RTVSPost2010Prop34
280
     0
102
RTVSPost2010PropOp34
 70
     1
102
RTVSPost2010Prop35
280
     0
102
RTVSPost2010PropOp35
 70
     1
102
RTVSPost2010Prop36
280
     0
102
RTVSPost2010PropOp36
 70
     1
102
RTVSPost2010Prop37
 90
       50
102
RTVSPost2010PropOp37
 70
     1
102
RTVSPost2010Prop38
140
0.0
102
RTVSPost2010PropOp38
 70
     1
102
RTVSPost2010Prop39
140
1.0
102
RTVSPost2010PropOp39
 70
     1
102
RTVSPost2010Prop40
 90
        0
102
RTVSPost2010PropOp40
 70
     1
102
RTVSPost2010Prop41ColorIndex
 90
       18
102
RTVSPost2010Prop41ColorRGB
 90
        0
102
RTVSPost2010PropOp41
 70
     1
102
RTVSPost2010Prop42
 90
       50
102
RTVSPost2010PropOp42
 70
     1
102
RTVSPost2010Prop43
 90
        3
102
RTVSPost2010PropOp43
 70
     1
102
RTVSPost2010Prop44ColorIndex
 90
        5
102
RTVSPost2010Prop44ColorRGB
 90
      255
102
RTVSPost2010PropOp44
 70
     1
102
RTVSPost2010Prop45
280
     0
102
RTVSPost2010PropOp45
 70
     1
102
RTVSPost2010Prop46
 90
       50
102
RTVSPost2010PropOp46
 70
     1
102
RTVSPost2010Prop47
 90
       50
102
RTVSPost2010PropOp47
 70
     1
102
RTVSPost2010Prop48
 90
       50
102
RTVSPost2010PropOp48
 70
     1
102
RTVSPost2010Prop49
280
     0
102
RTVSPost2010PropOp49
 70
     1
102
RTVSPost2010Prop50
 90
       50
102
RTVSPost2010PropOp50
 70
     1
102
RTVSPost2010Prop51ColorIndex
 90
      256
102
RTVSPost2010Prop51ColorRGB
 90
-16777216
102
RTVSPost2010PropOp51
 70
     0
102
RTVSPost2010Prop52
140
1.0
102
RTVSPost2010PropOp52
 70
     0
102
RTVSPost2010Prop53
 90
        2
102
RTVSPost2010PropOp53
 70
     1
102
RTVSPost2010Prop54
  1
strokes_ogs.tif
102
RTVSPost2010PropOp54
 70
     1
102
RTVSPost2010Prop55
280
     0
102
RTVSPost2010PropOp55
 70
     1
102
RTVSPost2010Prop56
140
1.0
102
RTVSPost2010PropOp56
 70
     1
102
RTVSPost2010Prop57
140
1.0
102
RTVSPost2010PropOp57
 70
     1
  0
XRECORD
  5
1F5
102
{ACAD_REACTORS
330
1F4
102
}
330
1F4
100
AcDbXrecord
280
     1
102
RTVSPropertyOp0
 70
     1
102
RTVSPropertyOp1
 70
     1
102
RTVSPropertyOp2
 70
     1
102
RTVSPropertyOp3
 70
     1
102
RTVSPropertyOp4
 70
     1
102
RTVSPropertyOp5
 70
     1
102
RTVSPropertyOp6
 70
     1
102
RTVSPropertyOp7
 70
     1
102
RTVSPropertyOp8
 70
     1
102
RTVSPropertyOp9
 70
     1
102
RTVSPropertyOp10
 70
     1
102
RTVSPropertyOp11
 70
     1
102
RTVSPropertyOp12
 70
     1
102
RTVSPropertyOp13
 70
     1
102
RTVSPropertyOp14
 70
     1
102
RTVSPropertyOp15
 70
     1
102
RTVSPropertyOp16
 70
     1
102
RTVSPropertyOp17
 70
     1
102
RTVSPropertyOp18
 70
     1
102
RTVSPropertyOp19
 70
     1
102
RTVSPropertyOp20
 70
     1
102
RTVSPropertyOp21
 70
     1
102
RTVSPropertyOp22
 70
     1
102
RTVSPropertyOp23
 70
     1
102
RTVSPropertyOp24
 70
     1
102
RTVSPropertyOp25
 70
     1
102
RTVSPropertyOp26
 70
     1
102
RTVSPropertyOp27
 70
     1
102
RTVSPropertyOp28
 70
     1
102
RTVSPropertyOp29
 70
     1
102
RTVSPropertyOp30
 70
     1
102
RTVSPropertyOp31
 70
     1
102
RTVSPropertyOp32
 70
     1
102
RTVSPropertyOp33
 70
     1
102
RTVSPropertyOp34
 70
     1
102
RTVSPropertyOp35
 70
     1
102
RTVSPropertyOp36
 70
     1
102
RTVSPropertyOp37
 70
     1
102
RTVSPropertyOp38
 70
     1
102
RTVSPropertyOp39
 70
     1
102
RTVSPropertyOp40
 70
     1
102
RTVSPropertyOp41
 70
     1
102
RTVSPropertyOp42
 70
     1
102
RTVSPropertyOp43
 70
     1
102
RTVSPropertyOp44
 70
     1
102
RTVSPropertyOp45
 70
     1
102
RTVSPropertyOp46
 70
     1
102
RTVSPropertyOp47
 70
     1
102
RTVSPropertyOp48
 70
     1
102
RTVSPropertyOp49
 70
     1
102
RTVSPropertyOp50
 70
     1
102
RTVSPropertyOp51
 70
     0
102
RTVSPropertyOp52
 70
     0
102
RTVSPropertyOp53
 70
     1
102
RTVSPropertyOp54
 70
     1
102
RTVSPropertyOp55
 70
     1
102
RTVSPropertyOp56
 70
     1
102
RTVSPropertyOp57
 70
     1
102
RTVSPost2010Prop28
280
     0
102
RTVSPost2010PropOp28
 70
     1
102
RTVSPost2010Prop29
280
     1
102
RTVSPost2010PropOp29
 70
     1
102
RTVSPost2010Prop30
280
     1
102
RTVSPost2010PropOp30
 70
     1
102
RTVSPost2010Prop31
280
     0
102
RTVSPost2010PropOp31
 70
     1
102
RTVSPost2010Prop32
280
     0
102
RTVSPost2010PropOp32
 70
     1
102
RTVSPost2010Prop33
280
     0
102
RTVSPost2010PropOp33
 70
     1
102
RTVSPost2010Prop34
280
     0
102
RTVSPost2010PropOp34
 70
     1
102
RTVSPost2010Prop35
280
     0
102
RTVSPost2010PropOp35
 70
     1
102
RTVSPost2010Prop36
280
     0
102
RTVSPost2010PropOp36
 70
     1
102
RTVSPost2010Prop37
 90
       50
102
RTVSPost2010PropOp37
 70
     1
102
RTVSPost2010Prop38
140
0.0
102
RTVSPost2010PropOp38
 70
     1
102
RTVSPost2010Prop39
140
1.0
102
RTVSPost2010PropOp39
 70
     1
102
RTVSPost2010Prop40
 90
        0
102
RTVSPost2010PropOp40
 70
     1
102
RTVSPost2010Prop41ColorIndex
 90
       18
102
RTVSPost2010Prop41ColorRGB
 90
        0
102
RTVSPost2010PropOp41
 70
     1
102
RTVSPost2010Prop42
 90
       50
102
RTVSPost2010PropOp42
 70
     1
102
RTVSPost2010Prop43
 90
        3
102
RTVSPost2010PropOp43
 70
     1
102
RTVSPost2010Prop44ColorIndex
 90
        5
102
RTVSPost2010Prop44ColorRGB
 90
      255
102
RTVSPost2010PropOp44
 70
     1
102
RTVSPost2010Prop45
280
     0
102
RTVSPost2010PropOp45
 70
     1
102
RTVSPost2010Prop46
 90
       50
102
RTVSPost2010PropOp46
 70
     1
102
RTVSPost2010Prop47
 90
       50
102
RTVSPost2010PropOp47
 70
     1
102
RTVSPost2010Prop48
 90
       50
102
RTVSPost2010PropOp48
 70
     1
102
RTVSPost2010Prop49
280
     0
102
RTVSPost2010PropOp49
 70
     1
102
RTVSPost2010Prop50
 90
       50
102
RTVSPost2010PropOp50
 70
     1
102
RTVSPost2010Prop51ColorIndex
 90
      256
102
RTVSPost2010Prop51ColorRGB
 90
-16777216
102
RTVSPost2010PropOp51
 70
     0
102
RTVSPost2010Prop52
140
1.0
102
RTVSPost2010PropOp52
 70
     0
102
RTVSPost2010Prop53
 90
        2
102
RTVSPost2010PropOp53
 70
     1
102
RTVSPost2010Prop54
  1
strokes_ogs.tif
102
RTVSPost2010PropOp54
 70
     1
102
RTVSPost2010Prop55
280
     0
102
RTVSPost2010PropOp55
 70
     1
102
RTVSPost2010Prop56
140
1.0
102
RTVSPost2010PropOp56
 70
     1
102
RTVSPost2010Prop57
140
1.0
102
RTVSPost2010PropOp57
 70
     1
  0
XRECORD
  5
1F3
102
{ACAD_REACTORS
330
1F2
102
}
330
1F2
100
AcDbXrecord
280
     1
102
RTVSPropertyOp0
 70
     1
102
RTVSPropertyOp1
 70
     1
102
RTVSPropertyOp2
 70
     1
102
RTVSPropertyOp3
 70
     1
102
RTVSPropertyOp4
 70
     1
102
RTVSPropertyOp5
 70
     1
102
RTVSPropertyOp6
 70
     1
102
RTVSPropertyOp7
 70
     1
102
RTVSPropertyOp8
 70
     1
102
RTVSPropertyOp9
 70
     1
102
RTVSPropertyOp10
 70
     1
102
RTVSPropertyOp11
 70
     1
102
RTVSPropertyOp12
 70
     1
102
RTVSPropertyOp13
 70
     1
102
RTVSPropertyOp14
 70
     1
102
RTVSPropertyOp15
 70
     1
102
RTVSPropertyOp16
 70
     1
102
RTVSPropertyOp17
 70
     1
102
RTVSPropertyOp18
 70
     1
102
RTVSPropertyOp19
 70
     1
102
RTVSPropertyOp20
 70
     1
102
RTVSPropertyOp21
 70
     1
102
RTVSPropertyOp22
 70
     1
102
RTVSPropertyOp23
 70
     1
102
RTVSPropertyOp24
 70
     1
102
RTVSPropertyOp25
 70
     1
102
RTVSPropertyOp26
 70
     1
102
RTVSPropertyOp27
 70
     1
102
RTVSPropertyOp28
 70
     1
102
RTVSPropertyOp29
 70
     1
102
RTVSPropertyOp30
 70
     1
102
RTVSPropertyOp31
 70
     1
102
RTVSPropertyOp32
 70
     1
102
RTVSPropertyOp33
 70
     1
102
RTVSPropertyOp34
 70
     1
102
RTVSPropertyOp35
 70
     1
102
RTVSPropertyOp36
 70
     1
102
RTVSPropertyOp37
 70
     1
102
RTVSPropertyOp38
 70
     1
102
RTVSPropertyOp39
 70
     1
102
RTVSPropertyOp40
 70
     1
102
RTVSPropertyOp41
 70
     1
102
RTVSPropertyOp42
 70
     1
102
RTVSPropertyOp43
 70
     1
102
RTVSPropertyOp44
 70
     1
102
RTVSPropertyOp45
 70
     1
102
RTVSPropertyOp46
 70
     1
102
RTVSPropertyOp47
 70
     1
102
RTVSPropertyOp48
 70
     1
102
RTVSPropertyOp49
 70
     1
102
RTVSPropertyOp50
 70
     1
102
RTVSPropertyOp51
 70
     0
102
RTVSPropertyOp52
 70
     0
102
RTVSPropertyOp53
 70
     1
102
RTVSPropertyOp54
 70
     1
102
RTVSPropertyOp55
 70
     1
102
RTVSPropertyOp56
 70
     1
102
RTVSPropertyOp57
 70
     1
102
RTVSPost2010Prop28
280
     0
102
RTVSPost2010PropOp28
 70
     1
102
RTVSPost2010Prop29
280
     1
102
RTVSPost2010PropOp29
 70
     1
102
RTVSPost2010Prop30
280
     1
102
RTVSPost2010PropOp30
 70
     1
102
RTVSPost2010Prop31
280
     0
102
RTVSPost2010PropOp31
 70
     1
102
RTVSPost2010Prop32
280
     0
102
RTVSPost2010PropOp32
 70
     1
102
RTVSPost2010Prop33
280
     0
102
RTVSPost2010PropOp33
 70
     1
102
RTVSPost2010Prop34
280
     0
102
RTVSPost2010PropOp34
 70
     1
102
RTVSPost2010Prop35
280
     0
102
RTVSPost2010PropOp35
 70
     1
102
RTVSPost2010Prop36
280
     0
102
RTVSPost2010PropOp36
 70
     1
102
RTVSPost2010Prop37
 90
       50
102
RTVSPost2010PropOp37
 70
     1
102
RTVSPost2010Prop38
140
0.0
102
RTVSPost2010PropOp38
 70
     1
102
RTVSPost2010Prop39
140
1.0
102
RTVSPost2010PropOp39
 70
     1
102
RTVSPost2010Prop40
 90
        0
102
RTVSPost2010PropOp40
 70
     1
102
RTVSPost2010Prop41ColorIndex
 90
       18
102
RTVSPost2010Prop41ColorRGB
 90
        0
102
RTVSPost2010PropOp41
 70
     1
102
RTVSPost2010Prop42
 90
       50
102
RTVSPost2010PropOp42
 70
     1
102
RTVSPost2010Prop43
 90
        3
102
RTVSPost2010PropOp43
 70
     1
102
RTVSPost2010Prop44ColorIndex
 90
        5
102
RTVSPost2010Prop44ColorRGB
 90
      255
102
RTVSPost2010PropOp44
 70
     1
102
RTVSPost2010Prop45
280
     0
102
RTVSPost2010PropOp45
 70
     1
102
RTVSPost2010Prop46
 90
       50
102
RTVSPost2010PropOp46
 70
     1
102
RTVSPost2010Prop47
 90
       50
102
RTVSPost2010PropOp47
 70
     1
102
RTVSPost2010Prop48
 90
       50
102
RTVSPost2010PropOp48
 70
     1
102
RTVSPost2010Prop49
280
     0
102
RTVSPost2010PropOp49
 70
     1
102
RTVSPost2010Prop50
 90
       50
102
RTVSPost2010PropOp50
 70
     1
102
RTVSPost2010Prop51ColorIndex
 90
      256
102
RTVSPost2010Prop51ColorRGB
 90
-16777216
102
RTVSPost2010PropOp51
 70
     0
102
RTVSPost2010Prop52
140
1.0
102
RTVSPost2010PropOp52
 70
     0
102
RTVSPost2010Prop53
 90
        2
102
RTVSPost2010PropOp53
 70
     1
102
RTVSPost2010Prop54
  1
strokes_ogs.tif
102
RTVSPost2010PropOp54
 70
     1
102
RTVSPost2010Prop55
280
     0
102
RTVSPost2010PropOp55
 70
     1
102
RTVSPost2010Prop56
140
1.0
102
RTVSPost2010PropOp56
 70
     1
102
RTVSPost2010Prop57
140
1.0
102
RTVSPost2010PropOp57
 70
     1
  0
XRECORD
  5
1ED
102
{ACAD_REACTORS
330
1EC
102
}
330
1EC
100
AcDbXrecord
280
     1
102
RTVSPropertyOp0
 70
     1
102
RTVSPropertyOp1
 70
     1
102
RTVSPropertyOp2
 70
     1
102
RTVSPropertyOp3
 70
     1
102
RTVSPropertyOp4
 70
     1
102
RTVSPropertyOp5
 70
     1
102
RTVSPropertyOp6
 70
     1
102
RTVSPropertyOp7
 70
     1
102
RTVSPropertyOp8
 70
     1
102
RTVSPropertyOp9
 70
     1
102
RTVSPropertyOp10
 70
     1
102
RTVSPropertyOp11
 70
     1
102
RTVSPropertyOp12
 70
     1
102
RTVSPropertyOp13
 70
     1
102
RTVSPropertyOp14
 70
     1
102
RTVSPropertyOp15
 70
     1
102
RTVSPropertyOp16
 70
     1
102
RTVSPropertyOp17
 70
     1
102
RTVSPropertyOp18
 70
     1
102
RTVSPropertyOp19
 70
     1
102
RTVSPropertyOp20
 70
     1
102
RTVSPropertyOp21
 70
     1
102
RTVSPropertyOp22
 70
     1
102
RTVSPropertyOp23
 70
     1
102
RTVSPropertyOp24
 70
     1
102
RTVSPropertyOp25
 70
     1
102
RTVSPropertyOp26
 70
     1
102
RTVSPropertyOp27
 70
     1
102
RTVSPropertyOp28
 70
     1
102
RTVSPropertyOp29
 70
     1
102
RTVSPropertyOp30
 70
     1
102
RTVSPropertyOp31
 70
     1
102
RTVSPropertyOp32
 70
     1
102
RTVSPropertyOp33
 70
     1
102
RTVSPropertyOp34
 70
     1
102
RTVSPropertyOp35
 70
     1
102
RTVSPropertyOp36
 70
     1
102
RTVSPropertyOp37
 70
     1
102
RTVSPropertyOp38
 70
     1
102
RTVSPropertyOp39
 70
     1
102
RTVSPropertyOp40
 70
     1
102
RTVSPropertyOp41
 70
     1
102
RTVSPropertyOp42
 70
     1
102
RTVSPropertyOp43
 70
     1
102
RTVSPropertyOp44
 70
     1
102
RTVSPropertyOp45
 70
     1
102
RTVSPropertyOp46
 70
     1
102
RTVSPropertyOp47
 70
     1
102
RTVSPropertyOp48
 70
     1
102
RTVSPropertyOp49
 70
     1
102
RTVSPropertyOp50
 70
     1
102
RTVSPropertyOp51
 70
     0
102
RTVSPropertyOp52
 70
     0
102
RTVSPropertyOp53
 70
     1
102
RTVSPropertyOp54
 70
     1
102
RTVSPropertyOp55
 70
     1
102
RTVSPropertyOp56
 70
     1
102
RTVSPropertyOp57
 70
     1
102
RTVSPost2010Prop28
280
     0
102
RTVSPost2010PropOp28
 70
     1
102
RTVSPost2010Prop29
280
     1
102
RTVSPost2010PropOp29
 70
     1
102
RTVSPost2010Prop30
280
     1
102
RTVSPost2010PropOp30
 70
     1
102
RTVSPost2010Prop31
280
     0
102
RTVSPost2010PropOp31
 70
     1
102
RTVSPost2010Prop32
280
     0
102
RTVSPost2010PropOp32
 70
     1
102
RTVSPost2010Prop33
280
     0
102
RTVSPost2010PropOp33
 70
     1
102
RTVSPost2010Prop34
280
     0
102
RTVSPost2010PropOp34
 70
     1
102
RTVSPost2010Prop35
280
     0
102
RTVSPost2010PropOp35
 70
     1
102
RTVSPost2010Prop36
280
     0
102
RTVSPost2010PropOp36
 70
     1
102
RTVSPost2010Prop37
 90
       50
102
RTVSPost2010PropOp37
 70
     1
102
RTVSPost2010Prop38
140
0.0
102
RTVSPost2010PropOp38
 70
     1
102
RTVSPost2010Prop39
140
1.0
102
RTVSPost2010PropOp39
 70
     1
102
RTVSPost2010Prop40
 90
        0
102
RTVSPost2010PropOp40
 70
     1
102
RTVSPost2010Prop41ColorIndex
 90
       18
102
RTVSPost2010Prop41ColorRGB
 90
        0
102
RTVSPost2010PropOp41
 70
     1
102
RTVSPost2010Prop42
 90
       50
102
RTVSPost2010PropOp42
 70
     1
102
RTVSPost2010Prop43
 90
        3
102
RTVSPost2010PropOp43
 70
     1
102
RTVSPost2010Prop44ColorIndex
 90
        5
102
RTVSPost2010Prop44ColorRGB
 90
      255
102
RTVSPost2010PropOp44
 70
     1
102
RTVSPost2010Prop45
280
     0
102
RTVSPost2010PropOp45
 70
     1
102
RTVSPost2010Prop46
 90
       50
102
RTVSPost2010PropOp46
 70
     1
102
RTVSPost2010Prop47
 90
       50
102
RTVSPost2010PropOp47
 70
     1
102
RTVSPost2010Prop48
 90
       50
102
RTVSPost2010PropOp48
 70
     1
102
RTVSPost2010Prop49
280
     0
102
RTVSPost2010PropOp49
 70
     1
102
RTVSPost2010Prop50
 90
       50
102
RTVSPost2010PropOp50
 70
     1
102
RTVSPost2010Prop51ColorIndex
 90
      256
102
RTVSPost2010Prop51ColorRGB
 90
-16777216
102
RTVSPost2010PropOp51
 70
     0
102
RTVSPost2010Prop52
140
1.0
102
RTVSPost2010PropOp52
 70
     0
102
RTVSPost2010Prop53
 90
        2
102
RTVSPost2010PropOp53
 70
     1
102
RTVSPost2010Prop54
  1
strokes_ogs.tif
102
RTVSPost2010PropOp54
 70
     1
102
RTVSPost2010Prop55
280
     0
102
RTVSPost2010PropOp55
 70
     1
102
RTVSPost2010Prop56
140
1.0
102
RTVSPost2010PropOp56
 70
     1
102
RTVSPost2010Prop57
140
1.0
102
RTVSPost2010PropOp57
 70
     1
  0
XRECORD
  5
1EF
102
{ACAD_REACTORS
330
1EE
102
}
330
1EE
100
AcDbXrecord
280
     1
102
RTVSPropertyOp0
 70
     1
102
RTVSPropertyOp1
 70
     1
102
RTVSPropertyOp2
 70
     1
102
RTVSPropertyOp3
 70
     1
102
RTVSPropertyOp4
 70
     1
102
RTVSPropertyOp5
 70
     1
102
RTVSPropertyOp6
 70
     1
102
RTVSPropertyOp7
 70
     1
102
RTVSPropertyOp8
 70
     1
102
RTVSPropertyOp9
 70
     1
102
RTVSPropertyOp10
 70
     1
102
RTVSPropertyOp11
 70
     1
102
RTVSPropertyOp12
 70
     1
102
RTVSPropertyOp13
 70
     1
102
RTVSPropertyOp14
 70
     1
102
RTVSPropertyOp15
 70
     1
102
RTVSPropertyOp16
 70
     1
102
RTVSPropertyOp17
 70
     1
102
RTVSPropertyOp18
 70
     1
102
RTVSPropertyOp19
 70
     1
102
RTVSPropertyOp20
 70
     1
102
RTVSPropertyOp21
 70
     1
102
RTVSPropertyOp22
 70
     1
102
RTVSPropertyOp23
 70
     1
102
RTVSPropertyOp24
 70
     1
102
RTVSPropertyOp25
 70
     1
102
RTVSPropertyOp26
 70
     1
102
RTVSPropertyOp27
 70
     1
102
RTVSPropertyOp28
 70
     1
102
RTVSPropertyOp29
 70
     1
102
RTVSPropertyOp30
 70
     1
102
RTVSPropertyOp31
 70
     1
102
RTVSPropertyOp32
 70
     1
102
RTVSPropertyOp33
 70
     1
102
RTVSPropertyOp34
 70
     1
102
RTVSPropertyOp35
 70
     1
102
RTVSPropertyOp36
 70
     1
102
RTVSPropertyOp37
 70
     1
102
RTVSPropertyOp38
 70
     1
102
RTVSPropertyOp39
 70
     1
102
RTVSPropertyOp40
 70
     1
102
RTVSPropertyOp41
 70
     1
102
RTVSPropertyOp42
 70
     1
102
RTVSPropertyOp43
 70
     1
102
RTVSPropertyOp44
 70
     1
102
RTVSPropertyOp45
 70
     1
102
RTVSPropertyOp46
 70
     1
102
RTVSPropertyOp47
 70
     1
102
RTVSPropertyOp48
 70
     1
102
RTVSPropertyOp49
 70
     1
102
RTVSPropertyOp50
 70
     1
102
RTVSPropertyOp51
 70
     0
102
RTVSPropertyOp52
 70
     0
102
RTVSPropertyOp53
 70
     1
102
RTVSPropertyOp54
 70
     1
102
RTVSPropertyOp55
 70
     1
102
RTVSPropertyOp56
 70
     1
102
RTVSPropertyOp57
 70
     1
102
RTVSPost2010Prop28
280
     0
102
RTVSPost2010PropOp28
 70
     1
102
RTVSPost2010Prop29
280
     1
102
RTVSPost2010PropOp29
 70
     1
102
RTVSPost2010Prop30
280
     1
102
RTVSPost2010PropOp30
 70
     1
102
RTVSPost2010Prop31
280
     0
102
RTVSPost2010PropOp31
 70
     1
102
RTVSPost2010Prop32
280
     0
102
RTVSPost2010PropOp32
 70
     1
102
RTVSPost2010Prop33
280
     0
102
RTVSPost2010PropOp33
 70
     1
102
RTVSPost2010Prop34
280
     0
102
RTVSPost2010PropOp34
 70
     1
102
RTVSPost2010Prop35
280
     0
102
RTVSPost2010PropOp35
 70
     1
102
RTVSPost2010Prop36
280
     0
102
RTVSPost2010PropOp36
 70
     1
102
RTVSPost2010Prop37
 90
       50
102
RTVSPost2010PropOp37
 70
     1
102
RTVSPost2010Prop38
140
0.0
102
RTVSPost2010PropOp38
 70
     1
102
RTVSPost2010Prop39
140
1.0
102
RTVSPost2010PropOp39
 70
     1
102
RTVSPost2010Prop40
 90
        0
102
RTVSPost2010PropOp40
 70
     1
102
RTVSPost2010Prop41ColorIndex
 90
       18
102
RTVSPost2010Prop41ColorRGB
 90
        0
102
RTVSPost2010PropOp41
 70
     1
102
RTVSPost2010Prop42
 90
       50
102
RTVSPost2010PropOp42
 70
     1
102
RTVSPost2010Prop43
 90
        3
102
RTVSPost2010PropOp43
 70
     1
102
RTVSPost2010Prop44ColorIndex
 90
        5
102
RTVSPost2010Prop44ColorRGB
 90
      255
102
RTVSPost2010PropOp44
 70
     1
102
RTVSPost2010Prop45
280
     0
102
RTVSPost2010PropOp45
 70
     1
102
RTVSPost2010Prop46
 90
       50
102
RTVSPost2010PropOp46
 70
     1
102
RTVSPost2010Prop47
 90
       50
102
RTVSPost2010PropOp47
 70
     1
102
RTVSPost2010Prop48
 90
       50
102
RTVSPost2010PropOp48
 70
     1
102
RTVSPost2010Prop49
280
     0
102
RTVSPost2010PropOp49
 70
     1
102
RTVSPost2010Prop50
 90
       50
102
RTVSPost2010PropOp50
 70
     1
102
RTVSPost2010Prop51ColorIndex
 90
      256
102
RTVSPost2010Prop51ColorRGB
 90
-16777216
102
RTVSPost2010PropOp51
 70
     0
102
RTVSPost2010Prop52
140
1.0
102
RTVSPost2010PropOp52
 70
     0
102
RTVSPost2010Prop53
 90
        2
102
RTVSPost2010PropOp53
 70
     1
102
RTVSPost2010Prop54
  1
strokes_ogs.tif
102
RTVSPost2010PropOp54
 70
     1
102
RTVSPost2010Prop55
280
     0
102
RTVSPost2010PropOp55
 70
     1
102
RTVSPost2010Prop56
140
1.0
102
RTVSPost2010PropOp56
 70
     1
102
RTVSPost2010Prop57
140
1.0
102
RTVSPost2010PropOp57
 70
     1
  0
XRECORD
  5
1DF
102
{ACAD_REACTORS
330
1DE
102
}
330
1DE
100
AcDbXrecord
280
     1
102
RTVSPropertyOp0
 70
     1
102
RTVSPropertyOp1
 70
     1
102
RTVSPropertyOp2
 70
     1
102
RTVSPropertyOp3
 70
     1
102
RTVSPropertyOp4
 70
     1
102
RTVSPropertyOp5
 70
     1
102
RTVSPropertyOp6
 70
     1
102
RTVSPropertyOp7
 70
     1
102
RTVSPropertyOp8
 70
     1
102
RTVSPropertyOp9
 70
     1
102
RTVSPropertyOp10
 70
     1
102
RTVSPropertyOp11
 70
     1
102
RTVSPropertyOp12
 70
     1
102
RTVSPropertyOp13
 70
     1
102
RTVSPropertyOp14
 70
     1
102
RTVSPropertyOp15
 70
     1
102
RTVSPropertyOp16
 70
     1
102
RTVSPropertyOp17
 70
     1
102
RTVSPropertyOp18
 70
     1
102
RTVSPropertyOp19
 70
     1
102
RTVSPropertyOp20
 70
     1
102
RTVSPropertyOp21
 70
     1
102
RTVSPropertyOp22
 70
     1
102
RTVSPropertyOp23
 70
     1
102
RTVSPropertyOp24
 70
     1
102
RTVSPropertyOp25
 70
     1
102
RTVSPropertyOp26
 70
     1
102
RTVSPropertyOp27
 70
     1
102
RTVSPropertyOp28
 70
     1
102
RTVSPropertyOp29
 70
     1
102
RTVSPropertyOp30
 70
     1
102
RTVSPropertyOp31
 70
     1
102
RTVSPropertyOp32
 70
     1
102
RTVSPropertyOp33
 70
     1
102
RTVSPropertyOp34
 70
     1
102
RTVSPropertyOp35
 70
     1
102
RTVSPropertyOp36
 70
     1
102
RTVSPropertyOp37
 70
     1
102
RTVSPropertyOp38
 70
     1
102
RTVSPropertyOp39
 70
     1
102
RTVSPropertyOp40
 70
     1
102
RTVSPropertyOp41
 70
     1
102
RTVSPropertyOp42
 70
     1
102
RTVSPropertyOp43
 70
     1
102
RTVSPropertyOp44
 70
     1
102
RTVSPropertyOp45
 70
     1
102
RTVSPropertyOp46
 70
     1
102
RTVSPropertyOp47
 70
     1
102
RTVSPropertyOp48
 70
     1
102
RTVSPropertyOp49
 70
     1
102
RTVSPropertyOp50
 70
     1
102
RTVSPropertyOp51
 70
     0
102
RTVSPropertyOp52
 70
     0
102
RTVSPropertyOp53
 70
     1
102
RTVSPropertyOp54
 70
     1
102
RTVSPropertyOp55
 70
     1
102
RTVSPropertyOp56
 70
     1
102
RTVSPropertyOp57
 70
     1
102
RTVSPost2010Prop28
280
     0
102
RTVSPost2010PropOp28
 70
     1
102
RTVSPost2010Prop29
280
     1
102
RTVSPost2010PropOp29
 70
     1
102
RTVSPost2010Prop30
280
     1
102
RTVSPost2010PropOp30
 70
     1
102
RTVSPost2010Prop31
280
     0
102
RTVSPost2010PropOp31
 70
     1
102
RTVSPost2010Prop32
280
     0
102
RTVSPost2010PropOp32
 70
     1
102
RTVSPost2010Prop33
280
     0
102
RTVSPost2010PropOp33
 70
     1
102
RTVSPost2010Prop34
280
     0
102
RTVSPost2010PropOp34
 70
     1
102
RTVSPost2010Prop35
280
     0
102
RTVSPost2010PropOp35
 70
     1
102
RTVSPost2010Prop36
280
     0
102
RTVSPost2010PropOp36
 70
     1
102
RTVSPost2010Prop37
 90
       50
102
RTVSPost2010PropOp37
 70
     1
102
RTVSPost2010Prop38
140
0.0
102
RTVSPost2010PropOp38
 70
     1
102
RTVSPost2010Prop39
140
1.0
102
RTVSPost2010PropOp39
 70
     1
102
RTVSPost2010Prop40
 90
        0
102
RTVSPost2010PropOp40
 70
     1
102
RTVSPost2010Prop41ColorIndex
 90
       18
102
RTVSPost2010Prop41ColorRGB
 90
        0
102
RTVSPost2010PropOp41
 70
     1
102
RTVSPost2010Prop42
 90
       50
102
RTVSPost2010PropOp42
 70
     1
102
RTVSPost2010Prop43
 90
        3
102
RTVSPost2010PropOp43
 70
     1
102
RTVSPost2010Prop44ColorIndex
 90
        5
102
RTVSPost2010Prop44ColorRGB
 90
      255
102
RTVSPost2010PropOp44
 70
     1
102
RTVSPost2010Prop45
280
     0
102
RTVSPost2010PropOp45
 70
     1
102
RTVSPost2010Prop46
 90
       50
102
RTVSPost2010PropOp46
 70
     1
102
RTVSPost2010Prop47
 90
       50
102
RTVSPost2010PropOp47
 70
     1
102
RTVSPost2010Prop48
 90
       50
102
RTVSPost2010PropOp48
 70
     1
102
RTVSPost2010Prop49
280
     0
102
RTVSPost2010PropOp49
 70
     1
102
RTVSPost2010Prop50
 90
       50
102
RTVSPost2010PropOp50
 70
     1
102
RTVSPost2010Prop51ColorIndex
 90
      256
102
RTVSPost2010Prop51ColorRGB
 90
-16777216
102
RTVSPost2010PropOp51
 70
     0
102
RTVSPost2010Prop52
140
1.0
102
RTVSPost2010PropOp52
 70
     0
102
RTVSPost2010Prop53
 90
        2
102
RTVSPost2010PropOp53
 70
     1
102
RTVSPost2010Prop54
  1
strokes_ogs.tif
102
RTVSPost2010PropOp54
 70
     1
102
RTVSPost2010Prop55
280
     0
102
RTVSPost2010PropOp55
 70
     1
102
RTVSPost2010Prop56
140
1.0
102
RTVSPost2010PropOp56
 70
     1
102
RTVSPost2010Prop57
140
1.0
102
RTVSPost2010PropOp57
 70
     1
  0
XRECORD
  5
1D1
102
{ACAD_REACTORS
330
1D0
102
}
330
1D0
100
AcDbXrecord
280
     1
102
RTVSPropertyOp0
 70
     1
102
RTVSPropertyOp1
 70
     1
102
RTVSPropertyOp2
 70
     1
102
RTVSPropertyOp3
 70
     1
102
RTVSPropertyOp4
 70
     1
102
RTVSPropertyOp5
 70
     1
102
RTVSPropertyOp6
 70
     1
102
RTVSPropertyOp7
 70
     1
102
RTVSPropertyOp8
 70
     1
102
RTVSPropertyOp9
 70
     1
102
RTVSPropertyOp10
 70
     1
102
RTVSPropertyOp11
 70
     1
102
RTVSPropertyOp12
 70
     1
102
RTVSPropertyOp13
 70
     1
102
RTVSPropertyOp14
 70
     1
102
RTVSPropertyOp15
 70
     1
102
RTVSPropertyOp16
 70
     1
102
RTVSPropertyOp17
 70
     1
102
RTVSPropertyOp18
 70
     1
102
RTVSPropertyOp19
 70
     1
102
RTVSPropertyOp20
 70
     1
102
RTVSPropertyOp21
 70
     1
102
RTVSPropertyOp22
 70
     1
102
RTVSPropertyOp23
 70
     1
102
RTVSPropertyOp24
 70
     1
102
RTVSPropertyOp25
 70
     1
102
RTVSPropertyOp26
 70
     1
102
RTVSPropertyOp27
 70
     1
102
RTVSPropertyOp28
 70
     1
102
RTVSPropertyOp29
 70
     1
102
RTVSPropertyOp30
 70
     1
102
RTVSPropertyOp31
 70
     1
102
RTVSPropertyOp32
 70
     1
102
RTVSPropertyOp33
 70
     1
102
RTVSPropertyOp34
 70
     1
102
RTVSPropertyOp35
 70
     1
102
RTVSPropertyOp36
 70
     1
102
RTVSPropertyOp37
 70
     1
102
RTVSPropertyOp38
 70
     1
102
RTVSPropertyOp39
 70
     1
102
RTVSPropertyOp40
 70
     1
102
RTVSPropertyOp41
 70
     1
102
RTVSPropertyOp42
 70
     1
102
RTVSPropertyOp43
 70
     1
102
RTVSPropertyOp44
 70
     1
102
RTVSPropertyOp45
 70
     1
102
RTVSPropertyOp46
 70
     1
102
RTVSPropertyOp47
 70
     1
102
RTVSPropertyOp48
 70
     1
102
RTVSPropertyOp49
 70
     1
102
RTVSPropertyOp50
 70
     1
102
RTVSPropertyOp51
 70
     0
102
RTVSPropertyOp52
 70
     0
102
RTVSPropertyOp53
 70
     1
102
RTVSPropertyOp54
 70
     1
102
RTVSPropertyOp55
 70
     1
102
RTVSPropertyOp56
 70
     1
102
RTVSPropertyOp57
 70
     1
102
RTVSPost2010Prop28
280
     0
102
RTVSPost2010PropOp28
 70
     1
102
RTVSPost2010Prop29
280
     1
102
RTVSPost2010PropOp29
 70
     1
102
RTVSPost2010Prop30
280
     1
102
RTVSPost2010PropOp30
 70
     1
102
RTVSPost2010Prop31
280
     0
102
RTVSPost2010PropOp31
 70
     1
102
RTVSPost2010Prop32
280
     0
102
RTVSPost2010PropOp32
 70
     1
102
RTVSPost2010Prop33
280
     0
102
RTVSPost2010PropOp33
 70
     1
102
RTVSPost2010Prop34
280
     0
102
RTVSPost2010PropOp34
 70
     1
102
RTVSPost2010Prop35
280
     0
102
RTVSPost2010PropOp35
 70
     1
102
RTVSPost2010Prop36
280
     0
102
RTVSPost2010PropOp36
 70
     1
102
RTVSPost2010Prop37
 90
       50
102
RTVSPost2010PropOp37
 70
     1
102
RTVSPost2010Prop38
140
0.0
102
RTVSPost2010PropOp38
 70
     1
102
RTVSPost2010Prop39
140
1.0
102
RTVSPost2010PropOp39
 70
     1
102
RTVSPost2010Prop40
 90
        0
102
RTVSPost2010PropOp40
 70
     1
102
RTVSPost2010Prop41ColorIndex
 90
       18
102
RTVSPost2010Prop41ColorRGB
 90
        0
102
RTVSPost2010PropOp41
 70
     1
102
RTVSPost2010Prop42
 90
       50
102
RTVSPost2010PropOp42
 70
     1
102
RTVSPost2010Prop43
 90
        3
102
RTVSPost2010PropOp43
 70
     1
102
RTVSPost2010Prop44ColorIndex
 90
        5
102
RTVSPost2010Prop44ColorRGB
 90
      255
102
RTVSPost2010PropOp44
 70
     1
102
RTVSPost2010Prop45
280
     0
102
RTVSPost2010PropOp45
 70
     1
102
RTVSPost2010Prop46
 90
       50
102
RTVSPost2010PropOp46
 70
     1
102
RTVSPost2010Prop47
 90
       50
102
RTVSPost2010PropOp47
 70
     1
102
RTVSPost2010Prop48
 90
       50
102
RTVSPost2010PropOp48
 70
     1
102
RTVSPost2010Prop49
280
     0
102
RTVSPost2010PropOp49
 70
     1
102
RTVSPost2010Prop50
 90
       50
102
RTVSPost2010PropOp50
 70
     1
102
RTVSPost2010Prop51ColorIndex
 90
      256
102
RTVSPost2010Prop51ColorRGB
 90
-16777216
102
RTVSPost2010PropOp51
 70
     0
102
RTVSPost2010Prop52
140
1.0
102
RTVSPost2010PropOp52
 70
     0
102
RTVSPost2010Prop53
 90
        2
102
RTVSPost2010PropOp53
 70
     1
102
RTVSPost2010Prop54
  1
strokes_ogs.tif
102
RTVSPost2010PropOp54
 70
     1
102
RTVSPost2010Prop55
280
     0
102
RTVSPost2010PropOp55
 70
     1
102
RTVSPost2010Prop56
140
1.0
102
RTVSPost2010PropOp56
 70
     1
102
RTVSPost2010Prop57
140
1.0
102
RTVSPost2010PropOp57
 70
     1
  0
XRECORD
  5
1F1
102
{ACAD_REACTORS
330
1F0
102
}
330
1F0
100
AcDbXrecord
280
     1
102
RTVSPropertyOp0
 70
     1
102
RTVSPropertyOp1
 70
     1
102
RTVSPropertyOp2
 70
     1
102
RTVSPropertyOp3
 70
     1
102
RTVSPropertyOp4
 70
     1
102
RTVSPropertyOp5
 70
     1
102
RTVSPropertyOp6
 70
     1
102
RTVSPropertyOp7
 70
     1
102
RTVSPropertyOp8
 70
     1
102
RTVSPropertyOp9
 70
     1
102
RTVSPropertyOp10
 70
     1
102
RTVSPropertyOp11
 70
     1
102
RTVSPropertyOp12
 70
     1
102
RTVSPropertyOp13
 70
     1
102
RTVSPropertyOp14
 70
     1
102
RTVSPropertyOp15
 70
     1
102
RTVSPropertyOp16
 70
     1
102
RTVSPropertyOp17
 70
     1
102
RTVSPropertyOp18
 70
     1
102
RTVSPropertyOp19
 70
     1
102
RTVSPropertyOp20
 70
     1
102
RTVSPropertyOp21
 70
     1
102
RTVSPropertyOp22
 70
     1
102
RTVSPropertyOp23
 70
     1
102
RTVSPropertyOp24
 70
     1
102
RTVSPropertyOp25
 70
     1
102
RTVSPropertyOp26
 70
     1
102
RTVSPropertyOp27
 70
     1
102
RTVSPropertyOp28
 70
     1
102
RTVSPropertyOp29
 70
     1
102
RTVSPropertyOp30
 70
     1
102
RTVSPropertyOp31
 70
     1
102
RTVSPropertyOp32
 70
     1
102
RTVSPropertyOp33
 70
     1
102
RTVSPropertyOp34
 70
     1
102
RTVSPropertyOp35
 70
     1
102
RTVSPropertyOp36
 70
     1
102
RTVSPropertyOp37
 70
     1
102
RTVSPropertyOp38
 70
     1
102
RTVSPropertyOp39
 70
     1
102
RTVSPropertyOp40
 70
     1
102
RTVSPropertyOp41
 70
     1
102
RTVSPropertyOp42
 70
     1
102
RTVSPropertyOp43
 70
     1
102
RTVSPropertyOp44
 70
     1
102
RTVSPropertyOp45
 70
     1
102
RTVSPropertyOp46
 70
     1
102
RTVSPropertyOp47
 70
     1
102
RTVSPropertyOp48
 70
     1
102
RTVSPropertyOp49
 70
     1
102
RTVSPropertyOp50
 70
     1
102
RTVSPropertyOp51
 70
     0
102
RTVSPropertyOp52
 70
     0
102
RTVSPropertyOp53
 70
     1
102
RTVSPropertyOp54
 70
     1
102
RTVSPropertyOp55
 70
     1
102
RTVSPropertyOp56
 70
     1
102
RTVSPropertyOp57
 70
     1
102
RTVSPost2010Prop28
280
     0
102
RTVSPost2010PropOp28
 70
     1
102
RTVSPost2010Prop29
280
     1
102
RTVSPost2010PropOp29
 70
     1
102
RTVSPost2010Prop30
280
     1
102
RTVSPost2010PropOp30
 70
     1
102
RTVSPost2010Prop31
280
     0
102
RTVSPost2010PropOp31
 70
     1
102
RTVSPost2010Prop32
280
     0
102
RTVSPost2010PropOp32
 70
     1
102
RTVSPost2010Prop33
280
     0
102
RTVSPost2010PropOp33
 70
     1
102
RTVSPost2010Prop34
280
     0
102
RTVSPost2010PropOp34
 70
     1
102
RTVSPost2010Prop35
280
     0
102
RTVSPost2010PropOp35
 70
     1
102
RTVSPost2010Prop36
280
     0
102
RTVSPost2010PropOp36
 70
     1
102
RTVSPost2010Prop37
 90
       50
102
RTVSPost2010PropOp37
 70
     1
102
RTVSPost2010Prop38
140
0.0
102
RTVSPost2010PropOp38
 70
     1
102
RTVSPost2010Prop39
140
1.0
102
RTVSPost2010PropOp39
 70
     1
102
RTVSPost2010Prop40
 90
        0
102
RTVSPost2010PropOp40
 70
     1
102
RTVSPost2010Prop41ColorIndex
 90
       18
102
RTVSPost2010Prop41ColorRGB
 90
        0
102
RTVSPost2010PropOp41
 70
     1
102
RTVSPost2010Prop42
 90
       50
102
RTVSPost2010PropOp42
 70
     1
102
RTVSPost2010Prop43
 90
        3
102
RTVSPost2010PropOp43
 70
     1
102
RTVSPost2010Prop44ColorIndex
 90
        5
102
RTVSPost2010Prop44ColorRGB
 90
      255
102
RTVSPost2010PropOp44
 70
     1
102
RTVSPost2010Prop45
280
     0
102
RTVSPost2010PropOp45
 70
     1
102
RTVSPost2010Prop46
 90
       50
102
RTVSPost2010PropOp46
 70
     1
102
RTVSPost2010Prop47
 90
       50
102
RTVSPost2010PropOp47
 70
     1
102
RTVSPost2010Prop48
 90
       50
102
RTVSPost2010PropOp48
 70
     1
102
RTVSPost2010Prop49
280
     0
102
RTVSPost2010PropOp49
 70
     1
102
RTVSPost2010Prop50
 90
       50
102
RTVSPost2010PropOp50
 70
     1
102
RTVSPost2010Prop51ColorIndex
 90
      256
102
RTVSPost2010Prop51ColorRGB
 90
-16777216
102
RTVSPost2010PropOp51
 70
     0
102
RTVSPost2010Prop52
140
1.0
102
RTVSPost2010PropOp52
 70
     0
102
RTVSPost2010Prop53
 90
        2
102
RTVSPost2010PropOp53
 70
     1
102
RTVSPost2010Prop54
  1
strokes_ogs.tif
102
RTVSPost2010PropOp54
 70
     1
102
RTVSPost2010Prop55
280
     0
102
RTVSPost2010PropOp55
 70
     1
102
RTVSPost2010Prop56
140
1.0
102
RTVSPost2010PropOp56
 70
     1
102
RTVSPost2010Prop57
140
1.0
102
RTVSPost2010PropOp57
 70
     1
  0
ENDSEC
  0
EOF
