  0
SECTION
  2
HEADER
  9
$ACADVER
  1
AC1021
  9
$ACADMAINTVER
 70
    25
  9
$DWGCODEPAGE
  3
ANSI_1252
  9
$INSBASE
 10
0.0
 20
0.0
 30
0.0
  9
$EXTMIN
 10
0.0
 20
0.0
 30
0.0
  9
$EXTMAX
 10
594.0
 20
420.0
 30
0.0
  9
$LIMMIN
 10
0.0
 20
0.0
  9
$LIMMAX
 10
594.0
 20
420.0
  9
$ORTHOMODE
 70
     0
  9
$REGENMODE
 70
     1
  9
$FILLMODE
 70
     1
  9
$QTEXTMODE
 70
     0
  9
$MIRRTEXT
 70
     1
  9
$LTSCALE
 40
1.0
  9
$ATTMODE
 70
     1
  9
$TEXTSIZE
 40
4.57
  9
$TRACEWID
 40
1.0
  9
$TEXTSTYLE
  7
Standard
  9
$CLAYER
  8
0
  9
$CELTYPE
  6
ByLayer
  9
$CECOLOR
 62
   256
  9
$CELTSCALE
 40
1.0
  9
$DISPSILH
 70
     0
  9
$DIMSCALE
 40
1.0
  9
$DIMASZ
 40
2.5
  9
$DIMEXO
 40
0.625
  9
$DIMDLI
 40
3.75
  9
$DIMRND
 40
0.0
  9
$DIMDLE
 40
0.0
  9
$DIMEXE
 40
1.25
  9
$DIMTP
 40
0.0
  9
$DIMTM
 40
0.0
  9
$DIMTXT
 40
2.5
  9
$DIMCEN
 40
2.5
  9
$DIMTSZ
 40
0.0
  9
$DIMTOL
 70
     0
  9
$DIMLIM
 70
     0
  9
$DIMTIH
 70
     0
  9
$DIMTOH
 70
     0
  9
$DIMSE1
 70
     0
  9
$DIMSE2
 70
     0
  9
$DIMTAD
 70
     1
  9
$DIMZIN
 70
     8
  9
$DIMBLK
  1

  9
$DIMASO
 70
     1
  9
$DIMSHO
 70
     1
  9
$DIMPOST
  1

  9
$DIMAPOST
  1

  9
$DIMALT
 70
     0
  9
$DIMALTD
 70
     3
  9
$DIMALTF
 40
0.0393700787
  9
$DIMLFAC
 40
1.0
  9
$DIMTOFL
 70
     1
  9
$DIMTVP
 40
0.0
  9
$DIMTIX
 70
     0
  9
$DIMSOXD
 70
     0
  9
$DIMSAH
 70
     0
  9
$DIMBLK1
  1

  9
$DIMBLK2
  1

  9
$DIMSTYLE
  2
ISO-25
  9
$DIMCLRD
 70
     0
  9
$DIMCLRE
 70
     0
  9
$DIMCLRT
 70
     0
  9
$DIMTFAC
 40
1.0
  9
$DIMGAP
 40
0.625
  9
$DIMJUST
 70
     0
  9
$DIMSD1
 70
     0
  9
$DIMSD2
 70
     0
  9
$DIMTOLJ
 70
     0
  9
$DIMTZIN
 70
     8
  9
$DIMALTZ
 70
     0
  9
$DIMALTTZ
 70
     0
  9
$DIMUPT
 70
     0
  9
$DIMDEC
 70
     2
  9
$DIMTDEC
 70
     2
  9
$DIMALTU
 70
     2
  9
$DIMALTTD
 70
     3
  9
$DIMTXSTY
  7
Standard
  9
$DIMAUNIT
 70
     0
  9
$DIMADEC
 70
     0
  9
$DIMALTRND
 40
0.0
  9
$DIMAZIN
 70
     0
  9
$DIMDSEP
 70
    44
  9
$DIMATFIT
 70
     3
  9
$DIMFRAC
 70
     0
  9
$DIMLDRBLK
  1

  9
$DIMLUNIT
 70
     2
  9
$DIMLWD
 70
    -2
  9
$DIMLWE
 70
    -2
  9
$DIMTMOVE
 70
     0
  9
$DIMFXL
 40
1.0
  9
$DIMFXLON
 70
     0
  9
$DIMJOGANG
 40
0.7853981634
  9
$DIMTFILL
 70
     0
  9
$DIMTFILLCLR
 70
     0
  9
$DIMARCSYM
 70
     0
  9
$DIMLTYPE
  6

  9
$DIMLTEX1
  6

  9
$DIMLTEX2
  6

  9
$LUNITS
 70
     2
  9
$LUPREC
 70
     4
  9
$SKETCHINC
 40
1.0
  9
$FILLETRAD
 40
10.0
  9
$AUNITS
 70
     0
  9
$AUPREC
 70
     0
  9
$MENU
  1
.
  9
$ELEVATION
 40
0.0
  9
$PELEVATION
 40
0.0
  9
$THICKNESS
 40
0.0
  9
$LIMCHECK
 70
     0
  9
$CHAMFERA
 40
0.0
  9
$CHAMFERB
 40
0.0
  9
$CHAMFERC
 40
0.0
  9
$CHAMFERD
 40
0.0
  9
$SKPOLY
 70
     0
  9
$TDCREATE
 40
2460686.349723241
  9
$TDUCREATE
 40
2460686.308056574
  9
$TDUPDATE
 40
2460686.349725382
  9
$TDUUPDATE
 40
2460686.308058715
  9
$TDINDWG
 40
0.0000000116
  9
$TDUSRTIMER
 40
0.0000000116
  9
$USRTIMER
 70
     1
  9
$ANGBASE
 50
0.0
  9
$ANGDIR
 70
     0
  9
$PDMODE
 70
     0
  9
$PDSIZE
 40
0.0
  9
$PLINEWID
 40
0.0
  9
$SPLFRAME
 70
     0
  9
$SPLINETYPE
 70
     6
  9
$SPLINESEGS
 70
     8
  9
$HANDSEED
  5
1F8
  9
$SURFTAB1
 70
     6
  9
$SURFTAB2
 70
     6
  9
$SURFTYPE
 70
     6
  9
$SURFU
 70
     6
  9
$SURFV
 70
     6
  9
$UCSBASE
  2

  9
$UCSNAME
  2

  9
$UCSORG
 10
0.0
 20
0.0
 30
0.0
  9
$UCSXDIR
 10
1.0
 20
0.0
 30
0.0
  9
$UCSYDIR
 10
0.0
 20
1.0
 30
0.0
  9
$UCSORTHOREF
  2

  9
$UCSORTHOVIEW
 70
     0
  9
$UCSORGTOP
 10
0.0
 20
0.0
 30
0.0
  9
$UCSORGBOTTOM
 10
0.0
 20
0.0
 30
0.0
  9
$UCSORGLEFT
 10
0.0
 20
0.0
 30
0.0
  9
$UCSORGRIGHT
 10
0.0
 20
0.0
 30
0.0
  9
$UCSORGFRONT
 10
0.0
 20
0.0
 30
0.0
  9
$UCSORGBACK
 10
0.0
 20
0.0
 30
0.0
  9
$PUCSBASE
  2

  9
$PUCSNAME
  2

  9
$PUCSORG
 10
0.0
 20
0.0
 30
0.0
  9
$PUCSXDIR
 10
1.0
 20
0.0
 30
0.0
  9
$PUCSYDIR
 10
0.0
 20
1.0
 30
0.0
  9
$PUCSORTHOREF
  2

  9
$PUCSORTHOVIEW
 70
     0
  9
$PUCSORGTOP
 10
0.0
 20
0.0
 30
0.0
  9
$PUCSORGBOTTOM
 10
0.0
 20
0.0
 30
0.0
  9
$PUCSORGLEFT
 10
0.0
 20
0.0
 30
0.0
  9
$PUCSORGRIGHT
 10
0.0
 20
0.0
 30
0.0
  9
$PUCSORGFRONT
 10
0.0
 20
0.0
 30
0.0
  9
$PUCSORGBACK
 10
0.0
 20
0.0
 30
0.0
  9
$USERI1
 70
     0
  9
$USERI2
 70
     0
  9
$USERI3
 70
     0
  9
$USERI4
 70
     0
  9
$USERI5
 70
     0
  9
$USERR1
 40
0.0
  9
$USERR2
 40
0.0
  9
$USERR3
 40
0.0
  9
$USERR4
 40
0.0
  9
$USERR5
 40
0.0
  9
$WORLDVIEW
 70
     1
  9
$SHADEDGE
 70
     3
  9
$SHADEDIF
 70
    70
  9
$TILEMODE
 70
     1
  9
$MAXACTVP
 70
    64
  9
$PINSBASE
 10
0.0
 20
0.0
 30
0.0
  9
$PLIMCHECK
 70
     0
  9
$PEXTMIN
 10
0.0
 20
0.0
 30
0.0
  9
$PEXTMAX
 10
594.0
 20
420.0
 30
0.0
  9
$PLIMMIN
 10
0.0
 20
0.0
  9
$PLIMMAX
 10
594.0
 20
420.0
  9
$UNITMODE
 70
     0
  9
$VISRETAIN
 70
     1
  9
$PLINEGEN
 70
     0
  9
$PSLTSCALE
 70
     1
  9
$TREEDEPTH
 70
  3020
  9
$CMLSTYLE
  2
Standard
  9
$CMLJUST
 70
     0
  9
$CMLSCALE
 40
20.0
  9
$PROXYGRAPHICS
 70
     1
  9
$MEASUREMENT
 70
     1
  9
$CELWEIGHT
370
    -1
  9
$ENDCAPS
280
     0
  9
$JOINSTYLE
280
     0
  9
$LWDISPLAY
290
     0
  9
$INSUNITS
 70
     4
  9
$HYPERLINKBASE
  1

  9
$STYLESHEET
  1

  9
$XEDIT
290
     1
  9
$CEPSNTYPE
380
     0
  9
$PSTYLEMODE
290
     1
  9
$FINGERPRINTGUID
  2
{ebc14d49-05bb-46c8-9ab6-9b2d1d730e9c}
  9
$VERSIONGUID
  2
{FAEB1C32-E019-11D5-929B-00C0DF256EC4}
  9
$EXTNAMES
290
     1
  9
$PSVPSCALE
 40
0.0
  9
$OLESTARTUP
290
     0
  9
$SORTENTS
280
   127
  9
$INDEXCTL
280
     0
  9
$HIDETEXT
280
     1
  9
$XCLIPFRAME
290
     0
  9
$HALOGAP
280
     0
  9
$OBSCOLOR
 70
   257
  9
$OBSLTYPE
280
     0
  9
$INTERSECTIONDISPLAY
280
     0
  9
$INTERSECTIONCOLOR
 70
   257
  9
$DIMASSOC
280
     2
  9
$PROJECTNAME
  1

  9
$CAMERADISPLAY
290
     0
  9
$LENSLENGTH
 40
50.0
  9
$CAMERAHEIGHT
 40
0.0
  9
$STEPSPERSEC
 40
2.0
  9
$STEPSIZE
 40
6.0
  9
$3DDWFPREC
 40
2.0
  9
$PSOLWIDTH
 40
5.0
  9
$PSOLHEIGHT
 40
80.0
  9
$LOFTANG1
 40
1.5707963268
  9
$LOFTANG2
 40
1.5707963268
  9
$LOFTMAG1
 40
0.0
  9
$LOFTMAG2
 40
0.0
  9
$LOFTPARAM
 70
     7
  9
$LOFTNORMALS
280
     1
  9
$LATITUDE
 40
37.795
  9
$LONGITUDE
 40
-122.394
  9
$NORTHDIRECTION
 40
0.0
  9
$TIMEZONE
 70
 -8000
  9
$LIGHTGLYPHDISPLAY
280
     1
  9
$TILEMODELIGHTSYNCH
280
     1
  9
$CMATERIAL
347
44
  9
$SOLIDHIST
280
     0
  9
$SHOWHIST
280
     1
  9
$DWFFRAME
280
     2
  9
$DGNFRAME
280
     2
  9
$REALWORLDSCALE
290
     1
  9
$INTERFERECOLOR
 62
   256
  9
$CSHADOW
280
     0
  9
$SHADOWPLANELOCATION
 40
0.0
  0
ENDSEC
  0
SECTION
  2
CLASSES
  0
CLASS
  1
ACDBDICTIONARYWDFLT
  2
AcDbDictionaryWithDefault
  3
ObjectDBX Classes
 90
        0
 91
        3
280
     0
281
     0
  0
CLASS
  1
VISUALSTYLE
  2
AcDbVisualStyle
  3
ObjectDBX Classes
 90
     4095
 91
        3
280
     0
281
     0
  0
CLASS
  1
MATERIAL
  2
AcDbMaterial
  3
ObjectDBX Classes
 90
     1153
 91
        3
280
     0
281
     0
  0
CLASS
  1
SCALE
  2
AcDbScale
  3
ObjectDBX Classes
 90
     1153
 91
        3
280
     0
281
     0
  0
CLASS
  1
TABLESTYLE
  2
AcDbTableStyle
  3
ObjectDBX Classes
 90
     4095
 91
        3
280
     0
281
     0
  0
CLASS
  1
MLEADERSTYLE
  2
AcDbMLeaderStyle
  3
ACDB_MLEADERSTYLE_CLASS
 90
     4095
 91
        3
280
     0
281
     0
  0
CLASS
  1
SUN
  2
AcDbSun
  3
SCENEOE
 90
     1153
 91
        3
280
     0
281
     0
  0
CLASS
  1
DICTIONARYVAR
  2
AcDbDictionaryVar
  3
ObjectDBX Classes
 90
        0
 91
        3
280
     0
281
     0
  0
CLASS
  1
CELLSTYLEMAP
  2
AcDbCellStyleMap
  3
ObjectDBX Classes
 90
     1152
 91
        3
280
     0
281
     0
  0
ENDSEC
  0
SECTION
  2
TABLES
  0
TABLE
  2
VPORT
  5
8
330
0
100
AcDbSymbolTable
 70
     1
  0
VPORT
  5
29
330
8
100
AcDbSymbolTableRecord
100
AcDbViewportTableRecord
  2
*Active
 70
     0
 10
0.0
 20
0.0
 11
1.0
 21
1.0
 12
344.1869158879
 22
148.5
 13
0.0
 23
0.0
 14
10.0
 24
10.0
 15
10.0
 25
10.0
 16
0.0
 26
0.0
 36
1.0
 17
0.0
 27
0.0
 37
0.0
 40
297.0
 41
1.9729729729
 42
50.0
 43
0.0
 44
0.0
 50
0.0
 51
0.0
 71
     0
 72
   100
 73
     1
 74
     3
 75
     0
 76
     0
 77
     0
 78
     0
281
     0
 65
     1
110
0.0
120
0.0
130
0.0
111
1.0
121
0.0
131
0.0
112
0.0
122
1.0
132
0.0
 79
     0
146
0.0
348
2F
 60
     3
 61
     5
292
     1
282
     1
141
0.0
142
0.0
 63
   250
361
6D
  0
ENDTAB
  0
TABLE
  2
LTYPE
  5
5
330
0
100
AcDbSymbolTable
 70
     3
  0
LTYPE
  5
14
330
5
100
AcDbSymbolTableRecord
100
AcDbLinetypeTableRecord
  2
ByBlock
 70
     0
  3

 72
    65
 73
     0
 40
0.0
  0
LTYPE
  5
15
330
5
100
AcDbSymbolTableRecord
100
AcDbLinetypeTableRecord
  2
ByLayer
 70
     0
  3

 72
    65
 73
     0
 40
0.0
  0
LTYPE
  5
16
330
5
100
AcDbSymbolTableRecord
100
AcDbLinetypeTableRecord
  2
Continuous
 70
     0
  3
Solid line
 72
    65
 73
     0
 40
0.0
  0
LTYPE
  5
6F
330
5
100
AcDbSymbolTableRecord
100
AcDbLinetypeTableRecord
  2
HIDDEN2
 70
     0
  3
Hidden (.5x) _ _ _ _ _ _ _ _ _ _ _ _ _ _ _ _ _ 
 72
    65
 73
     2
 40
4.7625
 49
3.175
 74
     4
 75
     0
340
0
 46
0.0
 50
0.0
 44
0.0
 45
0.0
 49
-1.5875
 74
     4
 75
     0
340
0
 46
0.0
 50
0.0
 44
0.0
 45
0.0
  0
LTYPE
  5
150
330
5
100
AcDbSymbolTableRecord
100
AcDbLinetypeTableRecord
  2
CENTER2
 70
     0
  3
Center (.5x) ___ _ ___ _ ___ _ ___ _ ___ _ ___
 72
    65
 73
     4
 40
28.575
 49
19.05
 74
     4
 75
     0
340
0
 46
0.0
 50
0.0
 44
0.0
 45
0.0
 49
-3.175
 74
     4
 75
     0
340
0
 46
0.0
 50
0.0
 44
0.0
 45
0.0
 49
3.175
 74
     4
 75
     0
340
0
 46
0.0
 50
0.0
 44
0.0
 45
0.0
 49
-3.175
 74
     4
 75
     0
340
0
 46
0.0
 50
0.0
 44
0.0
 45
0.0
  0
ENDTAB
  0
TABLE
  2
LAYER
  5
2
330
0
100
AcDbSymbolTable
 70
    10
  0
LAYER
  5
10
330
2
100
AcDbSymbolTableRecord
100
AcDbLayerTableRecord
  2
0
 70
     0
 62
     7
  6
Continuous
370
    -3
390
F
347
46
  0
LAYER
  5
6E
330
2
100
AcDbSymbolTableRecord
100
AcDbLayerTableRecord
  2
Verdeckt_(ISO)
 70
     0
 62
     7
  6
Continuous
370
    -3
390
F
347
46
  0
LAYER
  5
7B
330
2
100
AcDbSymbolTableRecord
100
AcDbLayerTableRecord
  2
Sichtbar_(ISO)
 70
     0
 62
     7
  6
Continuous
370
    -3
390
F
347
46
  0
LAYER
  5
149
330
2
100
AcDbSymbolTableRecord
100
AcDbLayerTableRecord
  2
Sichtbar_schmal_(ISO)
 70
     0
 62
     7
  6
Continuous
370
    -3
390
F
347
46
  0
LAYER
  5
14F
330
2
100
AcDbSymbolTableRecord
100
AcDbLayerTableRecord
  2
Mittellinie_(ISO)
 70
     0
 62
     7
  6
Continuous
370
    -3
390
F
347
46
  0
LAYER
  5
152
330
2
100
AcDbSymbolTableRecord
100
AcDbLayerTableRecord
  2
Mittelpunktmarkierung_(ISO)
 70
     0
 62
     7
  6
Continuous
370
    -3
390
F
347
46
  0
LAYER
  5
156
330
2
100
AcDbSymbolTableRecord
100
AcDbLayerTableRecord
  2
Skizziergeometrie_(ISO)
 70
     0
 62
     7
  6
Continuous
370
    -3
390
F
347
46
  0
LAYER
  5
158
330
2
100
AcDbSymbolTableRecord
100
AcDbLayerTableRecord
  2
_Konvertierung
 70
     1
 62
    -7
  6
Continuous
370
    -3
390
F
347
46
  0
LAYER
  5
165
330
2
100
AcDbSymbolTableRecord
100
AcDbLayerTableRecord
  2
6
 70
     0
 62
     7
  6
Continuous
370
    -3
390
F
347
46
  0
LAYER
  5
168
330
2
100
AcDbSymbolTableRecord
100
AcDbLayerTableRecord
  2
Bemaßung_(ISO)
 70
     0
 62
     7
  6
Continuous
370
    -3
390
F
347
46
  0
ENDTAB
  0
TABLE
  2
STYLE
  5
3
330
0
100
AcDbSymbolTable
 70
     2
  0
STYLE
  5
11
330
3
100
AcDbSymbolTableRecord
100
AcDbTextStyleTableRecord
  2
Standard
 70
     0
 40
0.0
 41
1.0
 50
0.0
 71
     0
 42
4.57
  3
txt
  4

  0
STYLE
  5
178
330
3
100
AcDbSymbolTableRecord
100
AcDbTextStyleTableRecord
  2
SEACAD_Arial
 70
     0
 40
0.0
 41
1.0
 50
0.0
 71
     0
 42
4.57
  3
arial.ttf
  4

1001
ACAD
1000
Arial
1071
        0
  0
ENDTAB
  0
TABLE
  2
VIEW
  5
6
330
0
100
AcDbSymbolTable
 70
     0
  0
ENDTAB
  0
TABLE
  2
UCS
  5
7
330
0
100
AcDbSymbolTable
 70
     0
  0
ENDTAB
  0
TABLE
  2
APPID
  5
9
330
0
100
AcDbSymbolTable
 70
     2
  0
APPID
  5
12
330
9
100
AcDbSymbolTableRecord
100
AcDbRegAppTableRecord
  2
ACAD
 70
     0
  0
APPID
  5
1EE
330
9
100
AcDbSymbolTableRecord
100
AcDbRegAppTableRecord
  2
ACAD_MLEADERVER
 70
     0
  0
ENDTAB
  0
TABLE
  2
DIMSTYLE
  5
A
330
0
100
AcDbSymbolTable
 70
     3
100
AcDbDimStyleTable
  0
DIMSTYLE
105
27
330
A
100
AcDbSymbolTableRecord
100
AcDbDimStyleTableRecord
  2
ISO-25
 70
     0
 41
2.5
 42
0.625
 43
3.75
 44
1.25
 73
     0
 74
     0
 77
     1
 78
     8
140
2.5
141
2.5
143
0.0393700787
147
0.625
171
     3
172
     1
178
     0
271
     2
272
     2
274
     3
278
    44
283
     0
284
     8
340
11
  0
DIMSTYLE
105
169
330
A
100
AcDbSymbolTableRecord
100
AcDbDimStyleTableRecord
  2
Standard
 70
     0
178
     0
340
11
  0
DIMSTYLE
105
179
102
{ACAD_REACTORS
330
17A
330
184
330
18F
330
199
330
1A3
330
1AE
102
}
330
A
100
AcDbSymbolTableRecord
100
AcDbDimStyleTableRecord
  2
Standard_(DIN)
 70
     0
 41
2.5
 42
1.75
 44
1.75
 73
     0
 74
     0
 77
     1
140
3.5
141
1.75
143
1.0
144
1.0
147
0.875
173
     1
178
     0
271
     1
272
     2
278
    44
340
178
343
173
344
173
  0
ENDTAB
  0
TABLE
  2
BLOCK_RECORD
  5
1
330
0
100
AcDbSymbolTable
 70
     9
  0
BLOCK_RECORD
  5
1F
330
1
100
AcDbSymbolTableRecord
100
AcDbBlockTableRecord
  2
*Model_Space
340
22
 70
     0
280
     1
281
     0
  0
BLOCK_RECORD
  5
1B
330
1
100
AcDbSymbolTableRecord
100
AcDbBlockTableRecord
  2
*Paper_Space
340
1E
 70
     0
280
     1
281
     0
  0
BLOCK_RECORD
  5
16A
330
1
100
AcDbSymbolTableRecord
100
AcDbBlockTableRecord
  2
_Oblique
340
0
 70
     0
280
     1
281
     0
  0
BLOCK_RECORD
  5
16E
330
1
100
AcDbSymbolTableRecord
100
AcDbBlockTableRecord
  2
_Dot
340
0
 70
     0
280
     1
281
     0
  0
BLOCK_RECORD
  5
173
330
1
100
AcDbSymbolTableRecord
100
AcDbBlockTableRecord
  2
_SE_FILLED
340
0
 70
     0
280
     1
281
     0
  0
BLOCK_RECORD
  5
17B
330
1
100
AcDbSymbolTableRecord
100
AcDbBlockTableRecord
  2
DMBLK25
340
0
 70
     0
280
     1
281
     0
  0
BLOCK_RECORD
  5
185
330
1
100
AcDbSymbolTableRecord
100
AcDbBlockTableRecord
  2
DMBLK26
340
0
 70
     0
280
     1
281
     0
  0
BLOCK_RECORD
  5
190
330
1
100
AcDbSymbolTableRecord
100
AcDbBlockTableRecord
  2
DMBLK27
340
0
 70
     0
280
     1
281
     0
  0
BLOCK_RECORD
  5
19A
330
1
100
AcDbSymbolTableRecord
100
AcDbBlockTableRecord
  2
DMBLK28
340
0
 70
     0
280
     1
281
     0
  0
BLOCK_RECORD
  5
1A4
330
1
100
AcDbSymbolTableRecord
100
AcDbBlockTableRecord
  2
DMBLK29
340
0
 70
     0
280
     1
281
     0
  0
BLOCK_RECORD
  5
1AF
330
1
100
AcDbSymbolTableRecord
100
AcDbBlockTableRecord
  2
DMBLK30
340
0
 70
     0
280
     1
281
     0
  0
ENDTAB
  0
ENDSEC
  0
SECTION
  2
BLOCKS
  0
BLOCK
  5
20
330
1F
100
AcDbEntity
  8
0
100
AcDbBlockBegin
  2
*Model_Space
 70
     0
 10
0.0
 20
0.0
 30
0.0
  3
*Model_Space
  1

  0
ENDBLK
  5
21
330
1F
100
AcDbEntity
  8
0
100
AcDbBlockEnd
  0
BLOCK
  5
1C
330
1B
100
AcDbEntity
 67
     1
  8
0
100
AcDbBlockBegin
  2
*Paper_Space
 70
     0
 10
0.0
 20
0.0
 30
0.0
  3
*Paper_Space
  1

  0
ENDBLK
  5
1D
330
1B
100
AcDbEntity
 67
     1
  8
0
100
AcDbBlockEnd
  0
BLOCK
  5
16B
330
16A
100
AcDbEntity
  8
0
100
AcDbBlockBegin
  2
_Oblique
 70
     0
 10
0.0
 20
0.0
 30
0.0
  3
_Oblique
  1

  0
LINE
  5
16D
330
16A
100
AcDbEntity
  8
0
  6
ByBlock
 62
     0
370
    -2
100
AcDbLine
 10
-0.5
 20
-0.5
 30
0.0
 11
0.5
 21
0.5
 31
0.0
  0
ENDBLK
  5
16C
330
16A
100
AcDbEntity
  8
0
100
AcDbBlockEnd
  0
BLOCK
  5
16F
330
16E
100
AcDbEntity
  8
0
100
AcDbBlockBegin
  2
_Dot
 70
     0
 10
0.0
 20
0.0
 30
0.0
  3
_Dot
  1

  0
LWPOLYLINE
  5
171
330
16E
100
AcDbEntity
  8
0
  6
ByBlock
 62
     0
100
AcDbPolyline
 90
        2
 70
     1
 43
0.5
 10
-0.25
 20
0.0
 42
1.0
 10
0.25
 20
0.0
 42
1.0
  0
LINE
  5
172
330
16E
100
AcDbEntity
  8
0
  6
ByBlock
 62
     0
370
    -2
100
AcDbLine
 10
-0.5
 20
0.0
 30
0.0
 11
-1.0
 21
0.0
 31
0.0
  0
ENDBLK
  5
170
330
16E
100
AcDbEntity
  8
0
100
AcDbBlockEnd
  0
BLOCK
  5
176
330
173
100
AcDbEntity
  8
0
100
AcDbBlockBegin
  2
_SE_FILLED
 70
     0
 10
0.0
 20
0.0
 30
0.0
  3
_SE_FILLED
  1

  0
SOLID
  5
174
330
173
100
AcDbEntity
  8
0
 62
     0
100
AcDbTrace
 10
0.0
 20
0.0
 30
0.0
 11
-1.0
 21
-0.1665
 31
0.0
 12
-1.0
 22
0.1665
 32
0.0
 13
0.0
 23
0.0
 33
0.0
  0
LINE
  5
175
330
173
100
AcDbEntity
  8
0
 62
     0
100
AcDbLine
 10
0.0
 20
0.0
 30
0.0
 11
-1.0
 21
0.0
 31
0.0
  0
ENDBLK
  5
177
330
173
100
AcDbEntity
  8
0
100
AcDbBlockEnd
  0
BLOCK
  5
182
330
17B
100
AcDbEntity
  8
0
100
AcDbBlockBegin
  2
DMBLK25
 70
     0
 10
0.0
 20
0.0
 30
0.0
  3
DMBLK25
  1

  0
HATCH
  5
17C
330
17B
100
AcDbEntity
  8
Bemaßung_(ISO)
  6
Continuous
 62
     7
100
AcDbHatch
 10
0.0
 20
0.0
 30
0.0
210
0.0
220
0.0
230
1.0
  2
SOLID
 70
     1
 71
     0
 91
        1
 92
        1
 93
        3
 72
     1
 10
-2.500028069078584
 20
32.34163813627052
 11
-2.500028069078584
 21
31.50830482156364
 72
     1
 10
-2.500028069078584
 20
31.50830482156364
 11
-0.0000281249579386
 21
31.92497147891708
 72
     1
 10
-0.0000281249579385
 20
31.92497147891708
 11
-2.500028069078584
 21
32.34163813627052
 97
        0
 75
     0
 76
     1
 98
        0
  0
HATCH
  5
17D
330
17B
100
AcDbEntity
  8
Bemaßung_(ISO)
  6
Continuous
 62
     7
100
AcDbHatch
 10
0.0
 20
0.0
 30
0.0
210
0.0
220
0.0
230
1.0
  2
SOLID
 70
     1
 71
     0
 91
        1
 92
        1
 93
        3
 72
     1
 10
-45.90002791857685
 20
32.34163813627052
 11
-48.4000278626975
 21
31.92497147891708
 72
     1
 10
-48.4000278626975
 20
31.92497147891708
 11
-45.90002791857685
 21
31.50830482156364
 72
     1
 10
-45.90002791857685
 20
31.50830482156364
 11
-45.90002791857685
 21
32.34163813627053
 97
        0
 75
     0
 76
     1
 98
        0
  0
LINE
  5
17E
330
17B
100
AcDbEntity
  8
Bemaßung_(ISO)
  6
Continuous
 62
     7
100
AcDbLine
 10
-0.000028125
 20
17.674970773
 30
0.0
 11
-0.000028125
 21
33.6749715329
 31
0.0
  0
LINE
  5
17F
330
17B
100
AcDbEntity
  8
Bemaßung_(ISO)
  6
Continuous
 62
     7
100
AcDbLine
 10
-48.400028125
 20
9.7018275689
 30
0.0
 11
-48.400028125
 21
33.6749715329
 31
0.0
  0
LINE
  5
180
330
17B
100
AcDbEntity
  8
Bemaßung_(ISO)
  6
Continuous
 62
     7
100
AcDbLine
 10
-0.000028125
 20
31.9249714789
 30
0.0
 11
-48.4000278627
 21
31.9249714789
 31
0.0
  0
TEXT
  5
181
330
17B
100
AcDbEntity
  8
Bemaßung_(ISO)
  6
Continuous
 62
     7
100
AcDbText
 10
-28.9935062547
 20
32.7999714789
 30
0.0
 40
3.5
  1
48,4
  7
SEACAD_Arial
 11
-28.9935062547
 21
36.2999714789
 31
0.0
100
AcDbText
 73
     3
  0
ENDBLK
  5
183
330
17B
100
AcDbEntity
  8
0
100
AcDbBlockEnd
  0
BLOCK
  5
18D
330
185
100
AcDbEntity
  8
0
100
AcDbBlockBegin
  2
DMBLK26
 70
     0
 10
0.0
 20
0.0
 30
0.0
  3
DMBLK26
  1

  0
HATCH
  5
186
330
185
100
AcDbEntity
  8
Bemaßung_(ISO)
  6
Continuous
 62
     7
100
AcDbHatch
 10
0.0
 20
0.0
 30
0.0
210
0.0
220
0.0
230
1.0
  2
SOLID
 70
     1
 71
     0
 91
        1
 92
        1
 93
        3
 72
     1
 10
-58.77821965032285
 20
20.49997077483723
 11
-57.94488633561597
 21
20.49997077483723
 72
     1
 10
-57.94488633561597
 20
20.49997077483723
 11
-58.36155299296941
 21
22.99997071895787
 72
     1
 10
-58.36155299296941
 20
22.99997071895787
 11
-58.77821965032285
 21
20.49997077483723
 97
        0
 75
     0
 76
     1
 98
        0
  0
HATCH
  5
187
330
185
100
AcDbEntity
  8
Bemaßung_(ISO)
  6
Continuous
 62
     7
100
AcDbHatch
 10
0.0
 20
0.0
 30
0.0
210
0.0
220
0.0
230
1.0
  2
SOLID
 70
     1
 71
     0
 91
        1
 92
        1
 93
        3
 72
     1
 10
-58.77821965032285
 20
-20.50002942632845
 11
-58.36155299296941
 21
-23.0000293704491
 72
     1
 10
-58.36155299296941
 20
-23.0000293704491
 11
-57.94488633561597
 21
-20.50002942632845
 72
     1
 10
-57.94488633561597
 20
-20.50002942632845
 11
-58.77821965032285
 21
-20.50002942632845
 97
        0
 75
     0
 76
     1
 98
        0
  0
LINE
  5
188
330
185
100
AcDbEntity
  8
Bemaßung_(ISO)
  6
Continuous
 62
     7
100
AcDbLine
 10
1.449971821
 20
22.999970719
 30
0.0
 11
-60.111553047
 21
22.999970719
 31
0.0
  0
LINE
  5
189
330
185
100
AcDbEntity
  8
Bemaßung_(ISO)
  6
Continuous
 62
     7
100
AcDbLine
 10
1.449971821
 20
-23.000029281
 30
0.0
 11
-60.111553047
 21
-23.000029281
 31
0.0
  0
LINE
  5
18A
330
185
100
AcDbEntity
  8
Bemaßung_(ISO)
  6
Continuous
 62
     7
100
AcDbLine
 10
-58.361552993
 20
22.999970719
 30
0.0
 11
-58.361552993
 21
-23.0000293704
 31
0.0
  0
TEXT
  5
18B
330
185
100
AcDbEntity
  8
Bemaßung_(ISO)
  6
Continuous
 62
     7
100
AcDbText
 10
-59.236552993
 20
-0.1445945431
 30
0.0
 40
3.5
  1
46
 50
90.0
  7
SEACAD_Arial
 11
-62.736552993
 21
-0.1445945431
 31
0.0
100
AcDbText
 73
     3
  0
TEXT
  5
18C
330
185
100
AcDbEntity
  8
Bemaßung_(ISO)
  6
Continuous
 62
     7
100
AcDbText
 10
-59.236552993
 20
-5.3337249779
 30
0.0
 40
3.5
  1
n
 50
90.0
  7
SEACAD_Arial
 11
-62.736552993
 21
-5.3337249779
 31
0.0
100
AcDbText
 73
     3
  0
ENDBLK
  5
18E
330
185
100
AcDbEntity
  8
0
100
AcDbBlockEnd
  0
BLOCK
  5
197
330
190
100
AcDbEntity
  8
0
100
AcDbBlockBegin
  2
DMBLK27
 70
     0
 10
0.0
 20
0.0
 30
0.0
  3
DMBLK27
  1

  0
HATCH
  5
191
330
190
100
AcDbEntity
  8
Bemaßung_(ISO)
  6
Continuous
 62
     7
100
AcDbHatch
 10
0.0
 20
0.0
 30
0.0
210
0.0
220
0.0
230
1.0
  2
SOLID
 70
     1
 71
     0
 91
        1
 92
        1
 93
        3
 72
     1
 10
2.499971819162707
 20
32.34163813627052
 11
-0.0000281249579386
 21
31.92497147891708
 72
     1
 10
-0.0000281249579385
 20
31.92497147891708
 11
2.499971819162707
 21
31.50830482156364
 72
     1
 10
2.499971819162707
 20
31.50830482156364
 11
2.499971819162707
 21
32.34163813627053
 97
        0
 75
     0
 76
     1
 98
        0
  0
HATCH
  5
192
330
190
100
AcDbEntity
  8
Bemaßung_(ISO)
  6
Continuous
 62
     7
100
AcDbHatch
 10
0.0
 20
0.0
 30
0.0
210
0.0
220
0.0
230
1.0
  2
SOLID
 70
     1
 71
     0
 91
        1
 92
        1
 93
        3
 72
     1
 10
19.49997181171213
 20
32.34163813627052
 11
19.49997181171213
 21
31.50830482156364
 72
     1
 10
19.49997181171213
 20
31.50830482156364
 11
21.99997175583277
 21
31.92497147891708
 72
     1
 10
21.99997175583277
 20
31.92497147891708
 11
19.49997181171213
 21
32.34163813627052
 97
        0
 75
     0
 76
     1
 98
        0
  0
LINE
  5
193
330
190
100
AcDbEntity
  8
Bemaßung_(ISO)
  6
Continuous
 62
     7
100
AcDbLine
 10
-0.000028125
 20
17.674970773
 30
0.0
 11
-0.000028125
 21
33.6749715329
 31
0.0
  0
LINE
  5
194
330
190
100
AcDbEntity
  8
Bemaßung_(ISO)
  6
Continuous
 62
     7
100
AcDbLine
 10
21.999971875
 20
23.549970773
 30
0.0
 11
21.999971875
 21
33.6749715329
 31
0.0
  0
LINE
  5
195
330
190
100
AcDbEntity
  8
Bemaßung_(ISO)
  6
Continuous
 62
     7
100
AcDbLine
 10
-0.000028125
 20
31.9249714789
 30
0.0
 11
21.9999717558
 21
31.9249714789
 31
0.0
  0
TEXT
  5
196
330
190
100
AcDbEntity
  8
Bemaßung_(ISO)
  6
Continuous
 62
     7
100
AcDbText
 10
8.2608413807
 20
32.7999714789
 30
0.0
 40
3.5
  1
22
  7
SEACAD_Arial
 11
8.2608413807
 21
36.2999714789
 31
0.0
100
AcDbText
 73
     3
  0
ENDBLK
  5
198
330
190
100
AcDbEntity
  8
0
100
AcDbBlockEnd
  0
BLOCK
  5
1A1
330
19A
100
AcDbEntity
  8
0
100
AcDbBlockBegin
  2
DMBLK28
 70
     0
 10
0.0
 20
0.0
 30
0.0
  3
DMBLK28
  1

  0
HATCH
  5
19B
330
19A
100
AcDbEntity
  8
Bemaßung_(ISO)
  6
Continuous
 62
     7
100
AcDbHatch
 10
0.0
 20
0.0
 30
0.0
210
0.0
220
0.0
230
1.0
  2
SOLID
 70
     1
 71
     0
 91
        1
 92
        1
 93
        3
 72
     1
 10
2.499971819162707
 20
42.94780597424793
 11
-0.0000281249579386
 21
42.53113931689449
 72
     1
 10
-0.0000281249579385
 20
42.53113931689449
 11
2.499971819162707
 21
42.11447265954105
 72
     1
 10
2.499971819162707
 20
42.11447265954105
 11
2.499971819162707
 21
42.94780597424793
 97
        0
 75
     0
 76
     1
 98
        0
  0
HATCH
  5
19C
330
19A
100
AcDbEntity
  8
Bemaßung_(ISO)
  6
Continuous
 62
     7
100
AcDbHatch
 10
0.0
 20
0.0
 30
0.0
210
0.0
220
0.0
230
1.0
  2
SOLID
 70
     1
 71
     0
 91
        1
 92
        1
 93
        3
 72
     1
 10
49.49997300380502
 20
42.94780597424793
 11
49.49997300380502
 21
42.11447265954105
 72
     1
 10
49.49997300380502
 20
42.11447265954105
 11
51.99997294792567
 21
42.53113931689449
 72
     1
 10
51.99997294792567
 20
42.53113931689449
 11
49.49997300380502
 21
42.94780597424793
 97
        0
 75
     0
 76
     1
 98
        0
  0
LINE
  5
19D
330
19A
100
AcDbEntity
  8
Bemaßung_(ISO)
  6
Continuous
 62
     7
100
AcDbLine
 10
-0.000028125
 20
17.674970773
 30
0.0
 11
-0.000028125
 21
44.2811393709
 31
0.0
  0
LINE
  5
19E
330
19A
100
AcDbEntity
  8
Bemaßung_(ISO)
  6
Continuous
 62
     7
100
AcDbLine
 10
51.999971875
 20
15.2258302514
 30
0.0
 11
51.999971875
 21
44.2811393709
 31
0.0
  0
LINE
  5
19F
330
19A
100
AcDbEntity
  8
Bemaßung_(ISO)
  6
Continuous
 62
     7
100
AcDbLine
 10
-0.000028125
 20
42.5311393169
 30
0.0
 11
51.9999729479
 21
42.5311393169
 31
0.0
  0
TEXT
  5
1A0
330
19A
100
AcDbEntity
  8
Bemaßung_(ISO)
  6
Continuous
 62
     7
100
AcDbText
 10
23.2608419767
 20
43.4061393169
 30
0.0
 40
3.5
  1
52
  7
SEACAD_Arial
 11
23.2608419767
 21
46.9061393169
 31
0.0
100
AcDbText
 73
     3
  0
ENDBLK
  5
1A2
330
19A
100
AcDbEntity
  8
0
100
AcDbBlockEnd
  0
BLOCK
  5
1AC
330
1A4
100
AcDbEntity
  8
0
100
AcDbBlockBegin
  2
DMBLK29
 70
     0
 10
0.0
 20
0.0
 30
0.0
  3
DMBLK29
  1

  0
HATCH
  5
1A5
330
1A4
100
AcDbEntity
  8
Bemaßung_(ISO)
  6
Continuous
 62
     7
100
AcDbHatch
 10
0.0
 20
0.0
 30
0.0
210
0.0
220
0.0
230
1.0
  2
SOLID
 70
     1
 71
     0
 91
        1
 92
        1
 93
        3
 72
     1
 10
76.85007040239601
 20
18.24997077483721
 11
76.43340374504257
 21
20.74997071895785
 72
     1
 10
76.43340374504257
 20
20.74997071895785
 11
76.01673708768912
 21
18.24997077483721
 72
     1
 10
76.01673708768912
 20
18.24997077483721
 11
76.85007040239601
 21
18.24997077483721
 97
        0
 75
     0
 76
     1
 98
        0
  0
HATCH
  5
1A6
330
1A4
100
AcDbEntity
  8
Bemaßung_(ISO)
  6
Continuous
 62
     7
100
AcDbHatch
 10
0.0
 20
0.0
 30
0.0
210
0.0
220
0.0
230
1.0
  2
SOLID
 70
     1
 71
     0
 91
        1
 92
        1
 93
        3
 72
     1
 10
76.85007040239601
 20
-18.25002775739842
 11
76.01673708768912
 21
-18.25002775739842
 72
     1
 10
76.01673708768912
 20
-18.25002775739842
 11
76.43340374504257
 21
-20.75002770151906
 72
     1
 10
76.43340374504257
 20
-20.75002770151906
 11
76.85007040239601
 21
-18.25002775739842
 97
        0
 75
     0
 76
     1
 98
        0
  0
LINE
  5
1A7
330
1A4
100
AcDbEntity
  8
Bemaßung_(ISO)
  6
Continuous
 62
     7
100
AcDbLine
 10
40.4395410807
 20
20.749970719
 30
0.0
 11
78.1834037991
 21
20.749970719
 31
0.0
  0
LINE
  5
1A8
330
1A4
100
AcDbEntity
  8
Bemaßung_(ISO)
  6
Continuous
 62
     7
100
AcDbLine
 10
40.4395410807
 20
-20.750029281
 30
0.0
 11
78.1834037991
 21
-20.750029281
 31
0.0
  0
LINE
  5
1A9
330
1A4
100
AcDbEntity
  8
Bemaßung_(ISO)
  6
Continuous
 62
     7
100
AcDbLine
 10
76.433403745
 20
20.749970719
 30
0.0
 11
76.433403745
 21
-20.7500277015
 31
0.0
  0
TEXT
  5
1AA
330
1A4
100
AcDbEntity
  8
Bemaßung_(ISO)
  6
Continuous
 62
     7
100
AcDbText
 10
75.558403745
 20
-2.1989415348
 30
0.0
 40
3.5
  1
41,5
 50
90.0
  7
SEACAD_Arial
 11
72.058403745
 21
-2.1989415348
 31
0.0
100
AcDbText
 73
     3
  0
TEXT
  5
1AB
330
1A4
100
AcDbEntity
  8
Bemaßung_(ISO)
  6
Continuous
 62
     7
100
AcDbText
 10
75.558403745
 20
-7.3880719695
 30
0.0
 40
3.5
  1
n
 50
90.0
  7
SEACAD_Arial
 11
72.058403745
 21
-7.3880719695
 31
0.0
100
AcDbText
 73
     3
  0
ENDBLK
  5
1AD
330
1A4
100
AcDbEntity
  8
0
100
AcDbBlockEnd
  0
BLOCK
  5
1B7
330
1AF
100
AcDbEntity
  8
0
100
AcDbBlockBegin
  2
DMBLK30
 70
     0
 10
0.0
 20
0.0
 30
0.0
  3
DMBLK30
  1

  0
HATCH
  5
1B0
330
1AF
100
AcDbEntity
  8
Bemaßung_(ISO)
  6
Continuous
 62
     7
100
AcDbHatch
 10
0.0
 20
0.0
 30
0.0
210
0.0
220
0.0
230
1.0
  2
SOLID
 70
     1
 71
     0
 91
        1
 92
        1
 93
        3
 72
     1
 10
64.85822167408004
 20
3.499970774837212
 11
64.4415550167266
 21
5.999970718957857
 72
     1
 10
64.4415550167266
 20
5.999970718957857
 11
64.02488835937315
 21
3.499970774837212
 72
     1
 10
64.02488835937315
 20
3.499970774837212
 11
64.85822167408004
 21
3.499970774837212
 97
        0
 75
     0
 76
     1
 98
        0
  0
HATCH
  5
1B1
330
1AF
100
AcDbEntity
  8
Bemaßung_(ISO)
  6
Continuous
 62
     7
100
AcDbHatch
 10
0.0
 20
0.0
 30
0.0
210
0.0
220
0.0
230
1.0
  2
SOLID
 70
     1
 71
     0
 91
        1
 92
        1
 93
        3
 72
     1
 10
64.85822167408004
 20
-3.500029441229626
 11
64.02488835937315
 21
-3.500029441229626
 72
     1
 10
64.02488835937315
 20
-3.500029441229626
 11
64.4415550167266
 21
-6.000029385350271
 72
     1
 10
64.4415550167266
 20
-6.000029385350271
 11
64.85822167408004
 21
-3.500029441229626
 97
        0
 75
     0
 76
     1
 98
        0
  0
LINE
  5
1B2
330
1AF
100
AcDbEntity
  8
Bemaßung_(ISO)
  6
Continuous
 62
     7
100
AcDbLine
 10
52.7499719291
 20
5.999970719
 30
0.0
 11
66.1915550707
 21
5.999970719
 31
0.0
  0
LINE
  5
1B3
330
1AF
100
AcDbEntity
  8
Bemaßung_(ISO)
  6
Continuous
 62
     7
100
AcDbLine
 10
52.7499719291
 20
-6.000029281
 30
0.0
 11
66.1915550707
 21
-6.000029281
 31
0.0
  0
LINE
  5
1B4
330
1AF
100
AcDbEntity
  8
Bemaßung_(ISO)
  6
Continuous
 62
     7
100
AcDbLine
 10
64.4415550167
 20
5.999970719
 30
0.0
 11
64.4415550167
 21
-6.0000293854
 31
0.0
  0
TEXT
  5
1B5
330
1AF
100
AcDbEntity
  8
Bemaßung_(ISO)
  6
Continuous
 62
     7
100
AcDbText
 10
63.5665550167
 20
-0.1445945506
 30
0.0
 40
3.5
  1
12
 50
90.0
  7
SEACAD_Arial
 11
60.0665550167
 21
-0.1445945506
 31
0.0
100
AcDbText
 73
     3
  0
TEXT
  5
1B6
330
1AF
100
AcDbEntity
  8
Bemaßung_(ISO)
  6
Continuous
 62
     7
100
AcDbText
 10
63.5665550167
 20
-5.3337249854
 30
0.0
 40
3.5
  1
n
 50
90.0
  7
SEACAD_Arial
 11
60.0665550167
 21
-5.3337249854
 31
0.0
100
AcDbText
 73
     3
  0
ENDBLK
  5
1B8
330
1AF
100
AcDbEntity
  8
0
100
AcDbBlockEnd
  0
ENDSEC
  0
SECTION
  2
ENTITIES
  0
SPLINE
  5
70
330
1F
100
AcDbEntity
  8
Verdeckt_(ISO)
  6
HIDDEN2
 62
     7
100
AcDbSpline
210
0.0
220
0.0
230
1.0
 70
    15
 71
     3
 72
    24
 73
    20
 74
     0
 42
0.000000001
 43
0.0000000001
 40
0.0
 40
0.0
 40
0.0
 40
0.0
 40
0.0477173970602358
 40
0.0477173970602358
 40
0.1240652323566136
 40
0.1240652323566136
 40
0.2233174182419044
 40
0.2233174182419044
 40
0.3398992504639238
 40
0.3398992504639238
 40
0.4613696511136224
 40
0.4613696511136224
 40
0.5914494244595421
 40
0.5914494244595421
 40
0.7404605155746639
 40
0.7404605155746639
 40
0.8864017164903922
 40
0.8864017164903922
 40
1.0
 40
1.0
 40
1.0
 40
1.0
 10
51.70003279234017
 20
-7.150597186484002
 30
0.0
 41
1.0
 10
51.70003279234017
 20
-7.102862898647285
 30
0.0
 41
1.0
 10
51.70003091855513
 20
-7.074901666512281
 30
0.0
 41
1.0
 10
51.70002200371756
 20
-7.056830535595681
 30
0.0
 41
1.0
 10
51.70001247158922
 20
-7.10010829503149
 30
0.0
 41
1.0
 10
51.69999008948408
 20
-7.313971512123004
 30
0.0
 41
1.0
 10
51.69997778964489
 20
-7.519471333185276
 30
0.0
 41
1.0
 10
51.69996866900772
 20
-8.069066222634834
 30
0.0
 41
1.0
 10
51.69997582415427
 20
-8.429609010428926
 30
0.0
 41
1.0
 10
51.70000327640385
 20
-9.11298701418216
 30
0.0
 41
1.0
 10
51.70002201366778
 20
-9.4298062023997
 30
0.0
 41
1.0
 10
51.70003702793003
 20
-9.842729319076776
 30
0.0
 41
1.0
 10
51.70002992655882
 20
-9.9178571432066
 30
0.0
 41
1.0
 10
51.69999737913403
 20
-9.733138995242488
 30
0.0
 41
1.0
 10
51.69997431070818
 20
-9.42221845816989
 30
0.0
 41
1.0
 10
51.69996990435025
 20
-8.62724158184088
 30
0.0
 41
1.0
 10
51.6999883193435
 20
-8.156404302864331
 30
0.0
 41
1.0
 10
51.70002105615836
 20
-7.493056561261685
 30
0.0
 41
1.0
 10
51.70003279234017
 20
-7.264235680971865
 30
0.0
 41
1.0
 10
51.70003279234017
 20
-7.150597186484002
 30
0.0
 41
1.0
  0
ELLIPSE
  5
71
330
1F
100
AcDbEntity
  8
Verdeckt_(ISO)
  6
HIDDEN2
 62
     7
100
AcDbEllipse
 10
15.9958105693
 20
-9.6385952866
 30
0.0
 11
0.04591599040839082
 21
-1.399246840920081
 31
0.0
210
0.0
220
0.0
230
1.0
 40
0.0119363309
 41
0.0
 42
6.283185307179586
  0
LINE
  5
72
330
1F
100
AcDbEntity
  8
Verdeckt_(ISO)
  6
HIDDEN2
 62
     7
100
AcDbLine
 10
51.7000256543
 20
-7.0662154239
 30
0.0
 11
51.799971875
 21
-6.9629357091
 31
0.0
  0
LINE
  5
73
330
1F
100
AcDbEntity
  8
Verdeckt_(ISO)
  6
HIDDEN2
 62
     7
100
AcDbLine
 10
51.799971875
 20
-9.9644428381
 30
0.0
 11
51.7000256877
 21
-9.8677225506
 31
0.0
  0
LINE
  5
74
330
1F
100
AcDbEntity
  8
Verdeckt_(ISO)
  6
HIDDEN2
 62
     7
100
AcDbLine
 10
15.9498945789
 20
-8.2393484457
 30
0.0
 11
51.7000256554
 21
-7.0662154233
 31
0.0
  0
LINE
  5
75
330
1F
100
AcDbEntity
  8
Verdeckt_(ISO)
  6
HIDDEN2
 62
     7
100
AcDbLine
 10
16.0417265597
 20
-11.0378421276
 30
0.0
 11
51.7000256888
 21
-9.8677225512
 31
0.0
  0
LINE
  5
76
330
1F
100
AcDbEntity
  8
Verdeckt_(ISO)
  6
HIDDEN2
 62
     7
100
AcDbLine
 10
51.799971875
 20
10.549970719
 30
0.0
 11
51.799971875
 21
-10.550029281
 31
0.0
  0
LINE
  5
77
330
1F
100
AcDbEntity
  8
Verdeckt_(ISO)
  6
HIDDEN2
 62
     7
100
AcDbLine
 10
51.999971875
 20
-7.250029281
 30
0.0
 11
51.799971875
 21
-7.450029281
 31
0.0
  0
LINE
  5
78
330
1F
100
AcDbEntity
  8
Verdeckt_(ISO)
  6
HIDDEN2
 62
     7
100
AcDbLine
 10
51.999971875
 20
7.249970719
 30
0.0
 11
51.799971875
 21
7.449970719
 31
0.0
  0
LINE
  5
79
330
1F
100
AcDbEntity
  8
Verdeckt_(ISO)
  6
HIDDEN2
 62
     7
100
AcDbLine
 10
51.799971875
 20
10.549970719
 30
0.0
 11
51.999971875
 21
10.749970719
 31
0.0
  0
LINE
  5
7A
330
1F
100
AcDbEntity
  8
Verdeckt_(ISO)
  6
HIDDEN2
 62
     7
100
AcDbLine
 10
51.799971875
 20
-10.550029281
 30
0.0
 11
51.999971875
 21
-10.750029281
 31
0.0
  0
SPLINE
  5
7C
330
1F
100
AcDbEntity
  8
Sichtbar_(ISO)
  6
Continuous
 62
     7
100
AcDbSpline
210
0.0
220
0.0
230
1.0
 70
    15
 71
     3
 72
    48
 73
    44
 74
     0
 42
0.000000001
 43
0.0000000001
 40
0.0
 40
0.0
 40
0.0
 40
0.0
 40
0.0312488138186412
 40
0.0312488138186412
 40
0.0812469159284668
 40
0.0812469159284668
 40
0.1092630047824256
 40
0.1092630047824256
 40
0.1372790936363855
 40
0.1372790936363855
 40
0.1623882958311759
 40
0.1623882958311759
 40
0.2074100024922303
 40
0.2074100024922303
 40
0.25
 40
0.25
 40
0.2646696381200111
 40
0.2646696381200111
 40
0.3125040738291294
 40
0.3125040738291294
 40
0.3750081476582585
 40
0.3750081476582585
 40
0.4375040738291293
 40
0.4375040738291293
 40
0.5
 40
0.5
 40
0.5624959261708707
 40
0.5624959261708707
 40
0.6249918523417418
 40
0.6249918523417418
 40
0.6874959261708707
 40
0.6874959261708707
 40
0.7268668255323774
 40
0.7268668255323774
 40
0.7662377248938842
 40
0.7662377248938842
 40
0.8125040738291298
 40
0.8125040738291298
 40
0.8750081476582591
 40
0.8750081476582591
 40
0.9375040738291295
 40
0.9375040738291295
 40
1.0
 40
1.0
 40
1.0
 40
1.0
 10
35.29997187504207
 20
-0.0000292810421412
 30
0.0
 41
1.0
 10
35.29997187504207
 20
-0.3061261632575101
 30
0.0
 41
1.0
 10
35.272072018654
 20
-0.6221809898877764
 30
0.0
 41
1.0
 10
35.11839377042903
 20
-1.443464057897651
 30
0.0
 41
1.0
 10
34.94304208115695
 20
-1.947174440552684
 30
0.0
 41
1.0
 10
34.55392324114285
 20
-2.672186306579696
 30
0.0
 41
1.0
 10
34.39129790978904
 20
-2.920281364893035
 30
0.0
 41
1.0
 10
34.03100589040972
 20
-3.37912154611561
 30
0.0
 41
1.0
 10
33.83774474136103
 20
-3.586604720846922
 30
0.0
 41
1.0
 10
33.42293726160701
 20
-3.961381127709223
 30
0.0
 41
1.0
 10
33.20736093656619
 20
-4.128214795919935
 30
0.0
 41
1.0
 10
32.56010545517762
 20
-4.548115381483816
 30
0.0
 41
1.0
 10
32.09224496733344
 20
-4.763227892012616
 30
0.0
 41
1.0
 10
31.14055997406656
 20
-5.035588363972242
 30
0.0
 41
1.0
 10
30.66007647772372
 20
-5.100029281042139
 30
0.0
 41
1.0
 10
30.04149410059611
 20
-5.100029281042139
 30
0.0
 41
1.0
 10
29.88062859852499
 20
-5.092613997328405
 30
0.0
 41
1.0
 10
29.1914313938496
 20
-5.027308904590221
 30
0.0
 41
1.0
 10
28.65593721119296
 20
-4.890367829041004
 30
0.0
 41
1.0
 10
27.5182386357532
 20
-4.394630620314663
 30
0.0
 41
1.0
 10
26.94716019503711
 20
-3.979482067996581
 30
0.0
 41
1.0
 10
26.06735593413594
 20
-3.055877401880915
 30
0.0
 41
1.0
 10
25.69835197510864
 20
-2.485299796016897
 30
0.0
 41
1.0
 10
25.21564120792504
 20
-1.263990932721557
 30
0.0
 41
1.0
 10
25.09997187504209
 20
-0.6122063788062148
 30
0.0
 41
1.0
 10
25.09997187504209
 20
0.612147816721937
 30
0.0
 41
1.0
 10
25.21564120792504
 20
1.263932370637274
 30
0.0
 41
1.0
 10
25.69835197510865
 20
2.485241233932634
 30
0.0
 41
1.0
 10
26.06735593413594
 20
3.055818839796633
 30
0.0
 41
1.0
 10
26.9471601950371
 20
3.979423505912294
 30
0.0
 41
1.0
 10
27.5182386357532
 20
4.394572058230378
 30
0.0
 41
1.0
 10
28.56866982570661
 20
4.852283650130113
 30
0.0
 41
1.0
 10
29.00293387905475
 20
4.977018282592988
 30
0.0
 41
1.0
 10
29.87374484661621
 20
5.108539827861855
 30
0.0
 41
1.0
 10
30.2983947065616
 20
5.117709728116299
 30
0.0
 41
1.0
 10
31.24365329740808
 20
5.018377664268285
 30
0.0
 41
1.0
 10
31.76017505608677
 20
4.883264047988522
 30
0.0
 41
1.0
 10
32.88170511433097
 20
4.394572058230378
 30
0.0
 41
1.0
 10
33.45278355504706
 20
3.979423505912297
 30
0.0
 41
1.0
 10
34.33258781594823
 20
3.055818839796633
 30
0.0
 41
1.0
 10
34.70159177497553
 20
2.485241233932611
 30
0.0
 41
1.0
 10
35.18430254215914
 20
1.263932370637258
 30
0.0
 41
1.0
 10
35.29997187504207
 20
0.612147816721937
 30
0.0
 41
1.0
 10
35.29997187504207
 20
-0.0000292810421434
 30
0.0
 41
1.0
  0
SPLINE
  5
7D
330
1F
100
AcDbEntity
  8
Sichtbar_(ISO)
  6
Continuous
 62
     7
100
AcDbSpline
210
0.0
220
0.0
230
1.0
 70
    15
 71
     3
 72
    48
 73
    44
 74
     0
 42
0.000000001
 43
0.0000000001
 40
0.0
 40
0.0
 40
0.0
 40
0.0
 40
0.0624959261708705
 40
0.0624959261708705
 40
0.1249918523417409
 40
0.1249918523417409
 40
0.1874959261708702
 40
0.1874959261708702
 40
0.2337622751061158
 40
0.2337622751061158
 40
0.2731331744676227
 40
0.2731331744676227
 40
0.3125040738291293
 40
0.3125040738291293
 40
0.3750081476582582
 40
0.3750081476582582
 40
0.4375040738291293
 40
0.4375040738291293
 40
0.5
 40
0.5
 40
0.5624959261708707
 40
0.5624959261708707
 40
0.6249918523417415
 40
0.6249918523417415
 40
0.6874959261708706
 40
0.6874959261708706
 40
0.7353303618799889
 40
0.7353303618799889
 40
0.75
 40
0.75
 40
0.7925899975077697
 40
0.7925899975077697
 40
0.8376117041688241
 40
0.8376117041688241
 40
0.8627209063636145
 40
0.8627209063636145
 40
0.8907369952175744
 40
0.8907369952175744
 40
0.9187530840715332
 40
0.9187530840715332
 40
0.9687511861813588
 40
0.9687511861813588
 40
1.0
 40
1.0
 40
1.0
 40
1.0
 10
36.29997187504208
 20
-0.0000292810421425
 30
0.0
 41
1.0
 10
36.29997187504208
 20
0.7692565581188004
 30
0.0
 41
1.0
 10
36.14544894904694
 20
1.587410137709618
 30
0.0
 41
1.0
 10
35.52340036265638
 20
3.083019355400193
 30
0.0
 41
1.0
 10
35.05641475330057
 20
3.760866426332083
 30
0.0
 41
1.0
 10
33.98086277511514
 20
4.829385246336054
 30
0.0
 41
1.0
 10
33.29910219769825
 20
5.292785478710954
 30
0.0
 41
1.0
 10
31.99089251480011
 20
5.829709980695707
 30
0.0
 41
1.0
 10
31.39624368499631
 20
5.975161674178906
 30
0.0
 41
1.0
 10
30.31233510528426
 20
6.082233356044048
 30
0.0
 41
1.0
 10
29.82686972894371
 20
6.072427794248393
 30
0.0
 41
1.0
 10
28.82705545333312
 20
5.930455759764927
 30
0.0
 41
1.0
 10
28.32611790036593
 20
5.795671905507178
 30
0.0
 41
1.0
 10
27.10084155238587
 20
5.29278547871094
 30
0.0
 41
1.0
 10
26.41908097496907
 20
4.829385246336103
 30
0.0
 41
1.0
 10
25.3435289967836
 20
3.760866426332083
 30
0.0
 41
1.0
 10
24.87654338742777
 20
3.083019355400153
 30
0.0
 41
1.0
 10
24.25449480103721
 20
1.587410137709583
 30
0.0
 41
1.0
 10
24.09997187504208
 20
0.7692565581187818
 30
0.0
 41
1.0
 10
24.09997187504208
 20
-0.7693151202031192
 30
0.0
 41
1.0
 10
24.2544948010372
 20
-1.587468699793851
 30
0.0
 41
1.0
 10
24.87654338742782
 20
-3.083077917484546
 30
0.0
 41
1.0
 10
25.34352899678363
 20
-3.760924988416401
 30
0.0
 41
1.0
 10
26.41908097496909
 20
-4.829443808420412
 30
0.0
 41
1.0
 10
27.10084155238595
 20
-5.292844040795253
 30
0.0
 41
1.0
 10
28.4279110158115
 20
-5.837509104862371
 30
0.0
 41
1.0
 10
29.04412529775978
 20
-5.984797195438195
 30
0.0
 41
1.0
 10
29.834234959227
 20
-6.055172789898962
 30
0.0
 41
1.0
 10
30.01846986267132
 20
-6.063150185969848
 30
0.0
 41
1.0
 10
30.72692217819792
 20
-6.063150185969848
 30
0.0
 41
1.0
 10
31.27722802477154
 20
-5.994134030209416
 30
0.0
 41
1.0
 10
32.37653186439493
 20
-5.698133105347348
 30
0.0
 41
1.0
 10
32.92260346336075
 20
-5.462919586944547
 30
0.0
 41
1.0
 10
33.69028118158123
 20
-4.992982568076897
 30
0.0
 41
1.0
 10
33.94858438895703
 20
-4.804494454633636
 30
0.0
 41
1.0
 10
34.45048349381812
 20
-4.375764206366101
 30
0.0
 41
1.0
 10
34.68731892209826
 20
-4.135641139723193
 30
0.0
 41
1.0
 10
35.13379320367697
 20
-3.596921993351556
 30
0.0
 41
1.0
 10
35.33814160095555
 20
-3.301938480955306
 30
0.0
 41
1.0
 10
35.8322432740859
 20
-2.42801465547933
 30
0.0
 41
1.0
 10
36.0613846236346
 20
-1.807048100824036
 30
0.0
 41
1.0
 10
36.26301047730358
 20
-0.7818612145125672
 30
0.0
 41
1.0
 10
36.29997187504208
 20
-0.3846826726173362
 30
0.0
 41
1.0
 10
36.29997187504208
 20
-0.0000292810421425
 30
0.0
 41
1.0
  0
SPLINE
  5
7E
330
1F
100
AcDbEntity
  8
Verdeckt_(ISO)
  6
HIDDEN2
 62
     7
100
AcDbSpline
210
0.0
220
0.0
230
1.0
 70
     8
 71
     3
 72
    39
 73
    35
 74
     0
 42
0.000000001
 43
0.0000000001
 40
0.0
 40
0.0
 40
0.0
 40
0.0
 40
0.0423350399566587
 40
0.0423350399566587
 40
0.0943445340400414
 40
0.0943445340400414
 40
0.1983635222068063
 40
0.1983635222068063
 40
0.3023825103735721
 40
0.3023825103735721
 40
0.3543920044569547
 40
0.3543920044569547
 40
0.4064014985403369
 40
0.4064014985403369
 40
0.4532007492701688
 40
0.4532007492701688
 40
0.5000000000000001
 40
0.5000000000000001
 40
0.546799250729831
 40
0.546799250729831
 40
0.5935985014596623
 40
0.5935985014596623
 40
0.6456079955430449
 40
0.6456079955430449
 40
0.6976174896264277
 40
0.6976174896264277
 40
0.801636477793193
 40
0.801636477793193
 40
0.801636477793193
 40
0.9056554659599584
 40
0.9056554659599584
 40
0.9576649600433411
 40
0.9576649600433411
 40
1.0
 40
1.0
 40
1.0
 40
1.0
 10
38.68954102669882
 20
3.619388071908113
 30
0.0
 10
38.40629762336551
 20
4.032094297845339
 30
0.0
 10
38.07320873114226
 20
4.415622814198504
 30
0.0
 10
37.23921652899429
 20
5.182830531577116
 30
0.0
 10
36.71711194511364
 20
5.546401308171804
 30
0.0
 10
35.03012208919205
 20
6.423235450190584
 30
0.0
 10
33.73688355168905
 20
6.715948382503593
 30
0.0
 10
31.26306019839511
 20
6.715948382503593
 30
0.0
 10
29.96982166089207
 20
6.423235450190584
 30
0.0
 10
28.28283180497049
 20
5.546401308171804
 30
0.0
 10
27.76072722108984
 20
5.182830531577113
 30
0.0
 10
26.84121422662653
 20
4.33695036175629
 30
0.0
 10
26.44379333244442
 20
3.854579941691263
 30
0.0
 10
25.83636110905047
 20
2.861875426479048
 30
0.0
 10
25.586977058018
 20
2.311348288985025
 30
0.0
 10
25.25923990020936
 20
1.158691608467635
 30
0.0
 10
25.18101703162351
 20
0.5564704571907684
 30
0.0
 10
25.18101703162351
 20
-0.5565290192750534
 30
0.0
 10
25.25923990020936
 20
-1.158750170551918
 30
0.0
 10
25.58697705801801
 20
-2.311406851069305
 30
0.0
 10
25.83636110905047
 20
-2.861933988563328
 30
0.0
 10
26.44379333244442
 20
-3.854638503775544
 30
0.0
 10
26.84121422662652
 20
-4.337008923840573
 30
0.0
 10
27.76072722108984
 20
-5.182889093661399
 30
0.0
 10
28.28283180497049
 20
-5.546459870256089
 30
0.0
 10
29.96982166089206
 20
-6.42329401227487
 30
0.0
 10
31.26306019839511
 20
-6.71600694458788
 30
0.0
 10
32.49997187504206
 20
-6.71600694458788
 30
0.0
 10
33.73688355168905
 20
-6.71600694458788
 30
0.0
 10
35.03012208919207
 20
-6.42329401227487
 30
0.0
 10
36.71711194511364
 20
-5.546459870256085
 30
0.0
 10
37.2392165289943
 20
-5.182889093661399
 30
0.0
 10
38.07320873114226
 20
-4.415681376282782
 30
0.0
 10
38.40629762336551
 20
-4.032152859929621
 30
0.0
 10
38.68954102669882
 20
-3.619446633992398
 30
0.0
  0
SPLINE
  5
7F
330
1F
100
AcDbEntity
  8
Verdeckt_(ISO)
  6
HIDDEN2
 62
     7
100
AcDbSpline
210
0.0
220
0.0
230
1.0
 70
     8
 71
     3
 72
    10
 73
     6
 74
     0
 42
0.000000001
 43
0.0000000001
 40
0.0
 40
0.0
 40
0.0
 40
0.0
 40
0.4999999999999952
 40
0.4999999999999952
 40
1.0
 40
1.0
 40
1.0
 40
1.0
 10
39.53477755018023
 20
-1.557519048456629
 30
0.0
 10
39.64554558364925
 20
-1.030876825975184
 30
0.0
 10
39.69708654132228
 20
-0.4963813587870535
 30
0.0
 10
39.69708654132228
 20
0.4963227967027716
 30
0.0
 10
39.64554558364925
 20
1.030818263890894
 30
0.0
 10
39.53477755018023
 20
1.557460486372342
 30
0.0
  0
SPLINE
  5
80
330
1F
100
AcDbEntity
  8
Verdeckt_(ISO)
  6
HIDDEN2
 62
     7
100
AcDbSpline
210
0.0
220
0.0
230
1.0
 70
     8
 71
     3
 72
    12
 73
     8
 74
     0
 42
0.000000001
 43
0.0000000001
 40
0.0
 40
0.0
 40
0.0
 40
0.0
 40
0.1260681874829558
 40
0.1260681874829558
 40
0.5539412526079556
 40
0.5539412526079556
 40
0.9999999999999999
 40
0.9999999999999999
 40
0.9999999999999999
 40
0.9999999999999999
 10
38.68954102669882
 20
-3.619446633992398
 30
0.0
 10
38.74299576932612
 20
-3.541559188676681
 30
0.0
 10
38.79297563077579
 20
-3.463257485438266
 30
0.0
 10
38.99420405551854
 20
-3.128329545991686
 30
0.0
 10
39.14996262933766
 20
-2.799559447804579
 30
0.0
 10
39.36879682873337
 20
-2.219826542938759
 30
0.0
 10
39.46404065122854
 20
-1.893834829360784
 30
0.0
 10
39.53477755018023
 20
-1.557519048456629
 30
0.0
  0
SPLINE
  5
81
330
1F
100
AcDbEntity
  8
Verdeckt_(ISO)
  6
HIDDEN2
 62
     7
100
AcDbSpline
210
0.0
220
0.0
230
1.0
 70
     8
 71
     3
 72
    12
 73
     8
 74
     0
 42
0.000000001
 43
0.0000000001
 40
0.0
 40
0.0
 40
0.0
 40
0.0
 40
0.446058747392042
 40
0.446058747392042
 40
0.8739318125170533
 40
0.8739318125170533
 40
1.0
 40
1.0
 40
1.0
 40
1.0
 10
39.53477755018023
 20
1.557460486372342
 30
0.0
 10
39.46404065122854
 20
1.893776267276498
 30
0.0
 10
39.36879682873336
 20
2.219767980854475
 30
0.0
 10
39.14996262933766
 20
2.799500885720292
 30
0.0
 10
38.99420405551854
 20
3.128270983907399
 30
0.0
 10
38.79297563077577
 20
3.46319892335398
 30
0.0
 10
38.74299576932612
 20
3.541500626592396
 30
0.0
 10
38.68954102669882
 20
3.619388071908113
 30
0.0
  0
SPLINE
  5
82
330
1F
100
AcDbEntity
  8
Verdeckt_(ISO)
  6
HIDDEN2
 62
     7
100
AcDbSpline
210
0.0
220
0.0
230
1.0
 70
    15
 71
     3
 72
    24
 73
    20
 74
     0
 42
0.000000001
 43
0.0000000001
 40
0.0
 40
0.0
 40
0.0
 40
0.0
 40
0.0477173970602358
 40
0.0477173970602358
 40
0.1240652323566136
 40
0.1240652323566136
 40
0.2233174182419044
 40
0.2233174182419044
 40
0.3398992504639119
 40
0.3398992504639119
 40
0.4613696511136167
 40
0.4613696511136167
 40
0.5914494244595344
 40
0.5914494244595344
 40
0.7404605155746532
 40
0.7404605155746532
 40
0.8864017164903693
 40
0.8864017164903693
 40
1.0
 40
1.0
 40
1.0
 40
1.0
 10
51.70003279234017
 20
7.150538624399716
 30
0.0
 41
1.0
 10
51.70003279234017
 20
7.102804336562999
 30
0.0
 41
1.0
 10
51.70003091855513
 20
7.074843104427995
 30
0.0
 41
1.0
 10
51.70002200371756
 20
7.056771973511394
 30
0.0
 41
1.0
 10
51.70001247158922
 20
7.100049732947201
 30
0.0
 41
1.0
 10
51.69999008948408
 20
7.313912950038721
 30
0.0
 41
1.0
 10
51.69997778964489
 20
7.519412771100987
 30
0.0
 41
1.0
 10
51.69996866900772
 20
8.069007660550517
 30
0.0
 41
1.0
 10
51.69997582415427
 20
8.429550448344566
 30
0.0
 41
1.0
 10
51.70000327640385
 20
9.112928452097798
 30
0.0
 41
1.0
 10
51.70002201366778
 20
9.429747640315364
 30
0.0
 41
1.0
 10
51.70003702793003
 20
9.842670756992465
 30
0.0
 41
1.0
 10
51.70002992655882
 20
9.917798581122307
 30
0.0
 41
1.0
 10
51.69999737913403
 20
9.733080433158237
 30
0.0
 41
1.0
 10
51.69997431070818
 20
9.422159896085676
 30
0.0
 41
1.0
 10
51.69996990435025
 20
8.627183019756727
 30
0.0
 41
1.0
 10
51.6999883193435
 20
8.156345740780218
 30
0.0
 41
1.0
 10
51.70002105615836
 20
7.492997999177487
 30
0.0
 41
1.0
 10
51.70003279234017
 20
7.264177118887602
 30
0.0
 41
1.0
 10
51.70003279234017
 20
7.150538624399716
 30
0.0
 41
1.0
  0
LINE
  5
83
330
1F
100
AcDbEntity
  8
Verdeckt_(ISO)
  6
HIDDEN2
 62
     7
100
AcDbLine
 10
51.7000256877
 20
9.8676639886
 30
0.0
 11
51.799971875
 21
9.964384276
 31
0.0
  0
LINE
  5
84
330
1F
100
AcDbEntity
  8
Verdeckt_(ISO)
  6
HIDDEN2
 62
     7
100
AcDbLine
 10
51.799971875
 20
6.9628771471
 30
0.0
 11
51.7000256543
 21
7.0661568618
 31
0.0
  0
ELLIPSE
  5
85
330
1F
100
AcDbEntity
  8
Verdeckt_(ISO)
  6
HIDDEN2
 62
     7
100
AcDbEllipse
 10
15.9958105693
 20
9.6385367246
 30
0.0
 11
0.04591599040839082
 21
1.399246840920081
 31
0.0
210
0.0
220
0.0
230
1.0
 40
0.0119363309
 41
0.0
 42
6.283185307179586
  0
LINE
  5
86
330
1F
100
AcDbEntity
  8
Verdeckt_(ISO)
  6
HIDDEN2
 62
     7
100
AcDbLine
 10
16.0417265597
 20
11.0377835655
 30
0.0
 11
51.7000256888
 21
9.8676639891
 31
0.0
  0
LINE
  5
87
330
1F
100
AcDbEntity
  8
Verdeckt_(ISO)
  6
HIDDEN2
 62
     7
100
AcDbLine
 10
15.9498945789
 20
8.2392898836
 30
0.0
 11
51.7000256554
 21
7.0661568612
 31
0.0
  0
ARC
  5
88
330
1F
100
AcDbEntity
  8
Sichtbar_(ISO)
  6
Continuous
 62
     7
100
AcDbCircle
 10
10.949971875
 20
-0.000029281
 30
0.0
 40
8.050000000000013
100
AcDbArc
 50
24.5077695961
 51
42.3641324302
  0
SPLINE
  5
89
330
1F
100
AcDbEntity
  8
Sichtbar_(ISO)
  6
Continuous
 62
     7
100
AcDbSpline
210
0.0
220
0.0
230
1.0
 70
     8
 71
     3
 72
    12
 73
     8
 74
     0
 42
0.000000001
 43
0.0000000001
 40
0.0
 40
0.0
 40
0.0
 40
0.0
 40
0.4129822599542061
 40
0.4129822599542061
 40
0.8706197770484763
 40
0.8706197770484763
 40
1.0
 40
1.0
 40
1.0
 40
1.0
 10
17.62991283454836
 20
5.485312239409167
 30
0.0
 10
17.71044138606065
 20
5.17743578754455
 30
0.0
 10
17.79327685679284
 20
4.877803465500348
 30
0.0
 10
17.97424873916244
 20
4.259373373870116
 30
0.0
 10
18.07484839694988
 20
3.935949017126113
 30
0.0
 10
18.21262950944523
 20
3.521173416027439
 30
0.0
 10
18.24343420905348
 20
3.430082969282834
 30
0.0
 10
18.27470735059883
 20
3.339244624034336
 30
0.0
  0
ELLIPSE
  5
8A
330
1F
100
AcDbEntity
  8
Sichtbar_(ISO)
  6
Continuous
 62
     7
100
AcDbEllipse
 10
26.6841151014
 20
-22.1911215545
 30
0.0
 11
-16.52186021807461
 21
31.55563493059068
 31
0.0
210
0.0
220
0.0
230
1.0
 40
0.228583678
 41
-0.6329760129766022
 42
-0.5224192673100827
  0
SPLINE
  5
8B
330
1F
100
AcDbEntity
  8
Sichtbar_(ISO)
  6
Continuous
 62
     7
100
AcDbSpline
210
0.0
220
0.0
230
1.0
 70
     8
 71
     3
 72
    12
 73
     8
 74
     0
 42
0.000000001
 43
0.0000000001
 40
0.0
 40
0.0
 40
0.0
 40
0.0
 40
0.5184592423468678
 40
0.5184592423468678
 40
0.8839469834500059
 40
0.8839469834500059
 40
1.0
 40
1.0
 40
1.0
 40
1.0
 10
11.59997187504207
 20
8.430718016795707
 30
0.0
 10
11.59997187504207
 20
8.359383689357506
 30
0.0
 10
11.60891118563832
 20
8.274250540958137
 30
0.0
 10
11.63748259300555
 20
8.156032728477086
 30
0.0
 10
11.65707791471257
 20
8.098958326373326
 30
0.0
 10
11.69040833300672
 20
8.041697739975278
 30
0.0
 10
11.70021048278181
 20
8.027054258047105
 30
0.0
 10
11.71146421596905
 20
8.013872977827097
 30
0.0
  0
SPLINE
  5
8C
330
1F
100
AcDbEntity
  8
Sichtbar_(ISO)
  6
Continuous
 62
     7
100
AcDbSpline
210
0.0
220
0.0
230
1.0
 70
    12
 71
     2
 72
     6
 73
     3
 74
     0
 42
0.000000001
 43
0.0000000001
 40
0.0
 40
0.0
 40
0.0
 40
1.0
 40
1.0
 40
1.0
 10
9.57003091553578
 20
8.767915261698604
 30
0.0
 41
1.0
 10
10.58293237402156
 20
8.754052369150555
 30
0.0
 41
1.001475069644458
 10
11.47222360420727
 20
8.708011332542807
 30
0.0
 41
1.0
  0
SPLINE
  5
8D
330
1F
100
AcDbEntity
  8
Sichtbar_(ISO)
  6
Continuous
 62
     7
100
AcDbSpline
210
0.0
220
0.0
230
1.0
 70
    28
 71
     2
 72
     6
 73
     3
 74
     0
 42
0.000000001
 43
0.0000000001
 40
0.0
 40
0.0
 40
0.0
 40
0.9999999999999999
 40
0.9999999999999999
 40
0.9999999999999999
 10
11.48039937581128
 20
8.707492842029916
 30
0.0
 41
1.00000109027056
 10
11.54076310038437
 20
8.812045879924588
 30
0.0
 41
1.000000723199403
 10
11.59997187504207
 20
8.914598485885845
 30
0.0
 41
1.0
  0
LINE
  5
8E
330
1F
100
AcDbEntity
  8
Sichtbar_(ISO)
  6
Continuous
 62
     7
100
AcDbLine
 10
11.599971875
 20
8.9145984859
 30
0.0
 11
11.599971875
 21
8.5082099272
 31
0.0
  0
LINE
  5
8F
330
1F
100
AcDbEntity
  8
Sichtbar_(ISO)
  6
Continuous
 62
     7
100
AcDbLine
 10
11.599971875
 20
8.5082099272
 30
0.0
 11
11.599971875
 21
8.5075433613
 31
0.0
  0
LINE
  5
90
330
1F
100
AcDbEntity
  8
Sichtbar_(ISO)
  6
Continuous
 62
     7
100
AcDbLine
 10
11.599971875
 20
8.5075433613
 30
0.0
 11
11.599971875
 21
8.5068767954
 31
0.0
  0
LINE
  5
91
330
1F
100
AcDbEntity
  8
Sichtbar_(ISO)
  6
Continuous
 62
     7
100
AcDbLine
 10
11.599971875
 20
8.5068767954
 30
0.0
 11
11.599971875
 21
8.4307180168
 31
0.0
  0
ELLIPSE
  5
92
330
1F
100
AcDbEntity
  8
Sichtbar_(ISO)
  6
Continuous
 62
     7
100
AcDbEllipse
 10
12.66713926
 20
7.7621730599
 30
0.0
 11
-1.5
 21
1.500000000000000E-15
 31
0.0
210
0.0
220
0.0
230
1.0
 40
0.7071067812
 41
-0.7792441291600589
 42
-0.7783611788961196
  0
LINE
  5
93
330
1F
100
AcDbEntity
  8
Sichtbar_(ISO)
  6
Continuous
 62
     7
100
AcDbLine
 10
11.599041562
 20
8.5068767954
 30
0.0
 11
11.599971875
 21
8.5068767954
 31
0.0
  0
LINE
  5
94
330
1F
100
AcDbEntity
  8
Sichtbar_(ISO)
  6
Continuous
 62
     7
100
AcDbLine
 10
11.099971875
 20
8.0485730821
 30
0.0
 11
11.0916726501
 21
8.0487234727
 31
0.0
  0
LINE
  5
95
330
1F
100
AcDbEntity
  8
Sichtbar_(ISO)
  6
Continuous
 62
     7
100
AcDbLine
 10
11.099971875
 20
8.0485730821
 30
0.0
 11
11.1098241242
 21
8.0656376782
 31
0.0
  0
LINE
  5
96
330
1F
100
AcDbEntity
  8
Sichtbar_(ISO)
  6
Continuous
 62
     7
100
AcDbLine
 10
11.1098241242
 20
8.0656376782
 30
0.0
 11
11.0916726501
 21
8.0487234727
 31
0.0
  0
LINE
  5
97
330
1F
100
AcDbEntity
  8
Sichtbar_(ISO)
  6
Continuous
 62
     7
100
AcDbLine
 10
11.4722236042
 20
8.6933319902
 30
0.0
 11
11.4803993758
 21
8.707492842
 31
0.0
  0
ARC
  5
98
330
1F
100
AcDbEntity
  8
Sichtbar_(ISO)
  6
Continuous
 62
     7
100
AcDbCircle
 10
10.949971875
 20
-0.000029281
 30
0.0
 40
8.05
100
AcDbArc
 50
88.9913943235
 51
90.0
  0
LINE
  5
99
330
1F
100
AcDbEntity
  8
Sichtbar_(ISO)
  6
Continuous
 62
     7
100
AcDbLine
 10
11.1098241242
 20
8.0656376782
 30
0.0
 11
11.4722236042
 21
8.6933319902
 31
0.0
  0
LINE
  5
9A
330
1F
100
AcDbEntity
  8
Sichtbar_(ISO)
  6
Continuous
 62
     7
100
AcDbLine
 10
9.5700309155
 20
8.049970719
 30
0.0
 11
9.5700309155
 21
8.7679152617
 31
0.0
  0
LINE
  5
9B
330
1F
100
AcDbEntity
  8
Sichtbar_(ISO)
  6
Continuous
 62
     7
100
AcDbLine
 10
10.949971875
 20
8.049970719
 30
0.0
 11
9.5700309155
 21
8.049970719
 31
0.0
  0
ARC
  5
9C
330
1F
100
AcDbEntity
  8
Sichtbar_(ISO)
  6
Continuous
 62
     7
100
AcDbCircle
 10
10.949971875
 20
-0.000029281
 30
0.0
 40
8.05
100
AcDbArc
 50
84.5719714282
 51
88.9323149882
  0
ELLIPSE
  5
9D
330
1F
100
AcDbEntity
  8
Sichtbar_(ISO)
  6
Continuous
 62
     7
100
AcDbEllipse
 10
12.66713926
 20
7.0174693243
 30
0.0
 11
0.0
 21
-2.121320343559641
 31
0.0
210
0.0
220
0.0
230
1.0
 40
0.7071067812
 41
3.933144851224629
 42
3.934027801488569
  0
LINE
  5
9E
330
1F
100
AcDbEntity
  8
Sichtbar_(ISO)
  6
Continuous
 62
     7
100
AcDbLine
 10
15.9652115244
 20
7.0399056905
 30
0.0
 11
16.8979342531
 21
5.4243825349
 31
0.0
  0
LINE
  5
9F
330
1F
100
AcDbEntity
  8
Sichtbar_(ISO)
  6
Continuous
 62
     7
100
AcDbLine
 10
16.8979342531
 20
-5.424441097
 30
0.0
 11
15.9652115244
 21
-7.0399642526
 31
0.0
  0
SPLINE
  5
A0
330
1F
100
AcDbEntity
  8
Sichtbar_(ISO)
  6
Continuous
 62
     7
100
AcDbSpline
210
0.0
220
0.0
230
1.0
 70
    28
 71
     2
 72
     6
 73
     3
 74
     0
 42
0.000000001
 43
0.0000000001
 40
0.0
 40
0.0
 40
0.0
 40
1.0
 40
1.0
 40
1.0
 10
15.96521152436252
 20
-7.039964252559098
 30
0.0
 41
1.000007103694986
 10
15.77792361775585
 20
-7.364356422445058
 30
0.0
 41
1.000005073957918
 10
15.59997187504208
 20
-7.67257788212075
 30
0.0
 41
1.000000034378182
  0
SPLINE
  5
A1
330
1F
100
AcDbEntity
  8
Sichtbar_(ISO)
  6
Continuous
 62
     7
100
AcDbSpline
210
0.0
220
0.0
230
1.0
 70
     8
 71
     3
 72
    14
 73
    10
 74
     0
 42
0.000000001
 43
0.0000000001
 40
0.0
 40
0.0
 40
0.0
 40
0.0
 40
0.0898107181189795
 40
0.0898107181189795
 40
0.1958015459092359
 40
0.1958015459092359
 40
0.5342424555596267
 40
0.5342424555596267
 40
1.0
 40
1.0
 40
1.0
 40
1.0
 10
15.39997187504207
 20
7.516452608778386
 30
0.0
 10
15.4082289241416
 20
7.516452608778386
 30
0.0
 10
15.41799717869206
 20
7.518113560672866
 30
0.0
 10
15.4350943757864
 20
7.523747919703426
 30
0.0
 10
15.44542416455242
 20
7.529228292130746
 30
0.0
 10
15.47890718587596
 20
7.552647366186056
 30
0.0
 10
15.50091287349442
 20
7.582812553601737
 30
0.0
 10
15.5370553513396
 20
7.647313356753397
 30
0.0
 10
15.55264212313822
 20
7.689324787066255
 30
0.0
 10
15.56487326811009
 20
7.733311890517534
 30
0.0
  0
LINE
  5
A2
330
1F
100
AcDbEntity
  8
Sichtbar_(ISO)
  6
Continuous
 62
     7
100
AcDbLine
 10
15.5648732681
 20
7.7333118905
 30
0.0
 11
15.599971875
 21
7.67251932
 31
0.0
  0
LINE
  5
A3
330
1F
100
AcDbEntity
  8
Sichtbar_(ISO)
  6
Continuous
 62
     7
100
AcDbLine
 10
13.8318115805
 20
7.5164526029
 30
0.0
 11
15.399971875
 21
7.5164526088
 31
0.0
  0
SPLINE
  5
A4
330
1F
100
AcDbEntity
  8
Sichtbar_(ISO)
  6
Continuous
 62
     7
100
AcDbSpline
210
0.0
220
0.0
230
1.0
 70
    28
 71
     2
 72
     6
 73
     3
 74
     0
 42
0.000000001
 43
0.0000000001
 40
0.0
 40
0.0
 40
0.0
 40
1.0
 40
1.0
 40
1.0
 10
15.96521152436252
 20
7.039905690474809
 30
0.0
 41
1.000007103694986
 10
15.77792361775585
 20
7.364297860360776
 30
0.0
 41
1.000005073957918
 10
15.59997187504208
 20
7.672519320036466
 30
0.0
 41
1.000000034378182
  0
LINE
  5
A5
330
1F
100
AcDbEntity
  8
Sichtbar_(ISO)
  6
Continuous
 62
     7
100
AcDbLine
 10
15.599971875
 20
-7.6725778821
 30
0.0
 11
15.5648732681
 21
-7.7333704526
 31
0.0
  0
SPLINE
  5
A6
330
1F
100
AcDbEntity
  8
Sichtbar_(ISO)
  6
Continuous
 62
     7
100
AcDbSpline
210
0.0
220
0.0
230
1.0
 70
     8
 71
     3
 72
    14
 73
    10
 74
     0
 42
0.000000001
 43
0.0000000001
 40
0.0
 40
0.0
 40
0.0
 40
0.0
 40
0.4657575444403746
 40
0.4657575444403746
 40
0.8041984540907673
 40
0.8041984540907673
 40
0.9101892818810241
 40
0.9101892818810241
 40
0.9999999999999999
 40
0.9999999999999999
 40
0.9999999999999999
 40
0.9999999999999999
 10
15.56487326811009
 20
-7.733370452601824
 30
0.0
 10
15.55264212313822
 20
-7.689383349150543
 30
0.0
 10
15.5370553513396
 20
-7.647371918837682
 30
0.0
 10
15.50091287349442
 20
-7.582871115686022
 30
0.0
 10
15.47890718587596
 20
-7.552705928270347
 30
0.0
 10
15.44542416455242
 20
-7.529286854215039
 30
0.0
 10
15.4350943757864
 20
-7.523806481787712
 30
0.0
 10
15.41799717869206
 20
-7.518172122757157
 30
0.0
 10
15.4082289241416
 20
-7.516511170862671
 30
0.0
 10
15.39997187504207
 20
-7.516511170862671
 30
0.0
  0
LINE
  5
A7
330
1F
100
AcDbEntity
  8
Sichtbar_(ISO)
  6
Continuous
 62
     7
100
AcDbLine
 10
15.399971875
 20
-7.5165111709
 30
0.0
 11
13.8318115805
 21
-7.516511165
 31
0.0
  0
ARC
  5
A8
330
1F
100
AcDbEntity
  8
Sichtbar_(ISO)
  6
Continuous
 62
     7
100
AcDbCircle
 10
10.949971875
 20
-0.000029281
 30
0.0
 40
8.05
100
AcDbArc
 50
42.3641324302
 51
69.0230397313
  0
ARC
  5
A9
330
1F
100
AcDbEntity
  8
Sichtbar_(ISO)
  6
Continuous
 62
     7
100
AcDbCircle
 10
10.949971875
 20
-0.000029281
 30
0.0
 40
8.05
100
AcDbArc
 50
290.9769602687
 51
317.6358675698
  0
ARC
  5
AA
330
1F
100
AcDbEntity
  8
Sichtbar_(ISO)
  6
Continuous
 62
     7
100
AcDbCircle
 10
10.949971875
 20
-0.000029281
 30
0.0
 40
8.050000000000013
100
AcDbArc
 50
317.6358675698
 51
335.4922304039
  0
ELLIPSE
  5
AB
330
1F
100
AcDbEntity
  8
Sichtbar_(ISO)
  6
Continuous
 62
     7
100
AcDbEllipse
 10
26.6841151014
 20
22.1910629924
 30
0.0
 11
16.52186021807555
 21
31.5556349305899
 31
0.0
210
0.0
220
0.0
230
1.0
 40
0.228583678
 41
3.664011920902942
 42
3.774568666569264
  0
SPLINE
  5
AC
330
1F
100
AcDbEntity
  8
Sichtbar_(ISO)
  6
Continuous
 62
     7
100
AcDbSpline
210
0.0
220
0.0
230
1.0
 70
     8
 71
     3
 72
    12
 73
     8
 74
     0
 42
0.000000001
 43
0.0000000001
 40
0.0
 40
0.0
 40
0.0
 40
0.0
 40
0.1704347821672576
 40
0.1704347821672576
 40
0.6683724158222657
 40
0.6683724158222657
 40
1.0
 40
1.0
 40
1.0
 40
1.0
 10
18.2747073505988
 20
-3.339303186118714
 30
0.0
 10
18.23308155378299
 20
-3.46021264118311
 30
0.0
 10
18.19230980721432
 20
-3.581498661459181
 30
0.0
 10
18.03547837217687
 20
-4.059273746727209
 30
0.0
 10
17.92689922395214
 20
-4.415013802466986
 30
0.0
 10
17.75689797981357
 20
-5.010048122267208
 30
0.0
 10
17.69198502204867
 20
-5.248056650323658
 30
0.0
 10
17.62991283454836
 20
-5.485370801493454
 30
0.0
  0
LINE
  5
AD
330
1F
100
AcDbEntity
  8
Sichtbar_(ISO)
  6
Continuous
 62
     7
100
AcDbLine
 10
9.5700309155
 20
-8.7679738238
 30
0.0
 11
9.5700309155
 21
-8.050029281
 31
0.0
  0
SPLINE
  5
AE
330
1F
100
AcDbEntity
  8
Sichtbar_(ISO)
  6
Continuous
 62
     7
100
AcDbSpline
210
0.0
220
0.0
230
1.0
 70
    12
 71
     2
 72
     6
 73
     3
 74
     0
 42
0.000000001
 43
0.0000000001
 40
0.0
 40
0.0
 40
0.0
 40
1.0
 40
1.0
 40
1.0
 10
11.47222360420727
 20
-8.708069894627098
 30
0.0
 41
1.0
 10
10.58293237402156
 20
-8.754110931234841
 30
0.0
 41
1.001475069644458
 10
9.57003091553578
 20
-8.767973823782897
 30
0.0
 41
1.0
  0
LINE
  5
AF
330
1F
100
AcDbEntity
  8
Sichtbar_(ISO)
  6
Continuous
 62
     7
100
AcDbLine
 10
11.599971875
 20
-8.5069353575
 30
0.0
 11
11.599971875
 21
-8.5076019234
 31
0.0
  0
LINE
  5
B0
330
1F
100
AcDbEntity
  8
Sichtbar_(ISO)
  6
Continuous
 62
     7
100
AcDbLine
 10
11.599971875
 20
-8.5076019234
 30
0.0
 11
11.599971875
 21
-8.5082684893
 31
0.0
  0
ARC
  5
B1
330
1F
100
AcDbEntity
  8
Sichtbar_(ISO)
  6
Continuous
 62
     7
100
AcDbCircle
 10
10.949971875
 20
-0.000029281
 30
0.0
 40
8.05
100
AcDbArc
 50
270.0
 51
271.0086056765
  0
LINE
  5
B2
330
1F
100
AcDbEntity
  8
Sichtbar_(ISO)
  6
Continuous
 62
     7
100
AcDbLine
 10
11.0916726501
 20
-8.0487820348
 30
0.0
 11
11.099971875
 21
-8.0486316442
 31
0.0
  0
ELLIPSE
  5
B3
330
1F
100
AcDbEntity
  8
Sichtbar_(ISO)
  6
Continuous
 62
     7
100
AcDbEllipse
 10
12.66713926
 20
-7.7622316219
 30
0.0
 11
-1.5
 21
3.000000000000000E-16
 31
0.0
210
0.0
220
0.0
230
1.0
 40
0.7071067812
 41
0.7783611788961196
 42
0.7792441291600585
  0
LINE
  5
B4
330
1F
100
AcDbEntity
  8
Sichtbar_(ISO)
  6
Continuous
 62
     7
100
AcDbLine
 10
11.1098241242
 20
-8.0656962403
 30
0.0
 11
11.0916726501
 21
-8.0487820348
 31
0.0
  0
LINE
  5
B5
330
1F
100
AcDbEntity
  8
Sichtbar_(ISO)
  6
Continuous
 62
     7
100
AcDbLine
 10
9.5700309155
 20
-8.050029281
 30
0.0
 11
10.949971875
 21
-8.050029281
 31
0.0
  0
SPLINE
  5
B6
330
1F
100
AcDbEntity
  8
Verdeckt_(ISO)
  6
HIDDEN2
 62
     7
100
AcDbSpline
210
0.0
220
0.0
230
1.0
 70
    11
 71
     3
 72
    38
 73
    34
 74
     0
 42
0.000000001
 43
0.0000000001
 40
0.0
 40
0.0
 40
0.0
 40
0.0
 40
0.0625066709375847
 40
0.0625066709375847
 40
0.1250133418751694
 40
0.1250133418751694
 40
0.1875066709375849
 40
0.1875066709375849
 40
0.2500000000000003
 40
0.2500000000000003
 40
0.3124933290624157
 40
0.3124933290624157
 40
0.3749866581248313
 40
0.3749866581248313
 40
0.4374933290624159
 40
0.4374933290624159
 40
0.5000000000000008
 40
0.5000000000000008
 40
0.5625066709375852
 40
0.5625066709375852
 40
0.6250133418751703
 40
0.6250133418751703
 40
0.6875066709375854
 40
0.6875066709375854
 40
0.7500000000000008
 40
0.7500000000000008
 40
0.8124933290624163
 40
0.8124933290624163
 40
0.8749866581248317
 40
0.8749866581248317
 40
0.9374933290624144
 40
0.9374933290624144
 40
1.0
 40
1.0
 40
1.0
 40
1.0
 10
13.59997187504207
 20
5.253465304890164
 30
0.0
 10
13.82729478603621
 20
5.253465304890164
 30
0.0
 10
14.06890219640035
 20
5.281966967043683
 30
0.0
 10
14.51199990217283
 20
5.390668429043616
 30
0.0
 10
14.71360121591505
 20
5.470105628327004
 30
0.0
 10
15.03189297356947
 20
5.638691328337015
 30
0.0
 10
15.17023744281213
 20
5.739230962674958
 30
0.0
 10
15.35430886287318
 20
5.935283429782459
 30
0.0
 10
15.39997187504206
 20
6.03024033477789
 30
0.0
 10
15.39997187504206
 20
6.185705173354627
 30
0.0
 10
15.35430886287318
 20
6.25603001762056
 30
0.0
 10
15.17023744281213
 20
6.363108556662423
 30
0.0
 10
15.03189297356946
 20
6.40048190070366
 30
0.0
 10
14.71360121591505
 20
6.449620585838331
 30
0.0
 10
14.51199990217283
 20
6.464798519737181
 30
0.0
 10
14.06890219640035
 20
6.481996069347599
 30
0.0
 10
13.82729478603621
 20
6.484737820862577
 30
0.0
 10
13.37264896404792
 20
6.484737820862577
 30
0.0
 10
13.13104155368378
 20
6.481996069347599
 30
0.0
 10
12.6879438479113
 20
6.464798519737181
 30
0.0
 10
12.48634253416907
 20
6.449620585838331
 30
0.0
 10
12.16805077651466
 20
6.40048190070366
 30
0.0
 10
12.029706307272
 20
6.363108556662423
 30
0.0
 10
11.84563488721095
 20
6.25603001762056
 30
0.0
 10
11.79997187504206
 20
6.185705173354627
 30
0.0
 10
11.79997187504206
 20
6.030240334777892
 30
0.0
 10
11.84563488721095
 20
5.935283429782459
 30
0.0
 10
12.029706307272
 20
5.739230962674958
 30
0.0
 10
12.16805077651467
 20
5.638691328337015
 30
0.0
 10
12.48634253416908
 20
5.470105628327004
 30
0.0
 10
12.6879438479113
 20
5.390668429043613
 30
0.0
 10
13.13104155368379
 20
5.281966967043683
 30
0.0
 10
13.37264896404792
 20
5.253465304890164
 30
0.0
 10
13.59997187504207
 20
5.253465304890164
 30
0.0
  0
SPLINE
  5
B7
330
1F
100
AcDbEntity
  8
Verdeckt_(ISO)
  6
HIDDEN2
 62
     7
100
AcDbSpline
210
0.0
220
0.0
230
1.0
 70
    11
 71
     3
 72
    38
 73
    34
 74
     0
 42
0.000000001
 43
0.0000000001
 40
0.0
 40
0.0
 40
0.0
 40
0.0
 40
0.0625066709375847
 40
0.0625066709375847
 40
0.1250133418751694
 40
0.1250133418751694
 40
0.1875066709375849
 40
0.1875066709375849
 40
0.2500000000000003
 40
0.2500000000000003
 40
0.3124933290624157
 40
0.3124933290624157
 40
0.3749866581248313
 40
0.3749866581248313
 40
0.4374933290624159
 40
0.4374933290624159
 40
0.5000000000000008
 40
0.5000000000000008
 40
0.5625066709375852
 40
0.5625066709375852
 40
0.6250133418751703
 40
0.6250133418751703
 40
0.6875066709375858
 40
0.6875066709375858
 40
0.7500000000000008
 40
0.7500000000000008
 40
0.8124933290624166
 40
0.8124933290624166
 40
0.8749866581248317
 40
0.8749866581248317
 40
0.9374933290624144
 40
0.9374933290624144
 40
1.0
 40
1.0
 40
1.0
 40
1.0
 10
13.59997187504206
 20
-6.484796382946861
 30
0.0
 10
13.37264896404792
 20
-6.484796382946861
 30
0.0
 10
13.13104155368378
 20
-6.482054631431886
 30
0.0
 10
12.6879438479113
 20
-6.464857081821468
 30
0.0
 10
12.48634253416907
 20
-6.449679147922616
 30
0.0
 10
12.16805077651466
 20
-6.400540462787942
 30
0.0
 10
12.029706307272
 20
-6.363167118746708
 30
0.0
 10
11.84563488721094
 20
-6.256088579704845
 30
0.0
 10
11.79997187504206
 20
-6.185763735438913
 30
0.0
 10
11.79997187504206
 20
-6.030298896862174
 30
0.0
 10
11.84563488721094
 20
-5.935341991866743
 30
0.0
 10
12.029706307272
 20
-5.739289524759247
 30
0.0
 10
12.16805077651466
 20
-5.6387498904213
 30
0.0
 10
12.48634253416907
 20
-5.470164190411289
 30
0.0
 10
12.6879438479113
 20
-5.390726991127899
 30
0.0
 10
13.13104155368378
 20
-5.282025529127971
 30
0.0
 10
13.37264896404792
 20
-5.253523866974449
 30
0.0
 10
13.82729478603621
 20
-5.253523866974449
 30
0.0
 10
14.06890219640034
 20
-5.282025529127971
 30
0.0
 10
14.51199990217283
 20
-5.390726991127898
 30
0.0
 10
14.71360121591505
 20
-5.470164190411289
 30
0.0
 10
15.03189297356946
 20
-5.6387498904213
 30
0.0
 10
15.17023744281213
 20
-5.739289524759247
 30
0.0
 10
15.35430886287318
 20
-5.935341991866743
 30
0.0
 10
15.39997187504206
 20
-6.030298896862177
 30
0.0
 10
15.39997187504206
 20
-6.185763735438913
 30
0.0
 10
15.35430886287318
 20
-6.256088579704845
 30
0.0
 10
15.17023744281213
 20
-6.363167118746707
 30
0.0
 10
15.03189297356946
 20
-6.400540462787942
 30
0.0
 10
14.71360121591505
 20
-6.449679147922616
 30
0.0
 10
14.51199990217283
 20
-6.464857081821465
 30
0.0
 10
14.06890219640035
 20
-6.482054631431885
 30
0.0
 10
13.82729478603621
 20
-6.484796382946861
 30
0.0
 10
13.59997187504206
 20
-6.484796382946861
 30
0.0
  0
ELLIPSE
  5
B8
330
1F
100
AcDbEntity
  8
Verdeckt_(ISO)
  6
HIDDEN2
 62
     7
100
AcDbEllipse
 10
13.599971875
 20
-17.6662505518
 30
0.0
 11
1.8
 21
0.0
 31
0.0
210
0.0
220
0.0
230
1.0
 40
0.3420201433
 41
0.0
 42
6.283185307179586
  0
ELLIPSE
  5
B9
330
1F
100
AcDbEntity
  8
Verdeckt_(ISO)
  6
HIDDEN2
 62
     7
100
AcDbEllipse
 10
13.599971875
 20
-17.6662505518
 30
0.0
 11
2.099999999999995
 21
0.0
 31
0.0
210
0.0
220
0.0
230
1.0
 40
0.3420201433
 41
0.0
 42
6.283185307179586
  0
SPLINE
  5
BA
330
1F
100
AcDbEntity
  8
Verdeckt_(ISO)
  6
HIDDEN2
 62
     7
100
AcDbSpline
210
0.0
220
0.0
230
1.0
 70
     8
 71
     3
 72
    14
 73
    10
 74
     0
 42
0.000000001
 43
0.0000000001
 40
0.0
 40
0.0
 40
0.0
 40
0.0
 40
0.1774003138860124
 40
0.1774003138860124
 40
0.4999999999999987
 40
0.4999999999999987
 40
0.8225996861139868
 40
0.8225996861139868
 40
1.0
 40
1.0
 40
1.0
 40
1.0
 10
11.59997187504206
 20
-18.06342927372961
 30
0.0
 10
11.57836438895514
 20
-18.12396485090471
 30
0.0
 10
11.5589970465336
 20
-18.1823419970562
 30
0.0
 10
11.5150733029942
 20
-18.33125703822129
 30
0.0
 10
11.49997187504206
 20
-18.40801849554521
 30
0.0
 10
11.49997187504206
 20
-18.50380215888592
 30
0.0
 10
11.5150733029942
 20
-18.52810517939639
 30
0.0
 10
11.5589970465336
 20
-18.52460372436547
 30
0.0
 10
11.57836438895514
 20
-18.51579815956813
 30
0.0
 10
11.59997187504206
 20
-18.50142876761337
 30
0.0
  0
SPLINE
  5
BB
330
1F
100
AcDbEntity
  8
Verdeckt_(ISO)
  6
HIDDEN2
 62
     7
100
AcDbSpline
210
0.0
220
0.0
230
1.0
 70
     8
 71
     3
 72
    16
 73
    12
 74
     0
 42
0.000000001
 43
0.0000000001
 40
0.0
 40
0.0
 40
0.0
 40
0.0
 40
0.4516859581651824
 40
0.4516859581651824
 40
0.7404681079595731
 40
0.7404681079595731
 40
0.874445302705766
 40
0.874445302705766
 40
0.9468968261289252
 40
0.9468968261289252
 40
1.0
 40
1.0
 40
1.0
 40
1.0
 10
11.79997187504163
 20
-17.45528160483666
 30
0.0
 10
11.7484895871175
 20
-17.48917363996195
 30
0.0
 10
11.70340109017407
 20
-17.54277379616134
 30
0.0
 10
11.6493630017658
 20
-17.63415703654422
 30
0.0
 10
11.63270780354222
 20
-17.67130027005654
 30
0.0
 10
11.61556645927807
 20
-17.72179839839578
 30
0.0
 10
11.61023498145898
 20
-17.74012475077231
 30
0.0
 10
11.60422160506531
 20
-17.76880848567709
 30
0.0
 10
11.60241287707129
 20
-17.77948703482409
 30
0.0
 10
11.60043429976781
 20
-17.79802095398119
 30
0.0
 10
11.59997187504206
 20
-17.80570011461076
 30
0.0
 10
11.59997187504206
 20
-17.81309188550229
 30
0.0
  0
SPLINE
  5
BC
330
1F
100
AcDbEntity
  8
Verdeckt_(ISO)
  6
HIDDEN2
 62
     7
100
AcDbSpline
210
0.0
220
0.0
230
1.0
 70
     8
 71
     3
 72
    18
 73
    14
 74
     0
 42
0.000000001
 43
0.0000000001
 40
0.0
 40
0.0
 40
0.0
 40
0.0
 40
0.1195616728058655
 40
0.1195616728058655
 40
0.3097808364029336
 40
0.3097808364029336
 40
0.5000000000000001
 40
0.5000000000000001
 40
0.6902191635970675
 40
0.6902191635970675
 40
0.8804383271941348
 40
0.8804383271941348
 40
1.0
 40
1.0
 40
1.0
 40
1.0
 10
15.39997187504206
 20
-17.45528160483637
 30
0.0
 10
15.30996748563906
 20
-17.39602955092239
 30
0.0
 10
15.20201235547803
 20
-17.34038825015871
 30
0.0
 10
14.89856756489538
 20
-17.21425046401804
 30
0.0
 10
14.66257244564094
 20
-17.14434672414535
 30
0.0
 10
14.14524030942872
 20
-17.05034712308994
 30
0.0
 10
13.86388478019517
 20
-17.02655787139121
 30
0.0
 10
13.33605896988895
 20
-17.02655787139121
 30
0.0
 10
13.0547034406554
 20
-17.05034712308994
 30
0.0
 10
12.53737130444317
 20
-17.14434672414535
 30
0.0
 10
12.30137618518874
 20
-17.21425046401804
 30
0.0
 10
11.99793139460609
 20
-17.3403882501587
 30
0.0
 10
11.88997626444506
 20
-17.39602955092239
 30
0.0
 10
11.79997187504206
 20
-17.45528160483637
 30
0.0
  0
SPLINE
  5
BD
330
1F
100
AcDbEntity
  8
Verdeckt_(ISO)
  6
HIDDEN2
 62
     7
100
AcDbSpline
210
0.0
220
0.0
230
1.0
 70
     8
 71
     3
 72
    16
 73
    12
 74
     0
 42
0.000000001
 43
0.0000000001
 40
0.0
 40
0.0
 40
0.0
 40
0.0
 40
0.0465631701296923
 40
0.0465631701296923
 40
0.1273039932594647
 40
0.1273039932594647
 40
0.2593014750685334
 40
0.2593014750685334
 40
0.5446804632716797
 40
0.5446804632716797
 40
1.0
 40
1.0
 40
1.0
 40
1.0
 10
15.59997187504207
 20
-17.81309188550229
 30
0.0
 10
15.59997187504207
 20
-17.80666990471913
 30
0.0
 10
15.59962270327167
 20
-17.79998928984005
 30
0.0
 10
15.59783449762386
 20
-17.78119118999481
 30
0.0
 10
15.59583056374628
 20
-17.76922157767012
 30
0.0
 10
15.58958596850539
 20
-17.73971820073672
 30
0.0
 10
15.58434320986007
 20
-17.72171299164408
 30
0.0
 10
15.56742794314834
 20
-17.67183368396879
 30
0.0
 10
15.55103162728364
 20
-17.63514941822623
 30
0.0
 10
15.49726979229561
 20
-17.54364808095915
 30
0.0
 10
15.45186645156523
 20
-17.48944505249031
 30
0.0
 10
15.39997187504206
 20
-17.45528160483637
 30
0.0
  0
SPLINE
  5
BE
330
1F
100
AcDbEntity
  8
Verdeckt_(ISO)
  6
HIDDEN2
 62
     7
100
AcDbSpline
210
0.0
220
0.0
230
1.0
 70
     8
 71
     3
 72
    14
 73
    10
 74
     0
 42
0.000000001
 43
0.0000000001
 40
0.0
 40
0.0
 40
0.0
 40
0.0
 40
0.1774003138860062
 40
0.1774003138860062
 40
0.5000000000000026
 40
0.5000000000000026
 40
0.8225996861139956
 40
0.8225996861139956
 40
1.0
 40
1.0
 40
1.0
 40
1.0
 10
15.59997187504206
 20
-18.50142876761337
 30
0.0
 10
15.62157936112898
 20
-18.51579815956812
 30
0.0
 10
15.64094670355053
 20
-18.52460372436547
 30
0.0
 10
15.68487044708992
 20
-18.52810517939639
 30
0.0
 10
15.69997187504206
 20
-18.50380215888592
 30
0.0
 10
15.69997187504206
 20
-18.40801849554521
 30
0.0
 10
15.68487044708992
 20
-18.33125703822129
 30
0.0
 10
15.64094670355053
 20
-18.1823419970562
 30
0.0
 10
15.62157936112898
 20
-18.12396485090471
 30
0.0
 10
15.59997187504207
 20
-18.06342927372961
 30
0.0
  0
SPLINE
  5
BF
330
1F
100
AcDbEntity
  8
Verdeckt_(ISO)
  6
HIDDEN2
 62
     7
100
AcDbSpline
210
0.0
220
0.0
230
1.0
 70
     8
 71
     3
 72
    16
 73
    12
 74
     0
 42
0.000000001
 43
0.0000000001
 40
0.0
 40
0.0
 40
0.0
 40
0.0
 40
0.4640239818067253
 40
0.4640239818067253
 40
0.7454749812873191
 40
0.7454749812873191
 40
0.8767919577323358
 40
0.8767919577323358
 40
0.9485780577999504
 40
0.9485780577999504
 40
1.0
 40
1.0
 40
1.0
 40
1.0
 10
15.39997187504206
 20
-18.19518430323771
 30
0.0
 10
15.45306196973006
 20
-18.16970170568243
 30
0.0
 10
15.499264342605
 20
-18.16169102292455
 30
0.0
 10
15.55259206147753
 20
-18.1682477535728
 30
0.0
 10
15.5685337374461
 20
-18.17535337665161
 30
0.0
 10
15.58500689322818
 20
-18.19282182394336
 30
0.0
 10
15.59013552415104
 20
-18.2004073714097
 30
0.0
 10
15.59593357743163
 20
-18.21656292655562
 30
0.0
 10
15.59767751353107
 20
-18.22341139094309
 30
0.0
 10
15.59954513104893
 20
-18.23752814607182
 30
0.0
 10
15.59997187504206
 20
-18.24399089677236
 30
0.0
 10
15.59997187504206
 20
-18.25109137938605
 30
0.0
  0
SPLINE
  5
C0
330
1F
100
AcDbEntity
  8
Verdeckt_(ISO)
  6
HIDDEN2
 62
     7
100
AcDbSpline
210
0.0
220
0.0
230
1.0
 70
     8
 71
     3
 72
    19
 73
    15
 74
     0
 42
0.000000001
 43
0.0000000001
 40
0.0
 40
0.0
 40
0.0
 40
0.0
 40
0.1195616727870715
 40
0.1195616727870715
 40
0.3097808363881994
 40
0.3097808363881994
 40
0.4999999999893275
 40
0.4999999999893275
 40
0.4999999999893275
 40
0.6902191635904554
 40
0.6902191635904554
 40
0.8804383271915833
 40
0.8804383271915833
 40
1.0
 40
1.0
 40
1.0
 40
1.0
 10
11.79997187504206
 20
-18.19518430323771
 30
0.0
 10
11.88997626443355
 20
-18.23838531176013
 30
0.0
 10
11.997931394627
 20
-18.27602402694284
 30
0.0
 10
12.30137618518874
 20
-18.35745470232957
 30
0.0
 10
12.53737130444318
 20
-18.39807852747946
 30
0.0
 10
13.0547034406554
 20
-18.45072312432164
 30
0.0
 10
13.33605896988895
 20
-18.46304247335902
 30
0.0
 10
13.59997187504206
 20
-18.46304247335902
 30
0.0
 10
13.86388478019517
 20
-18.46304247335902
 30
0.0
 10
14.14524030942872
 20
-18.45072312432164
 30
0.0
 10
14.66257244564094
 20
-18.39807852747946
 30
0.0
 10
14.89856756489538
 20
-18.35745470232958
 30
0.0
 10
15.20201235547803
 20
-18.27602402693723
 30
0.0
 10
15.30996748563906
 20
-18.23838531176565
 30
0.0
 10
15.39997187504206
 20
-18.19518430323771
 30
0.0
  0
SPLINE
  5
C1
330
1F
100
AcDbEntity
  8
Verdeckt_(ISO)
  6
HIDDEN2
 62
     7
100
AcDbSpline
210
0.0
220
0.0
230
1.0
 70
     8
 71
     3
 72
    16
 73
    12
 74
     0
 42
0.000000001
 43
0.0000000001
 40
0.0
 40
0.0
 40
0.0
 40
0.0
 40
0.044453693805303
 40
0.044453693805303
 40
0.1242856923319876
 40
0.1242856923319876
 40
0.2548360156774023
 40
0.2548360156774023
 40
0.5377990263816647
 40
0.5377990263816647
 40
1.0
 40
1.0
 40
1.0
 40
1.0
 10
11.59997187504206
 20
-18.25109137938605
 30
0.0
 10
11.59997187504206
 20
-18.24500824140039
 30
0.0
 10
11.60028522116581
 20
-18.23935233370723
 30
0.0
 10
11.60194187685894
 20
-18.22464152363937
 30
0.0
 10
11.60385857497756
 20
-18.21692317998248
 30
0.0
 10
11.60989275780765
 20
-18.20027672861364
 30
0.0
 10
11.61499041965877
 20
-18.19275844528001
 30
0.0
 10
11.63149834904415
 20
-18.17527401342083
 30
0.0
 10
11.64755450134291
 20
-18.1681610615964
 30
0.0
 10
11.70099479668813
 20
-18.1617545853868
 30
0.0
 10
11.74704847946796
 20
-18.16978169713997
 30
0.0
 10
11.79997187504166
 20
-18.19518430323752
 30
0.0
  0
ELLIPSE
  5
C2
330
1F
100
AcDbEntity
  8
Verdeckt_(ISO)
  6
HIDDEN2
 62
     7
100
AcDbEllipse
 10
13.599971875
 20
17.6661919897
 30
0.0
 11
-2.1
 21
-1.000000000000000E-16
 31
0.0
210
0.0
220
0.0
230
1.0
 40
0.3420201433
 41
5.973340667437954
 42
9.734622600510995
  0
LINE
  5
C3
330
1F
100
AcDbEntity
  8
Verdeckt_(ISO)
  6
HIDDEN2
 62
     7
100
AcDbLine
 10
15.399971875
 20
17.6661919897
 30
0.0
 11
15.399971875
 21
6.1079727541
 31
0.0
  0
LINE
  5
C4
330
1F
100
AcDbEntity
  8
Verdeckt_(ISO)
  6
HIDDEN2
 62
     7
100
AcDbLine
 10
11.799971875
 20
17.6661919897
 30
0.0
 11
11.799971875
 21
6.1079727541
 31
0.0
  0
LINE
  5
C5
330
1F
100
AcDbEntity
  8
Verdeckt_(ISO)
  6
HIDDEN2
 62
     7
100
AcDbLine
 10
15.399971875
 20
-6.1080313162
 30
0.0
 11
15.399971875
 21
-17.6662505518
 31
0.0
  0
LINE
  5
C6
330
1F
100
AcDbEntity
  8
Verdeckt_(ISO)
  6
HIDDEN2
 62
     7
100
AcDbLine
 10
11.799971875
 20
-6.1080313162
 30
0.0
 11
11.799971875
 21
-17.6662505518
 31
0.0
  0
LINE
  5
C7
330
1F
100
AcDbEntity
  8
Verdeckt_(ISO)
  6
HIDDEN2
 62
     7
100
AcDbLine
 10
15.699971875
 20
-17.6662505518
 30
0.0
 11
15.699971875
 21
-18.4559103272
 31
0.0
  0
LINE
  5
C8
330
1F
100
AcDbEntity
  8
Verdeckt_(ISO)
  6
HIDDEN2
 62
     7
100
AcDbLine
 10
11.499971875
 20
-17.6662505518
 30
0.0
 11
11.499971875
 21
-18.4559103272
 31
0.0
  0
LINE
  5
C9
330
1F
100
AcDbEntity
  8
Verdeckt_(ISO)
  6
HIDDEN2
 62
     7
100
AcDbLine
 10
15.699971875
 20
18.4558517651
 30
0.0
 11
15.699971875
 21
17.6661919897
 31
0.0
  0
LINE
  5
CA
330
1F
100
AcDbEntity
  8
Verdeckt_(ISO)
  6
HIDDEN2
 62
     7
100
AcDbLine
 10
11.499971875
 20
18.4558517651
 30
0.0
 11
11.499971875
 21
17.6661919897
 31
0.0
  0
ELLIPSE
  5
CB
330
1F
100
AcDbEntity
  8
Sichtbar_(ISO)
  6
Continuous
 62
     7
100
AcDbEllipse
 10
13.599971875
 20
17.6661919897
 30
0.0
 11
1.8
 21
0.0
 31
0.0
210
0.0
220
0.0
230
1.0
 40
0.3420201433
 41
0.0
 42
6.283185307179586
  0
LINE
  5
CC
330
1F
100
AcDbEntity
  8
Sichtbar_(ISO)
  6
Continuous
 62
     7
100
AcDbLine
 10
11.599971875
 20
18.5013702055
 30
0.0
 11
11.599971875
 21
18.2510328173
 31
0.0
  0
SPLINE
  5
CD
330
1F
100
AcDbEntity
  8
Sichtbar_(ISO)
  6
Continuous
 62
     7
100
AcDbSpline
210
0.0
220
0.0
230
1.0
 70
     8
 71
     3
 72
    14
 73
    10
 74
     0
 42
0.000000001
 43
0.0000000001
 40
0.0
 40
0.0
 40
0.0
 40
0.0
 40
0.1774003138860344
 40
0.1774003138860344
 40
0.5000000000000153
 40
0.5000000000000153
 40
0.8225996861139964
 40
0.8225996861139964
 40
1.0
 40
1.0
 40
1.0
 40
1.0
 10
11.59997187504207
 20
18.06337071164531
 30
0.0
 10
11.57836438895514
 20
18.12390628882042
 30
0.0
 10
11.5589970465336
 20
18.18228343497193
 30
0.0
 10
11.5150733029942
 20
18.33119847613702
 30
0.0
 10
11.49997187504206
 20
18.40795993346094
 30
0.0
 10
11.49997187504206
 20
18.50374359680164
 30
0.0
 10
11.5150733029942
 20
18.52804661731212
 30
0.0
 10
11.5589970465336
 20
18.52454516228119
 30
0.0
 10
11.57836438895515
 20
18.51573959748385
 30
0.0
 10
11.59997187504207
 20
18.5013702055291
 30
0.0
  0
SPLINE
  5
CE
330
1F
100
AcDbEntity
  8
Sichtbar_(ISO)
  6
Continuous
 62
     7
100
AcDbSpline
210
0.0
220
0.0
230
1.0
 70
     8
 71
     3
 72
    16
 73
    12
 74
     0
 42
0.000000001
 43
0.0000000001
 40
0.0
 40
0.0
 40
0.0
 40
0.0
 40
0.4516859580634495
 40
0.4516859580634495
 40
0.740468107918576
 40
0.740468107918576
 40
0.8744453026864121
 40
0.8744453026864121
 40
0.9468968261151276
 40
0.9468968261151276
 40
1.0
 40
1.0
 40
1.0
 40
1.0
 10
11.79997187504163
 20
17.45522304275237
 30
0.0
 10
11.7484895871307
 20
17.48911507786895
 30
0.0
 10
11.70340109019669
 20
17.54271523404967
 30
0.0
 10
11.6493630017827
 20
17.63409847442442
 30
0.0
 10
11.63270780355311
 20
17.67124170794479
 30
0.0
 10
11.61556645928334
 20
17.72173983629385
 30
0.0
 10
11.61023498146255
 20
17.74006618867374
 30
0.0
 10
11.60422160506708
 20
17.76874992358296
 30
0.0
 10
11.60241287707252
 20
17.77942847273119
 30
0.0
 10
11.60043429976812
 20
17.79796239189202
 30
0.0
 10
11.59997187504207
 20
17.80564155252407
 30
0.0
 10
11.59997187504207
 20
17.81303332341801
 30
0.0
  0
SPLINE
  5
CF
330
1F
100
AcDbEntity
  8
Sichtbar_(ISO)
  6
Continuous
 62
     7
100
AcDbSpline
210
0.0
220
0.0
230
1.0
 70
     8
 71
     3
 72
    19
 73
    15
 74
     0
 42
0.000000001
 43
0.0000000001
 40
0.0
 40
0.0
 40
0.0
 40
0.0
 40
0.1195616727870698
 40
0.1195616727870698
 40
0.3097808363881983
 40
0.3097808363881983
 40
0.4999999999893273
 40
0.4999999999893273
 40
0.4999999999893273
 40
0.6902191635904562
 40
0.6902191635904562
 40
0.880438327191585
 40
0.880438327191585
 40
1.0
 40
1.0
 40
1.0
 40
1.0
 10
15.39997187504206
 20
17.45522304275208
 30
0.0
 10
15.30996748565057
 20
17.39597098884569
 30
0.0
 10
15.20201235545713
 20
17.34032968806573
 30
0.0
 10
14.89856756489539
 20
17.21419190193375
 30
0.0
 10
14.66257244564095
 20
17.14428816206107
 30
0.0
 10
14.14524030942873
 20
17.05028856100565
 30
0.0
 10
13.86388478019518
 20
17.02649930930692
 30
0.0
 10
13.59997187504207
 20
17.02649930930692
 30
0.0
 10
13.33605896988896
 20
17.02649930930692
 30
0.0
 10
13.0547034406554
 20
17.05028856100565
 30
0.0
 10
12.53737130444318
 20
17.14428816206107
 30
0.0
 10
12.30137618518875
 20
17.21419190193375
 30
0.0
 10
11.9979313946061
 20
17.34032968807442
 30
0.0
 10
11.88997626444507
 20
17.39597098883811
 30
0.0
 10
11.79997187504207
 20
17.45522304275208
 30
0.0
  0
SPLINE
  5
D0
330
1F
100
AcDbEntity
  8
Sichtbar_(ISO)
  6
Continuous
 62
     7
100
AcDbSpline
210
0.0
220
0.0
230
1.0
 70
     8
 71
     3
 72
    16
 73
    12
 74
     0
 42
0.000000001
 43
0.0000000001
 40
0.0
 40
0.0
 40
0.0
 40
0.0
 40
0.0465631701295646
 40
0.0465631701295646
 40
0.1273039932591398
 40
0.1273039932591398
 40
0.2593014750676979
 40
0.2593014750676979
 40
0.5446804632706254
 40
0.5446804632706254
 40
1.0
 40
1.0
 40
1.0
 40
1.0
 10
15.59997187504207
 20
17.81303332341801
 30
0.0
 10
15.59997187504207
 20
17.80661134263484
 30
0.0
 10
15.59962270327167
 20
17.79993072775576
 30
0.0
 10
15.59783449762386
 20
17.78113262791053
 30
0.0
 10
15.59583056374628
 20
17.76916301558586
 30
0.0
 10
15.5895859685054
 20
17.73965963865243
 30
0.0
 10
15.58434320986007
 20
17.7216544295598
 30
0.0
 10
15.5674279431483
 20
17.67177512188439
 30
0.0
 10
15.55103162728358
 20
17.63509085614182
 30
0.0
 10
15.49726979229562
 20
17.54358951887489
 30
0.0
 10
15.45186645156524
 20
17.48938649040603
 30
0.0
 10
15.39997187504206
 20
17.45522304275208
 30
0.0
  0
SPLINE
  5
D1
330
1F
100
AcDbEntity
  8
Sichtbar_(ISO)
  6
Continuous
 62
     7
100
AcDbSpline
210
0.0
220
0.0
230
1.0
 70
     8
 71
     3
 72
    14
 73
    10
 74
     0
 42
0.000000001
 43
0.0000000001
 40
0.0
 40
0.0
 40
0.0
 40
0.0
 40
0.1774003138860089
 40
0.1774003138860089
 40
0.5000000000000026
 40
0.5000000000000026
 40
0.8225996861139979
 40
0.8225996861139979
 40
1.0
 40
1.0
 40
1.0
 40
1.0
 10
15.59997187504207
 20
18.50137020552908
 30
0.0
 10
15.62157936112899
 20
18.51573959748385
 30
0.0
 10
15.64094670355053
 20
18.52454516228119
 30
0.0
 10
15.68487044708993
 20
18.52804661731212
 30
0.0
 10
15.69997187504207
 20
18.50374359680164
 30
0.0
 10
15.69997187504207
 20
18.40795993346094
 30
0.0
 10
15.68487044708993
 20
18.33119847613702
 30
0.0
 10
15.64094670355053
 20
18.18228343497193
 30
0.0
 10
15.62157936112899
 20
18.12390628882043
 30
0.0
 10
15.59997187504207
 20
18.06337071164533
 30
0.0
  0
LINE
  5
D2
330
1F
100
AcDbEntity
  8
Sichtbar_(ISO)
  6
Continuous
 62
     7
100
AcDbLine
 10
15.599971875
 20
18.2510328173
 30
0.0
 11
15.599971875
 21
18.5013702055
 31
0.0
  0
SPLINE
  5
D3
330
1F
100
AcDbEntity
  8
Sichtbar_(ISO)
  6
Continuous
 62
     7
100
AcDbSpline
210
0.0
220
0.0
230
1.0
 70
     8
 71
     3
 72
    16
 73
    12
 74
     0
 42
0.000000001
 43
0.0000000001
 40
0.0
 40
0.0
 40
0.0
 40
0.0
 40
0.4640239818073764
 40
0.4640239818073764
 40
0.7454749812879489
 40
0.7454749812879489
 40
0.8767919577326614
 40
0.8767919577326614
 40
0.9485780577999261
 40
0.9485780577999261
 40
1.0
 40
1.0
 40
1.0
 40
1.0
 10
15.39997187504207
 20
18.19512574115343
 30
0.0
 10
15.45306196973004
 20
18.16964314359817
 30
0.0
 10
15.49926434260498
 20
18.16163246084026
 30
0.0
 10
15.55259206147751
 20
18.16818919148851
 30
0.0
 10
15.56853373744609
 20
18.17529481456732
 30
0.0
 10
15.58500689322818
 20
18.19276326185907
 30
0.0
 10
15.59013552415104
 20
18.20034880932542
 30
0.0
 10
15.59593357743163
 20
18.21650436447132
 30
0.0
 10
15.59767751353108
 20
18.2233528288588
 30
0.0
 10
15.59954513104894
 20
18.23746958398757
 30
0.0
 10
15.59997187504207
 20
18.24393233468811
 30
0.0
 10
15.59997187504207
 20
18.25103281730178
 30
0.0
  0
SPLINE
  5
D4
330
1F
100
AcDbEntity
  8
Sichtbar_(ISO)
  6
Continuous
 62
     7
100
AcDbSpline
210
0.0
220
0.0
230
1.0
 70
     8
 71
     3
 72
    18
 73
    14
 74
     0
 42
0.000000001
 43
0.0000000001
 40
0.0
 40
0.0
 40
0.0
 40
0.0
 40
0.1195616728058626
 40
0.1195616728058626
 40
0.3097808364029312
 40
0.3097808364029312
 40
0.5000000000000001
 40
0.5000000000000001
 40
0.6902191635970686
 40
0.6902191635970686
 40
0.8804383271941368
 40
0.8804383271941368
 40
1.0
 40
1.0
 40
1.0
 40
1.0
 10
11.79997187504207
 20
18.19512574115343
 30
0.0
 10
11.88997626444507
 20
18.23832674968137
 30
0.0
 10
11.9979313946061
 20
18.27596546485294
 30
0.0
 10
12.30137618518875
 20
18.3573961402453
 30
0.0
 10
12.53737130444318
 20
18.39801996539518
 30
0.0
 10
13.0547034406554
 20
18.45066456223736
 30
0.0
 10
13.33605896988895
 20
18.46298391127475
 30
0.0
 10
13.86388478019518
 20
18.46298391127475
 30
0.0
 10
14.14524030942873
 20
18.45066456223736
 30
0.0
 10
14.66257244564095
 20
18.39801996539518
 30
0.0
 10
14.89856756489539
 20
18.3573961402453
 30
0.0
 10
15.20201235547803
 20
18.27596546485294
 30
0.0
 10
15.30996748563907
 20
18.23832674968137
 30
0.0
 10
15.39997187504207
 20
18.19512574115343
 30
0.0
  0
SPLINE
  5
D5
330
1F
100
AcDbEntity
  8
Sichtbar_(ISO)
  6
Continuous
 62
     7
100
AcDbSpline
210
0.0
220
0.0
230
1.0
 70
     8
 71
     3
 72
    16
 73
    12
 74
     0
 42
0.000000001
 43
0.0000000001
 40
0.0
 40
0.0
 40
0.0
 40
0.0
 40
0.0444536937881184
 40
0.0444536937881184
 40
0.124285692307455
 40
0.124285692307455
 40
0.2548360156408782
 40
0.2548360156408782
 40
0.5377990263248683
 40
0.5377990263248683
 40
1.0
 40
1.0
 40
1.0
 40
1.0
 10
11.59997187504207
 20
18.25103281730178
 30
0.0
 10
11.59997187504207
 20
18.24494967931883
 30
0.0
 10
11.60028522116553
 20
18.23929377162794
 30
0.0
 10
11.60194187685762
 20
18.22458296156243
 30
0.0
 10
11.60385857497553
 20
18.21686461790571
 30
0.0
 10
11.60989275780393
 20
18.20021816653655
 30
0.0
 10
11.61499041965389
 20
18.19269988320253
 30
0.0
 10
11.63149834903594
 20
18.17521545134176
 30
0.0
 10
11.6475545013319
 20
18.16810249951592
 30
0.0
 10
11.70099479667437
 20
18.16169602330012
 30
0.0
 10
11.74704847945937
 20
18.16972313505172
 30
0.0
 10
11.79997187504167
 20
18.19512574115323
 30
0.0
  0
ELLIPSE
  5
D6
330
1F
100
AcDbEntity
  8
Sichtbar_(ISO)
  6
Continuous
 62
     7
100
AcDbEllipse
 10
13.599971875
 20
17.6661919897
 30
0.0
 11
-2.1
 21
6.000000000000000E-16
 31
0.0
210
0.0
220
0.0
230
1.0
 40
0.3420201433
 41
3.451437293331409
 42
5.973340667437954
  0
LINE
  5
D7
330
1F
100
AcDbEntity
  8
Verdeckt_(ISO)
  6
HIDDEN2
 62
     7
100
AcDbLine
 10
17.999971875
 20
6.499970719
 30
0.0
 11
17.999971875
 21
-6.500029281
 31
0.0
  0
LINE
  5
D8
330
1F
100
AcDbEntity
  8
Verdeckt_(ISO)
  6
HIDDEN2
 62
     7
100
AcDbLine
 10
3.999971875
 20
6.499970719
 30
0.0
 11
3.999971875
 21
-6.500029281
 31
0.0
  0
LINE
  5
D9
330
1F
100
AcDbEntity
  8
Verdeckt_(ISO)
  6
HIDDEN2
 62
     7
100
AcDbLine
 10
15.599971875
 20
18.2510328173
 30
0.0
 11
15.599971875
 21
18.0633707116
 31
0.0
  0
LINE
  5
DA
330
1F
100
AcDbEntity
  8
Verdeckt_(ISO)
  6
HIDDEN2
 62
     7
100
AcDbLine
 10
11.599971875
 20
18.2510328173
 30
0.0
 11
11.599971875
 21
18.0633707116
 31
0.0
  0
LINE
  5
DB
330
1F
100
AcDbEntity
  8
Verdeckt_(ISO)
  6
HIDDEN2
 62
     7
100
AcDbLine
 10
-43.400028125
 20
6.424970719
 30
0.0
 11
-43.400028125
 21
-6.425029281
 31
0.0
  0
LINE
  5
DC
330
1F
100
AcDbEntity
  8
Verdeckt_(ISO)
  6
HIDDEN2
 62
     7
100
AcDbLine
 10
-41.400028125
 20
6.424970719
 30
0.0
 11
-41.400028125
 21
-6.425029281
 31
0.0
  0
LINE
  5
DD
330
1F
100
AcDbEntity
  8
Verdeckt_(ISO)
  6
HIDDEN2
 62
     7
100
AcDbLine
 10
3.999971875
 20
-5.100029281
 30
0.0
 11
-41.400028125
 21
-5.100029281
 31
0.0
  0
LINE
  5
DE
330
1F
100
AcDbEntity
  8
Verdeckt_(ISO)
  6
HIDDEN2
 62
     7
100
AcDbLine
 10
3.999971875
 20
5.099970719
 30
0.0
 11
-41.400028125
 21
5.099970719
 31
0.0
  0
LINE
  5
DF
330
1F
100
AcDbEntity
  8
Verdeckt_(ISO)
  6
HIDDEN2
 62
     7
100
AcDbLine
 10
17.999971875
 20
-6.500029281
 30
0.0
 11
3.999971875
 21
-6.500029281
 31
0.0
  0
LINE
  5
E0
330
1F
100
AcDbEntity
  8
Verdeckt_(ISO)
  6
HIDDEN2
 62
     7
100
AcDbLine
 10
17.999971875
 20
6.499970719
 30
0.0
 11
3.999971875
 21
6.499970719
 31
0.0
  0
ARC
  5
E1
330
1F
100
AcDbEntity
  8
Verdeckt_(ISO)
  6
HIDDEN2
 62
     7
100
AcDbCircle
 10
-47.600028125
 20
7.049970719
 30
0.0
 40
0.8000000000000002
100
AcDbArc
 50
180.0
 51
270.0
  0
ARC
  5
E2
330
1F
100
AcDbEntity
  8
Verdeckt_(ISO)
  6
HIDDEN2
 62
     7
100
AcDbCircle
 10
-47.600028125
 20
-7.050029281
 30
0.0
 40
0.8000000000000002
100
AcDbArc
 50
90.0
 51
180.0
  0
LINE
  5
E3
330
1F
100
AcDbEntity
  8
Verdeckt_(ISO)
  6
HIDDEN2
 62
     7
100
AcDbLine
 10
-43.400028125
 20
-6.250029281
 30
0.0
 11
-47.600028125
 21
-6.250029281
 31
0.0
  0
LINE
  5
E4
330
1F
100
AcDbEntity
  8
Verdeckt_(ISO)
  6
HIDDEN2
 62
     7
100
AcDbLine
 10
-43.400028125
 20
6.249970719
 30
0.0
 11
-47.600028125
 21
6.249970719
 31
0.0
  0
LINE
  5
E5
330
1F
100
AcDbEntity
  8
Verdeckt_(ISO)
  6
HIDDEN2
 62
     7
100
AcDbLine
 10
-41.400028125
 20
-6.425029281
 30
0.0
 11
-43.400028125
 21
-6.425029281
 31
0.0
  0
LINE
  5
E6
330
1F
100
AcDbEntity
  8
Verdeckt_(ISO)
  6
HIDDEN2
 62
     7
100
AcDbLine
 10
-41.400028125
 20
6.424970719
 30
0.0
 11
-43.400028125
 21
6.424970719
 31
0.0
  0
LINE
  5
E7
330
1F
100
AcDbEntity
  8
Verdeckt_(ISO)
  6
HIDDEN2
 62
     7
100
AcDbLine
 10
50.999971875
 20
-6.000029281
 30
0.0
 11
17.999971875
 21
-6.000029281
 31
0.0
  0
LINE
  5
E8
330
1F
100
AcDbEntity
  8
Verdeckt_(ISO)
  6
HIDDEN2
 62
     7
100
AcDbLine
 10
50.999971875
 20
5.999970719
 30
0.0
 11
17.999971875
 21
5.999970719
 31
0.0
  0
ARC
  5
E9
330
1F
100
AcDbEntity
  8
Verdeckt_(ISO)
  6
HIDDEN2
 62
     7
100
AcDbCircle
 10
50.999971875
 20
6.999970719
 30
0.0
 40
1.0
100
AcDbArc
 50
270.0
 51
0.0
  0
ARC
  5
EA
330
1F
100
AcDbEntity
  8
Verdeckt_(ISO)
  6
HIDDEN2
 62
     7
100
AcDbCircle
 10
50.999971875
 20
-7.000029281
 30
0.0
 40
1.0
100
AcDbArc
 50
0.0
 51
90.0
  0
LINE
  5
EB
330
1F
100
AcDbEntity
  8
Sichtbar_(ISO)
  6
Continuous
 62
     7
100
AcDbLine
 10
17.6299128345
 20
-5.4853708015
 30
0.0
 11
17.6299128345
 21
-23.000029281
 31
0.0
  0
LINE
  5
EC
330
1F
100
AcDbEntity
  8
Sichtbar_(ISO)
  6
Continuous
 62
     7
100
AcDbLine
 10
15.599971875
 20
-7.6725778821
 30
0.0
 11
15.599971875
 21
-19.466286605
 31
0.0
  0
LINE
  5
ED
330
1F
100
AcDbEntity
  8
Sichtbar_(ISO)
  6
Continuous
 62
     7
100
AcDbLine
 10
15.599971875
 20
19.4662280429
 30
0.0
 11
15.599971875
 21
18.5013702055
 31
0.0
  0
LINE
  5
EE
330
1F
100
AcDbEntity
  8
Sichtbar_(ISO)
  6
Continuous
 62
     7
100
AcDbLine
 10
15.599971875
 20
18.0633707116
 30
0.0
 11
15.599971875
 21
7.67251932
 31
0.0
  0
LINE
  5
EF
330
1F
100
AcDbEntity
  8
Sichtbar_(ISO)
  6
Continuous
 62
     7
100
AcDbLine
 10
11.599971875
 20
19.4662280429
 30
0.0
 11
11.599971875
 21
18.5013702055
 31
0.0
  0
LINE
  5
F0
330
1F
100
AcDbEntity
  8
Sichtbar_(ISO)
  6
Continuous
 62
     7
100
AcDbLine
 10
9.5700309155
 20
22.999970719
 30
0.0
 11
9.5700309155
 21
8.7679152617
 31
0.0
  0
LINE
  5
F1
330
1F
100
AcDbEntity
  8
Sichtbar_(ISO)
  6
Continuous
 62
     7
100
AcDbLine
 10
11.599971875
 20
18.0633707116
 30
0.0
 11
11.599971875
 21
8.9145984859
 31
0.0
  0
LINE
  5
F2
330
1F
100
AcDbEntity
  8
Sichtbar_(ISO)
  6
Continuous
 62
     7
100
AcDbLine
 10
17.6299128345
 20
22.999970719
 30
0.0
 11
17.6299128345
 21
5.4853122394
 31
0.0
  0
LINE
  5
F3
330
1F
100
AcDbEntity
  8
Sichtbar_(ISO)
  6
Continuous
 62
     7
100
AcDbLine
 10
11.599971875
 20
-8.914657048
 30
0.0
 11
11.599971875
 21
-19.466286605
 31
0.0
  0
LINE
  5
F4
330
1F
100
AcDbEntity
  8
Sichtbar_(ISO)
  6
Continuous
 62
     7
100
AcDbLine
 10
9.5700309155
 20
-8.7679738238
 30
0.0
 11
9.5700309155
 21
-23.000029281
 31
0.0
  0
LINE
  5
F5
330
1F
100
AcDbEntity
  8
Sichtbar_(ISO)
  6
Continuous
 62
     7
100
AcDbLine
 10
51.999971875
 20
13.4758301973
 30
0.0
 11
51.999971875
 21
-13.4758887594
 31
0.0
  0
LINE
  5
F6
330
1F
100
AcDbEntity
  8
Sichtbar_(ISO)
  6
Continuous
 62
     7
100
AcDbLine
 10
-48.400028125
 20
7.9518275149
 30
0.0
 11
-48.400028125
 21
-7.951886077
 31
0.0
  0
LINE
  5
F7
330
1F
100
AcDbEntity
  8
Sichtbar_(ISO)
  6
Continuous
 62
     7
100
AcDbLine
 10
-0.200028125
 20
15.8458037769
 30
0.0
 11
-0.200028125
 21
-15.845862339
 31
0.0
  0
LINE
  5
F8
330
1F
100
AcDbEntity
  8
Sichtbar_(ISO)
  6
Continuous
 62
     7
100
AcDbLine
 10
38.6895410267
 20
-20.750029281
 30
0.0
 11
22.999971875
 21
-20.750029281
 31
0.0
  0
LINE
  5
F9
330
1F
100
AcDbEntity
  8
Sichtbar_(ISO)
  6
Continuous
 62
     7
100
AcDbLine
 10
38.6895410267
 20
20.749970719
 30
0.0
 11
22.999971875
 21
20.749970719
 31
0.0
  0
LINE
  5
FA
330
1F
100
AcDbEntity
  8
Sichtbar_(ISO)
  6
Continuous
 62
     7
100
AcDbLine
 10
15.599971875
 20
-19.466286605
 30
0.0
 11
17.6299128345
 21
-23.000029281
 31
0.0
  0
ARC
  5
FB
330
1F
100
AcDbEntity
  8
Sichtbar_(ISO)
  6
Continuous
 62
     7
100
AcDbCircle
 10
15.399971875
 20
19.199970719
 30
0.0
 40
0.2
100
AcDbArc
 50
270.0
 51
0.0
  0
LINE
  5
FC
330
1F
100
AcDbEntity
  8
Sichtbar_(ISO)
  6
Continuous
 62
     7
100
AcDbLine
 10
15.399971875
 20
18.999970719
 30
0.0
 11
11.799971875
 21
18.999970719
 31
0.0
  0
ARC
  5
FD
330
1F
100
AcDbEntity
  8
Sichtbar_(ISO)
  6
Continuous
 62
     7
100
AcDbCircle
 10
11.799971875
 20
19.199970719
 30
0.0
 40
0.2
100
AcDbArc
 50
180.0
 51
270.0
  0
LINE
  5
FE
330
1F
100
AcDbEntity
  8
Sichtbar_(ISO)
  6
Continuous
 62
     7
100
AcDbLine
 10
11.599971875
 20
19.4662280429
 30
0.0
 11
9.5700309155
 21
22.999970719
 31
0.0
  0
ARC
  5
FF
330
1F
100
AcDbEntity
  8
Sichtbar_(ISO)
  6
Continuous
 62
     7
100
AcDbCircle
 10
1.499971875
 20
16.2458037769
 30
0.0
 40
0.5
100
AcDbArc
 50
270.0
 51
360.0
  0
ARC
  5
100
330
1F
100
AcDbEntity
  8
Sichtbar_(ISO)
  6
Continuous
 62
     7
100
AcDbCircle
 10
1.499971875
 20
-16.245862339
 30
0.0
 40
0.5
100
AcDbArc
 50
0.0
 51
90.0
  0
LINE
  5
101
330
1F
100
AcDbEntity
  8
Sichtbar_(ISO)
  6
Continuous
 62
     7
100
AcDbLine
 10
15.599971875
 20
19.4662280429
 30
0.0
 11
17.6299128345
 21
22.999970719
 31
0.0
  0
ARC
  5
102
330
1F
100
AcDbEntity
  8
Sichtbar_(ISO)
  6
Continuous
 62
     7
100
AcDbCircle
 10
15.399971875
 20
-19.200029281
 30
0.0
 40
0.2
100
AcDbArc
 50
0.0
 51
90.0
  0
ARC
  5
103
330
1F
100
AcDbEntity
  8
Sichtbar_(ISO)
  6
Continuous
 62
     7
100
AcDbCircle
 10
11.799971875
 20
-19.200029281
 30
0.0
 40
0.2
100
AcDbArc
 50
90.0
 51
180.0
  0
LINE
  5
104
330
1F
100
AcDbEntity
  8
Sichtbar_(ISO)
  6
Continuous
 62
     7
100
AcDbLine
 10
11.599971875
 20
-19.466286605
 30
0.0
 11
9.5700309155
 21
-23.000029281
 31
0.0
  0
LINE
  5
105
330
1F
100
AcDbEntity
  8
Sichtbar_(ISO)
  6
Continuous
 62
     7
100
AcDbLine
 10
9.5700309155
 20
22.999970719
 30
0.0
 11
3.199971875
 21
22.999970719
 31
0.0
  0
LINE
  5
106
330
1F
100
AcDbEntity
  8
Sichtbar_(ISO)
  6
Continuous
 62
     7
100
AcDbLine
 10
15.399971875
 20
-19.000029281
 30
0.0
 11
11.799971875
 21
-19.000029281
 31
0.0
  0
LINE
  5
107
330
1F
100
AcDbEntity
  8
Sichtbar_(ISO)
  6
Continuous
 62
     7
100
AcDbLine
 10
9.5700309155
 20
-23.000029281
 30
0.0
 11
3.199971875
 21
-23.000029281
 31
0.0
  0
LINE
  5
108
330
1F
100
AcDbEntity
  8
Sichtbar_(ISO)
  6
Continuous
 62
     7
100
AcDbLine
 10
20.799971875
 20
-23.000029281
 30
0.0
 11
17.6299128345
 21
-23.000029281
 31
0.0
  0
LINE
  5
109
330
1F
100
AcDbEntity
  8
Sichtbar_(ISO)
  6
Continuous
 62
     7
100
AcDbLine
 10
20.799971875
 20
22.999970719
 30
0.0
 11
17.6299128345
 21
22.999970719
 31
0.0
  0
ARC
  5
10A
330
1F
100
AcDbEntity
  8
Sichtbar_(ISO)
  6
Continuous
 62
     7
100
AcDbCircle
 10
-47.400028125
 20
7.9518275149
 30
0.0
 40
1.0
100
AcDbArc
 50
98.2972222222
 51
180.0
  0
ARC
  5
10B
330
1F
100
AcDbEntity
  8
Sichtbar_(ISO)
  6
Continuous
 62
     7
100
AcDbCircle
 10
-47.400028125
 20
-7.951886077
 30
0.0
 40
1.0
100
AcDbArc
 50
180.0
 51
261.7027777778
  0
ARC
  5
10C
330
1F
100
AcDbEntity
  8
Sichtbar_(ISO)
  6
Continuous
 62
     7
100
AcDbCircle
 10
49.999971875
 20
13.4758301973
 30
0.0
 40
2.0
100
AcDbArc
 50
0.0
 51
65.0
  0
ARC
  5
10D
330
1F
100
AcDbEntity
  8
Sichtbar_(ISO)
  6
Continuous
 62
     7
100
AcDbCircle
 10
49.999971875
 20
-13.4758887594
 30
0.0
 40
2.0
100
AcDbArc
 50
295.0
 51
0.0
  0
LINE
  5
10E
330
1F
100
AcDbEntity
  8
Sichtbar_(ISO)
  6
Continuous
 62
     7
100
AcDbLine
 10
50.8452083985
 20
-15.2885043335
 30
0.0
 11
39.5347775502
 21
-20.5626448551
 31
0.0
  0
LINE
  5
10F
330
1F
100
AcDbEntity
  8
Sichtbar_(ISO)
  6
Continuous
 62
     7
100
AcDbLine
 10
50.8452083985
 20
15.2884457714
 30
0.0
 11
39.5347775502
 21
20.562586293
 31
0.0
  0
ARC
  5
110
330
1F
100
AcDbEntity
  8
Sichtbar_(ISO)
  6
Continuous
 62
     7
100
AcDbCircle
 10
38.6895410267
 20
18.749970719
 30
0.0
 40
1.999999999999979
100
AcDbArc
 50
65.0
 51
90.0
  0
ARC
  5
111
330
1F
100
AcDbEntity
  8
Sichtbar_(ISO)
  6
Continuous
 62
     7
100
AcDbCircle
 10
38.6895410267
 20
-18.750029281
 30
0.0
 40
1.99999999999998
100
AcDbArc
 50
270.0
 51
295.0
  0
ARC
  5
112
330
1F
100
AcDbEntity
  8
Sichtbar_(ISO)
  6
Continuous
 62
     7
100
AcDbCircle
 10
22.999971875
 20
21.749970719
 30
0.0
 40
1.0
100
AcDbArc
 50
180.0
 51
270.0
  0
ARC
  5
113
330
1F
100
AcDbEntity
  8
Sichtbar_(ISO)
  6
Continuous
 62
     7
100
AcDbCircle
 10
22.999971875
 20
-21.750029281
 30
0.0
 40
1.0
100
AcDbArc
 50
90.0
 51
180.0
  0
LINE
  5
114
330
1F
100
AcDbEntity
  8
Sichtbar_(ISO)
  6
Continuous
 62
     7
100
AcDbLine
 10
1.499971875
 20
-15.745862339
 30
0.0
 11
0.2390032046
 21
-15.745862339
 31
0.0
  0
LINE
  5
115
330
1F
100
AcDbEntity
  8
Sichtbar_(ISO)
  6
Continuous
 62
     7
100
AcDbLine
 10
1.499971875
 20
15.7458037769
 30
0.0
 11
0.2390032046
 21
15.7458037769
 31
0.0
  0
ARC
  5
116
330
1F
100
AcDbEntity
  8
Sichtbar_(ISO)
  6
Continuous
 62
     7
100
AcDbCircle
 10
0.2390032046
 20
16.2458037769
 30
0.0
 40
0.5
100
AcDbArc
 50
255.0
 51
270.0
  0
ARC
  5
117
330
1F
100
AcDbEntity
  8
Sichtbar_(ISO)
  6
Continuous
 62
     7
100
AcDbCircle
 10
0.2390032046
 20
-16.245862339
 30
0.0
 40
0.5
100
AcDbArc
 50
90.0
 51
105.0
  0
LINE
  5
118
330
1F
100
AcDbEntity
  8
Sichtbar_(ISO)
  6
Continuous
 62
     7
100
AcDbLine
 10
0.109593682
 20
-15.7628994258
 30
0.0
 11
-0.200028125
 21
-15.845862339
 31
0.0
  0
LINE
  5
119
330
1F
100
AcDbEntity
  8
Sichtbar_(ISO)
  6
Continuous
 62
     7
100
AcDbLine
 10
0.109593682
 20
15.7628408637
 30
0.0
 11
-0.200028125
 21
15.8458037769
 31
0.0
  0
LINE
  5
11A
330
1F
100
AcDbEntity
  8
Sichtbar_(ISO)
  6
Continuous
 62
     7
100
AcDbLine
 10
-47.5443363522
 20
8.9413603014
 30
0.0
 11
-0.200028125
 21
15.8458037769
 31
0.0
  0
LINE
  5
11B
330
1F
100
AcDbEntity
  8
Sichtbar_(ISO)
  6
Continuous
 62
     7
100
AcDbLine
 10
-47.5443363522
 20
-8.9414188635
 30
0.0
 11
-0.200028125
 21
-15.845862339
 31
0.0
  0
SPLINE
  5
11C
330
1F
100
AcDbEntity
  8
Sichtbar_(ISO)
  6
Continuous
 62
     7
100
AcDbSpline
210
0.0
220
0.0
230
1.0
 70
     8
 71
     3
 72
     8
 73
     4
 74
     0
 42
0.000000001
 43
0.0000000001
 40
0.0
 40
0.0
 40
0.0
 40
0.0
 40
1.0
 40
1.0
 40
1.0
 40
1.0
 10
11.79997187504207
 20
8.004969157433656
 30
0.0
 10
12.48472312804556
 20
7.932259765979504
 30
0.0
 10
13.17594659451172
 20
7.767385015503365
 30
0.0
 10
13.83181158032509
 20
7.516452602994717
 30
0.0
  0
SPLINE
  5
11D
330
1F
100
AcDbEntity
  8
Sichtbar_(ISO)
  6
Continuous
 62
     7
100
AcDbSpline
210
0.0
220
0.0
230
1.0
 70
     8
 71
     3
 72
    10
 73
     6
 74
     0
 42
0.000000001
 43
0.0000000001
 40
0.0
 40
0.0
 40
0.0
 40
0.0
 40
0.2316089471474974
 40
0.2316089471474974
 40
1.0
 40
1.0
 40
1.0
 40
1.0
 10
11.71146421596928
 20
8.013872977827077
 30
0.0
 10
11.71778089557776
 20
8.013272671809785
 30
0.0
 10
11.72428899244198
 20
8.012646802722276
 30
0.0
 10
11.75312277975457
 20
8.009836146053077
 30
0.0
 10
11.77648132055606
 20
8.007463470389057
 30
0.0
 10
11.79997187504207
 20
8.004969157433656
 30
0.0
  0
LINE
  5
11E
330
1F
100
AcDbEntity
  8
Sichtbar_(ISO)
  6
Continuous
 62
     7
100
AcDbLine
 10
1.999971875
 20
7.0971843145
 30
0.0
 11
1.999971875
 21
9.049970719
 31
0.0
  0
LINE
  5
11F
330
1F
100
AcDbEntity
  8
Sichtbar_(ISO)
  6
Continuous
 62
     7
100
AcDbLine
 10
1.999971875
 20
-9.050029281
 30
0.0
 11
1.999971875
 21
-7.0972428765
 31
0.0
  0
SPLINE
  5
120
330
1F
100
AcDbEntity
  8
Sichtbar_(ISO)
  6
Continuous
 62
     7
100
AcDbSpline
210
0.0
220
0.0
230
1.0
 70
     8
 71
     3
 72
    12
 73
     8
 74
     0
 42
0.000000001
 43
0.0000000001
 40
0.0
 40
0.0
 40
0.0
 40
0.0
 40
0.4201631969046516
 40
0.4201631969046516
 40
0.8395041517556018
 40
0.8395041517556018
 40
1.0
 40
1.0
 40
1.0
 40
1.0
 10
11.79997187504207
 20
-8.005027719517942
 30
0.0
 10
11.78716755941859
 20
-8.006387328562663
 30
0.0
 10
11.77435190062991
 20
-8.007716789907846
 30
0.0
 10
11.74907666206403
 20
-8.010278501476014
 30
0.0
 10
11.73673605503094
 20
-8.011498859985572
 30
0.0
 10
11.72029564070327
 20
-8.013088759037233
 30
0.0
 10
11.71583283118922
 20
-8.013516427906877
 30
0.0
 10
11.71146421596905
 20
-8.013931539911386
 30
0.0
  0
SPLINE
  5
121
330
1F
100
AcDbEntity
  8
Sichtbar_(ISO)
  6
Continuous
 62
     7
100
AcDbSpline
210
0.0
220
0.0
230
1.0
 70
     8
 71
     3
 72
     8
 73
     4
 74
     0
 42
0.000000001
 43
0.0000000001
 40
0.0
 40
0.0
 40
0.0
 40
0.0
 40
0.9999999999999999
 40
0.9999999999999999
 40
0.9999999999999999
 40
0.9999999999999999
 10
13.83181158050234
 20
-7.516511165011045
 30
0.0
 10
13.1761725924935
 20
-7.767884945625279
 30
0.0
 10
12.48472312810727
 20
-7.932318328057247
 30
0.0
 10
11.79997187504207
 20
-8.005027719517944
 30
0.0
  0
SPLINE
  5
122
330
1F
100
AcDbEntity
  8
Sichtbar_(ISO)
  6
Continuous
 62
     7
100
AcDbSpline
210
0.0
220
0.0
230
1.0
 70
     8
 71
     3
 72
     8
 73
     4
 74
     0
 42
0.000000001
 43
0.0000000001
 40
0.0
 40
0.0
 40
0.0
 40
0.0
 40
1.0
 40
1.0
 40
1.0
 40
1.0
 10
2.999971875042073
 20
-8.755118584074985
 30
0.0
 10
3.067923060287628
 20
-8.763916383918518
 30
0.0
 10
3.136491477121722
 20
-8.767973823782906
 30
0.0
 10
3.199971875042074
 20
-8.767973823782906
 30
0.0
  0
SPLINE
  5
123
330
1F
100
AcDbEntity
  8
Sichtbar_(ISO)
  6
Continuous
 62
     7
100
AcDbSpline
210
0.0
220
0.0
230
1.0
 70
     8
 71
     3
 72
    18
 73
    14
 74
     0
 42
0.000000001
 43
0.0000000001
 40
0.0
 40
0.0
 40
0.0
 40
0.0
 40
0.1711338956343701
 40
0.1711338956343701
 40
0.3379009907704125
 40
0.3379009907704125
 40
0.5080118783812158
 40
0.5080118783812158
 40
0.6602172757488521
 40
0.6602172757488521
 40
0.8409563505076003
 40
0.8409563505076003
 40
1.0
 40
1.0
 40
1.0
 40
1.0
 10
2.09946512737443
 20
-8.615187243740042
 30
0.0
 10
2.125540239866421
 20
-8.66384231807479
 30
0.0
 10
2.157549539669196
 20
-8.708291555726856
 30
0.0
 10
2.232792847398299
 20
-8.778421074003987
 30
0.0
 10
2.274611761747161
 20
-8.803567697675565
 30
0.0
 10
2.369892502756102
 20
-8.831627403541397
 30
0.0
 10
2.419935729063518
 20
-8.833040386035512
 30
0.0
 10
2.520340990242623
 20
-8.821327136512881
 30
0.0
 10
2.569616753210127
 20
-8.80982171323269
 30
0.0
 10
2.68033129469713
 20
-8.783032888464668
 30
0.0
 10
2.744660927021955
 20
-8.766836048621604
 30
0.0
 10
2.872913558595601
 20
-8.749451929936267
 30
0.0
 10
2.9354776952452
 20
-8.74676837086125
 30
0.0
 10
2.999971875042073
 20
-8.755118584074982
 30
0.0
  0
SPLINE
  5
124
330
1F
100
AcDbEntity
  8
Sichtbar_(ISO)
  6
Continuous
 62
     7
100
AcDbSpline
210
0.0
220
0.0
230
1.0
 70
     8
 71
     3
 72
    11
 73
     7
 74
     0
 42
0.000000001
 43
0.0000000001
 40
0.0
 40
0.0
 40
0.0
 40
0.0
 40
0.2814595575601179
 40
0.2814595575601179
 40
0.2814595575601179
 40
1.0
 40
1.0
 40
1.0
 40
1.0
 10
2.099465127413729
 20
-8.615187243658657
 30
0.0
 10
2.144366697517003
 20
-8.522201369752805
 30
0.0
 10
2.204435373372374
 20
-8.435787060727495
 30
0.0
 10
2.273771859662435
 20
-8.362545799304138
 30
0.0
 10
2.450781551456063
 20
-8.175567574637697
 30
0.0
 10
2.735668064247791
 20
-8.050029281042146
 30
0.0
 10
2.999971875042073
 20
-8.050029281042146
 30
0.0
  0
LINE
  5
125
330
1F
100
AcDbEntity
  8
Sichtbar_(ISO)
  6
Continuous
 62
     7
100
AcDbLine
 10
9.5700309155
 20
-8.7679738238
 30
0.0
 11
3.199971875
 21
-8.7679738238
 31
0.0
  0
LINE
  5
126
330
1F
100
AcDbEntity
  8
Sichtbar_(ISO)
  6
Continuous
 62
     7
100
AcDbLine
 10
2.999971875
 20
-8.050029281
 30
0.0
 11
9.5700309155
 21
-8.050029281
 31
0.0
  0
SPLINE
  5
127
330
1F
100
AcDbEntity
  8
Sichtbar_(ISO)
  6
Continuous
 62
     7
100
AcDbSpline
210
0.0
220
0.0
230
1.0
 70
     8
 71
     3
 72
    10
 73
     6
 74
     0
 42
0.000000001
 43
0.0000000001
 40
0.0
 40
0.0
 40
0.0
 40
0.0
 40
0.0057628558003124
 40
0.0057628558003124
 40
1.0
 40
1.0
 40
1.0
 40
1.0
 10
1.999971875042074
 20
-9.050029281042153
 30
0.0
 10
1.999971875042074
 20
-9.049198671101252
 30
0.0
 10
1.999972909911381
 20
-9.048368001660762
 30
0.0
 10
2.000332138650063
 20
-8.904216034141154
 30
0.0
 10
2.031505366993259
 20
-8.755923919398182
 30
0.0
 10
2.099465127394323
 20
-8.615187243649288
 30
0.0
  0
SPLINE
  5
128
330
1F
100
AcDbEntity
  8
Sichtbar_(ISO)
  6
Continuous
 62
     7
100
AcDbSpline
210
0.0
220
0.0
230
1.0
 70
     8
 71
     3
 72
    10
 73
     6
 74
     0
 42
0.000000001
 43
0.0000000001
 40
0.0
 40
0.0
 40
0.0
 40
0.0
 40
0.9942371442047976
 40
0.9942371442047976
 40
1.0
 40
1.0
 40
1.0
 40
1.0
 10
2.099465127394323
 20
8.615128681564997
 30
0.0
 10
2.031505366989252
 20
8.755865357322193
 30
0.0
 10
2.000332138649924
 20
8.904157472114253
 30
0.0
 10
1.999972909911384
 20
9.048309439575377
 30
0.0
 10
1.999971875042074
 20
9.049140109018047
 30
0.0
 10
1.999971875042074
 20
9.049970718957876
 30
0.0
  0
LINE
  5
129
330
1F
100
AcDbEntity
  8
Sichtbar_(ISO)
  6
Continuous
 62
     7
100
AcDbLine
 10
1.999971875
 20
-9.050029281
 30
0.0
 11
1.999971875
 21
-21.800029281
 31
0.0
  0
LINE
  5
12A
330
1F
100
AcDbEntity
  8
Sichtbar_(ISO)
  6
Continuous
 62
     7
100
AcDbLine
 10
1.999971875
 20
21.799970719
 30
0.0
 11
1.999971875
 21
9.049970719
 31
0.0
  0
LINE
  5
12B
330
1F
100
AcDbEntity
  8
Sichtbar_(ISO)
  6
Continuous
 62
     7
100
AcDbLine
 10
21.999971875
 20
-21.800029281
 30
0.0
 11
21.999971875
 21
21.799970719
 31
0.0
  0
ARC
  5
12C
330
1F
100
AcDbEntity
  8
Sichtbar_(ISO)
  6
Continuous
 62
     7
100
AcDbCircle
 10
3.199971875
 20
-21.800029281
 30
0.0
 40
1.199999999999999
100
AcDbArc
 50
180.0
 51
270.0
  0
ARC
  5
12D
330
1F
100
AcDbEntity
  8
Sichtbar_(ISO)
  6
Continuous
 62
     7
100
AcDbCircle
 10
3.199971875
 20
21.799970719
 30
0.0
 40
1.199999999999999
100
AcDbArc
 50
90.0
 51
180.0
  0
ARC
  5
12E
330
1F
100
AcDbEntity
  8
Sichtbar_(ISO)
  6
Continuous
 62
     7
100
AcDbCircle
 10
20.799971875
 20
21.799970719
 30
0.0
 40
1.199999999999999
100
AcDbArc
 50
0.0
 51
90.0
  0
ARC
  5
12F
330
1F
100
AcDbEntity
  8
Sichtbar_(ISO)
  6
Continuous
 62
     7
100
AcDbCircle
 10
20.799971875
 20
-21.800029281
 30
0.0
 40
1.199999999999999
100
AcDbArc
 50
270.0
 51
0.0
  0
SPLINE
  5
130
330
1F
100
AcDbEntity
  8
Sichtbar_(ISO)
  6
Continuous
 62
     7
100
AcDbSpline
210
0.0
220
0.0
230
1.0
 70
     8
 71
     3
 72
    18
 73
    14
 74
     0
 42
0.000000001
 43
0.0000000001
 40
0.0
 40
0.0
 40
0.0
 40
0.0
 40
0.053728948855227
 40
0.053728948855227
 40
0.299426102366551
 40
0.299426102366551
 40
0.4566306815395763
 40
0.4566306815395763
 40
0.6131572309282884
 40
0.6131572309282884
 40
0.7959784077844657
 40
0.7959784077844657
 40
1.0
 40
1.0
 40
1.0
 40
1.0
 10
2.999971875042073
 20
8.755060021990685
 30
0.0
 10
2.98224816811629
 20
8.752765291950954
 30
0.0
 10
2.964577979458931
 20
8.751295122265995
 30
0.0
 10
2.86650089419377
 20
8.747153217275738
 30
0.0
 10
2.7855666867834
 20
8.759244659850697
 30
0.0
 10
2.646013656089029
 20
8.790722324016746
 30
0.0
 10
2.59383377799029
 20
8.804678044977639
 30
0.0
 10
2.494494445348759
 20
8.825185658656737
 30
0.0
 10
2.446179544266608
 20
8.831957772916855
 30
0.0
 10
2.344890249345923
 20
8.827582980335826
 30
0.0
 10
2.291170338832416
 20
8.813255673221716
 30
0.0
 10
2.181466640006537
 20
8.739760293583197
 30
0.0
 10
2.134982434334963
 20
8.681402497765477
 30
0.0
 10
2.09946512737443
 20
8.615128681655756
 30
0.0
  0
SPLINE
  5
131
330
1F
100
AcDbEntity
  8
Sichtbar_(ISO)
  6
Continuous
 62
     7
100
AcDbSpline
210
0.0
220
0.0
230
1.0
 70
     8
 71
     3
 72
     8
 73
     4
 74
     0
 42
0.000000001
 43
0.0000000001
 40
0.0
 40
0.0
 40
0.0
 40
0.0
 40
1.0
 40
1.0
 40
1.0
 40
1.0
 10
3.199971875042074
 20
8.767915261698615
 30
0.0
 10
3.136491477121722
 20
8.767915261698615
 30
0.0
 10
3.067923060287628
 20
8.763857821834236
 30
0.0
 10
2.999971875042073
 20
8.755060021990696
 30
0.0
  0
LINE
  5
132
330
1F
100
AcDbEntity
  8
Sichtbar_(ISO)
  6
Continuous
 62
     7
100
AcDbLine
 10
3.199971875
 20
8.7679152617
 30
0.0
 11
9.5700309155
 21
8.7679152617
 31
0.0
  0
LINE
  5
133
330
1F
100
AcDbEntity
  8
Sichtbar_(ISO)
  6
Continuous
 62
     7
100
AcDbLine
 10
9.5700309155
 20
8.049970719
 30
0.0
 11
2.999971875
 21
8.049970719
 31
0.0
  0
SPLINE
  5
134
330
1F
100
AcDbEntity
  8
Sichtbar_(ISO)
  6
Continuous
 62
     7
100
AcDbSpline
210
0.0
220
0.0
230
1.0
 70
     8
 71
     3
 72
    11
 73
     7
 74
     0
 42
0.000000001
 43
0.0000000001
 40
0.0
 40
0.0
 40
0.0
 40
0.0
 40
0.7185404424398821
 40
0.7185404424398821
 40
0.7185404424398821
 40
1.0
 40
1.0
 40
1.0
 40
1.0
 10
2.999971875042073
 20
8.049970718957857
 30
0.0
 10
2.735668064247791
 20
8.049970718957857
 30
0.0
 10
2.450781551456063
 20
8.175509012553407
 30
0.0
 10
2.273771859662435
 20
8.362487237219847
 30
0.0
 10
2.204435373372374
 20
8.435728498643204
 30
0.0
 10
2.144366697517003
 20
8.522142807668512
 30
0.0
 10
2.099465127413729
 20
8.615128681574365
 30
0.0
  0
LINE
  5
135
330
1F
100
AcDbEntity
  8
Sichtbar_(ISO)
  6
Continuous
 62
     7
100
AcDbLine
 10
1.999971875
 20
0.7373623576
 30
0.0
 11
1.999971875
 21
6.649970719
 31
0.0
  0
LINE
  5
136
330
1F
100
AcDbEntity
  8
Sichtbar_(ISO)
  6
Continuous
 62
     7
100
AcDbLine
 10
1.999971875
 20
-6.650029281
 30
0.0
 11
1.999971875
 21
-0.7374209197
 31
0.0
  0
SPLINE
  5
137
330
1F
100
AcDbEntity
  8
Sichtbar_(ISO)
  6
Continuous
 62
     7
100
AcDbSpline
210
0.0
220
0.0
230
1.0
 70
     8
 71
     3
 72
    10
 73
     6
 74
     0
 42
0.000000001
 43
0.0000000001
 40
0.0
 40
0.0
 40
0.0
 40
0.0
 40
0.4994242002760144
 40
0.4994242002760144
 40
1.0
 40
1.0
 40
1.0
 40
1.0
 10
1.999971875042073
 20
-0.7374209196863503
 30
0.0
 10
1.999971875042074
 20
-0.5227547678832121
 30
0.0
 10
1.999689250125666
 20
-0.3035509033315291
 30
0.0
 10
1.999688389305223
 20
0.3028346060016056
 30
0.0
 10
1.999971875042074
 20
0.5223708882208383
 30
0.0
 10
1.999971875042073
 20
0.7373623576020636
 30
0.0
  0
LINE
  5
138
330
1F
100
AcDbEntity
  8
Sichtbar_(ISO)
  6
Continuous
 62
     7
100
AcDbLine
 10
2.199971875
 20
6.649970719
 30
0.0
 11
2.199971875
 21
-6.650029281
 31
0.0
  0
LINE
  5
139
330
1F
100
AcDbEntity
  8
Sichtbar_(ISO)
  6
Continuous
 62
     7
100
AcDbLine
 10
1.999971875
 20
6.649970719
 30
0.0
 11
1.999971875
 21
7.0971843145
 31
0.0
  0
ARC
  5
13A
330
1F
100
AcDbEntity
  8
Sichtbar_(ISO)
  6
Continuous
 62
     7
100
AcDbCircle
 10
1.599971875
 20
6.649970719
 30
0.0
 40
0.6000000000000077
100
AcDbArc
 50
0.0
 51
48.1896851042
  0
LINE
  5
13B
330
1F
100
AcDbEntity
  8
Sichtbar_(ISO)
  6
Continuous
 62
     7
100
AcDbLine
 10
1.999971875
 20
-7.0972428765
 30
0.0
 11
1.999971875
 21
-6.650029281
 31
0.0
  0
ARC
  5
13C
330
1F
100
AcDbEntity
  8
Sichtbar_(ISO)
  6
Continuous
 62
     7
100
AcDbCircle
 10
1.599971875
 20
-6.650029281
 30
0.0
 40
0.6000000000000079
100
AcDbArc
 50
311.8103148958
 51
0.0
  0
SPLINE
  5
13D
330
1F
100
AcDbEntity
  8
Sichtbar_(ISO)
  6
Continuous
 62
     7
100
AcDbSpline
210
0.0
220
0.0
230
1.0
 70
     8
 71
     3
 72
    12
 73
     8
 74
     0
 42
0.000000001
 43
0.0000000001
 40
0.0
 40
0.0
 40
0.0
 40
0.0
 40
0.1160530165499942
 40
0.1160530165499942
 40
0.4815407576531322
 40
0.4815407576531322
 40
1.0
 40
1.0
 40
1.0
 40
1.0
 10
11.71146421596905
 20
-8.013931539911386
 30
0.0
 10
11.70021048278181
 20
-8.027112820131396
 30
0.0
 10
11.69040833300672
 20
-8.041756302059566
 30
0.0
 10
11.65707791471257
 20
-8.099016888457612
 30
0.0
 10
11.63748259300555
 20
-8.156091290561374
 30
0.0
 10
11.60891118563832
 20
-8.274309103042427
 30
0.0
 10
11.59997187504207
 20
-8.359442251441799
 30
0.0
 10
11.59997187504207
 20
-8.430776578879993
 30
0.0
  0
SPLINE
  5
13E
330
1F
100
AcDbEntity
  8
Sichtbar_(ISO)
  6
Continuous
 62
     7
100
AcDbSpline
210
0.0
220
0.0
230
1.0
 70
    28
 71
     2
 72
     6
 73
     3
 74
     0
 42
0.000000001
 43
0.0000000001
 40
0.0
 40
0.0
 40
0.0
 40
1.0
 40
1.0
 40
1.0
 10
11.59997187504207
 20
-8.914657047970133
 30
0.0
 41
1.000000026602694
 10
11.54076310038436
 20
-8.812104442008867
 30
0.0
 41
1.000000746527139
 10
11.48039937581128
 20
-8.70755140411421
 30
0.0
 41
1.000001110323305
  0
LINE
  5
13F
330
1F
100
AcDbEntity
  8
Sichtbar_(ISO)
  6
Continuous
 62
     7
100
AcDbLine
 10
11.599971875
 20
-8.4307765789
 30
0.0
 11
11.599971875
 21
-8.5069353575
 31
0.0
  0
LINE
  5
140
330
1F
100
AcDbEntity
  8
Sichtbar_(ISO)
  6
Continuous
 62
     7
100
AcDbLine
 10
11.599971875
 20
-8.5082684893
 30
0.0
 11
11.599971875
 21
-8.914657048
 31
0.0
  0
ARC
  5
141
330
1F
100
AcDbEntity
  8
Sichtbar_(ISO)
  6
Continuous
 62
     7
100
AcDbCircle
 10
10.949971875
 20
-0.000029281
 30
0.0
 40
8.05
100
AcDbArc
 50
271.0676850118
 51
275.4280285718
  0
ELLIPSE
  5
142
330
1F
100
AcDbEntity
  8
Sichtbar_(ISO)
  6
Continuous
 62
     7
100
AcDbEllipse
 10
12.66713926
 20
-7.0175278864
 30
0.0
 11
0.0
 21
2.121320343559641
 31
0.0
210
0.0
220
0.0
230
1.0
 40
0.7071067812
 41
-3.934027801488572
 42
-3.933144851224634
  0
LINE
  5
143
330
1F
100
AcDbEntity
  8
Sichtbar_(ISO)
  6
Continuous
 62
     7
100
AcDbLine
 10
11.599971875
 20
-8.5069353575
 30
0.0
 11
11.599041562
 21
-8.5069353575
 31
0.0
  0
LINE
  5
144
330
1F
100
AcDbEntity
  8
Sichtbar_(ISO)
  6
Continuous
 62
     7
100
AcDbLine
 10
11.1098241242
 20
-8.0656962403
 30
0.0
 11
11.099971875
 21
-8.0486316442
 31
0.0
  0
LINE
  5
145
330
1F
100
AcDbEntity
  8
Sichtbar_(ISO)
  6
Continuous
 62
     7
100
AcDbLine
 10
11.4722236042
 20
-8.6933905523
 30
0.0
 11
11.1098241242
 21
-8.0656962403
 31
0.0
  0
LINE
  5
146
330
1F
100
AcDbEntity
  8
Sichtbar_(ISO)
  6
Continuous
 62
     7
100
AcDbLine
 10
11.4803993758
 20
-8.7075514041
 30
0.0
 11
11.4722236042
 21
-8.6933905523
 31
0.0
  0
SPLINE
  5
147
330
1F
100
AcDbEntity
  8
Sichtbar_(ISO)
  6
Continuous
 62
     7
100
AcDbSpline
210
0.0
220
0.0
230
1.0
 70
    12
 71
     3
 72
    15
 73
    11
 74
     0
 42
0.000000001
 43
0.0000000001
 40
0.0
 40
0.0
 40
0.0
 40
0.0
 40
0.2745256879925837
 40
0.2745256879925837
 40
0.4999999999999979
 40
0.4999999999999979
 40
0.4999999999999979
 40
0.7254743120074135
 40
0.7254743120074135
 40
1.0
 40
1.0
 40
1.0
 40
1.0
 10
18.27470735059858
 20
3.339244624034239
 30
0.0
 41
1.0
 10
18.54069194341272
 20
2.755804379741787
 30
0.0
 41
1.0
 10
18.73615756792922
 20
2.139467091015188
 30
0.0
 41
1.0
 10
18.95337199047124
 20
1.008765697298517
 30
0.0
 41
1.0
 10
18.99997187504208
 20
0.4966262426801358
 30
0.0
 41
1.0
 10
18.99997187504208
 20
-0.0000292810421434
 30
0.0
 41
1.0
 10
18.99997187504208
 20
-0.4966848047644195
 30
0.0
 41
1.0
 10
18.95337199047124
 20
-1.008824259382802
 30
0.0
 41
1.0
 10
18.73615756792922
 20
-2.139525653099476
 30
0.0
 41
1.0
 10
18.54069194341272
 20
-2.755862941826076
 30
0.0
 41
1.0
 10
18.27470735059858
 20
-3.33930318611853
 30
0.0
 41
1.0
  0
SPLINE
  5
148
330
1F
100
AcDbEntity
  8
Sichtbar_(ISO)
  6
Continuous
 62
     7
100
AcDbSpline
210
0.0
220
0.0
230
1.0
 70
    12
 71
     3
 72
    19
 73
    15
 74
     0
 42
0.000000001
 43
0.0000000001
 40
0.0
 40
0.0
 40
0.0
 40
0.0
 40
0.1275185994278742
 40
0.1275185994278742
 40
0.3567379228568761
 40
0.3567379228568761
 40
0.5000000000000012
 40
0.5000000000000012
 40
0.5000000000000012
 40
0.6432620771431256
 40
0.6432620771431256
 40
0.872481400572125
 40
0.872481400572125
 40
1.0
 40
1.0
 40
1.0
 40
1.0
 10
17.62991283454836
 20
-5.485370801493454
 30
0.0
 41
1.0
 10
17.94906070343568
 20
-5.099611784251688
 30
0.0
 41
1.0
 10
18.23443766458569
 20
-4.686167517612359
 30
0.0
 41
1.0
 10
18.9334252530042
 20
-3.450927243328262
 30
0.0
 41
1.0
 10
19.25959625870278
 20
-2.570009448571869
 30
0.0
 41
1.0
 10
19.54707859847662
 20
-1.113052266108775
 30
0.0
 41
1.0
 10
19.59997187504207
 20
-0.5479974290265388
 30
0.0
 41
1.0
 10
19.59997187504207
 20
-0.0000292810421412
 30
0.0
 41
1.0
 10
19.59997187504207
 20
0.5479388669422584
 30
0.0
 41
1.0
 10
19.54707859847663
 20
1.112993704024491
 30
0.0
 41
1.0
 10
19.25959625870278
 20
2.569950886487585
 30
0.0
 41
1.0
 10
18.93342525300421
 20
3.450868681243977
 30
0.0
 41
1.0
 10
18.23443766458569
 20
4.686108955528077
 30
0.0
 41
1.0
 10
17.94906070343569
 20
5.099553222167396
 30
0.0
 41
1.0
 10
17.62991283454836
 20
5.485312239409167
 30
0.0
 41
1.0
  0
SPLINE
  5
14A
330
1F
100
AcDbEntity
  8
Sichtbar_schmal_(ISO)
  6
Continuous
 62
     7
100
AcDbSpline
210
0.0
220
0.0
230
1.0
 70
     8
 71
     3
 72
    19
 73
    15
 74
     0
 42
0.000000001
 43
0.0000000001
 40
0.0
 40
0.0
 40
0.0
 40
0.0
 40
0.0047006363609259
 40
0.0047006363609259
 40
0.1682030656870882
 40
0.1682030656870882
 40
0.1682030656870882
 40
0.3835578243631969
 40
0.3835578243631969
 40
0.605986968263899
 40
0.605986968263899
 40
0.8281306190893649
 40
0.8281306190893649
 40
1.0
 40
1.0
 40
1.0
 40
1.0
 10
36.24697187504208
 20
-0.0000292810421847
 30
0.0
 10
36.24697187504208
 20
0.016632811611506
 30
0.0
 10
36.24690300827787
 20
0.0332984568199502
 30
0.0
 10
36.24197130740691
 20
0.6297591600975033
 30
0.0
 10
36.15394534601279
 20
1.204250256439592
 30
0.0
 10
35.98603822125541
 20
1.757140385557388
 30
0.0
 10
35.76488188442822
 20
2.485371279870529
 30
0.0
 10
35.40916775164261
 20
3.16252385603517
 30
0.0
 10
34.45507869896769
 20
4.366854934281043
 30
0.0
 10
33.85565963865837
 20
4.880024463465331
 30
0.0
 10
32.49339126214052
 20
5.649540002783832
 30
0.0
 10
31.74276334501931
 20
5.899621799489496
 30
0.0
 10
30.35742175037476
 20
6.075534226574698
 30
0.0
 10
29.74702968773912
 20
6.06038951270832
 30
0.0
 10
29.14992134469033
 20
5.95510320142271
 30
0.0
  0
SPLINE
  5
14B
330
1F
100
AcDbEntity
  8
Sichtbar_schmal_(ISO)
  6
Continuous
 62
     7
100
AcDbSpline
210
0.0
220
0.0
230
1.0
 70
     8
 71
     3
 72
    24
 73
    20
 74
     0
 42
0.000000001
 43
0.0000000001
 40
0.0
 40
0.0
 40
0.0
 40
0.0
 40
0.0078021631925667
 40
0.0078021631925667
 40
0.1349429513763979
 40
0.1349429513763979
 40
0.262461003437222
 40
0.262461003437222
 40
0.3943547280001929
 40
0.3943547280001929
 40
0.5203505087726878
 40
0.5203505087726878
 40
0.64584269174172
 40
0.64584269174172
 40
0.7742830955970087
 40
0.7742830955970087
 40
0.90695685692377
 40
0.90695685692377
 40
1.0
 40
1.0
 40
1.0
 40
1.0
 10
24.24483939257816
 20
-1.050079811399177
 30
0.0
 10
24.25298934990919
 20
-1.096300516241092
 30
0.0
 10
24.26168204851661
 20
-1.142452635441359
 30
0.0
 10
24.42142120327742
 20
-1.939342473770816
 30
0.0
 10
24.71233225197971
 20
-2.651352230627674
 30
0.0
 10
25.54022285414698
 20
-3.928626148081008
 30
0.0
 10
26.07189508942849
 20
-4.483987391403866
 30
0.0
 10
27.33470892509446
 20
-5.383123368860401
 30
0.0
 10
28.06207125969784
 20
-5.711966355991153
 30
0.0
 10
29.57477855415739
 20
-6.06227620951115
 30
0.0
 10
30.33870882417769
 20
-6.092953099342319
 30
0.0
 10
31.83806213099167
 20
-5.869869787818221
 30
0.0
 10
32.55544107155571
 20
-5.619837602256807
 30
0.0
 10
33.87416709419588
 20
-4.863936640579356
 30
0.0
 10
34.4612930898783
 20
-4.358391595716089
 30
0.0
 10
35.42996231538294
 20
-3.13703072021543
 30
0.0
 10
35.79721274561432
 20
-2.423608400428214
 30
0.0
 10
36.16900067763672
 20
-1.118066460591353
 30
0.0
 10
36.24697187504208
 20
-0.56106171350004
 30
0.0
 10
36.24697187504208
 20
-0.0000292810421847
 30
0.0
  0
LINE
  5
14C
330
1F
100
AcDbEntity
  8
Verdeckt_(ISO)
  6
HIDDEN2
 62
     7
100
AcDbLine
 10
-41.400028125
 20
-6.047029281
 30
0.0
 11
-25.050028125
 21
-6.047029281
 31
0.0
  0
LINE
  5
14D
330
1F
100
AcDbEntity
  8
Verdeckt_(ISO)
  6
HIDDEN2
 62
     7
100
AcDbLine
 10
-25.050028125
 20
6.046970719
 30
0.0
 11
-41.400028125
 21
6.046970719
 31
0.0
  0
LINE
  5
14E
330
1F
100
AcDbEntity
  8
Verdeckt_(ISO)
  6
HIDDEN2
 62
     7
100
AcDbLine
 10
-25.050028125
 20
-6.047029281
 30
0.0
 11
-25.050028125
 21
6.046970719
 31
0.0
  0
LINE
  5
151
330
1F
100
AcDbEntity
  8
Mittellinie_(ISO)
  6
CENTER2
 62
     7
100
AcDbLine
 10
53.2448219103
 20
-0.000029281
 30
0.0
 11
-49.3896887507
 21
-0.000029281
 31
0.0
  0
LINE
  5
153
330
1F
100
AcDbEntity
  8
Mittelpunktmarkierung_(ISO)
  6
CENTER2
 62
     7
100
AcDbLine
 10
37.7999718799
 20
0.0001941962
 30
0.0
 11
22.6003309013
 21
0.0001941962
 31
0.0
  0
LINE
  5
154
330
1F
100
AcDbEntity
  8
Mittelpunktmarkierung_(ISO)
  6
CENTER2
 62
     7
100
AcDbLine
 10
30.2001513906
 20
7.6000146855
 30
0.0
 11
30.2001513906
 21
-7.5996262932
 31
0.0
  0
LINE
  5
155
330
1F
100
AcDbEntity
  8
Mittellinie_(ISO)
  6
CENTER2
 62
     7
100
AcDbLine
 10
13.599971875
 20
20.1661919897
 30
0.0
 11
13.599971875
 21
-20.4236770177
 31
0.0
  0
LINE
  5
157
330
1F
100
AcDbEntity
  8
Skizziergeometrie_(ISO)
  6
Continuous
 62
     7
100
AcDbLine
 10
-0.000028125
 20
15.924970719
 30
0.0
 11
-0.000028125
 21
15.824970719
 31
0.0
  0
CIRCLE
  5
159
330
1F
100
AcDbEntity
  8
_Konvertierung
  6
Continuous
 62
     7
100
AcDbCircle
 10
-0.000028125
 20
15.924970719
 30
0.0
 40
0.01
  0
CIRCLE
  5
15A
330
1F
100
AcDbEntity
  8
_Konvertierung
  6
Continuous
 62
     7
100
AcDbCircle
 10
-48.400028125
 20
7.9518275149
 30
0.0
 40
0.01
  0
CIRCLE
  5
15B
330
1F
100
AcDbEntity
  8
_Konvertierung
  6
Continuous
 62
     7
100
AcDbCircle
 10
3.199971875
 20
22.999970719
 30
0.0
 40
0.01
  0
CIRCLE
  5
15C
330
1F
100
AcDbEntity
  8
_Konvertierung
  6
Continuous
 62
     7
100
AcDbCircle
 10
3.199971875
 20
-23.000029281
 30
0.0
 40
0.01
  0
CIRCLE
  5
15D
330
1F
100
AcDbEntity
  8
_Konvertierung
  6
Continuous
 62
     7
100
AcDbCircle
 10
-0.000028125
 20
15.924970719
 30
0.0
 40
0.01
  0
CIRCLE
  5
15E
330
1F
100
AcDbEntity
  8
_Konvertierung
  6
Continuous
 62
     7
100
AcDbCircle
 10
21.999971875
 20
21.799970719
 30
0.0
 40
0.01
  0
CIRCLE
  5
15F
330
1F
100
AcDbEntity
  8
_Konvertierung
  6
Continuous
 62
     7
100
AcDbCircle
 10
-0.000028125
 20
15.924970719
 30
0.0
 40
0.01
  0
CIRCLE
  5
160
330
1F
100
AcDbEntity
  8
_Konvertierung
  6
Continuous
 62
     7
100
AcDbCircle
 10
51.999971875
 20
13.4758301973
 30
0.0
 40
0.01
  0
CIRCLE
  5
161
330
1F
100
AcDbEntity
  8
_Konvertierung
  6
Continuous
 62
     7
100
AcDbCircle
 10
38.6895410267
 20
20.749970719
 30
0.0
 40
0.01
  0
CIRCLE
  5
162
330
1F
100
AcDbEntity
  8
_Konvertierung
  6
Continuous
 62
     7
100
AcDbCircle
 10
38.6895410267
 20
-20.750029281
 30
0.0
 40
0.01
  0
CIRCLE
  5
163
330
1F
100
AcDbEntity
  8
_Konvertierung
  6
Continuous
 62
     7
100
AcDbCircle
 10
50.999971875
 20
5.999970719
 30
0.0
 40
0.01
  0
CIRCLE
  5
164
330
1F
100
AcDbEntity
  8
_Konvertierung
  6
Continuous
 62
     7
100
AcDbCircle
 10
50.999971875
 20
-6.000029281
 30
0.0
 40
0.01
  0
MTEXT
  5
166
330
1F
100
AcDbEntity
  8
6
100
AcDbMText
 10
-31.7893778127
 20
-38.2622232301
 30
0.0
 40
4.57
 41
76.2241609434
 46
7.6741609434
 71
     7
 72
     1
  1
{\fsimplex|b0||i0||c0|p34;\C7;\H4.57;\W0.94;BT 30 JD ISO 7388-2}
 73
     1
 44
1.0
1001
ACAD
1000
ACAD_MTEXT_DEFINED_HEIGHT_BEGIN
1070
    46
1040
7.6741609434
1000
ACAD_MTEXT_DEFINED_HEIGHT_END
  0
MTEXT
  5
167
330
1F
100
AcDbEntity
  8
6
100
AcDbMText
 10
-32.0326624567
 20
-57.9439656654
 30
0.0
 40
4.57
 41
46.5622741509
 46
7.6741609434
 71
     7
 72
     1
  1
{\fsimplex|b0||i0||c0|p34;\C7;\H4.57;\W0.94;BT 30-12-52}
 73
     1
 44
1.0
1001
ACAD
1000
ACAD_MTEXT_DEFINED_HEIGHT_BEGIN
1070
    46
1040
7.6741609434
1000
ACAD_MTEXT_DEFINED_HEIGHT_END
  0
DIMENSION
  5
17A
330
1F
100
AcDbEntity
  8
Bemaßung_(ISO)
  6
Continuous
 62
     7
100
AcDbDimension
  2
DMBLK25
 10
-48.400028125
 20
31.9249714789
 30
0.0
 11
-24.2000279938
 21
31.9249714789
 31
0.0
 70
   160
  1
\A1;<>
 71
     5
 42
-1.0
 73
     0
 74
     0
 75
     0
  3
Standard_(DIN)
100
AcDbAlignedDimension
 13
-0.000028125
 23
15.924970719
 33
0.0
 14
-48.400028125
 24
7.9518275149
 34
0.0
100
AcDbRotatedDimension
  0
DIMENSION
  5
184
330
1F
100
AcDbEntity
  8
Bemaßung_(ISO)
  6
Continuous
 62
     7
100
AcDbDimension
  2
DMBLK26
 10
-58.361552993
 20
22.999970719
 30
0.0
 11
-58.361552993
 21
-0.0000293257
 31
0.0
 70
   161
  1
\A1;n <>
 71
     5
 42
-1.0
 73
     0
 74
     0
 75
     0
  3
Standard_(DIN)
100
AcDbAlignedDimension
 13
3.199971875
 23
22.999970719
 33
0.0
 14
3.199971875
 24
-23.000029281
 34
0.0
1001
ACAD
1000
DSTYLE
1002
{
1070
   144
1041
1.0
1070
   271
1070
     0
1070
     0
1002
}
  0
DIMENSION
  5
18F
330
1F
100
AcDbEntity
  8
Bemaßung_(ISO)
  6
Continuous
 62
     7
100
AcDbDimension
  2
DMBLK27
 10
21.999971875
 20
31.9249714789
 30
0.0
 11
10.9999718154
 21
31.9249714789
 31
0.0
 70
   160
  1
\A1;<>
 71
     5
 42
-1.0
 73
     0
 74
     0
 75
     0
  3
Standard_(DIN)
100
AcDbAlignedDimension
 13
-0.000028125
 23
15.924970719
 33
0.0
 14
21.999971875
 24
21.799970719
 34
0.0
100
AcDbRotatedDimension
1001
ACAD
1000
DSTYLE
1002
{
1070
   144
1041
1.0
1070
   271
1070
     0
1070
     0
1002
}
  0
DIMENSION
  5
199
330
1F
100
AcDbEntity
  8
Bemaßung_(ISO)
  6
Continuous
 62
     7
100
AcDbDimension
  2
DMBLK28
 10
51.999971875
 20
42.5311393169
 30
0.0
 11
25.9999724115
 21
42.5311393169
 31
0.0
 70
   160
  1
\A1;<>
 71
     5
 42
-1.0
 73
     0
 74
     0
 75
     0
  3
Standard_(DIN)
100
AcDbAlignedDimension
 13
-0.000028125
 23
15.924970719
 33
0.0
 14
51.999971875
 24
13.4758301973
 34
0.0
100
AcDbRotatedDimension
1001
ACAD
1000
DSTYLE
1002
{
1070
   144
1041
1.0
1070
   271
1070
     0
1070
     0
1002
}
  0
DIMENSION
  5
1A3
330
1F
100
AcDbEntity
  8
Bemaßung_(ISO)
  6
Continuous
 62
     7
100
AcDbDimension
  2
DMBLK29
 10
76.433403745
 20
20.749970719
 30
0.0
 11
76.433403745
 21
-0.0000284913
 31
0.0
 70
   161
  1
\A1;n <>
 71
     5
 42
-1.0
 73
     0
 74
     0
 75
     0
  3
Standard_(DIN)
100
AcDbAlignedDimension
 13
38.6895410267
 23
20.749970719
 33
0.0
 14
38.6895410267
 24
-20.750029281
 34
0.0
1001
ACAD
1000
DSTYLE
1002
{
1070
   144
1041
1.0
1070
     0
1002
}
  0
DIMENSION
  5
1AE
330
1F
100
AcDbEntity
  8
Bemaßung_(ISO)
  6
Continuous
 62
     7
100
AcDbDimension
  2
DMBLK30
 10
64.4415550167
 20
5.999970719
 30
0.0
 11
64.4415550167
 21
-0.0000293332
 31
0.0
 70
   161
  1
\A1;n <>
 71
     5
 42
-1.0
 73
     0
 74
     0
 75
     0
  3
Standard_(DIN)
100
AcDbAlignedDimension
 13
50.999971875
 23
5.999970719
 33
0.0
 14
50.999971875
 24
-6.000029281
 34
0.0
1001
ACAD
1000
DSTYLE
1002
{
1070
   144
1041
1.0
1070
   271
1070
     0
1070
     0
1002
}
  0
ENDSEC
  0
SECTION
  2
OBJECTS
  0
DICTIONARY
  5
C
330
0
100
AcDbDictionary
281
     1
  3
ACAD_DETAILVIEWSTYLE
350
1F4
  3
ACAD_GROUP
350
D
  3
ACAD_LAYOUT
350
1A
  3
ACAD_MATERIAL
350
43
  3
ACAD_MLEADERSTYLE
350
6B
  3
ACAD_MLINESTYLE
350
17
  3
ACAD_PLOTSETTINGS
350
19
  3
ACAD_PLOTSTYLENAME
350
E
  3
ACAD_SCALELIST
350
47
  3
ACAD_SECTIONVIEWSTYLE
350
1F5
  3
ACAD_TABLESTYLE
350
69
  3
ACAD_VISUALSTYLE
350
2A
  3
ACDB_RECOMPOSE_DATA
350
1F1
  3
AcDbVariableDictionary
350
1B9
  0
SUN
  5
6D
330
29
100
AcDbSun
 90
        1
290
     0
 63
     7
421
 16777215
 40
1.0
291
     1
 91
  2455826
 92
 54000000
292
     0
 70
     2
 71
   256
280
     1
  0
DICTIONARY
  5
1F4
102
{ACAD_REACTORS
330
C
102
}
330
C
100
AcDbDictionary
281
     1
  0
DICTIONARY
  5
D
102
{ACAD_REACTORS
330
C
102
}
330
C
100
AcDbDictionary
281
     1
  0
DICTIONARY
  5
1A
102
{ACAD_REACTORS
330
C
102
}
330
C
100
AcDbDictionary
281
     1
  3
Layout1
350
1E
  3
Model
350
22
  0
DICTIONARY
  5
43
102
{ACAD_REACTORS
330
C
102
}
330
C
100
AcDbDictionary
281
     1
  3
ByBlock
350
45
  3
ByLayer
350
44
  3
Global
350
46
  0
DICTIONARY
  5
6B
102
{ACAD_REACTORS
330
C
102
}
330
C
100
AcDbDictionary
281
     1
  3
Standard
350
6C
  0
DICTIONARY
  5
17
102
{ACAD_REACTORS
330
C
102
}
330
C
100
AcDbDictionary
281
     1
  3
Standard
350
18
  0
DICTIONARY
  5
19
102
{ACAD_REACTORS
330
C
102
}
330
C
100
AcDbDictionary
281
     1
  0
ACDBDICTIONARYWDFLT
  5
E
102
{ACAD_REACTORS
330
C
102
}
330
C
100
AcDbDictionary
281
     1
  3
Normal
350
F
100
AcDbDictionaryWithDefault
340
F
  0
DICTIONARY
  5
47
102
{ACAD_REACTORS
330
C
102
}
330
C
100
AcDbDictionary
281
     1
  3
A0
350
48
  3
A1
350
49
  3
A2
350
4A
  3
A3
350
4B
  3
A4
350
4C
  3
A5
350
4D
  3
A6
350
4E
  3
A7
350
4F
  3
A8
350
50
  3
A9
350
51
  3
B0
350
52
  3
B1
350
53
  3
B2
350
54
  3
B3
350
55
  3
B4
350
56
  3
B5
350
57
  3
B6
350
58
  3
B7
350
59
  3
B8
350
5A
  3
B9
350
5B
  3
C0
350
5C
  3
C1
350
5D
  3
C2
350
5E
  3
C3
350
5F
  3
C4
350
60
  3
C5
350
61
  3
C6
350
62
  3
C7
350
63
  3
C8
350
64
  3
C9
350
65
  3
D0
350
66
  3
D1
350
67
  3
D2
350
68
  0
DICTIONARY
  5
1F5
102
{ACAD_REACTORS
330
C
102
}
330
C
100
AcDbDictionary
281
     1
  0
DICTIONARY
  5
69
102
{ACAD_REACTORS
330
C
102
}
330
C
100
AcDbDictionary
281
     1
  3
Standard
350
6A
  0
DICTIONARY
  5
2A
102
{ACAD_REACTORS
330
C
102
}
330
C
100
AcDbDictionary
281
     1
  3
2dWireframe
350
2F
  3
Basic
350
32
  3
Brighten
350
36
  3
ColorChange
350
3A
  3
Conceptual
350
34
  3
Dim
350
35
  3
EdgeColorOff
350
3D
  3
Facepattern
350
39
  3
Flat
350
2B
  3
FlatWithEdges
350
2C
  3
Gouraud
350
2D
  3
GouraudWithEdges
350
2E
  3
Hidden
350
31
  3
JitterOff
350
3B
  3
Linepattern
350
38
  3
OverhangOff
350
3C
  3
Realistic
350
33
  3
Shaded
350
42
  3
Shaded with edges
350
41
  3
Shades of Gray
350
3E
  3
Sketchy
350
3F
  3
Thicken
350
37
  3
Wireframe
350
30
  3
X-Ray
350
40
  0
XRECORD
  5
1F1
102
{ACAD_REACTORS
330
C
102
}
330
C
100
AcDbXrecord
280
     1
 90
        1
330
6A
  0
DICTIONARY
  5
1B9
102
{ACAD_REACTORS
330
C
102
}
330
C
100
AcDbDictionary
281
     1
  3
CANNOSCALE
350
1BA
  3
CENTEREXE
350
1F6
  3
CENTERLTYPEFILE
350
1F7
  3
CMLEADERSTYLE
350
1F3
  3
CTABLESTYLE
350
1F2
  3
XCLIPFRAME
350
1BB
  0
LAYOUT
  5
1E
102
{ACAD_REACTORS
330
1A
102
}
330
1A
100
AcDbPlotSettings
  1

  2
none_device
  4

  6

 40
0.0
 41
0.0
 42
0.0
 43
0.0
 44
0.0
 45
0.0
 46
0.0
 47
0.0
 48
0.0
 49
0.0
140
0.0
141
0.0
142
1.0
143
1.0
 70
   688
 72
     1
 73
     0
 74
     5
  7

 75
    16
 76
     0
 77
     2
 78
   300
147
1.0
148
0.0
149
0.0
100
AcDbLayout
  1
Layout1
 70
     1
 71
     1
 10
0.0
 20
0.0
 11
594.0
 21
420.0
 12
0.0
 22
0.0
 32
0.0
 14
0.0
 24
0.0
 34
0.0
 15
594.0
 25
420.0
 35
0.0
146
0.0
 13
0.0
 23
0.0
 33
0.0
 16
1.0
 26
0.0
 36
0.0
 17
0.0
 27
1.0
 37
0.0
 76
     0
330
1B
  0
LAYOUT
  5
22
102
{ACAD_REACTORS
330
1A
102
}
330
1A
100
AcDbPlotSettings
  1

  2
none_device
  4
Letter_(8.50_x_11.00_Inches)
  6

 40
6.35
 41
6.35
 42
6.35000508
 43
6.35000508
 44
215.9
 45
279.4
 46
0.0
 47
0.0
 48
0.0
 49
0.0
140
0.0
141
0.0
142
1.0
143
1.0
 70
  1712
 72
     1
 73
     0
 74
     0
  7

 75
     0
 76
     0
 77
     2
 78
   300
147
1.0
148
0.0
149
0.0
100
AcDbLayout
  1
Model
 70
     1
 71
     0
 10
0.0
 20
0.0
 11
594.0
 21
420.0
 12
0.0
 22
0.0
 32
0.0
 14
0.0
 24
0.0
 34
0.0
 15
594.0
 25
420.0
 35
0.0
146
0.0
 13
0.0
 23
0.0
 33
0.0
 16
1.0
 26
0.0
 36
0.0
 17
0.0
 27
1.0
 37
0.0
 76
     0
330
1F
331
29
  0
MATERIAL
  5
45
102
{ACAD_REACTORS
330
43
102
}
330
43
100
AcDbMaterial
  1
ByBlock
 72
     1
 94
      127
  0
MATERIAL
  5
44
102
{ACAD_REACTORS
330
43
102
}
330
43
100
AcDbMaterial
  1
ByLayer
 72
     1
 94
      127
  0
MATERIAL
  5
46
102
{ACAD_REACTORS
330
43
102
}
330
43
100
AcDbMaterial
  1
Global
 72
     1
 94
      127
  0
MLEADERSTYLE
  5
6C
102
{ACAD_REACTORS
330
6B
102
}
102
{ACAD_XDICTIONARY
360
1EF
102
}
330
6B
100
AcDbMLeaderStyle
170
     2
171
     1
172
     0
 90
        2
 40
0.0
 41
0.0
173
     1
 91
-1056964608
340
14
 92
       -2
290
     1
 42
2.0
291
     1
 43
8.0
  3
Standard
341
0
 44
4.0
300

342
11
174
     1
178
     6
175
     1
176
     0
 93
-1056964608
 45
4.0
292
     0
297
     0
 46
4.0
343
0
 94
-1056964608
 47
1.0
 49
1.0
140
1.0
293
     1
141
0.0
294
     1
177
     0
142
1.0
295
     0
296
     0
143
3.75
1001
ACAD_MLEADERVER
1070
     2
  0
MLINESTYLE
  5
18
102
{ACAD_REACTORS
330
17
102
}
330
17
100
AcDbMlineStyle
  2
Standard
 70
     0
  3

 62
   256
 51
90.0
 52
90.0
 71
     2
 49
0.5
 62
   256
  6
BYLAYER
 49
-0.5
 62
   256
  6
BYLAYER
  0
ACDBPLACEHOLDER
  5
F
102
{ACAD_REACTORS
330
E
102
}
330
E
  0
SCALE
  5
48
102
{ACAD_REACTORS
330
47
102
}
330
47
100
AcDbScale
 70
     0
300
1:1
140
1.0
141
1.0
290
     1
  0
SCALE
  5
49
102
{ACAD_REACTORS
330
47
102
}
330
47
100
AcDbScale
 70
     0
300
1:2
140
1.0
141
2.0
290
     0
  0
SCALE
  5
4A
102
{ACAD_REACTORS
330
47
102
}
330
47
100
AcDbScale
 70
     0
300
1:4
140
1.0
141
4.0
290
     0
  0
SCALE
  5
4B
102
{ACAD_REACTORS
330
47
102
}
330
47
100
AcDbScale
 70
     0
300
1:5
140
1.0
141
5.0
290
     0
  0
SCALE
  5
4C
102
{ACAD_REACTORS
330
47
102
}
330
47
100
AcDbScale
 70
     0
300
1:8
140
1.0
141
8.0
290
     0
  0
SCALE
  5
4D
102
{ACAD_REACTORS
330
47
102
}
330
47
100
AcDbScale
 70
     0
300
1:10
140
1.0
141
10.0
290
     0
  0
SCALE
  5
4E
102
{ACAD_REACTORS
330
47
102
}
330
47
100
AcDbScale
 70
     0
300
1:16
140
1.0
141
16.0
290
     0
  0
SCALE
  5
4F
102
{ACAD_REACTORS
330
47
102
}
330
47
100
AcDbScale
 70
     0
300
1:20
140
1.0
141
20.0
290
     0
  0
SCALE
  5
50
102
{ACAD_REACTORS
330
47
102
}
330
47
100
AcDbScale
 70
     0
300
1:30
140
1.0
141
30.0
290
     0
  0
SCALE
  5
51
102
{ACAD_REACTORS
330
47
102
}
330
47
100
AcDbScale
 70
     0
300
1:40
140
1.0
141
40.0
290
     0
  0
SCALE
  5
52
102
{ACAD_REACTORS
330
47
102
}
330
47
100
AcDbScale
 70
     0
300
1:50
140
1.0
141
50.0
290
     0
  0
SCALE
  5
53
102
{ACAD_REACTORS
330
47
102
}
330
47
100
AcDbScale
 70
     0
300
1:100
140
1.0
141
100.0
290
     0
  0
SCALE
  5
54
102
{ACAD_REACTORS
330
47
102
}
330
47
100
AcDbScale
 70
     0
300
2:1
140
2.0
141
1.0
290
     0
  0
SCALE
  5
55
102
{ACAD_REACTORS
330
47
102
}
330
47
100
AcDbScale
 70
     0
300
4:1
140
4.0
141
1.0
290
     0
  0
SCALE
  5
56
102
{ACAD_REACTORS
330
47
102
}
330
47
100
AcDbScale
 70
     0
300
8:1
140
8.0
141
1.0
290
     0
  0
SCALE
  5
57
102
{ACAD_REACTORS
330
47
102
}
330
47
100
AcDbScale
 70
     0
300
10:1
140
10.0
141
1.0
290
     0
  0
SCALE
  5
58
102
{ACAD_REACTORS
330
47
102
}
330
47
100
AcDbScale
 70
     0
300
100:1
140
100.0
141
1.0
290
     0
  0
SCALE
  5
59
102
{ACAD_REACTORS
330
47
102
}
330
47
100
AcDbScale
 70
     0
300
1/128" = 1'-0"
140
0.0078125
141
12.0
290
     0
  0
SCALE
  5
5A
102
{ACAD_REACTORS
330
47
102
}
330
47
100
AcDbScale
 70
     0
300
1/64" = 1'-0"
140
0.015625
141
12.0
290
     0
  0
SCALE
  5
5B
102
{ACAD_REACTORS
330
47
102
}
330
47
100
AcDbScale
 70
     0
300
1/32" = 1'-0"
140
0.03125
141
12.0
290
     0
  0
SCALE
  5
5C
102
{ACAD_REACTORS
330
47
102
}
330
47
100
AcDbScale
 70
     0
300
1/16" = 1'-0"
140
0.0625
141
12.0
290
     0
  0
SCALE
  5
5D
102
{ACAD_REACTORS
330
47
102
}
330
47
100
AcDbScale
 70
     0
300
3/32" = 1'-0"
140
0.09375
141
12.0
290
     0
  0
SCALE
  5
5E
102
{ACAD_REACTORS
330
47
102
}
330
47
100
AcDbScale
 70
     0
300
1/8" = 1'-0"
140
0.125
141
12.0
290
     0
  0
SCALE
  5
5F
102
{ACAD_REACTORS
330
47
102
}
330
47
100
AcDbScale
 70
     0
300
3/16" = 1'-0"
140
0.1875
141
12.0
290
     0
  0
SCALE
  5
60
102
{ACAD_REACTORS
330
47
102
}
330
47
100
AcDbScale
 70
     0
300
1/4" = 1'-0"
140
0.25
141
12.0
290
     0
  0
SCALE
  5
61
102
{ACAD_REACTORS
330
47
102
}
330
47
100
AcDbScale
 70
     0
300
3/8" = 1'-0"
140
0.375
141
12.0
290
     0
  0
SCALE
  5
62
102
{ACAD_REACTORS
330
47
102
}
330
47
100
AcDbScale
 70
     0
300
1/2" = 1'-0"
140
0.5
141
12.0
290
     0
  0
SCALE
  5
63
102
{ACAD_REACTORS
330
47
102
}
330
47
100
AcDbScale
 70
     0
300
3/4" = 1'-0"
140
0.75
141
12.0
290
     0
  0
SCALE
  5
64
102
{ACAD_REACTORS
330
47
102
}
330
47
100
AcDbScale
 70
     0
300
1" = 1'-0"
140
1.0
141
12.0
290
     0
  0
SCALE
  5
65
102
{ACAD_REACTORS
330
47
102
}
330
47
100
AcDbScale
 70
     0
300
1-1/2" = 1'-0"
140
1.5
141
12.0
290
     0
  0
SCALE
  5
66
102
{ACAD_REACTORS
330
47
102
}
330
47
100
AcDbScale
 70
     0
300
3" = 1'-0"
140
3.0
141
12.0
290
     0
  0
SCALE
  5
67
102
{ACAD_REACTORS
330
47
102
}
330
47
100
AcDbScale
 70
     0
300
6" = 1'-0"
140
6.0
141
12.0
290
     0
  0
SCALE
  5
68
102
{ACAD_REACTORS
330
47
102
}
330
47
100
AcDbScale
 70
     0
300
1'-0" = 1'-0"
140
12.0
141
12.0
290
     0
  0
TABLESTYLE
  5
6A
102
{ACAD_REACTORS
330
69
102
}
102
{ACAD_XDICTIONARY
360
1EC
102
}
330
69
100
AcDbTableStyle
  3
Standard
 70
     0
 71
     0
 40
0.06
 41
0.06
280
     0
281
     0
  7
Standard
140
4.5
170
     2
 62
     0
 63
   257
283
     0
 90
        4
 91
        0
  1

274
    -2
284
     1
 64
     0
275
    -2
285
     1
 65
     0
276
    -2
286
     1
 66
     0
277
    -2
287
     1
 67
     0
278
    -2
288
     1
 68
     0
279
    -2
289
     1
 69
     0
  7
Standard
140
6.0
170
     5
 62
     0
 63
   257
283
     0
 90
        4
 91
        0
  1

274
    -2
284
     1
 64
     0
275
    -2
285
     1
 65
     0
276
    -2
286
     1
 66
     0
277
    -2
287
     1
 67
     0
278
    -2
288
     1
 68
     0
279
    -2
289
     1
 69
     0
  7
Standard
140
4.5
170
     5
 62
     0
 63
   257
283
     0
 90
        4
 91
        0
  1

274
    -2
284
     1
 64
     0
275
    -2
285
     1
 65
     0
276
    -2
286
     1
 66
     0
277
    -2
287
     1
 67
     0
278
    -2
288
     1
 68
     0
279
    -2
289
     1
 69
     0
  0
VISUALSTYLE
  5
2F
102
{ACAD_REACTORS
330
2A
102
}
102
{ACAD_XDICTIONARY
360
1C4
102
}
330
2A
100
AcDbVisualStyle
  2
2dWireframe
 70
     4
 71
     0
 72
     2
 73
     0
 90
        0
 40
0.6
 41
30.0
 62
     5
 63
     7
421
 16777215
 74
     1
 91
        4
 64
     7
 65
   257
 75
     1
175
     1
 42
1.0
 92
        0
 66
   257
 43
1.0
 76
     1
 77
     6
 78
     2
 67
     7
 79
     5
170
     0
171
     0
290
     0
174
     0
 93
        1
 44
0.0
173
     0
291
     0
 45
0.0
  0
VISUALSTYLE
  5
32
102
{ACAD_REACTORS
330
2A
102
}
102
{ACAD_XDICTIONARY
360
1CA
102
}
330
2A
100
AcDbVisualStyle
  2
Basic
 70
     7
 71
     1
 72
     0
 73
     1
 90
        0
 40
0.6
 41
30.0
 62
     5
 63
     7
421
 16777215
 74
     0
 91
        4
 64
     7
 65
   257
 75
     1
175
     1
 42
1.0
 92
        8
 66
     7
 43
1.0
 76
     1
 77
     6
 78
     2
 67
     7
 79
     5
170
     0
171
     0
290
     0
174
     0
 93
        1
 44
0.0
173
     0
291
     1
 45
0.0
  0
VISUALSTYLE
  5
36
102
{ACAD_REACTORS
330
2A
102
}
102
{ACAD_XDICTIONARY
360
1D2
102
}
330
2A
100
AcDbVisualStyle
  2
Brighten
 70
    12
 71
     2
 72
     2
 73
     0
 90
        0
 40
0.6
 41
30.0
 62
     5
 63
     7
421
 16777215
 74
     1
 91
        4
 64
     7
 65
   257
 75
     1
175
     1
 42
1.0
 92
        8
 66
     7
 43
1.0
 76
     1
 77
     6
 78
     2
 67
     7
 79
     5
170
     0
171
     0
290
     0
174
     0
 93
        1
 44
50.0
173
     0
291
     1
 45
0.0
  0
VISUALSTYLE
  5
3A
102
{ACAD_REACTORS
330
2A
102
}
102
{ACAD_XDICTIONARY
360
1DA
102
}
330
2A
100
AcDbVisualStyle
  2
ColorChange
 70
    16
 71
     2
 72
     2
 73
     3
 90
        0
 40
0.6
 41
30.0
 62
     5
 63
     8
421
  8421504
 74
     1
 91
        4
 64
     7
 65
   257
 75
     1
175
     1
 42
1.0
 92
        8
 66
     8
424
  8421504
 43
1.0
 76
     1
 77
     6
 78
     2
 67
     7
 79
     5
170
     0
171
     0
290
     0
174
     0
 93
        1
 44
0.0
173
     0
291
     1
 45
0.0
  0
VISUALSTYLE
  5
34
102
{ACAD_REACTORS
330
2A
102
}
102
{ACAD_XDICTIONARY
360
1CE
102
}
330
2A
100
AcDbVisualStyle
  2
Conceptual
 70
     9
 71
     3
 72
     2
 73
     0
 90
        0
 40
0.6
 41
30.0
 62
     5
 63
     7
421
 16777215
 74
     2
 91
        2
 64
     7
 65
   257
 75
     1
175
     1
 42
179.0
 92
        8
 66
     7
 43
1.0
 76
     1
 77
     6
 78
     2
 67
     7
 79
     3
170
     0
171
     0
290
     0
174
     0
 93
        1
 44
0.0
173
     0
291
     0
 45
0.0
  0
VISUALSTYLE
  5
35
102
{ACAD_REACTORS
330
2A
102
}
102
{ACAD_XDICTIONARY
360
1D0
102
}
330
2A
100
AcDbVisualStyle
  2
Dim
 70
    11
 71
     2
 72
     2
 73
     0
 90
        0
 40
0.6
 41
30.0
 62
     5
 63
     7
421
 16777215
 74
     1
 91
        4
 64
     7
 65
   257
 75
     1
175
     1
 42
1.0
 92
        8
 66
     7
 43
1.0
 76
     1
 77
     6
 78
     2
 67
     7
 79
     5
170
     0
171
     0
290
     0
174
     0
 93
        1
 44
-50.0
173
     0
291
     1
 45
0.0
  0
VISUALSTYLE
  5
3D
102
{ACAD_REACTORS
330
2A
102
}
102
{ACAD_XDICTIONARY
360
1E0
102
}
330
2A
100
AcDbVisualStyle
  2
EdgeColorOff
 70
    22
 71
     2
 72
     2
 73
     0
 90
        0
 40
0.6
 41
30.0
 62
     5
 63
     7
421
 16777215
 74
     1
 91
        4
 64
     7
 65
   257
 75
     1
175
     1
 42
1.0
 92
        8
 66
     7
 43
1.0
 76
     1
 77
     6
 78
     2
 67
     7
 79
     5
170
     0
171
     0
290
     0
174
     0
 93
        1
 44
0.0
173
     0
291
     1
 45
0.0
  0
VISUALSTYLE
  5
39
102
{ACAD_REACTORS
330
2A
102
}
102
{ACAD_XDICTIONARY
360
1D8
102
}
330
2A
100
AcDbVisualStyle
  2
Facepattern
 70
    15
 71
     2
 72
     2
 73
     0
 90
        0
 40
0.6
 41
30.0
 62
     5
 63
     7
421
 16777215
 74
     1
 91
        4
 64
     7
 65
   257
 75
     1
175
     1
 42
1.0
 92
        8
 66
     7
 43
1.0
 76
     1
 77
     6
 78
     2
 67
     7
 79
     5
170
     0
171
     0
290
     0
174
     0
 93
        1
 44
0.0
173
     0
291
     1
 45
0.0
  0
VISUALSTYLE
  5
2B
102
{ACAD_REACTORS
330
2A
102
}
102
{ACAD_XDICTIONARY
360
1BC
102
}
330
2A
100
AcDbVisualStyle
  2
Flat
 70
     0
 71
     2
 72
     1
 73
     1
 90
        2
 40
0.6
 41
30.0
 62
     5
 63
     7
421
 16777215
 74
     0
 91
        0
 64
     7
 65
   257
 75
     1
175
     1
 42
1.0
 92
        8
 66
     7
 43
1.0
 76
     1
 77
     6
 78
     2
 67
     7
 79
     5
170
     0
171
     0
290
     0
174
     0
 93
       13
 44
0.0
173
     0
291
     1
 45
0.0
  0
VISUALSTYLE
  5
2C
102
{ACAD_REACTORS
330
2A
102
}
102
{ACAD_XDICTIONARY
360
1BE
102
}
330
2A
100
AcDbVisualStyle
  2
FlatWithEdges
 70
     1
 71
     2
 72
     1
 73
     1
 90
        2
 40
0.6
 41
30.0
 62
     5
 63
     7
421
 16777215
 74
     1
 91
        0
 64
     7
 65
   257
 75
     1
175
     1
 42
1.0
 92
        0
 66
   257
 43
1.0
 76
     1
 77
     6
 78
     2
 67
     7
 79
     5
170
     0
171
     0
290
     0
174
     0
 93
       13
 44
0.0
173
     0
291
     1
 45
0.0
  0
VISUALSTYLE
  5
2D
102
{ACAD_REACTORS
330
2A
102
}
102
{ACAD_XDICTIONARY
360
1C0
102
}
330
2A
100
AcDbVisualStyle
  2
Gouraud
 70
     2
 71
     2
 72
     2
 73
     1
 90
        2
 40
0.6
 41
30.0
 62
     5
 63
     7
421
 16777215
 74
     0
 91
        0
 64
     7
 65
   257
 75
     1
175
     1
 42
1.0
 92
        0
 66
     7
 43
1.0
 76
     1
 77
     6
 78
     2
 67
     7
 79
     5
170
     0
171
     0
290
     0
174
     0
 93
       13
 44
0.0
173
     0
291
     1
 45
0.0
  0
VISUALSTYLE
  5
2E
102
{ACAD_REACTORS
330
2A
102
}
102
{ACAD_XDICTIONARY
360
1C2
102
}
330
2A
100
AcDbVisualStyle
  2
GouraudWithEdges
 70
     3
 71
     2
 72
     2
 73
     1
 90
        2
 40
0.6
 41
30.0
 62
     5
 63
     7
421
 16777215
 74
     1
 91
        0
 64
     7
 65
   257
 75
     1
175
     1
 42
1.0
 92
        0
 66
   257
 43
1.0
 76
     1
 77
     6
 78
     2
 67
     7
 79
     5
170
     0
171
     0
290
     0
174
     0
 93
       13
 44
0.0
173
     0
291
     1
 45
0.0
  0
VISUALSTYLE
  5
31
102
{ACAD_REACTORS
330
2A
102
}
102
{ACAD_XDICTIONARY
360
1C8
102
}
330
2A
100
AcDbVisualStyle
  2
Hidden
 70
     6
 71
     1
 72
     2
 73
     2
 90
        0
 40
0.6
 41
30.0
 62
     5
 63
     7
421
 16777215
 74
     2
 91
        2
 64
     7
 65
   257
 75
     2
175
     1
 42
40.0
 92
        0
 66
   257
 43
1.0
 76
     1
 77
     6
 78
     2
 67
     7
 79
     3
170
     0
171
     0
290
     0
174
     0
 93
        1
 44
0.0
173
     0
291
     0
 45
0.0
  0
VISUALSTYLE
  5
3B
102
{ACAD_REACTORS
330
2A
102
}
102
{ACAD_XDICTIONARY
360
1DC
102
}
330
2A
100
AcDbVisualStyle
  2
JitterOff
 70
    20
 71
     2
 72
     2
 73
     0
 90
        0
 40
0.6
 41
30.0
 62
     5
 63
     7
421
 16777215
 74
     1
 91
        4
 64
     7
 65
   257
 75
     1
175
     1
 42
1.0
 92
       10
 66
     7
 43
1.0
 76
     1
 77
     6
 78
     2
 67
     7
 79
     5
170
     0
171
     0
290
     0
174
     0
 93
        1
 44
0.0
173
     0
291
     1
 45
0.0
  0
VISUALSTYLE
  5
38
102
{ACAD_REACTORS
330
2A
102
}
102
{ACAD_XDICTIONARY
360
1D6
102
}
330
2A
100
AcDbVisualStyle
  2
Linepattern
 70
    14
 71
     2
 72
     2
 73
     0
 90
        0
 40
0.6
 41
30.0
 62
     5
 63
     7
421
 16777215
 74
     1
 91
        4
 64
     7
 65
   257
 75
     7
175
     7
 42
1.0
 92
        8
 66
     7
 43
1.0
 76
     1
 77
     6
 78
     2
 67
     7
 79
     5
170
     0
171
     0
290
     0
174
     0
 93
        1
 44
0.0
173
     0
291
     1
 45
0.0
  0
VISUALSTYLE
  5
3C
102
{ACAD_REACTORS
330
2A
102
}
102
{ACAD_XDICTIONARY
360
1DE
102
}
330
2A
100
AcDbVisualStyle
  2
OverhangOff
 70
    21
 71
     2
 72
     2
 73
     0
 90
        0
 40
0.6
 41
30.0
 62
     5
 63
     7
421
 16777215
 74
     1
 91
        4
 64
     7
 65
   257
 75
     1
175
     1
 42
1.0
 92
        9
 66
     7
 43
1.0
 76
     1
 77
     6
 78
     2
 67
     7
 79
     5
170
     0
171
     0
290
     0
174
     0
 93
        1
 44
0.0
173
     0
291
     1
 45
0.0
  0
VISUALSTYLE
  5
33
102
{ACAD_REACTORS
330
2A
102
}
102
{ACAD_XDICTIONARY
360
1CC
102
}
330
2A
100
AcDbVisualStyle
  2
Realistic
 70
     8
 71
     2
 72
     3
 73
     0
 90
        2
 40
0.6
 41
30.0
 62
     5
 63
     7
421
 16777215
 74
     0
 91
        0
 64
     7
 65
   257
 75
     1
175
     1
 42
1.0
 92
        8
 66
   257
 43
1.0
 76
     1
 77
     6
 78
     2
 67
     7
 79
     3
170
     0
171
     0
290
     0
174
     0
 93
       13
 44
0.0
173
     0
291
     0
 45
0.0
  0
VISUALSTYLE
  5
42
102
{ACAD_REACTORS
330
2A
102
}
102
{ACAD_XDICTIONARY
360
1EA
102
}
330
2A
100
AcDbVisualStyle
  2
Shaded
 70
    27
 71
     2
 72
     2
 73
     1
 90
        2
 40
0.6
 41
30.0
 62
     5
 63
     7
421
 16777215
 74
     0
 91
        4
 64
     7
 65
   257
 75
     1
175
     1
 42
1.0
 92
        8
 66
   257
 43
1.0
 76
     1
 77
     6
 78
     2
 67
     8
425
  7895160
 79
     3
170
     0
171
     0
290
     0
174
     0
 93
        5
 44
0.0
173
     0
291
     0
 45
0.0
  0
VISUALSTYLE
  5
41
102
{ACAD_REACTORS
330
2A
102
}
102
{ACAD_XDICTIONARY
360
1E8
102
}
330
2A
100
AcDbVisualStyle
  2
Shaded with edges
 70
    26
 71
     2
 72
     2
 73
     1
 90
        2
 40
0.6
 41
30.0
 62
     5
 63
     7
421
 16777215
 74
     1
 91
       10
 64
     7
 65
   257
 75
     2
175
     1
 42
1.0
 92
        8
 66
   257
 43
1.0
 76
     1
 77
     6
 78
     2
 67
     7
 79
     3
170
     0
171
     0
290
     0
174
     0
 93
        5
 44
0.0
173
     0
291
     0
 45
0.0
  0
VISUALSTYLE
  5
3E
102
{ACAD_REACTORS
330
2A
102
}
102
{ACAD_XDICTIONARY
360
1E2
102
}
330
2A
100
AcDbVisualStyle
  2
Shades of Gray
 70
    23
 71
     2
 72
     2
 73
     3
 90
        0
 40
0.6
 41
30.0
 62
     5
 63
     7
421
 16777215
 74
     2
 91
        2
 64
     7
 65
     7
 75
     1
175
     1
 42
40.0
 92
        8
 66
     7
 43
1.0
 76
     1
 77
     6
 78
     2
 67
     7
 79
     3
170
     0
171
     0
290
     0
174
     0
 93
        1
 44
0.0
173
     0
291
     0
 45
0.0
  0
VISUALSTYLE
  5
3F
102
{ACAD_REACTORS
330
2A
102
}
102
{ACAD_XDICTIONARY
360
1E4
102
}
330
2A
100
AcDbVisualStyle
  2
Sketchy
 70
    24
 71
     1
 72
     2
 73
     2
 90
        0
 40
0.6
 41
30.0
 62
     5
 63
     7
421
 16777215
 74
     2
 91
        2
 64
     7
 65
     7
 75
     1
175
     1
 42
40.0
 92
       11
 66
     7
 43
1.0
 76
     1
 77
     6
 78
     2
 67
     7
 79
     6
170
     0
171
     0
290
     0
174
     0
 93
        1
 44
0.0
173
     0
291
     0
 45
0.0
  0
VISUALSTYLE
  5
37
102
{ACAD_REACTORS
330
2A
102
}
102
{ACAD_XDICTIONARY
360
1D4
102
}
330
2A
100
AcDbVisualStyle
  2
Thicken
 70
    13
 71
     2
 72
     2
 73
     0
 90
        0
 40
0.6
 41
30.0
 62
     5
 63
     7
421
 16777215
 74
     1
 91
        4
 64
     7
 65
   257
 75
     1
175
     1
 42
1.0
 92
       12
 66
     7
 43
1.0
 76
     1
 77
     6
 78
     2
 67
     7
 79
     5
170
     0
171
     0
290
     0
174
     0
 93
        1
 44
0.0
173
     0
291
     1
 45
0.0
  0
VISUALSTYLE
  5
30
102
{ACAD_REACTORS
330
2A
102
}
102
{ACAD_XDICTIONARY
360
1C6
102
}
330
2A
100
AcDbVisualStyle
  2
Wireframe
 70
     5
 71
     0
 72
     2
 73
     0
 90
        0
 40
0.6
 41
30.0
 62
     5
 63
     7
421
 16777215
 74
     1
 91
        4
 64
     7
 65
   257
 75
     1
175
     1
 42
1.0
 92
        0
 66
   257
 43
1.0
 76
     1
 77
     6
 78
     2
 67
     7
 79
     3
170
     0
171
     0
290
     0
174
     0
 93
        1
 44
0.0
173
     0
291
     0
 45
0.0
  0
VISUALSTYLE
  5
40
102
{ACAD_REACTORS
330
2A
102
}
102
{ACAD_XDICTIONARY
360
1E6
102
}
330
2A
100
AcDbVisualStyle
  2
X-Ray
 70
    25
 71
     2
 72
     2
 73
     1
 90
        1
 40
0.5
 41
30.0
 62
     5
 63
     7
421
 16777215
 74
     1
 91
        0
 64
     7
 65
   257
 75
     1
175
     1
 42
1.0
 92
        8
 66
     7
 43
1.0
 76
     1
 77
     6
 78
     2
 67
     7
 79
     3
170
     0
171
     0
290
     0
174
     0
 93
       13
 44
0.0
173
     0
291
     0
 45
0.0
  0
DICTIONARYVAR
  5
1BA
102
{ACAD_REACTORS
330
1B9
102
}
330
1B9
100
DictionaryVariables
280
     0
  1
1:1
  0
DICTIONARYVAR
  5
1F6
102
{ACAD_REACTORS
330
1B9
102
}
330
1B9
100
DictionaryVariables
280
     0
  1
3.500000
  0
DICTIONARYVAR
  5
1F7
102
{ACAD_REACTORS
330
1B9
102
}
330
1B9
100
DictionaryVariables
280
     0
  1
acadiso.lin
  0
DICTIONARYVAR
  5
1F3
102
{ACAD_REACTORS
330
1B9
102
}
330
1B9
100
DictionaryVariables
280
     0
  1
Standard
  0
DICTIONARYVAR
  5
1F2
102
{ACAD_REACTORS
330
1B9
102
}
330
1B9
100
DictionaryVariables
280
     0
  1
Standard
  0
DICTIONARYVAR
  5
1BB
102
{ACAD_REACTORS
330
1B9
102
}
330
1B9
100
DictionaryVariables
280
     0
  1
2
  0
DICTIONARY
  5
1EF
330
6C
100
AcDbDictionary
280
     1
281
     1
  3
ACAD_XREC_ROUNDTRIP
360
1F0
  0
DICTIONARY
  5
1EC
330
6A
100
AcDbDictionary
280
     1
281
     1
  3
ACAD_ROUNDTRIP_2008_TABLESTYLE_CELLSTYLEMAP
360
1ED
  0
DICTIONARY
  5
1C4
330
2F
100
AcDbDictionary
280
     1
281
     1
  3
ACAD_XREC_ROUNDTRIP
360
1C5
  0
DICTIONARY
  5
1CA
330
32
100
AcDbDictionary
280
     1
281
     1
  3
ACAD_XREC_ROUNDTRIP
360
1CB
  0
DICTIONARY
  5
1D2
330
36
100
AcDbDictionary
280
     1
281
     1
  3
ACAD_XREC_ROUNDTRIP
360
1D3
  0
DICTIONARY
  5
1DA
330
3A
100
AcDbDictionary
280
     1
281
     1
  3
ACAD_XREC_ROUNDTRIP
360
1DB
  0
DICTIONARY
  5
1CE
330
34
100
AcDbDictionary
280
     1
281
     1
  3
ACAD_XREC_ROUNDTRIP
360
1CF
  0
DICTIONARY
  5
1D0
330
35
100
AcDbDictionary
280
     1
281
     1
  3
ACAD_XREC_ROUNDTRIP
360
1D1
  0
DICTIONARY
  5
1E0
330
3D
100
AcDbDictionary
280
     1
281
     1
  3
ACAD_XREC_ROUNDTRIP
360
1E1
  0
DICTIONARY
  5
1D8
330
39
100
AcDbDictionary
280
     1
281
     1
  3
ACAD_XREC_ROUNDTRIP
360
1D9
  0
DICTIONARY
  5
1BC
330
2B
100
AcDbDictionary
280
     1
281
     1
  3
ACAD_XREC_ROUNDTRIP
360
1BD
  0
DICTIONARY
  5
1BE
330
2C
100
AcDbDictionary
280
     1
281
     1
  3
ACAD_XREC_ROUNDTRIP
360
1BF
  0
DICTIONARY
  5
1C0
330
2D
100
AcDbDictionary
280
     1
281
     1
  3
ACAD_XREC_ROUNDTRIP
360
1C1
  0
DICTIONARY
  5
1C2
330
2E
100
AcDbDictionary
280
     1
281
     1
  3
ACAD_XREC_ROUNDTRIP
360
1C3
  0
DICTIONARY
  5
1C8
330
31
100
AcDbDictionary
280
     1
281
     1
  3
ACAD_XREC_ROUNDTRIP
360
1C9
  0
DICTIONARY
  5
1DC
330
3B
100
AcDbDictionary
280
     1
281
     1
  3
ACAD_XREC_ROUNDTRIP
360
1DD
  0
DICTIONARY
  5
1D6
330
38
100
AcDbDictionary
280
     1
281
     1
  3
ACAD_XREC_ROUNDTRIP
360
1D7
  0
DICTIONARY
  5
1DE
330
3C
100
AcDbDictionary
280
     1
281
     1
  3
ACAD_XREC_ROUNDTRIP
360
1DF
  0
DICTIONARY
  5
1CC
330
33
100
AcDbDictionary
280
     1
281
     1
  3
ACAD_XREC_ROUNDTRIP
360
1CD
  0
DICTIONARY
  5
1EA
330
42
100
AcDbDictionary
280
     1
281
     1
  3
ACAD_XREC_ROUNDTRIP
360
1EB
  0
DICTIONARY
  5
1E8
330
41
100
AcDbDictionary
280
     1
281
     1
  3
ACAD_XREC_ROUNDTRIP
360
1E9
  0
DICTIONARY
  5
1E2
330
3E
100
AcDbDictionary
280
     1
281
     1
  3
ACAD_XREC_ROUNDTRIP
360
1E3
  0
DICTIONARY
  5
1E4
330
3F
100
AcDbDictionary
280
     1
281
     1
  3
ACAD_XREC_ROUNDTRIP
360
1E5
  0
DICTIONARY
  5
1D4
330
37
100
AcDbDictionary
280
     1
281
     1
  3
ACAD_XREC_ROUNDTRIP
360
1D5
  0
DICTIONARY
  5
1C6
330
30
100
AcDbDictionary
280
     1
281
     1
  3
ACAD_XREC_ROUNDTRIP
360
1C7
  0
DICTIONARY
  5
1E6
330
40
100
AcDbDictionary
280
     1
281
     1
  3
ACAD_XREC_ROUNDTRIP
360
1E7
  0
XRECORD
  5
1F0
102
{ACAD_REACTORS
330
1EF
102
}
330
1EF
100
AcDbXrecord
280
     1
102
ACAD_ROUNDTRIP_2010_MLEADER_STYLE
  0
CELLSTYLEMAP
  5
1ED
102
{ACAD_REACTORS
330
1EC
102
}
330
1EC
100
AcDbCellStyleMap
 90
        3
300
CELLSTYLE
  1
TABLEFORMAT_BEGIN
 90
        5
170
     1
 91
        0
 92
    32768
 62
   257
 93
        1
300
CONTENTFORMAT
  1
CONTENTFORMAT_BEGIN
 90
        0
 91
        0
 92
        4
 93
        0
300

 40
0.0
140
1.0
 94
        5
 62
     0
340
11
144
6.0
309
CONTENTFORMAT_END
171
     1
301
MARGIN
  1
CELLMARGIN_BEGIN
 40
1.5
 40
1.5
 40
1.5
 40
1.5
 40
1.5
 40
1.5
309
CELLMARGIN_END
 94
        6
 95
        1
302
GRIDFORMAT
  1
GRIDFORMAT_BEGIN
 90
        0
 91
        1
 62
     0
 92
       -2
340
14
 93
        0
 40
0.045
309
GRIDFORMAT_END
 95
        2
302
GRIDFORMAT
  1
GRIDFORMAT_BEGIN
 90
        0
 91
        1
 62
     0
 92
       -2
340
14
 93
        0
 40
0.045
309
GRIDFORMAT_END
 95
        4
302
GRIDFORMAT
  1
GRIDFORMAT_BEGIN
 90
        0
 91
        1
 62
     0
 92
       -2
340
14
 93
        0
 40
0.045
309
GRIDFORMAT_END
 95
        8
302
GRIDFORMAT
  1
GRIDFORMAT_BEGIN
 90
        0
 91
        1
 62
     0
 92
       -2
340
14
 93
        0
 40
0.045
309
GRIDFORMAT_END
 95
       16
302
GRIDFORMAT
  1
GRIDFORMAT_BEGIN
 90
        0
 91
        1
 62
     0
 92
       -2
340
14
 93
        0
 40
0.045
309
GRIDFORMAT_END
 95
       32
302
GRIDFORMAT
  1
GRIDFORMAT_BEGIN
 90
        0
 91
        1
 62
     0
 92
       -2
340
14
 93
        0
 40
0.045
309
GRIDFORMAT_END
309
TABLEFORMAT_END
  1
CELLSTYLE_BEGIN
 90
        1
 91
        1
300
_TITLE
309
CELLSTYLE_END
300
CELLSTYLE
  1
TABLEFORMAT_BEGIN
 90
        5
170
     1
 91
        0
 92
        0
 62
   257
 93
        1
300
CONTENTFORMAT
  1
CONTENTFORMAT_BEGIN
 90
        0
 91
        0
 92
        4
 93
        0
300

 40
0.0
140
1.0
 94
        5
 62
     0
340
11
144
4.5
309
CONTENTFORMAT_END
171
     1
301
MARGIN
  1
CELLMARGIN_BEGIN
 40
1.5
 40
1.5
 40
1.5
 40
1.5
 40
1.5
 40
1.5
309
CELLMARGIN_END
 94
        6
 95
        1
302
GRIDFORMAT
  1
GRIDFORMAT_BEGIN
 90
        0
 91
        1
 62
     0
 92
       -2
340
14
 93
        0
 40
0.045
309
GRIDFORMAT_END
 95
        2
302
GRIDFORMAT
  1
GRIDFORMAT_BEGIN
 90
        0
 91
        1
 62
     0
 92
       -2
340
14
 93
        0
 40
0.045
309
GRIDFORMAT_END
 95
        4
302
GRIDFORMAT
  1
GRIDFORMAT_BEGIN
 90
        0
 91
        1
 62
     0
 92
       -2
340
14
 93
        0
 40
0.045
309
GRIDFORMAT_END
 95
        8
302
GRIDFORMAT
  1
GRIDFORMAT_BEGIN
 90
        0
 91
        1
 62
     0
 92
       -2
340
14
 93
        0
 40
0.045
309
GRIDFORMAT_END
 95
       16
302
GRIDFORMAT
  1
GRIDFORMAT_BEGIN
 90
        0
 91
        1
 62
     0
 92
       -2
340
14
 93
        0
 40
0.045
309
GRIDFORMAT_END
 95
       32
302
GRIDFORMAT
  1
GRIDFORMAT_BEGIN
 90
        0
 91
        1
 62
     0
 92
       -2
340
14
 93
        0
 40
0.045
309
GRIDFORMAT_END
309
TABLEFORMAT_END
  1
CELLSTYLE_BEGIN
 90
        2
 91
        1
300
_HEADER
309
CELLSTYLE_END
300
CELLSTYLE
  1
TABLEFORMAT_BEGIN
 90
        5
170
     1
 91
        0
 92
        0
 62
   257
 93
        1
300
CONTENTFORMAT
  1
CONTENTFORMAT_BEGIN
 90
        0
 91
        0
 92
        4
 93
        0
300

 40
0.0
140
1.0
 94
        2
 62
     0
340
11
144
4.5
309
CONTENTFORMAT_END
171
     1
301
MARGIN
  1
CELLMARGIN_BEGIN
 40
1.5
 40
1.5
 40
1.5
 40
1.5
 40
1.5
 40
1.5
309
CELLMARGIN_END
 94
        6
 95
        1
302
GRIDFORMAT
  1
GRIDFORMAT_BEGIN
 90
        0
 91
        1
 62
     0
 92
       -2
340
14
 93
        0
 40
0.045
309
GRIDFORMAT_END
 95
        2
302
GRIDFORMAT
  1
GRIDFORMAT_BEGIN
 90
        0
 91
        1
 62
     0
 92
       -2
340
14
 93
        0
 40
0.045
309
GRIDFORMAT_END
 95
        4
302
GRIDFORMAT
  1
GRIDFORMAT_BEGIN
 90
        0
 91
        1
 62
     0
 92
       -2
340
14
 93
        0
 40
0.045
309
GRIDFORMAT_END
 95
        8
302
GRIDFORMAT
  1
GRIDFORMAT_BEGIN
 90
        0
 91
        1
 62
     0
 92
       -2
340
14
 93
        0
 40
0.045
309
GRIDFORMAT_END
 95
       16
302
GRIDFORMAT
  1
GRIDFORMAT_BEGIN
 90
        0
 91
        1
 62
     0
 92
       -2
340
14
 93
        0
 40
0.045
309
GRIDFORMAT_END
 95
       32
302
GRIDFORMAT
  1
GRIDFORMAT_BEGIN
 90
        0
 91
        1
 62
     0
 92
       -2
340
14
 93
        0
 40
0.045
309
GRIDFORMAT_END
309
TABLEFORMAT_END
  1
CELLSTYLE_BEGIN
 90
        3
 91
        2
300
_DATA
309
CELLSTYLE_END
  0
XRECORD
  5
1C5
102
{ACAD_REACTORS
330
1C4
102
}
330
1C4
100
AcDbXrecord
280
     1
102
RTVSPropertyOp0
 70
     1
102
RTVSPropertyOp1
 70
     1
102
RTVSPropertyOp2
 70
     1
102
RTVSPropertyOp3
 70
     1
102
RTVSPropertyOp4
 70
     1
102
RTVSPropertyOp5
 70
     1
102
RTVSPropertyOp6
 70
     1
102
RTVSPropertyOp7
 70
     1
102
RTVSPropertyOp8
 70
     1
102
RTVSPropertyOp9
 70
     1
102
RTVSPropertyOp10
 70
     1
102
RTVSPropertyOp11
 70
     1
102
RTVSPropertyOp12
 70
     1
102
RTVSPropertyOp13
 70
     1
102
RTVSPropertyOp14
 70
     1
102
RTVSPropertyOp15
 70
     1
102
RTVSPropertyOp16
 70
     1
102
RTVSPropertyOp17
 70
     1
102
RTVSPropertyOp18
 70
     1
102
RTVSPropertyOp19
 70
     1
102
RTVSPropertyOp20
 70
     1
102
RTVSPropertyOp21
 70
     1
102
RTVSPropertyOp22
 70
     1
102
RTVSPropertyOp23
 70
     1
102
RTVSPropertyOp24
 70
     1
102
RTVSPropertyOp25
 70
     1
102
RTVSPropertyOp26
 70
     1
102
RTVSPropertyOp27
 70
     1
102
RTVSPropertyOp28
 70
     1
102
RTVSPropertyOp29
 70
     1
102
RTVSPropertyOp30
 70
     1
102
RTVSPropertyOp31
 70
     1
102
RTVSPropertyOp32
 70
     1
102
RTVSPropertyOp33
 70
     1
102
RTVSPropertyOp34
 70
     1
102
RTVSPropertyOp35
 70
     1
102
RTVSPropertyOp36
 70
     1
102
RTVSPropertyOp37
 70
     1
102
RTVSPropertyOp38
 70
     1
102
RTVSPropertyOp39
 70
     1
102
RTVSPropertyOp40
 70
     1
102
RTVSPropertyOp41
 70
     1
102
RTVSPropertyOp42
 70
     1
102
RTVSPropertyOp43
 70
     1
102
RTVSPropertyOp44
 70
     1
102
RTVSPropertyOp45
 70
     1
102
RTVSPropertyOp46
 70
     1
102
RTVSPropertyOp47
 70
     1
102
RTVSPropertyOp48
 70
     1
102
RTVSPropertyOp49
 70
     1
102
RTVSPropertyOp50
 70
     1
102
RTVSPropertyOp51
 70
     0
102
RTVSPropertyOp52
 70
     0
102
RTVSPropertyOp53
 70
     1
102
RTVSPropertyOp54
 70
     1
102
RTVSPropertyOp55
 70
     1
102
RTVSPropertyOp56
 70
     1
102
RTVSPropertyOp57
 70
     1
102
RTVSPost2010Prop28
280
     1
102
RTVSPost2010PropOp28
 70
     1
102
RTVSPost2010Prop29
280
     1
102
RTVSPost2010PropOp29
 70
     1
102
RTVSPost2010Prop30
280
     0
102
RTVSPost2010PropOp30
 70
     1
102
RTVSPost2010Prop31
280
     0
102
RTVSPost2010PropOp31
 70
     1
102
RTVSPost2010Prop32
280
     0
102
RTVSPost2010PropOp32
 70
     1
102
RTVSPost2010Prop33
280
     0
102
RTVSPost2010PropOp33
 70
     1
102
RTVSPost2010Prop34
280
     0
102
RTVSPost2010PropOp34
 70
     1
102
RTVSPost2010Prop35
280
     0
102
RTVSPost2010PropOp35
 70
     1
102
RTVSPost2010Prop36
280
     0
102
RTVSPost2010PropOp36
 70
     1
102
RTVSPost2010Prop37
 90
       50
102
RTVSPost2010PropOp37
 70
     1
102
RTVSPost2010Prop38
140
0.0
102
RTVSPost2010PropOp38
 70
     1
102
RTVSPost2010Prop39
140
1.0
102
RTVSPost2010PropOp39
 70
     1
102
RTVSPost2010Prop40
 90
        0
102
RTVSPost2010PropOp40
 70
     1
102
RTVSPost2010Prop41ColorIndex
 90
       18
102
RTVSPost2010Prop41ColorRGB
 90
        0
102
RTVSPost2010PropOp41
 70
     1
102
RTVSPost2010Prop42
 90
       50
102
RTVSPost2010PropOp42
 70
     1
102
RTVSPost2010Prop43
 90
        3
102
RTVSPost2010PropOp43
 70
     1
102
RTVSPost2010Prop44ColorIndex
 90
        5
102
RTVSPost2010Prop44ColorRGB
 90
      255
102
RTVSPost2010PropOp44
 70
     1
102
RTVSPost2010Prop45
280
     0
102
RTVSPost2010PropOp45
 70
     1
102
RTVSPost2010Prop46
 90
       50
102
RTVSPost2010PropOp46
 70
     1
102
RTVSPost2010Prop47
 90
       50
102
RTVSPost2010PropOp47
 70
     1
102
RTVSPost2010Prop48
 90
       50
102
RTVSPost2010PropOp48
 70
     1
102
RTVSPost2010Prop49
280
     0
102
RTVSPost2010PropOp49
 70
     1
102
RTVSPost2010Prop50
 90
       50
102
RTVSPost2010PropOp50
 70
     1
102
RTVSPost2010Prop51ColorIndex
 90
      256
102
RTVSPost2010Prop51ColorRGB
 90
-16777216
102
RTVSPost2010PropOp51
 70
     0
102
RTVSPost2010Prop52
140
1.0
102
RTVSPost2010PropOp52
 70
     0
102
RTVSPost2010Prop53
 90
        2
102
RTVSPost2010PropOp53
 70
     1
102
RTVSPost2010Prop54
  1
strokes_ogs.tif
102
RTVSPost2010PropOp54
 70
     1
102
RTVSPost2010Prop55
280
     0
102
RTVSPost2010PropOp55
 70
     1
102
RTVSPost2010Prop56
140
1.0
102
RTVSPost2010PropOp56
 70
     1
102
RTVSPost2010Prop57
140
1.0
102
RTVSPost2010PropOp57
 70
     1
  0
XRECORD
  5
1CB
102
{ACAD_REACTORS
330
1CA
102
}
330
1CA
100
AcDbXrecord
280
     1
102
RTVSPropertyOp0
 70
     1
102
RTVSPropertyOp1
 70
     1
102
RTVSPropertyOp2
 70
     1
102
RTVSPropertyOp3
 70
     1
102
RTVSPropertyOp4
 70
     1
102
RTVSPropertyOp5
 70
     1
102
RTVSPropertyOp6
 70
     1
102
RTVSPropertyOp7
 70
     1
102
RTVSPropertyOp8
 70
     1
102
RTVSPropertyOp9
 70
     1
102
RTVSPropertyOp10
 70
     1
102
RTVSPropertyOp11
 70
     1
102
RTVSPropertyOp12
 70
     1
102
RTVSPropertyOp13
 70
     1
102
RTVSPropertyOp14
 70
     1
102
RTVSPropertyOp15
 70
     1
102
RTVSPropertyOp16
 70
     1
102
RTVSPropertyOp17
 70
     1
102
RTVSPropertyOp18
 70
     1
102
RTVSPropertyOp19
 70
     1
102
RTVSPropertyOp20
 70
     1
102
RTVSPropertyOp21
 70
     1
102
RTVSPropertyOp22
 70
     1
102
RTVSPropertyOp23
 70
     1
102
RTVSPropertyOp24
 70
     1
102
RTVSPropertyOp25
 70
     1
102
RTVSPropertyOp26
 70
     1
102
RTVSPropertyOp27
 70
     1
102
RTVSPropertyOp28
 70
     1
102
RTVSPropertyOp29
 70
     1
102
RTVSPropertyOp30
 70
     1
102
RTVSPropertyOp31
 70
     1
102
RTVSPropertyOp32
 70
     1
102
RTVSPropertyOp33
 70
     1
102
RTVSPropertyOp34
 70
     1
102
RTVSPropertyOp35
 70
     1
102
RTVSPropertyOp36
 70
     1
102
RTVSPropertyOp37
 70
     1
102
RTVSPropertyOp38
 70
     1
102
RTVSPropertyOp39
 70
     1
102
RTVSPropertyOp40
 70
     1
102
RTVSPropertyOp41
 70
     1
102
RTVSPropertyOp42
 70
     1
102
RTVSPropertyOp43
 70
     1
102
RTVSPropertyOp44
 70
     1
102
RTVSPropertyOp45
 70
     1
102
RTVSPropertyOp46
 70
     1
102
RTVSPropertyOp47
 70
     1
102
RTVSPropertyOp48
 70
     1
102
RTVSPropertyOp49
 70
     1
102
RTVSPropertyOp50
 70
     1
102
RTVSPropertyOp51
 70
     0
102
RTVSPropertyOp52
 70
     0
102
RTVSPropertyOp53
 70
     1
102
RTVSPropertyOp54
 70
     1
102
RTVSPropertyOp55
 70
     1
102
RTVSPropertyOp56
 70
     1
102
RTVSPropertyOp57
 70
     1
102
RTVSPost2010Prop28
280
     0
102
RTVSPost2010PropOp28
 70
     1
102
RTVSPost2010Prop29
280
     1
102
RTVSPost2010PropOp29
 70
     1
102
RTVSPost2010Prop30
280
     1
102
RTVSPost2010PropOp30
 70
     1
102
RTVSPost2010Prop31
280
     0
102
RTVSPost2010PropOp31
 70
     1
102
RTVSPost2010Prop32
280
     0
102
RTVSPost2010PropOp32
 70
     1
102
RTVSPost2010Prop33
280
     0
102
RTVSPost2010PropOp33
 70
     1
102
RTVSPost2010Prop34
280
     0
102
RTVSPost2010PropOp34
 70
     1
102
RTVSPost2010Prop35
280
     0
102
RTVSPost2010PropOp35
 70
     1
102
RTVSPost2010Prop36
280
     0
102
RTVSPost2010PropOp36
 70
     1
102
RTVSPost2010Prop37
 90
       50
102
RTVSPost2010PropOp37
 70
     1
102
RTVSPost2010Prop38
140
0.0
102
RTVSPost2010PropOp38
 70
     1
102
RTVSPost2010Prop39
140
1.0
102
RTVSPost2010PropOp39
 70
     1
102
RTVSPost2010Prop40
 90
        0
102
RTVSPost2010PropOp40
 70
     1
102
RTVSPost2010Prop41ColorIndex
 90
       18
102
RTVSPost2010Prop41ColorRGB
 90
        0
102
RTVSPost2010PropOp41
 70
     1
102
RTVSPost2010Prop42
 90
       50
102
RTVSPost2010PropOp42
 70
     1
102
RTVSPost2010Prop43
 90
        3
102
RTVSPost2010PropOp43
 70
     1
102
RTVSPost2010Prop44ColorIndex
 90
        5
102
RTVSPost2010Prop44ColorRGB
 90
      255
102
RTVSPost2010PropOp44
 70
     1
102
RTVSPost2010Prop45
280
     0
102
RTVSPost2010PropOp45
 70
     1
102
RTVSPost2010Prop46
 90
       50
102
RTVSPost2010PropOp46
 70
     1
102
RTVSPost2010Prop47
 90
       50
102
RTVSPost2010PropOp47
 70
     1
102
RTVSPost2010Prop48
 90
       50
102
RTVSPost2010PropOp48
 70
     1
102
RTVSPost2010Prop49
280
     0
102
RTVSPost2010PropOp49
 70
     1
102
RTVSPost2010Prop50
 90
       50
102
RTVSPost2010PropOp50
 70
     1
102
RTVSPost2010Prop51ColorIndex
 90
      256
102
RTVSPost2010Prop51ColorRGB
 90
-16777216
102
RTVSPost2010PropOp51
 70
     0
102
RTVSPost2010Prop52
140
1.0
102
RTVSPost2010PropOp52
 70
     0
102
RTVSPost2010Prop53
 90
        2
102
RTVSPost2010PropOp53
 70
     1
102
RTVSPost2010Prop54
  1
strokes_ogs.tif
102
RTVSPost2010PropOp54
 70
     1
102
RTVSPost2010Prop55
280
     0
102
RTVSPost2010PropOp55
 70
     1
102
RTVSPost2010Prop56
140
1.0
102
RTVSPost2010PropOp56
 70
     1
102
RTVSPost2010Prop57
140
1.0
102
RTVSPost2010PropOp57
 70
     1
  0
XRECORD
  5
1D3
102
{ACAD_REACTORS
330
1D2
102
}
330
1D2
100
AcDbXrecord
280
     1
102
RTVSPropertyOp0
 70
     1
102
RTVSPropertyOp1
 70
     1
102
RTVSPropertyOp2
 70
     1
102
RTVSPropertyOp3
 70
     1
102
RTVSPropertyOp4
 70
     1
102
RTVSPropertyOp5
 70
     1
102
RTVSPropertyOp6
 70
     1
102
RTVSPropertyOp7
 70
     1
102
RTVSPropertyOp8
 70
     1
102
RTVSPropertyOp9
 70
     1
102
RTVSPropertyOp10
 70
     1
102
RTVSPropertyOp11
 70
     1
102
RTVSPropertyOp12
 70
     1
102
RTVSPropertyOp13
 70
     1
102
RTVSPropertyOp14
 70
     1
102
RTVSPropertyOp15
 70
     1
102
RTVSPropertyOp16
 70
     1
102
RTVSPropertyOp17
 70
     1
102
RTVSPropertyOp18
 70
     1
102
RTVSPropertyOp19
 70
     1
102
RTVSPropertyOp20
 70
     1
102
RTVSPropertyOp21
 70
     1
102
RTVSPropertyOp22
 70
     1
102
RTVSPropertyOp23
 70
     1
102
RTVSPropertyOp24
 70
     1
102
RTVSPropertyOp25
 70
     1
102
RTVSPropertyOp26
 70
     1
102
RTVSPropertyOp27
 70
     1
102
RTVSPropertyOp28
 70
     1
102
RTVSPropertyOp29
 70
     1
102
RTVSPropertyOp30
 70
     1
102
RTVSPropertyOp31
 70
     1
102
RTVSPropertyOp32
 70
     1
102
RTVSPropertyOp33
 70
     1
102
RTVSPropertyOp34
 70
     1
102
RTVSPropertyOp35
 70
     1
102
RTVSPropertyOp36
 70
     1
102
RTVSPropertyOp37
 70
     1
102
RTVSPropertyOp38
 70
     1
102
RTVSPropertyOp39
 70
     1
102
RTVSPropertyOp40
 70
     1
102
RTVSPropertyOp41
 70
     1
102
RTVSPropertyOp42
 70
     1
102
RTVSPropertyOp43
 70
     1
102
RTVSPropertyOp44
 70
     1
102
RTVSPropertyOp45
 70
     1
102
RTVSPropertyOp46
 70
     1
102
RTVSPropertyOp47
 70
     1
102
RTVSPropertyOp48
 70
     1
102
RTVSPropertyOp49
 70
     1
102
RTVSPropertyOp50
 70
     1
102
RTVSPropertyOp51
 70
     0
102
RTVSPropertyOp52
 70
     0
102
RTVSPropertyOp53
 70
     1
102
RTVSPropertyOp54
 70
     1
102
RTVSPropertyOp55
 70
     1
102
RTVSPropertyOp56
 70
     1
102
RTVSPropertyOp57
 70
     1
102
RTVSPost2010Prop28
280
     0
102
RTVSPost2010PropOp28
 70
     1
102
RTVSPost2010Prop29
280
     1
102
RTVSPost2010PropOp29
 70
     1
102
RTVSPost2010Prop30
280
     1
102
RTVSPost2010PropOp30
 70
     1
102
RTVSPost2010Prop31
280
     0
102
RTVSPost2010PropOp31
 70
     1
102
RTVSPost2010Prop32
280
     0
102
RTVSPost2010PropOp32
 70
     1
102
RTVSPost2010Prop33
280
     0
102
RTVSPost2010PropOp33
 70
     1
102
RTVSPost2010Prop34
280
     0
102
RTVSPost2010PropOp34
 70
     1
102
RTVSPost2010Prop35
280
     0
102
RTVSPost2010PropOp35
 70
     1
102
RTVSPost2010Prop36
280
     0
102
RTVSPost2010PropOp36
 70
     1
102
RTVSPost2010Prop37
 90
       50
102
RTVSPost2010PropOp37
 70
     1
102
RTVSPost2010Prop38
140
0.0
102
RTVSPost2010PropOp38
 70
     1
102
RTVSPost2010Prop39
140
1.0
102
RTVSPost2010PropOp39
 70
     1
102
RTVSPost2010Prop40
 90
        0
102
RTVSPost2010PropOp40
 70
     1
102
RTVSPost2010Prop41ColorIndex
 90
       18
102
RTVSPost2010Prop41ColorRGB
 90
        0
102
RTVSPost2010PropOp41
 70
     1
102
RTVSPost2010Prop42
 90
       50
102
RTVSPost2010PropOp42
 70
     1
102
RTVSPost2010Prop43
 90
        3
102
RTVSPost2010PropOp43
 70
     1
102
RTVSPost2010Prop44ColorIndex
 90
        5
102
RTVSPost2010Prop44ColorRGB
 90
      255
102
RTVSPost2010PropOp44
 70
     1
102
RTVSPost2010Prop45
280
     0
102
RTVSPost2010PropOp45
 70
     1
102
RTVSPost2010Prop46
 90
       50
102
RTVSPost2010PropOp46
 70
     1
102
RTVSPost2010Prop47
 90
       50
102
RTVSPost2010PropOp47
 70
     1
102
RTVSPost2010Prop48
 90
       50
102
RTVSPost2010PropOp48
 70
     1
102
RTVSPost2010Prop49
280
     0
102
RTVSPost2010PropOp49
 70
     1
102
RTVSPost2010Prop50
 90
       50
102
RTVSPost2010PropOp50
 70
     1
102
RTVSPost2010Prop51ColorIndex
 90
      256
102
RTVSPost2010Prop51ColorRGB
 90
-16777216
102
RTVSPost2010PropOp51
 70
     0
102
RTVSPost2010Prop52
140
1.0
102
RTVSPost2010PropOp52
 70
     0
102
RTVSPost2010Prop53
 90
        2
102
RTVSPost2010PropOp53
 70
     1
102
RTVSPost2010Prop54
  1
strokes_ogs.tif
102
RTVSPost2010PropOp54
 70
     1
102
RTVSPost2010Prop55
280
     0
102
RTVSPost2010PropOp55
 70
     1
102
RTVSPost2010Prop56
140
1.0
102
RTVSPost2010PropOp56
 70
     1
102
RTVSPost2010Prop57
140
1.0
102
RTVSPost2010PropOp57
 70
     1
  0
XRECORD
  5
1DB
102
{ACAD_REACTORS
330
1DA
102
}
330
1DA
100
AcDbXrecord
280
     1
102
RTVSPropertyOp0
 70
     1
102
RTVSPropertyOp1
 70
     1
102
RTVSPropertyOp2
 70
     1
102
RTVSPropertyOp3
 70
     1
102
RTVSPropertyOp4
 70
     1
102
RTVSPropertyOp5
 70
     1
102
RTVSPropertyOp6
 70
     1
102
RTVSPropertyOp7
 70
     1
102
RTVSPropertyOp8
 70
     1
102
RTVSPropertyOp9
 70
     1
102
RTVSPropertyOp10
 70
     1
102
RTVSPropertyOp11
 70
     1
102
RTVSPropertyOp12
 70
     1
102
RTVSPropertyOp13
 70
     1
102
RTVSPropertyOp14
 70
     1
102
RTVSPropertyOp15
 70
     1
102
RTVSPropertyOp16
 70
     1
102
RTVSPropertyOp17
 70
     1
102
RTVSPropertyOp18
 70
     1
102
RTVSPropertyOp19
 70
     1
102
RTVSPropertyOp20
 70
     1
102
RTVSPropertyOp21
 70
     1
102
RTVSPropertyOp22
 70
     1
102
RTVSPropertyOp23
 70
     1
102
RTVSPropertyOp24
 70
     1
102
RTVSPropertyOp25
 70
     1
102
RTVSPropertyOp26
 70
     1
102
RTVSPropertyOp27
 70
     1
102
RTVSPropertyOp28
 70
     1
102
RTVSPropertyOp29
 70
     1
102
RTVSPropertyOp30
 70
     1
102
RTVSPropertyOp31
 70
     1
102
RTVSPropertyOp32
 70
     1
102
RTVSPropertyOp33
 70
     1
102
RTVSPropertyOp34
 70
     1
102
RTVSPropertyOp35
 70
     1
102
RTVSPropertyOp36
 70
     1
102
RTVSPropertyOp37
 70
     1
102
RTVSPropertyOp38
 70
     1
102
RTVSPropertyOp39
 70
     1
102
RTVSPropertyOp40
 70
     1
102
RTVSPropertyOp41
 70
     1
102
RTVSPropertyOp42
 70
     1
102
RTVSPropertyOp43
 70
     1
102
RTVSPropertyOp44
 70
     1
102
RTVSPropertyOp45
 70
     1
102
RTVSPropertyOp46
 70
     1
102
RTVSPropertyOp47
 70
     1
102
RTVSPropertyOp48
 70
     1
102
RTVSPropertyOp49
 70
     1
102
RTVSPropertyOp50
 70
     1
102
RTVSPropertyOp51
 70
     0
102
RTVSPropertyOp52
 70
     0
102
RTVSPropertyOp53
 70
     1
102
RTVSPropertyOp54
 70
     1
102
RTVSPropertyOp55
 70
     1
102
RTVSPropertyOp56
 70
     1
102
RTVSPropertyOp57
 70
     1
102
RTVSPost2010Prop28
280
     0
102
RTVSPost2010PropOp28
 70
     1
102
RTVSPost2010Prop29
280
     1
102
RTVSPost2010PropOp29
 70
     1
102
RTVSPost2010Prop30
280
     1
102
RTVSPost2010PropOp30
 70
     1
102
RTVSPost2010Prop31
280
     0
102
RTVSPost2010PropOp31
 70
     1
102
RTVSPost2010Prop32
280
     0
102
RTVSPost2010PropOp32
 70
     1
102
RTVSPost2010Prop33
280
     0
102
RTVSPost2010PropOp33
 70
     1
102
RTVSPost2010Prop34
280
     0
102
RTVSPost2010PropOp34
 70
     1
102
RTVSPost2010Prop35
280
     0
102
RTVSPost2010PropOp35
 70
     1
102
RTVSPost2010Prop36
280
     0
102
RTVSPost2010PropOp36
 70
     1
102
RTVSPost2010Prop37
 90
       50
102
RTVSPost2010PropOp37
 70
     1
102
RTVSPost2010Prop38
140
0.0
102
RTVSPost2010PropOp38
 70
     1
102
RTVSPost2010Prop39
140
1.0
102
RTVSPost2010PropOp39
 70
     1
102
RTVSPost2010Prop40
 90
        0
102
RTVSPost2010PropOp40
 70
     1
102
RTVSPost2010Prop41ColorIndex
 90
       18
102
RTVSPost2010Prop41ColorRGB
 90
        0
102
RTVSPost2010PropOp41
 70
     1
102
RTVSPost2010Prop42
 90
       50
102
RTVSPost2010PropOp42
 70
     1
102
RTVSPost2010Prop43
 90
        3
102
RTVSPost2010PropOp43
 70
     1
102
RTVSPost2010Prop44ColorIndex
 90
        5
102
RTVSPost2010Prop44ColorRGB
 90
      255
102
RTVSPost2010PropOp44
 70
     1
102
RTVSPost2010Prop45
280
     0
102
RTVSPost2010PropOp45
 70
     1
102
RTVSPost2010Prop46
 90
       50
102
RTVSPost2010PropOp46
 70
     1
102
RTVSPost2010Prop47
 90
       50
102
RTVSPost2010PropOp47
 70
     1
102
RTVSPost2010Prop48
 90
       50
102
RTVSPost2010PropOp48
 70
     1
102
RTVSPost2010Prop49
280
     0
102
RTVSPost2010PropOp49
 70
     1
102
RTVSPost2010Prop50
 90
       50
102
RTVSPost2010PropOp50
 70
     1
102
RTVSPost2010Prop51ColorIndex
 90
      256
102
RTVSPost2010Prop51ColorRGB
 90
-16777216
102
RTVSPost2010PropOp51
 70
     0
102
RTVSPost2010Prop52
140
1.0
102
RTVSPost2010PropOp52
 70
     0
102
RTVSPost2010Prop53
 90
        2
102
RTVSPost2010PropOp53
 70
     1
102
RTVSPost2010Prop54
  1
strokes_ogs.tif
102
RTVSPost2010PropOp54
 70
     1
102
RTVSPost2010Prop55
280
     0
102
RTVSPost2010PropOp55
 70
     1
102
RTVSPost2010Prop56
140
1.0
102
RTVSPost2010PropOp56
 70
     1
102
RTVSPost2010Prop57
140
1.0
102
RTVSPost2010PropOp57
 70
     1
  0
XRECORD
  5
1CF
102
{ACAD_REACTORS
330
1CE
102
}
330
1CE
100
AcDbXrecord
280
     1
102
RTVSPropertyOp0
 70
     1
102
RTVSPropertyOp1
 70
     1
102
RTVSPropertyOp2
 70
     1
102
RTVSPropertyOp3
 70
     1
102
RTVSPropertyOp4
 70
     1
102
RTVSPropertyOp5
 70
     1
102
RTVSPropertyOp6
 70
     1
102
RTVSPropertyOp7
 70
     1
102
RTVSPropertyOp8
 70
     1
102
RTVSPropertyOp9
 70
     1
102
RTVSPropertyOp10
 70
     1
102
RTVSPropertyOp11
 70
     1
102
RTVSPropertyOp12
 70
     1
102
RTVSPropertyOp13
 70
     1
102
RTVSPropertyOp14
 70
     1
102
RTVSPropertyOp15
 70
     1
102
RTVSPropertyOp16
 70
     1
102
RTVSPropertyOp17
 70
     1
102
RTVSPropertyOp18
 70
     1
102
RTVSPropertyOp19
 70
     1
102
RTVSPropertyOp20
 70
     1
102
RTVSPropertyOp21
 70
     1
102
RTVSPropertyOp22
 70
     1
102
RTVSPropertyOp23
 70
     1
102
RTVSPropertyOp24
 70
     1
102
RTVSPropertyOp25
 70
     1
102
RTVSPropertyOp26
 70
     1
102
RTVSPropertyOp27
 70
     1
102
RTVSPropertyOp28
 70
     1
102
RTVSPropertyOp29
 70
     1
102
RTVSPropertyOp30
 70
     1
102
RTVSPropertyOp31
 70
     1
102
RTVSPropertyOp32
 70
     1
102
RTVSPropertyOp33
 70
     1
102
RTVSPropertyOp34
 70
     1
102
RTVSPropertyOp35
 70
     1
102
RTVSPropertyOp36
 70
     1
102
RTVSPropertyOp37
 70
     1
102
RTVSPropertyOp38
 70
     1
102
RTVSPropertyOp39
 70
     1
102
RTVSPropertyOp40
 70
     1
102
RTVSPropertyOp41
 70
     1
102
RTVSPropertyOp42
 70
     1
102
RTVSPropertyOp43
 70
     1
102
RTVSPropertyOp44
 70
     1
102
RTVSPropertyOp45
 70
     1
102
RTVSPropertyOp46
 70
     1
102
RTVSPropertyOp47
 70
     1
102
RTVSPropertyOp48
 70
     1
102
RTVSPropertyOp49
 70
     1
102
RTVSPropertyOp50
 70
     1
102
RTVSPropertyOp51
 70
     0
102
RTVSPropertyOp52
 70
     0
102
RTVSPropertyOp53
 70
     1
102
RTVSPropertyOp54
 70
     1
102
RTVSPropertyOp55
 70
     1
102
RTVSPropertyOp56
 70
     1
102
RTVSPropertyOp57
 70
     1
102
RTVSPost2010Prop28
280
     0
102
RTVSPost2010PropOp28
 70
     1
102
RTVSPost2010Prop29
280
     1
102
RTVSPost2010PropOp29
 70
     1
102
RTVSPost2010Prop30
280
     1
102
RTVSPost2010PropOp30
 70
     1
102
RTVSPost2010Prop31
280
     0
102
RTVSPost2010PropOp31
 70
     1
102
RTVSPost2010Prop32
280
     0
102
RTVSPost2010PropOp32
 70
     1
102
RTVSPost2010Prop33
280
     0
102
RTVSPost2010PropOp33
 70
     1
102
RTVSPost2010Prop34
280
     0
102
RTVSPost2010PropOp34
 70
     1
102
RTVSPost2010Prop35
280
     0
102
RTVSPost2010PropOp35
 70
     1
102
RTVSPost2010Prop36
280
     0
102
RTVSPost2010PropOp36
 70
     1
102
RTVSPost2010Prop37
 90
       50
102
RTVSPost2010PropOp37
 70
     1
102
RTVSPost2010Prop38
140
0.0
102
RTVSPost2010PropOp38
 70
     1
102
RTVSPost2010Prop39
140
1.0
102
RTVSPost2010PropOp39
 70
     1
102
RTVSPost2010Prop40
 90
        0
102
RTVSPost2010PropOp40
 70
     1
102
RTVSPost2010Prop41ColorIndex
 90
       18
102
RTVSPost2010Prop41ColorRGB
 90
        0
102
RTVSPost2010PropOp41
 70
     1
102
RTVSPost2010Prop42
 90
       50
102
RTVSPost2010PropOp42
 70
     1
102
RTVSPost2010Prop43
 90
        3
102
RTVSPost2010PropOp43
 70
     1
102
RTVSPost2010Prop44ColorIndex
 90
        5
102
RTVSPost2010Prop44ColorRGB
 90
      255
102
RTVSPost2010PropOp44
 70
     1
102
RTVSPost2010Prop45
280
     0
102
RTVSPost2010PropOp45
 70
     1
102
RTVSPost2010Prop46
 90
       50
102
RTVSPost2010PropOp46
 70
     1
102
RTVSPost2010Prop47
 90
       50
102
RTVSPost2010PropOp47
 70
     1
102
RTVSPost2010Prop48
 90
       50
102
RTVSPost2010PropOp48
 70
     1
102
RTVSPost2010Prop49
280
     0
102
RTVSPost2010PropOp49
 70
     1
102
RTVSPost2010Prop50
 90
       50
102
RTVSPost2010PropOp50
 70
     1
102
RTVSPost2010Prop51ColorIndex
 90
      256
102
RTVSPost2010Prop51ColorRGB
 90
-16777216
102
RTVSPost2010PropOp51
 70
     0
102
RTVSPost2010Prop52
140
1.0
102
RTVSPost2010PropOp52
 70
     0
102
RTVSPost2010Prop53
 90
        2
102
RTVSPost2010PropOp53
 70
     1
102
RTVSPost2010Prop54
  1
strokes_ogs.tif
102
RTVSPost2010PropOp54
 70
     1
102
RTVSPost2010Prop55
280
     0
102
RTVSPost2010PropOp55
 70
     1
102
RTVSPost2010Prop56
140
1.0
102
RTVSPost2010PropOp56
 70
     1
102
RTVSPost2010Prop57
140
1.0
102
RTVSPost2010PropOp57
 70
     1
  0
XRECORD
  5
1D1
102
{ACAD_REACTORS
330
1D0
102
}
330
1D0
100
AcDbXrecord
280
     1
102
RTVSPropertyOp0
 70
     1
102
RTVSPropertyOp1
 70
     1
102
RTVSPropertyOp2
 70
     1
102
RTVSPropertyOp3
 70
     1
102
RTVSPropertyOp4
 70
     1
102
RTVSPropertyOp5
 70
     1
102
RTVSPropertyOp6
 70
     1
102
RTVSPropertyOp7
 70
     1
102
RTVSPropertyOp8
 70
     1
102
RTVSPropertyOp9
 70
     1
102
RTVSPropertyOp10
 70
     1
102
RTVSPropertyOp11
 70
     1
102
RTVSPropertyOp12
 70
     1
102
RTVSPropertyOp13
 70
     1
102
RTVSPropertyOp14
 70
     1
102
RTVSPropertyOp15
 70
     1
102
RTVSPropertyOp16
 70
     1
102
RTVSPropertyOp17
 70
     1
102
RTVSPropertyOp18
 70
     1
102
RTVSPropertyOp19
 70
     1
102
RTVSPropertyOp20
 70
     1
102
RTVSPropertyOp21
 70
     1
102
RTVSPropertyOp22
 70
     1
102
RTVSPropertyOp23
 70
     1
102
RTVSPropertyOp24
 70
     1
102
RTVSPropertyOp25
 70
     1
102
RTVSPropertyOp26
 70
     1
102
RTVSPropertyOp27
 70
     1
102
RTVSPropertyOp28
 70
     1
102
RTVSPropertyOp29
 70
     1
102
RTVSPropertyOp30
 70
     1
102
RTVSPropertyOp31
 70
     1
102
RTVSPropertyOp32
 70
     1
102
RTVSPropertyOp33
 70
     1
102
RTVSPropertyOp34
 70
     1
102
RTVSPropertyOp35
 70
     1
102
RTVSPropertyOp36
 70
     1
102
RTVSPropertyOp37
 70
     1
102
RTVSPropertyOp38
 70
     1
102
RTVSPropertyOp39
 70
     1
102
RTVSPropertyOp40
 70
     1
102
RTVSPropertyOp41
 70
     1
102
RTVSPropertyOp42
 70
     1
102
RTVSPropertyOp43
 70
     1
102
RTVSPropertyOp44
 70
     1
102
RTVSPropertyOp45
 70
     1
102
RTVSPropertyOp46
 70
     1
102
RTVSPropertyOp47
 70
     1
102
RTVSPropertyOp48
 70
     1
102
RTVSPropertyOp49
 70
     1
102
RTVSPropertyOp50
 70
     1
102
RTVSPropertyOp51
 70
     0
102
RTVSPropertyOp52
 70
     0
102
RTVSPropertyOp53
 70
     1
102
RTVSPropertyOp54
 70
     1
102
RTVSPropertyOp55
 70
     1
102
RTVSPropertyOp56
 70
     1
102
RTVSPropertyOp57
 70
     1
102
RTVSPost2010Prop28
280
     0
102
RTVSPost2010PropOp28
 70
     1
102
RTVSPost2010Prop29
280
     1
102
RTVSPost2010PropOp29
 70
     1
102
RTVSPost2010Prop30
280
     1
102
RTVSPost2010PropOp30
 70
     1
102
RTVSPost2010Prop31
280
     0
102
RTVSPost2010PropOp31
 70
     1
102
RTVSPost2010Prop32
280
     0
102
RTVSPost2010PropOp32
 70
     1
102
RTVSPost2010Prop33
280
     0
102
RTVSPost2010PropOp33
 70
     1
102
RTVSPost2010Prop34
280
     0
102
RTVSPost2010PropOp34
 70
     1
102
RTVSPost2010Prop35
280
     0
102
RTVSPost2010PropOp35
 70
     1
102
RTVSPost2010Prop36
280
     0
102
RTVSPost2010PropOp36
 70
     1
102
RTVSPost2010Prop37
 90
       50
102
RTVSPost2010PropOp37
 70
     1
102
RTVSPost2010Prop38
140
0.0
102
RTVSPost2010PropOp38
 70
     1
102
RTVSPost2010Prop39
140
1.0
102
RTVSPost2010PropOp39
 70
     1
102
RTVSPost2010Prop40
 90
        0
102
RTVSPost2010PropOp40
 70
     1
102
RTVSPost2010Prop41ColorIndex
 90
       18
102
RTVSPost2010Prop41ColorRGB
 90
        0
102
RTVSPost2010PropOp41
 70
     1
102
RTVSPost2010Prop42
 90
       50
102
RTVSPost2010PropOp42
 70
     1
102
RTVSPost2010Prop43
 90
        3
102
RTVSPost2010PropOp43
 70
     1
102
RTVSPost2010Prop44ColorIndex
 90
        5
102
RTVSPost2010Prop44ColorRGB
 90
      255
102
RTVSPost2010PropOp44
 70
     1
102
RTVSPost2010Prop45
280
     0
102
RTVSPost2010PropOp45
 70
     1
102
RTVSPost2010Prop46
 90
       50
102
RTVSPost2010PropOp46
 70
     1
102
RTVSPost2010Prop47
 90
       50
102
RTVSPost2010PropOp47
 70
     1
102
RTVSPost2010Prop48
 90
       50
102
RTVSPost2010PropOp48
 70
     1
102
RTVSPost2010Prop49
280
     0
102
RTVSPost2010PropOp49
 70
     1
102
RTVSPost2010Prop50
 90
       50
102
RTVSPost2010PropOp50
 70
     1
102
RTVSPost2010Prop51ColorIndex
 90
      256
102
RTVSPost2010Prop51ColorRGB
 90
-16777216
102
RTVSPost2010PropOp51
 70
     0
102
RTVSPost2010Prop52
140
1.0
102
RTVSPost2010PropOp52
 70
     0
102
RTVSPost2010Prop53
 90
        2
102
RTVSPost2010PropOp53
 70
     1
102
RTVSPost2010Prop54
  1
strokes_ogs.tif
102
RTVSPost2010PropOp54
 70
     1
102
RTVSPost2010Prop55
280
     0
102
RTVSPost2010PropOp55
 70
     1
102
RTVSPost2010Prop56
140
1.0
102
RTVSPost2010PropOp56
 70
     1
102
RTVSPost2010Prop57
140
1.0
102
RTVSPost2010PropOp57
 70
     1
  0
XRECORD
  5
1E1
102
{ACAD_REACTORS
330
1E0
102
}
330
1E0
100
AcDbXrecord
280
     1
102
RTVSPropertyOp0
 70
     0
102
RTVSPropertyOp1
 70
     0
102
RTVSPropertyOp2
 70
     0
102
RTVSPropertyOp3
 70
     0
102
RTVSPropertyOp4
 70
     0
102
RTVSPropertyOp5
 70
     0
102
RTVSPropertyOp6
 70
     0
102
RTVSPropertyOp7
 70
     0
102
RTVSPropertyOp8
 70
     0
102
RTVSPropertyOp9
 70
     0
102
RTVSPropertyOp10
 70
     0
102
RTVSPropertyOp11
 70
     0
102
RTVSPropertyOp12
 70
     0
102
RTVSPropertyOp13
 70
     0
102
RTVSPropertyOp14
 70
     2
102
RTVSPropertyOp15
 70
     0
102
RTVSPropertyOp16
 70
     0
102
RTVSPropertyOp17
 70
     0
102
RTVSPropertyOp18
 70
     0
102
RTVSPropertyOp19
 70
     0
102
RTVSPropertyOp20
 70
     0
102
RTVSPropertyOp21
 70
     0
102
RTVSPropertyOp22
 70
     0
102
RTVSPropertyOp23
 70
     0
102
RTVSPropertyOp24
 70
     0
102
RTVSPropertyOp25
 70
     0
102
RTVSPropertyOp26
 70
     0
102
RTVSPropertyOp27
 70
     0
102
RTVSPropertyOp28
 70
     0
102
RTVSPropertyOp29
 70
     0
102
RTVSPropertyOp30
 70
     0
102
RTVSPropertyOp31
 70
     0
102
RTVSPropertyOp32
 70
     0
102
RTVSPropertyOp33
 70
     0
102
RTVSPropertyOp34
 70
     0
102
RTVSPropertyOp35
 70
     0
102
RTVSPropertyOp36
 70
     0
102
RTVSPropertyOp37
 70
     0
102
RTVSPropertyOp38
 70
     0
102
RTVSPropertyOp39
 70
     0
102
RTVSPropertyOp40
 70
     0
102
RTVSPropertyOp41
 70
     0
102
RTVSPropertyOp42
 70
     0
102
RTVSPropertyOp43
 70
     0
102
RTVSPropertyOp44
 70
     0
102
RTVSPropertyOp45
 70
     0
102
RTVSPropertyOp46
 70
     0
102
RTVSPropertyOp47
 70
     0
102
RTVSPropertyOp48
 70
     0
102
RTVSPropertyOp49
 70
     0
102
RTVSPropertyOp50
 70
     0
102
RTVSPropertyOp51
 70
     0
102
RTVSPropertyOp52
 70
     0
102
RTVSPropertyOp53
 70
     0
102
RTVSPropertyOp54
 70
     0
102
RTVSPropertyOp55
 70
     0
102
RTVSPropertyOp56
 70
     0
102
RTVSPropertyOp57
 70
     0
102
RTVSPost2010Prop28
280
     0
102
RTVSPost2010PropOp28
 70
     0
102
RTVSPost2010Prop29
280
     1
102
RTVSPost2010PropOp29
 70
     0
102
RTVSPost2010Prop30
280
     1
102
RTVSPost2010PropOp30
 70
     0
102
RTVSPost2010Prop31
280
     0
102
RTVSPost2010PropOp31
 70
     0
102
RTVSPost2010Prop32
280
     0
102
RTVSPost2010PropOp32
 70
     0
102
RTVSPost2010Prop33
280
     0
102
RTVSPost2010PropOp33
 70
     0
102
RTVSPost2010Prop34
280
     0
102
RTVSPost2010PropOp34
 70
     0
102
RTVSPost2010Prop35
280
     0
102
RTVSPost2010PropOp35
 70
     0
102
RTVSPost2010Prop36
280
     0
102
RTVSPost2010PropOp36
 70
     0
102
RTVSPost2010Prop37
 90
       50
102
RTVSPost2010PropOp37
 70
     0
102
RTVSPost2010Prop38
140
0.0
102
RTVSPost2010PropOp38
 70
     0
102
RTVSPost2010Prop39
140
1.0
102
RTVSPost2010PropOp39
 70
     0
102
RTVSPost2010Prop40
 90
        0
102
RTVSPost2010PropOp40
 70
     0
102
RTVSPost2010Prop41ColorIndex
 90
       18
102
RTVSPost2010Prop41ColorRGB
 90
        0
102
RTVSPost2010PropOp41
 70
     0
102
RTVSPost2010Prop42
 90
       50
102
RTVSPost2010PropOp42
 70
     0
102
RTVSPost2010Prop43
 90
        3
102
RTVSPost2010PropOp43
 70
     0
102
RTVSPost2010Prop44ColorIndex
 90
        5
102
RTVSPost2010Prop44ColorRGB
 90
      255
102
RTVSPost2010PropOp44
 70
     0
102
RTVSPost2010Prop45
280
     0
102
RTVSPost2010PropOp45
 70
     0
102
RTVSPost2010Prop46
 90
       50
102
RTVSPost2010PropOp46
 70
     0
102
RTVSPost2010Prop47
 90
       50
102
RTVSPost2010PropOp47
 70
     0
102
RTVSPost2010Prop48
 90
       50
102
RTVSPost2010PropOp48
 70
     0
102
RTVSPost2010Prop49
280
     0
102
RTVSPost2010PropOp49
 70
     0
102
RTVSPost2010Prop50
 90
       50
102
RTVSPost2010PropOp50
 70
     0
102
RTVSPost2010Prop51ColorIndex
 90
      256
102
RTVSPost2010Prop51ColorRGB
 90
-16777216
102
RTVSPost2010PropOp51
 70
     0
102
RTVSPost2010Prop52
140
1.0
102
RTVSPost2010PropOp52
 70
     0
102
RTVSPost2010Prop53
 90
        2
102
RTVSPost2010PropOp53
 70
     0
102
RTVSPost2010Prop54
  1
strokes_ogs.tif
102
RTVSPost2010PropOp54
 70
     0
102
RTVSPost2010Prop55
280
     0
102
RTVSPost2010PropOp55
 70
     0
102
RTVSPost2010Prop56
140
1.0
102
RTVSPost2010PropOp56
 70
     0
102
RTVSPost2010Prop57
140
1.0
102
RTVSPost2010PropOp57
 70
     0
  0
XRECORD
  5
1D9
102
{ACAD_REACTORS
330
1D8
102
}
330
1D8
100
AcDbXrecord
280
     1
102
RTVSPropertyOp0
 70
     1
102
RTVSPropertyOp1
 70
     1
102
RTVSPropertyOp2
 70
     1
102
RTVSPropertyOp3
 70
     1
102
RTVSPropertyOp4
 70
     1
102
RTVSPropertyOp5
 70
     1
102
RTVSPropertyOp6
 70
     1
102
RTVSPropertyOp7
 70
     1
102
RTVSPropertyOp8
 70
     1
102
RTVSPropertyOp9
 70
     1
102
RTVSPropertyOp10
 70
     1
102
RTVSPropertyOp11
 70
     1
102
RTVSPropertyOp12
 70
     1
102
RTVSPropertyOp13
 70
     1
102
RTVSPropertyOp14
 70
     1
102
RTVSPropertyOp15
 70
     1
102
RTVSPropertyOp16
 70
     1
102
RTVSPropertyOp17
 70
     1
102
RTVSPropertyOp18
 70
     1
102
RTVSPropertyOp19
 70
     1
102
RTVSPropertyOp20
 70
     1
102
RTVSPropertyOp21
 70
     1
102
RTVSPropertyOp22
 70
     1
102
RTVSPropertyOp23
 70
     1
102
RTVSPropertyOp24
 70
     1
102
RTVSPropertyOp25
 70
     1
102
RTVSPropertyOp26
 70
     1
102
RTVSPropertyOp27
 70
     1
102
RTVSPropertyOp28
 70
     1
102
RTVSPropertyOp29
 70
     1
102
RTVSPropertyOp30
 70
     1
102
RTVSPropertyOp31
 70
     1
102
RTVSPropertyOp32
 70
     1
102
RTVSPropertyOp33
 70
     1
102
RTVSPropertyOp34
 70
     1
102
RTVSPropertyOp35
 70
     1
102
RTVSPropertyOp36
 70
     1
102
RTVSPropertyOp37
 70
     1
102
RTVSPropertyOp38
 70
     1
102
RTVSPropertyOp39
 70
     1
102
RTVSPropertyOp40
 70
     1
102
RTVSPropertyOp41
 70
     1
102
RTVSPropertyOp42
 70
     1
102
RTVSPropertyOp43
 70
     1
102
RTVSPropertyOp44
 70
     1
102
RTVSPropertyOp45
 70
     1
102
RTVSPropertyOp46
 70
     1
102
RTVSPropertyOp47
 70
     1
102
RTVSPropertyOp48
 70
     1
102
RTVSPropertyOp49
 70
     1
102
RTVSPropertyOp50
 70
     1
102
RTVSPropertyOp51
 70
     0
102
RTVSPropertyOp52
 70
     0
102
RTVSPropertyOp53
 70
     1
102
RTVSPropertyOp54
 70
     1
102
RTVSPropertyOp55
 70
     1
102
RTVSPropertyOp56
 70
     1
102
RTVSPropertyOp57
 70
     1
102
RTVSPost2010Prop28
280
     0
102
RTVSPost2010PropOp28
 70
     1
102
RTVSPost2010Prop29
280
     1
102
RTVSPost2010PropOp29
 70
     1
102
RTVSPost2010Prop30
280
     1
102
RTVSPost2010PropOp30
 70
     1
102
RTVSPost2010Prop31
280
     0
102
RTVSPost2010PropOp31
 70
     1
102
RTVSPost2010Prop32
280
     0
102
RTVSPost2010PropOp32
 70
     1
102
RTVSPost2010Prop33
280
     0
102
RTVSPost2010PropOp33
 70
     1
102
RTVSPost2010Prop34
280
     0
102
RTVSPost2010PropOp34
 70
     1
102
RTVSPost2010Prop35
280
     0
102
RTVSPost2010PropOp35
 70
     1
102
RTVSPost2010Prop36
280
     0
102
RTVSPost2010PropOp36
 70
     1
102
RTVSPost2010Prop37
 90
       50
102
RTVSPost2010PropOp37
 70
     1
102
RTVSPost2010Prop38
140
0.0
102
RTVSPost2010PropOp38
 70
     1
102
RTVSPost2010Prop39
140
1.0
102
RTVSPost2010PropOp39
 70
     1
102
RTVSPost2010Prop40
 90
        0
102
RTVSPost2010PropOp40
 70
     1
102
RTVSPost2010Prop41ColorIndex
 90
       18
102
RTVSPost2010Prop41ColorRGB
 90
        0
102
RTVSPost2010PropOp41
 70
     1
102
RTVSPost2010Prop42
 90
       50
102
RTVSPost2010PropOp42
 70
     1
102
RTVSPost2010Prop43
 90
        3
102
RTVSPost2010PropOp43
 70
     1
102
RTVSPost2010Prop44ColorIndex
 90
        5
102
RTVSPost2010Prop44ColorRGB
 90
      255
102
RTVSPost2010PropOp44
 70
     1
102
RTVSPost2010Prop45
280
     0
102
RTVSPost2010PropOp45
 70
     1
102
RTVSPost2010Prop46
 90
       50
102
RTVSPost2010PropOp46
 70
     1
102
RTVSPost2010Prop47
 90
       50
102
RTVSPost2010PropOp47
 70
     1
102
RTVSPost2010Prop48
 90
       50
102
RTVSPost2010PropOp48
 70
     1
102
RTVSPost2010Prop49
280
     0
102
RTVSPost2010PropOp49
 70
     1
102
RTVSPost2010Prop50
 90
       50
102
RTVSPost2010PropOp50
 70
     1
102
RTVSPost2010Prop51ColorIndex
 90
      256
102
RTVSPost2010Prop51ColorRGB
 90
-16777216
102
RTVSPost2010PropOp51
 70
     0
102
RTVSPost2010Prop52
140
1.0
102
RTVSPost2010PropOp52
 70
     0
102
RTVSPost2010Prop53
 90
        2
102
RTVSPost2010PropOp53
 70
     1
102
RTVSPost2010Prop54
  1
strokes_ogs.tif
102
RTVSPost2010PropOp54
 70
     1
102
RTVSPost2010Prop55
280
     0
102
RTVSPost2010PropOp55
 70
     1
102
RTVSPost2010Prop56
140
1.0
102
RTVSPost2010PropOp56
 70
     1
102
RTVSPost2010Prop57
140
1.0
102
RTVSPost2010PropOp57
 70
     1
  0
XRECORD
  5
1BD
102
{ACAD_REACTORS
330
1BC
102
}
330
1BC
100
AcDbXrecord
280
     1
102
RTVSPropertyOp0
 70
     1
102
RTVSPropertyOp1
 70
     1
102
RTVSPropertyOp2
 70
     1
102
RTVSPropertyOp3
 70
     1
102
RTVSPropertyOp4
 70
     1
102
RTVSPropertyOp5
 70
     1
102
RTVSPropertyOp6
 70
     1
102
RTVSPropertyOp7
 70
     1
102
RTVSPropertyOp8
 70
     1
102
RTVSPropertyOp9
 70
     1
102
RTVSPropertyOp10
 70
     1
102
RTVSPropertyOp11
 70
     1
102
RTVSPropertyOp12
 70
     1
102
RTVSPropertyOp13
 70
     1
102
RTVSPropertyOp14
 70
     1
102
RTVSPropertyOp15
 70
     1
102
RTVSPropertyOp16
 70
     1
102
RTVSPropertyOp17
 70
     1
102
RTVSPropertyOp18
 70
     1
102
RTVSPropertyOp19
 70
     1
102
RTVSPropertyOp20
 70
     1
102
RTVSPropertyOp21
 70
     1
102
RTVSPropertyOp22
 70
     1
102
RTVSPropertyOp23
 70
     1
102
RTVSPropertyOp24
 70
     1
102
RTVSPropertyOp25
 70
     1
102
RTVSPropertyOp26
 70
     1
102
RTVSPropertyOp27
 70
     1
102
RTVSPropertyOp28
 70
     1
102
RTVSPropertyOp29
 70
     1
102
RTVSPropertyOp30
 70
     1
102
RTVSPropertyOp31
 70
     1
102
RTVSPropertyOp32
 70
     1
102
RTVSPropertyOp33
 70
     1
102
RTVSPropertyOp34
 70
     1
102
RTVSPropertyOp35
 70
     1
102
RTVSPropertyOp36
 70
     1
102
RTVSPropertyOp37
 70
     1
102
RTVSPropertyOp38
 70
     1
102
RTVSPropertyOp39
 70
     1
102
RTVSPropertyOp40
 70
     1
102
RTVSPropertyOp41
 70
     1
102
RTVSPropertyOp42
 70
     1
102
RTVSPropertyOp43
 70
     1
102
RTVSPropertyOp44
 70
     1
102
RTVSPropertyOp45
 70
     1
102
RTVSPropertyOp46
 70
     1
102
RTVSPropertyOp47
 70
     1
102
RTVSPropertyOp48
 70
     1
102
RTVSPropertyOp49
 70
     1
102
RTVSPropertyOp50
 70
     1
102
RTVSPropertyOp51
 70
     0
102
RTVSPropertyOp52
 70
     0
102
RTVSPropertyOp53
 70
     1
102
RTVSPropertyOp54
 70
     1
102
RTVSPropertyOp55
 70
     1
102
RTVSPropertyOp56
 70
     1
102
RTVSPropertyOp57
 70
     1
102
RTVSPost2010Prop28
280
     0
102
RTVSPost2010PropOp28
 70
     1
102
RTVSPost2010Prop29
280
     1
102
RTVSPost2010PropOp29
 70
     1
102
RTVSPost2010Prop30
280
     1
102
RTVSPost2010PropOp30
 70
     1
102
RTVSPost2010Prop31
280
     0
102
RTVSPost2010PropOp31
 70
     1
102
RTVSPost2010Prop32
280
     0
102
RTVSPost2010PropOp32
 70
     1
102
RTVSPost2010Prop33
280
     0
102
RTVSPost2010PropOp33
 70
     1
102
RTVSPost2010Prop34
280
     0
102
RTVSPost2010PropOp34
 70
     1
102
RTVSPost2010Prop35
280
     0
102
RTVSPost2010PropOp35
 70
     1
102
RTVSPost2010Prop36
280
     0
102
RTVSPost2010PropOp36
 70
     1
102
RTVSPost2010Prop37
 90
       50
102
RTVSPost2010PropOp37
 70
     1
102
RTVSPost2010Prop38
140
0.0
102
RTVSPost2010PropOp38
 70
     1
102
RTVSPost2010Prop39
140
1.0
102
RTVSPost2010PropOp39
 70
     1
102
RTVSPost2010Prop40
 90
        0
102
RTVSPost2010PropOp40
 70
     1
102
RTVSPost2010Prop41ColorIndex
 90
       18
102
RTVSPost2010Prop41ColorRGB
 90
        0
102
RTVSPost2010PropOp41
 70
     1
102
RTVSPost2010Prop42
 90
       50
102
RTVSPost2010PropOp42
 70
     1
102
RTVSPost2010Prop43
 90
        3
102
RTVSPost2010PropOp43
 70
     1
102
RTVSPost2010Prop44ColorIndex
 90
        5
102
RTVSPost2010Prop44ColorRGB
 90
      255
102
RTVSPost2010PropOp44
 70
     1
102
RTVSPost2010Prop45
280
     0
102
RTVSPost2010PropOp45
 70
     1
102
RTVSPost2010Prop46
 90
       50
102
RTVSPost2010PropOp46
 70
     1
102
RTVSPost2010Prop47
 90
       50
102
RTVSPost2010PropOp47
 70
     1
102
RTVSPost2010Prop48
 90
       50
102
RTVSPost2010PropOp48
 70
     1
102
RTVSPost2010Prop49
280
     0
102
RTVSPost2010PropOp49
 70
     1
102
RTVSPost2010Prop50
 90
       50
102
RTVSPost2010PropOp50
 70
     1
102
RTVSPost2010Prop51ColorIndex
 90
      256
102
RTVSPost2010Prop51ColorRGB
 90
-16777216
102
RTVSPost2010PropOp51
 70
     0
102
RTVSPost2010Prop52
140
1.0
102
RTVSPost2010PropOp52
 70
     0
102
RTVSPost2010Prop53
 90
        2
102
RTVSPost2010PropOp53
 70
     1
102
RTVSPost2010Prop54
  1
strokes_ogs.tif
102
RTVSPost2010PropOp54
 70
     1
102
RTVSPost2010Prop55
280
     0
102
RTVSPost2010PropOp55
 70
     1
102
RTVSPost2010Prop56
140
1.0
102
RTVSPost2010PropOp56
 70
     1
102
RTVSPost2010Prop57
140
1.0
102
RTVSPost2010PropOp57
 70
     1
  0
XRECORD
  5
1BF
102
{ACAD_REACTORS
330
1BE
102
}
330
1BE
100
AcDbXrecord
280
     1
102
RTVSPropertyOp0
 70
     1
102
RTVSPropertyOp1
 70
     1
102
RTVSPropertyOp2
 70
     1
102
RTVSPropertyOp3
 70
     1
102
RTVSPropertyOp4
 70
     1
102
RTVSPropertyOp5
 70
     1
102
RTVSPropertyOp6
 70
     1
102
RTVSPropertyOp7
 70
     1
102
RTVSPropertyOp8
 70
     1
102
RTVSPropertyOp9
 70
     1
102
RTVSPropertyOp10
 70
     1
102
RTVSPropertyOp11
 70
     1
102
RTVSPropertyOp12
 70
     1
102
RTVSPropertyOp13
 70
     1
102
RTVSPropertyOp14
 70
     1
102
RTVSPropertyOp15
 70
     1
102
RTVSPropertyOp16
 70
     1
102
RTVSPropertyOp17
 70
     1
102
RTVSPropertyOp18
 70
     1
102
RTVSPropertyOp19
 70
     1
102
RTVSPropertyOp20
 70
     1
102
RTVSPropertyOp21
 70
     1
102
RTVSPropertyOp22
 70
     1
102
RTVSPropertyOp23
 70
     1
102
RTVSPropertyOp24
 70
     1
102
RTVSPropertyOp25
 70
     1
102
RTVSPropertyOp26
 70
     1
102
RTVSPropertyOp27
 70
     1
102
RTVSPropertyOp28
 70
     1
102
RTVSPropertyOp29
 70
     1
102
RTVSPropertyOp30
 70
     1
102
RTVSPropertyOp31
 70
     1
102
RTVSPropertyOp32
 70
     1
102
RTVSPropertyOp33
 70
     1
102
RTVSPropertyOp34
 70
     1
102
RTVSPropertyOp35
 70
     1
102
RTVSPropertyOp36
 70
     1
102
RTVSPropertyOp37
 70
     1
102
RTVSPropertyOp38
 70
     1
102
RTVSPropertyOp39
 70
     1
102
RTVSPropertyOp40
 70
     1
102
RTVSPropertyOp41
 70
     1
102
RTVSPropertyOp42
 70
     1
102
RTVSPropertyOp43
 70
     1
102
RTVSPropertyOp44
 70
     1
102
RTVSPropertyOp45
 70
     1
102
RTVSPropertyOp46
 70
     1
102
RTVSPropertyOp47
 70
     1
102
RTVSPropertyOp48
 70
     1
102
RTVSPropertyOp49
 70
     1
102
RTVSPropertyOp50
 70
     1
102
RTVSPropertyOp51
 70
     0
102
RTVSPropertyOp52
 70
     0
102
RTVSPropertyOp53
 70
     1
102
RTVSPropertyOp54
 70
     1
102
RTVSPropertyOp55
 70
     1
102
RTVSPropertyOp56
 70
     1
102
RTVSPropertyOp57
 70
     1
102
RTVSPost2010Prop28
280
     0
102
RTVSPost2010PropOp28
 70
     1
102
RTVSPost2010Prop29
280
     1
102
RTVSPost2010PropOp29
 70
     1
102
RTVSPost2010Prop30
280
     1
102
RTVSPost2010PropOp30
 70
     1
102
RTVSPost2010Prop31
280
     0
102
RTVSPost2010PropOp31
 70
     1
102
RTVSPost2010Prop32
280
     0
102
RTVSPost2010PropOp32
 70
     1
102
RTVSPost2010Prop33
280
     0
102
RTVSPost2010PropOp33
 70
     1
102
RTVSPost2010Prop34
280
     0
102
RTVSPost2010PropOp34
 70
     1
102
RTVSPost2010Prop35
280
     0
102
RTVSPost2010PropOp35
 70
     1
102
RTVSPost2010Prop36
280
     0
102
RTVSPost2010PropOp36
 70
     1
102
RTVSPost2010Prop37
 90
       50
102
RTVSPost2010PropOp37
 70
     1
102
RTVSPost2010Prop38
140
0.0
102
RTVSPost2010PropOp38
 70
     1
102
RTVSPost2010Prop39
140
1.0
102
RTVSPost2010PropOp39
 70
     1
102
RTVSPost2010Prop40
 90
        0
102
RTVSPost2010PropOp40
 70
     1
102
RTVSPost2010Prop41ColorIndex
 90
       18
102
RTVSPost2010Prop41ColorRGB
 90
        0
102
RTVSPost2010PropOp41
 70
     1
102
RTVSPost2010Prop42
 90
       50
102
RTVSPost2010PropOp42
 70
     1
102
RTVSPost2010Prop43
 90
        3
102
RTVSPost2010PropOp43
 70
     1
102
RTVSPost2010Prop44ColorIndex
 90
        5
102
RTVSPost2010Prop44ColorRGB
 90
      255
102
RTVSPost2010PropOp44
 70
     1
102
RTVSPost2010Prop45
280
     0
102
RTVSPost2010PropOp45
 70
     1
102
RTVSPost2010Prop46
 90
       50
102
RTVSPost2010PropOp46
 70
     1
102
RTVSPost2010Prop47
 90
       50
102
RTVSPost2010PropOp47
 70
     1
102
RTVSPost2010Prop48
 90
       50
102
RTVSPost2010PropOp48
 70
     1
102
RTVSPost2010Prop49
280
     0
102
RTVSPost2010PropOp49
 70
     1
102
RTVSPost2010Prop50
 90
       50
102
RTVSPost2010PropOp50
 70
     1
102
RTVSPost2010Prop51ColorIndex
 90
      256
102
RTVSPost2010Prop51ColorRGB
 90
-16777216
102
RTVSPost2010PropOp51
 70
     0
102
RTVSPost2010Prop52
140
1.0
102
RTVSPost2010PropOp52
 70
     0
102
RTVSPost2010Prop53
 90
        2
102
RTVSPost2010PropOp53
 70
     1
102
RTVSPost2010Prop54
  1
strokes_ogs.tif
102
RTVSPost2010PropOp54
 70
     1
102
RTVSPost2010Prop55
280
     0
102
RTVSPost2010PropOp55
 70
     1
102
RTVSPost2010Prop56
140
1.0
102
RTVSPost2010PropOp56
 70
     1
102
RTVSPost2010Prop57
140
1.0
102
RTVSPost2010PropOp57
 70
     1
  0
XRECORD
  5
1C1
102
{ACAD_REACTORS
330
1C0
102
}
330
1C0
100
AcDbXrecord
280
     1
102
RTVSPropertyOp0
 70
     1
102
RTVSPropertyOp1
 70
     1
102
RTVSPropertyOp2
 70
     1
102
RTVSPropertyOp3
 70
     1
102
RTVSPropertyOp4
 70
     1
102
RTVSPropertyOp5
 70
     1
102
RTVSPropertyOp6
 70
     1
102
RTVSPropertyOp7
 70
     1
102
RTVSPropertyOp8
 70
     1
102
RTVSPropertyOp9
 70
     1
102
RTVSPropertyOp10
 70
     1
102
RTVSPropertyOp11
 70
     1
102
RTVSPropertyOp12
 70
     1
102
RTVSPropertyOp13
 70
     1
102
RTVSPropertyOp14
 70
     1
102
RTVSPropertyOp15
 70
     1
102
RTVSPropertyOp16
 70
     1
102
RTVSPropertyOp17
 70
     1
102
RTVSPropertyOp18
 70
     1
102
RTVSPropertyOp19
 70
     1
102
RTVSPropertyOp20
 70
     1
102
RTVSPropertyOp21
 70
     1
102
RTVSPropertyOp22
 70
     1
102
RTVSPropertyOp23
 70
     1
102
RTVSPropertyOp24
 70
     1
102
RTVSPropertyOp25
 70
     1
102
RTVSPropertyOp26
 70
     1
102
RTVSPropertyOp27
 70
     1
102
RTVSPropertyOp28
 70
     1
102
RTVSPropertyOp29
 70
     1
102
RTVSPropertyOp30
 70
     1
102
RTVSPropertyOp31
 70
     1
102
RTVSPropertyOp32
 70
     1
102
RTVSPropertyOp33
 70
     1
102
RTVSPropertyOp34
 70
     1
102
RTVSPropertyOp35
 70
     1
102
RTVSPropertyOp36
 70
     1
102
RTVSPropertyOp37
 70
     1
102
RTVSPropertyOp38
 70
     1
102
RTVSPropertyOp39
 70
     1
102
RTVSPropertyOp40
 70
     1
102
RTVSPropertyOp41
 70
     1
102
RTVSPropertyOp42
 70
     1
102
RTVSPropertyOp43
 70
     1
102
RTVSPropertyOp44
 70
     1
102
RTVSPropertyOp45
 70
     1
102
RTVSPropertyOp46
 70
     1
102
RTVSPropertyOp47
 70
     1
102
RTVSPropertyOp48
 70
     1
102
RTVSPropertyOp49
 70
     1
102
RTVSPropertyOp50
 70
     1
102
RTVSPropertyOp51
 70
     0
102
RTVSPropertyOp52
 70
     0
102
RTVSPropertyOp53
 70
     1
102
RTVSPropertyOp54
 70
     1
102
RTVSPropertyOp55
 70
     1
102
RTVSPropertyOp56
 70
     1
102
RTVSPropertyOp57
 70
     1
102
RTVSPost2010Prop28
280
     0
102
RTVSPost2010PropOp28
 70
     1
102
RTVSPost2010Prop29
280
     1
102
RTVSPost2010PropOp29
 70
     1
102
RTVSPost2010Prop30
280
     1
102
RTVSPost2010PropOp30
 70
     1
102
RTVSPost2010Prop31
280
     0
102
RTVSPost2010PropOp31
 70
     1
102
RTVSPost2010Prop32
280
     0
102
RTVSPost2010PropOp32
 70
     1
102
RTVSPost2010Prop33
280
     0
102
RTVSPost2010PropOp33
 70
     1
102
RTVSPost2010Prop34
280
     0
102
RTVSPost2010PropOp34
 70
     1
102
RTVSPost2010Prop35
280
     0
102
RTVSPost2010PropOp35
 70
     1
102
RTVSPost2010Prop36
280
     0
102
RTVSPost2010PropOp36
 70
     1
102
RTVSPost2010Prop37
 90
       50
102
RTVSPost2010PropOp37
 70
     1
102
RTVSPost2010Prop38
140
0.0
102
RTVSPost2010PropOp38
 70
     1
102
RTVSPost2010Prop39
140
1.0
102
RTVSPost2010PropOp39
 70
     1
102
RTVSPost2010Prop40
 90
        0
102
RTVSPost2010PropOp40
 70
     1
102
RTVSPost2010Prop41ColorIndex
 90
       18
102
RTVSPost2010Prop41ColorRGB
 90
        0
102
RTVSPost2010PropOp41
 70
     1
102
RTVSPost2010Prop42
 90
       50
102
RTVSPost2010PropOp42
 70
     1
102
RTVSPost2010Prop43
 90
        3
102
RTVSPost2010PropOp43
 70
     1
102
RTVSPost2010Prop44ColorIndex
 90
        5
102
RTVSPost2010Prop44ColorRGB
 90
      255
102
RTVSPost2010PropOp44
 70
     1
102
RTVSPost2010Prop45
280
     0
102
RTVSPost2010PropOp45
 70
     1
102
RTVSPost2010Prop46
 90
       50
102
RTVSPost2010PropOp46
 70
     1
102
RTVSPost2010Prop47
 90
       50
102
RTVSPost2010PropOp47
 70
     1
102
RTVSPost2010Prop48
 90
       50
102
RTVSPost2010PropOp48
 70
     1
102
RTVSPost2010Prop49
280
     0
102
RTVSPost2010PropOp49
 70
     1
102
RTVSPost2010Prop50
 90
       50
102
RTVSPost2010PropOp50
 70
     1
102
RTVSPost2010Prop51ColorIndex
 90
      256
102
RTVSPost2010Prop51ColorRGB
 90
-16777216
102
RTVSPost2010PropOp51
 70
     0
102
RTVSPost2010Prop52
140
1.0
102
RTVSPost2010PropOp52
 70
     0
102
RTVSPost2010Prop53
 90
        2
102
RTVSPost2010PropOp53
 70
     1
102
RTVSPost2010Prop54
  1
strokes_ogs.tif
102
RTVSPost2010PropOp54
 70
     1
102
RTVSPost2010Prop55
280
     0
102
RTVSPost2010PropOp55
 70
     1
102
RTVSPost2010Prop56
140
1.0
102
RTVSPost2010PropOp56
 70
     1
102
RTVSPost2010Prop57
140
1.0
102
RTVSPost2010PropOp57
 70
     1
  0
XRECORD
  5
1C3
102
{ACAD_REACTORS
330
1C2
102
}
330
1C2
100
AcDbXrecord
280
     1
102
RTVSPropertyOp0
 70
     1
102
RTVSPropertyOp1
 70
     1
102
RTVSPropertyOp2
 70
     1
102
RTVSPropertyOp3
 70
     1
102
RTVSPropertyOp4
 70
     1
102
RTVSPropertyOp5
 70
     1
102
RTVSPropertyOp6
 70
     1
102
RTVSPropertyOp7
 70
     1
102
RTVSPropertyOp8
 70
     1
102
RTVSPropertyOp9
 70
     1
102
RTVSPropertyOp10
 70
     1
102
RTVSPropertyOp11
 70
     1
102
RTVSPropertyOp12
 70
     1
102
RTVSPropertyOp13
 70
     1
102
RTVSPropertyOp14
 70
     1
102
RTVSPropertyOp15
 70
     1
102
RTVSPropertyOp16
 70
     1
102
RTVSPropertyOp17
 70
     1
102
RTVSPropertyOp18
 70
     1
102
RTVSPropertyOp19
 70
     1
102
RTVSPropertyOp20
 70
     1
102
RTVSPropertyOp21
 70
     1
102
RTVSPropertyOp22
 70
     1
102
RTVSPropertyOp23
 70
     1
102
RTVSPropertyOp24
 70
     1
102
RTVSPropertyOp25
 70
     1
102
RTVSPropertyOp26
 70
     1
102
RTVSPropertyOp27
 70
     1
102
RTVSPropertyOp28
 70
     1
102
RTVSPropertyOp29
 70
     1
102
RTVSPropertyOp30
 70
     1
102
RTVSPropertyOp31
 70
     1
102
RTVSPropertyOp32
 70
     1
102
RTVSPropertyOp33
 70
     1
102
RTVSPropertyOp34
 70
     1
102
RTVSPropertyOp35
 70
     1
102
RTVSPropertyOp36
 70
     1
102
RTVSPropertyOp37
 70
     1
102
RTVSPropertyOp38
 70
     1
102
RTVSPropertyOp39
 70
     1
102
RTVSPropertyOp40
 70
     1
102
RTVSPropertyOp41
 70
     1
102
RTVSPropertyOp42
 70
     1
102
RTVSPropertyOp43
 70
     1
102
RTVSPropertyOp44
 70
     1
102
RTVSPropertyOp45
 70
     1
102
RTVSPropertyOp46
 70
     1
102
RTVSPropertyOp47
 70
     1
102
RTVSPropertyOp48
 70
     1
102
RTVSPropertyOp49
 70
     1
102
RTVSPropertyOp50
 70
     1
102
RTVSPropertyOp51
 70
     0
102
RTVSPropertyOp52
 70
     0
102
RTVSPropertyOp53
 70
     1
102
RTVSPropertyOp54
 70
     1
102
RTVSPropertyOp55
 70
     1
102
RTVSPropertyOp56
 70
     1
102
RTVSPropertyOp57
 70
     1
102
RTVSPost2010Prop28
280
     0
102
RTVSPost2010PropOp28
 70
     1
102
RTVSPost2010Prop29
280
     1
102
RTVSPost2010PropOp29
 70
     1
102
RTVSPost2010Prop30
280
     1
102
RTVSPost2010PropOp30
 70
     1
102
RTVSPost2010Prop31
280
     0
102
RTVSPost2010PropOp31
 70
     1
102
RTVSPost2010Prop32
280
     0
102
RTVSPost2010PropOp32
 70
     1
102
RTVSPost2010Prop33
280
     0
102
RTVSPost2010PropOp33
 70
     1
102
RTVSPost2010Prop34
280
     0
102
RTVSPost2010PropOp34
 70
     1
102
RTVSPost2010Prop35
280
     0
102
RTVSPost2010PropOp35
 70
     1
102
RTVSPost2010Prop36
280
     0
102
RTVSPost2010PropOp36
 70
     1
102
RTVSPost2010Prop37
 90
       50
102
RTVSPost2010PropOp37
 70
     1
102
RTVSPost2010Prop38
140
0.0
102
RTVSPost2010PropOp38
 70
     1
102
RTVSPost2010Prop39
140
1.0
102
RTVSPost2010PropOp39
 70
     1
102
RTVSPost2010Prop40
 90
        0
102
RTVSPost2010PropOp40
 70
     1
102
RTVSPost2010Prop41ColorIndex
 90
       18
102
RTVSPost2010Prop41ColorRGB
 90
        0
102
RTVSPost2010PropOp41
 70
     1
102
RTVSPost2010Prop42
 90
       50
102
RTVSPost2010PropOp42
 70
     1
102
RTVSPost2010Prop43
 90
        3
102
RTVSPost2010PropOp43
 70
     1
102
RTVSPost2010Prop44ColorIndex
 90
        5
102
RTVSPost2010Prop44ColorRGB
 90
      255
102
RTVSPost2010PropOp44
 70
     1
102
RTVSPost2010Prop45
280
     0
102
RTVSPost2010PropOp45
 70
     1
102
RTVSPost2010Prop46
 90
       50
102
RTVSPost2010PropOp46
 70
     1
102
RTVSPost2010Prop47
 90
       50
102
RTVSPost2010PropOp47
 70
     1
102
RTVSPost2010Prop48
 90
       50
102
RTVSPost2010PropOp48
 70
     1
102
RTVSPost2010Prop49
280
     0
102
RTVSPost2010PropOp49
 70
     1
102
RTVSPost2010Prop50
 90
       50
102
RTVSPost2010PropOp50
 70
     1
102
RTVSPost2010Prop51ColorIndex
 90
      256
102
RTVSPost2010Prop51ColorRGB
 90
-16777216
102
RTVSPost2010PropOp51
 70
     0
102
RTVSPost2010Prop52
140
1.0
102
RTVSPost2010PropOp52
 70
     0
102
RTVSPost2010Prop53
 90
        2
102
RTVSPost2010PropOp53
 70
     1
102
RTVSPost2010Prop54
  1
strokes_ogs.tif
102
RTVSPost2010PropOp54
 70
     1
102
RTVSPost2010Prop55
280
     0
102
RTVSPost2010PropOp55
 70
     1
102
RTVSPost2010Prop56
140
1.0
102
RTVSPost2010PropOp56
 70
     1
102
RTVSPost2010Prop57
140
1.0
102
RTVSPost2010PropOp57
 70
     1
  0
XRECORD
  5
1C9
102
{ACAD_REACTORS
330
1C8
102
}
330
1C8
100
AcDbXrecord
280
     1
102
RTVSPropertyOp0
 70
     1
102
RTVSPropertyOp1
 70
     1
102
RTVSPropertyOp2
 70
     1
102
RTVSPropertyOp3
 70
     1
102
RTVSPropertyOp4
 70
     1
102
RTVSPropertyOp5
 70
     1
102
RTVSPropertyOp6
 70
     1
102
RTVSPropertyOp7
 70
     1
102
RTVSPropertyOp8
 70
     1
102
RTVSPropertyOp9
 70
     1
102
RTVSPropertyOp10
 70
     1
102
RTVSPropertyOp11
 70
     1
102
RTVSPropertyOp12
 70
     1
102
RTVSPropertyOp13
 70
     1
102
RTVSPropertyOp14
 70
     1
102
RTVSPropertyOp15
 70
     1
102
RTVSPropertyOp16
 70
     1
102
RTVSPropertyOp17
 70
     1
102
RTVSPropertyOp18
 70
     1
102
RTVSPropertyOp19
 70
     1
102
RTVSPropertyOp20
 70
     1
102
RTVSPropertyOp21
 70
     1
102
RTVSPropertyOp22
 70
     1
102
RTVSPropertyOp23
 70
     1
102
RTVSPropertyOp24
 70
     1
102
RTVSPropertyOp25
 70
     1
102
RTVSPropertyOp26
 70
     1
102
RTVSPropertyOp27
 70
     1
102
RTVSPropertyOp28
 70
     1
102
RTVSPropertyOp29
 70
     1
102
RTVSPropertyOp30
 70
     1
102
RTVSPropertyOp31
 70
     1
102
RTVSPropertyOp32
 70
     1
102
RTVSPropertyOp33
 70
     1
102
RTVSPropertyOp34
 70
     1
102
RTVSPropertyOp35
 70
     1
102
RTVSPropertyOp36
 70
     1
102
RTVSPropertyOp37
 70
     1
102
RTVSPropertyOp38
 70
     1
102
RTVSPropertyOp39
 70
     1
102
RTVSPropertyOp40
 70
     1
102
RTVSPropertyOp41
 70
     1
102
RTVSPropertyOp42
 70
     1
102
RTVSPropertyOp43
 70
     1
102
RTVSPropertyOp44
 70
     1
102
RTVSPropertyOp45
 70
     1
102
RTVSPropertyOp46
 70
     1
102
RTVSPropertyOp47
 70
     1
102
RTVSPropertyOp48
 70
     1
102
RTVSPropertyOp49
 70
     1
102
RTVSPropertyOp50
 70
     1
102
RTVSPropertyOp51
 70
     0
102
RTVSPropertyOp52
 70
     0
102
RTVSPropertyOp53
 70
     1
102
RTVSPropertyOp54
 70
     1
102
RTVSPropertyOp55
 70
     1
102
RTVSPropertyOp56
 70
     1
102
RTVSPropertyOp57
 70
     1
102
RTVSPost2010Prop28
280
     0
102
RTVSPost2010PropOp28
 70
     1
102
RTVSPost2010Prop29
280
     1
102
RTVSPost2010PropOp29
 70
     1
102
RTVSPost2010Prop30
280
     1
102
RTVSPost2010PropOp30
 70
     1
102
RTVSPost2010Prop31
280
     0
102
RTVSPost2010PropOp31
 70
     1
102
RTVSPost2010Prop32
280
     0
102
RTVSPost2010PropOp32
 70
     1
102
RTVSPost2010Prop33
280
     0
102
RTVSPost2010PropOp33
 70
     1
102
RTVSPost2010Prop34
280
     0
102
RTVSPost2010PropOp34
 70
     1
102
RTVSPost2010Prop35
280
     0
102
RTVSPost2010PropOp35
 70
     1
102
RTVSPost2010Prop36
280
     0
102
RTVSPost2010PropOp36
 70
     1
102
RTVSPost2010Prop37
 90
       50
102
RTVSPost2010PropOp37
 70
     1
102
RTVSPost2010Prop38
140
0.0
102
RTVSPost2010PropOp38
 70
     1
102
RTVSPost2010Prop39
140
1.0
102
RTVSPost2010PropOp39
 70
     1
102
RTVSPost2010Prop40
 90
        0
102
RTVSPost2010PropOp40
 70
     1
102
RTVSPost2010Prop41ColorIndex
 90
       18
102
RTVSPost2010Prop41ColorRGB
 90
        0
102
RTVSPost2010PropOp41
 70
     1
102
RTVSPost2010Prop42
 90
       50
102
RTVSPost2010PropOp42
 70
     1
102
RTVSPost2010Prop43
 90
        3
102
RTVSPost2010PropOp43
 70
     1
102
RTVSPost2010Prop44ColorIndex
 90
        5
102
RTVSPost2010Prop44ColorRGB
 90
      255
102
RTVSPost2010PropOp44
 70
     1
102
RTVSPost2010Prop45
280
     0
102
RTVSPost2010PropOp45
 70
     1
102
RTVSPost2010Prop46
 90
       50
102
RTVSPost2010PropOp46
 70
     1
102
RTVSPost2010Prop47
 90
       50
102
RTVSPost2010PropOp47
 70
     1
102
RTVSPost2010Prop48
 90
       50
102
RTVSPost2010PropOp48
 70
     1
102
RTVSPost2010Prop49
280
     0
102
RTVSPost2010PropOp49
 70
     1
102
RTVSPost2010Prop50
 90
       50
102
RTVSPost2010PropOp50
 70
     1
102
RTVSPost2010Prop51ColorIndex
 90
      256
102
RTVSPost2010Prop51ColorRGB
 90
-16777216
102
RTVSPost2010PropOp51
 70
     0
102
RTVSPost2010Prop52
140
1.0
102
RTVSPost2010PropOp52
 70
     0
102
RTVSPost2010Prop53
 90
        2
102
RTVSPost2010PropOp53
 70
     1
102
RTVSPost2010Prop54
  1
strokes_ogs.tif
102
RTVSPost2010PropOp54
 70
     1
102
RTVSPost2010Prop55
280
     0
102
RTVSPost2010PropOp55
 70
     1
102
RTVSPost2010Prop56
140
1.0
102
RTVSPost2010PropOp56
 70
     1
102
RTVSPost2010Prop57
140
1.0
102
RTVSPost2010PropOp57
 70
     1
  0
XRECORD
  5
1DD
102
{ACAD_REACTORS
330
1DC
102
}
330
1DC
100
AcDbXrecord
280
     1
102
RTVSPropertyOp0
 70
     0
102
RTVSPropertyOp1
 70
     0
102
RTVSPropertyOp2
 70
     0
102
RTVSPropertyOp3
 70
     0
102
RTVSPropertyOp4
 70
     0
102
RTVSPropertyOp5
 70
     0
102
RTVSPropertyOp6
 70
     0
102
RTVSPropertyOp7
 70
     0
102
RTVSPropertyOp8
 70
     0
102
RTVSPropertyOp9
 70
     0
102
RTVSPropertyOp10
 70
     0
102
RTVSPropertyOp11
 70
     0
102
RTVSPropertyOp12
 70
     0
102
RTVSPropertyOp13
 70
     0
102
RTVSPropertyOp14
 70
     2
102
RTVSPropertyOp15
 70
     0
102
RTVSPropertyOp16
 70
     0
102
RTVSPropertyOp17
 70
     0
102
RTVSPropertyOp18
 70
     0
102
RTVSPropertyOp19
 70
     0
102
RTVSPropertyOp20
 70
     0
102
RTVSPropertyOp21
 70
     0
102
RTVSPropertyOp22
 70
     0
102
RTVSPropertyOp23
 70
     0
102
RTVSPropertyOp24
 70
     0
102
RTVSPropertyOp25
 70
     0
102
RTVSPropertyOp26
 70
     0
102
RTVSPropertyOp27
 70
     0
102
RTVSPropertyOp28
 70
     0
102
RTVSPropertyOp29
 70
     0
102
RTVSPropertyOp30
 70
     0
102
RTVSPropertyOp31
 70
     0
102
RTVSPropertyOp32
 70
     0
102
RTVSPropertyOp33
 70
     0
102
RTVSPropertyOp34
 70
     0
102
RTVSPropertyOp35
 70
     0
102
RTVSPropertyOp36
 70
     0
102
RTVSPropertyOp37
 70
     0
102
RTVSPropertyOp38
 70
     0
102
RTVSPropertyOp39
 70
     0
102
RTVSPropertyOp40
 70
     0
102
RTVSPropertyOp41
 70
     0
102
RTVSPropertyOp42
 70
     0
102
RTVSPropertyOp43
 70
     0
102
RTVSPropertyOp44
 70
     0
102
RTVSPropertyOp45
 70
     0
102
RTVSPropertyOp46
 70
     0
102
RTVSPropertyOp47
 70
     0
102
RTVSPropertyOp48
 70
     0
102
RTVSPropertyOp49
 70
     0
102
RTVSPropertyOp50
 70
     0
102
RTVSPropertyOp51
 70
     0
102
RTVSPropertyOp52
 70
     0
102
RTVSPropertyOp53
 70
     0
102
RTVSPropertyOp54
 70
     0
102
RTVSPropertyOp55
 70
     0
102
RTVSPropertyOp56
 70
     0
102
RTVSPropertyOp57
 70
     0
102
RTVSPost2010Prop28
280
     0
102
RTVSPost2010PropOp28
 70
     0
102
RTVSPost2010Prop29
280
     1
102
RTVSPost2010PropOp29
 70
     0
102
RTVSPost2010Prop30
280
     1
102
RTVSPost2010PropOp30
 70
     0
102
RTVSPost2010Prop31
280
     0
102
RTVSPost2010PropOp31
 70
     0
102
RTVSPost2010Prop32
280
     0
102
RTVSPost2010PropOp32
 70
     0
102
RTVSPost2010Prop33
280
     0
102
RTVSPost2010PropOp33
 70
     0
102
RTVSPost2010Prop34
280
     0
102
RTVSPost2010PropOp34
 70
     0
102
RTVSPost2010Prop35
280
     0
102
RTVSPost2010PropOp35
 70
     0
102
RTVSPost2010Prop36
280
     0
102
RTVSPost2010PropOp36
 70
     0
102
RTVSPost2010Prop37
 90
       50
102
RTVSPost2010PropOp37
 70
     0
102
RTVSPost2010Prop38
140
0.0
102
RTVSPost2010PropOp38
 70
     0
102
RTVSPost2010Prop39
140
1.0
102
RTVSPost2010PropOp39
 70
     0
102
RTVSPost2010Prop40
 90
        0
102
RTVSPost2010PropOp40
 70
     0
102
RTVSPost2010Prop41ColorIndex
 90
       18
102
RTVSPost2010Prop41ColorRGB
 90
        0
102
RTVSPost2010PropOp41
 70
     0
102
RTVSPost2010Prop42
 90
       50
102
RTVSPost2010PropOp42
 70
     0
102
RTVSPost2010Prop43
 90
        3
102
RTVSPost2010PropOp43
 70
     0
102
RTVSPost2010Prop44ColorIndex
 90
        5
102
RTVSPost2010Prop44ColorRGB
 90
      255
102
RTVSPost2010PropOp44
 70
     0
102
RTVSPost2010Prop45
280
     0
102
RTVSPost2010PropOp45
 70
     0
102
RTVSPost2010Prop46
 90
       50
102
RTVSPost2010PropOp46
 70
     0
102
RTVSPost2010Prop47
 90
       50
102
RTVSPost2010PropOp47
 70
     0
102
RTVSPost2010Prop48
 90
       50
102
RTVSPost2010PropOp48
 70
     0
102
RTVSPost2010Prop49
280
     0
102
RTVSPost2010PropOp49
 70
     0
102
RTVSPost2010Prop50
 90
       50
102
RTVSPost2010PropOp50
 70
     0
102
RTVSPost2010Prop51ColorIndex
 90
      256
102
RTVSPost2010Prop51ColorRGB
 90
-16777216
102
RTVSPost2010PropOp51
 70
     0
102
RTVSPost2010Prop52
140
1.0
102
RTVSPost2010PropOp52
 70
     0
102
RTVSPost2010Prop53
 90
        2
102
RTVSPost2010PropOp53
 70
     0
102
RTVSPost2010Prop54
  1
strokes_ogs.tif
102
RTVSPost2010PropOp54
 70
     0
102
RTVSPost2010Prop55
280
     0
102
RTVSPost2010PropOp55
 70
     0
102
RTVSPost2010Prop56
140
1.0
102
RTVSPost2010PropOp56
 70
     0
102
RTVSPost2010Prop57
140
1.0
102
RTVSPost2010PropOp57
 70
     0
  0
XRECORD
  5
1D7
102
{ACAD_REACTORS
330
1D6
102
}
330
1D6
100
AcDbXrecord
280
     1
102
RTVSPropertyOp0
 70
     1
102
RTVSPropertyOp1
 70
     1
102
RTVSPropertyOp2
 70
     1
102
RTVSPropertyOp3
 70
     1
102
RTVSPropertyOp4
 70
     1
102
RTVSPropertyOp5
 70
     1
102
RTVSPropertyOp6
 70
     1
102
RTVSPropertyOp7
 70
     1
102
RTVSPropertyOp8
 70
     1
102
RTVSPropertyOp9
 70
     1
102
RTVSPropertyOp10
 70
     1
102
RTVSPropertyOp11
 70
     1
102
RTVSPropertyOp12
 70
     1
102
RTVSPropertyOp13
 70
     1
102
RTVSPropertyOp14
 70
     1
102
RTVSPropertyOp15
 70
     1
102
RTVSPropertyOp16
 70
     1
102
RTVSPropertyOp17
 70
     1
102
RTVSPropertyOp18
 70
     1
102
RTVSPropertyOp19
 70
     1
102
RTVSPropertyOp20
 70
     1
102
RTVSPropertyOp21
 70
     1
102
RTVSPropertyOp22
 70
     1
102
RTVSPropertyOp23
 70
     1
102
RTVSPropertyOp24
 70
     1
102
RTVSPropertyOp25
 70
     1
102
RTVSPropertyOp26
 70
     1
102
RTVSPropertyOp27
 70
     1
102
RTVSPropertyOp28
 70
     1
102
RTVSPropertyOp29
 70
     1
102
RTVSPropertyOp30
 70
     1
102
RTVSPropertyOp31
 70
     1
102
RTVSPropertyOp32
 70
     1
102
RTVSPropertyOp33
 70
     1
102
RTVSPropertyOp34
 70
     1
102
RTVSPropertyOp35
 70
     1
102
RTVSPropertyOp36
 70
     1
102
RTVSPropertyOp37
 70
     1
102
RTVSPropertyOp38
 70
     1
102
RTVSPropertyOp39
 70
     1
102
RTVSPropertyOp40
 70
     1
102
RTVSPropertyOp41
 70
     1
102
RTVSPropertyOp42
 70
     1
102
RTVSPropertyOp43
 70
     1
102
RTVSPropertyOp44
 70
     1
102
RTVSPropertyOp45
 70
     1
102
RTVSPropertyOp46
 70
     1
102
RTVSPropertyOp47
 70
     1
102
RTVSPropertyOp48
 70
     1
102
RTVSPropertyOp49
 70
     1
102
RTVSPropertyOp50
 70
     1
102
RTVSPropertyOp51
 70
     0
102
RTVSPropertyOp52
 70
     0
102
RTVSPropertyOp53
 70
     1
102
RTVSPropertyOp54
 70
     1
102
RTVSPropertyOp55
 70
     1
102
RTVSPropertyOp56
 70
     1
102
RTVSPropertyOp57
 70
     1
102
RTVSPost2010Prop28
280
     0
102
RTVSPost2010PropOp28
 70
     1
102
RTVSPost2010Prop29
280
     1
102
RTVSPost2010PropOp29
 70
     1
102
RTVSPost2010Prop30
280
     1
102
RTVSPost2010PropOp30
 70
     1
102
RTVSPost2010Prop31
280
     0
102
RTVSPost2010PropOp31
 70
     1
102
RTVSPost2010Prop32
280
     0
102
RTVSPost2010PropOp32
 70
     1
102
RTVSPost2010Prop33
280
     0
102
RTVSPost2010PropOp33
 70
     1
102
RTVSPost2010Prop34
280
     0
102
RTVSPost2010PropOp34
 70
     1
102
RTVSPost2010Prop35
280
     0
102
RTVSPost2010PropOp35
 70
     1
102
RTVSPost2010Prop36
280
     0
102
RTVSPost2010PropOp36
 70
     1
102
RTVSPost2010Prop37
 90
       50
102
RTVSPost2010PropOp37
 70
     1
102
RTVSPost2010Prop38
140
0.0
102
RTVSPost2010PropOp38
 70
     1
102
RTVSPost2010Prop39
140
1.0
102
RTVSPost2010PropOp39
 70
     1
102
RTVSPost2010Prop40
 90
        0
102
RTVSPost2010PropOp40
 70
     1
102
RTVSPost2010Prop41ColorIndex
 90
       18
102
RTVSPost2010Prop41ColorRGB
 90
        0
102
RTVSPost2010PropOp41
 70
     1
102
RTVSPost2010Prop42
 90
       50
102
RTVSPost2010PropOp42
 70
     1
102
RTVSPost2010Prop43
 90
        3
102
RTVSPost2010PropOp43
 70
     1
102
RTVSPost2010Prop44ColorIndex
 90
        5
102
RTVSPost2010Prop44ColorRGB
 90
      255
102
RTVSPost2010PropOp44
 70
     1
102
RTVSPost2010Prop45
280
     0
102
RTVSPost2010PropOp45
 70
     1
102
RTVSPost2010Prop46
 90
       50
102
RTVSPost2010PropOp46
 70
     1
102
RTVSPost2010Prop47
 90
       50
102
RTVSPost2010PropOp47
 70
     1
102
RTVSPost2010Prop48
 90
       50
102
RTVSPost2010PropOp48
 70
     1
102
RTVSPost2010Prop49
280
     0
102
RTVSPost2010PropOp49
 70
     1
102
RTVSPost2010Prop50
 90
       50
102
RTVSPost2010PropOp50
 70
     1
102
RTVSPost2010Prop51ColorIndex
 90
      256
102
RTVSPost2010Prop51ColorRGB
 90
-16777216
102
RTVSPost2010PropOp51
 70
     0
102
RTVSPost2010Prop52
140
1.0
102
RTVSPost2010PropOp52
 70
     0
102
RTVSPost2010Prop53
 90
        2
102
RTVSPost2010PropOp53
 70
     1
102
RTVSPost2010Prop54
  1
strokes_ogs.tif
102
RTVSPost2010PropOp54
 70
     1
102
RTVSPost2010Prop55
280
     0
102
RTVSPost2010PropOp55
 70
     1
102
RTVSPost2010Prop56
140
1.0
102
RTVSPost2010PropOp56
 70
     1
102
RTVSPost2010Prop57
140
1.0
102
RTVSPost2010PropOp57
 70
     1
  0
XRECORD
  5
1DF
102
{ACAD_REACTORS
330
1DE
102
}
330
1DE
100
AcDbXrecord
280
     1
102
RTVSPropertyOp0
 70
     0
102
RTVSPropertyOp1
 70
     0
102
RTVSPropertyOp2
 70
     0
102
RTVSPropertyOp3
 70
     0
102
RTVSPropertyOp4
 70
     0
102
RTVSPropertyOp5
 70
     0
102
RTVSPropertyOp6
 70
     0
102
RTVSPropertyOp7
 70
     0
102
RTVSPropertyOp8
 70
     0
102
RTVSPropertyOp9
 70
     0
102
RTVSPropertyOp10
 70
     0
102
RTVSPropertyOp11
 70
     0
102
RTVSPropertyOp12
 70
     0
102
RTVSPropertyOp13
 70
     0
102
RTVSPropertyOp14
 70
     2
102
RTVSPropertyOp15
 70
     0
102
RTVSPropertyOp16
 70
     0
102
RTVSPropertyOp17
 70
     0
102
RTVSPropertyOp18
 70
     0
102
RTVSPropertyOp19
 70
     0
102
RTVSPropertyOp20
 70
     0
102
RTVSPropertyOp21
 70
     0
102
RTVSPropertyOp22
 70
     0
102
RTVSPropertyOp23
 70
     0
102
RTVSPropertyOp24
 70
     0
102
RTVSPropertyOp25
 70
     0
102
RTVSPropertyOp26
 70
     0
102
RTVSPropertyOp27
 70
     0
102
RTVSPropertyOp28
 70
     0
102
RTVSPropertyOp29
 70
     0
102
RTVSPropertyOp30
 70
     0
102
RTVSPropertyOp31
 70
     0
102
RTVSPropertyOp32
 70
     0
102
RTVSPropertyOp33
 70
     0
102
RTVSPropertyOp34
 70
     0
102
RTVSPropertyOp35
 70
     0
102
RTVSPropertyOp36
 70
     0
102
RTVSPropertyOp37
 70
     0
102
RTVSPropertyOp38
 70
     0
102
RTVSPropertyOp39
 70
     0
102
RTVSPropertyOp40
 70
     0
102
RTVSPropertyOp41
 70
     0
102
RTVSPropertyOp42
 70
     0
102
RTVSPropertyOp43
 70
     0
102
RTVSPropertyOp44
 70
     0
102
RTVSPropertyOp45
 70
     0
102
RTVSPropertyOp46
 70
     0
102
RTVSPropertyOp47
 70
     0
102
RTVSPropertyOp48
 70
     0
102
RTVSPropertyOp49
 70
     0
102
RTVSPropertyOp50
 70
     0
102
RTVSPropertyOp51
 70
     0
102
RTVSPropertyOp52
 70
     0
102
RTVSPropertyOp53
 70
     0
102
RTVSPropertyOp54
 70
     0
102
RTVSPropertyOp55
 70
     0
102
RTVSPropertyOp56
 70
     0
102
RTVSPropertyOp57
 70
     0
102
RTVSPost2010Prop28
280
     0
102
RTVSPost2010PropOp28
 70
     0
102
RTVSPost2010Prop29
280
     1
102
RTVSPost2010PropOp29
 70
     0
102
RTVSPost2010Prop30
280
     1
102
RTVSPost2010PropOp30
 70
     0
102
RTVSPost2010Prop31
280
     0
102
RTVSPost2010PropOp31
 70
     0
102
RTVSPost2010Prop32
280
     0
102
RTVSPost2010PropOp32
 70
     0
102
RTVSPost2010Prop33
280
     0
102
RTVSPost2010PropOp33
 70
     0
102
RTVSPost2010Prop34
280
     0
102
RTVSPost2010PropOp34
 70
     0
102
RTVSPost2010Prop35
280
     0
102
RTVSPost2010PropOp35
 70
     0
102
RTVSPost2010Prop36
280
     0
102
RTVSPost2010PropOp36
 70
     0
102
RTVSPost2010Prop37
 90
       50
102
RTVSPost2010PropOp37
 70
     0
102
RTVSPost2010Prop38
140
0.0
102
RTVSPost2010PropOp38
 70
     0
102
RTVSPost2010Prop39
140
1.0
102
RTVSPost2010PropOp39
 70
     0
102
RTVSPost2010Prop40
 90
        0
102
RTVSPost2010PropOp40
 70
     0
102
RTVSPost2010Prop41ColorIndex
 90
       18
102
RTVSPost2010Prop41ColorRGB
 90
        0
102
RTVSPost2010PropOp41
 70
     0
102
RTVSPost2010Prop42
 90
       50
102
RTVSPost2010PropOp42
 70
     0
102
RTVSPost2010Prop43
 90
        3
102
RTVSPost2010PropOp43
 70
     0
102
RTVSPost2010Prop44ColorIndex
 90
        5
102
RTVSPost2010Prop44ColorRGB
 90
      255
102
RTVSPost2010PropOp44
 70
     0
102
RTVSPost2010Prop45
280
     0
102
RTVSPost2010PropOp45
 70
     0
102
RTVSPost2010Prop46
 90
       50
102
RTVSPost2010PropOp46
 70
     0
102
RTVSPost2010Prop47
 90
       50
102
RTVSPost2010PropOp47
 70
     0
102
RTVSPost2010Prop48
 90
       50
102
RTVSPost2010PropOp48
 70
     0
102
RTVSPost2010Prop49
280
     0
102
RTVSPost2010PropOp49
 70
     0
102
RTVSPost2010Prop50
 90
       50
102
RTVSPost2010PropOp50
 70
     0
102
RTVSPost2010Prop51ColorIndex
 90
      256
102
RTVSPost2010Prop51ColorRGB
 90
-16777216
102
RTVSPost2010PropOp51
 70
     0
102
RTVSPost2010Prop52
140
1.0
102
RTVSPost2010PropOp52
 70
     0
102
RTVSPost2010Prop53
 90
        2
102
RTVSPost2010PropOp53
 70
     0
102
RTVSPost2010Prop54
  1
strokes_ogs.tif
102
RTVSPost2010PropOp54
 70
     0
102
RTVSPost2010Prop55
280
     0
102
RTVSPost2010PropOp55
 70
     0
102
RTVSPost2010Prop56
140
1.0
102
RTVSPost2010PropOp56
 70
     0
102
RTVSPost2010Prop57
140
1.0
102
RTVSPost2010PropOp57
 70
     0
  0
XRECORD
  5
1CD
102
{ACAD_REACTORS
330
1CC
102
}
330
1CC
100
AcDbXrecord
280
     1
102
RTVSPropertyOp0
 70
     1
102
RTVSPropertyOp1
 70
     1
102
RTVSPropertyOp2
 70
     1
102
RTVSPropertyOp3
 70
     1
102
RTVSPropertyOp4
 70
     1
102
RTVSPropertyOp5
 70
     1
102
RTVSPropertyOp6
 70
     1
102
RTVSPropertyOp7
 70
     1
102
RTVSPropertyOp8
 70
     1
102
RTVSPropertyOp9
 70
     1
102
RTVSPropertyOp10
 70
     1
102
RTVSPropertyOp11
 70
     1
102
RTVSPropertyOp12
 70
     1
102
RTVSPropertyOp13
 70
     1
102
RTVSPropertyOp14
 70
     1
102
RTVSPropertyOp15
 70
     1
102
RTVSPropertyOp16
 70
     1
102
RTVSPropertyOp17
 70
     1
102
RTVSPropertyOp18
 70
     1
102
RTVSPropertyOp19
 70
     1
102
RTVSPropertyOp20
 70
     1
102
RTVSPropertyOp21
 70
     1
102
RTVSPropertyOp22
 70
     1
102
RTVSPropertyOp23
 70
     1
102
RTVSPropertyOp24
 70
     1
102
RTVSPropertyOp25
 70
     1
102
RTVSPropertyOp26
 70
     1
102
RTVSPropertyOp27
 70
     1
102
RTVSPropertyOp28
 70
     1
102
RTVSPropertyOp29
 70
     1
102
RTVSPropertyOp30
 70
     1
102
RTVSPropertyOp31
 70
     1
102
RTVSPropertyOp32
 70
     1
102
RTVSPropertyOp33
 70
     1
102
RTVSPropertyOp34
 70
     1
102
RTVSPropertyOp35
 70
     1
102
RTVSPropertyOp36
 70
     1
102
RTVSPropertyOp37
 70
     1
102
RTVSPropertyOp38
 70
     1
102
RTVSPropertyOp39
 70
     1
102
RTVSPropertyOp40
 70
     1
102
RTVSPropertyOp41
 70
     1
102
RTVSPropertyOp42
 70
     1
102
RTVSPropertyOp43
 70
     1
102
RTVSPropertyOp44
 70
     1
102
RTVSPropertyOp45
 70
     1
102
RTVSPropertyOp46
 70
     1
102
RTVSPropertyOp47
 70
     1
102
RTVSPropertyOp48
 70
     1
102
RTVSPropertyOp49
 70
     1
102
RTVSPropertyOp50
 70
     1
102
RTVSPropertyOp51
 70
     0
102
RTVSPropertyOp52
 70
     0
102
RTVSPropertyOp53
 70
     1
102
RTVSPropertyOp54
 70
     1
102
RTVSPropertyOp55
 70
     1
102
RTVSPropertyOp56
 70
     1
102
RTVSPropertyOp57
 70
     1
102
RTVSPost2010Prop28
280
     0
102
RTVSPost2010PropOp28
 70
     1
102
RTVSPost2010Prop29
280
     1
102
RTVSPost2010PropOp29
 70
     1
102
RTVSPost2010Prop30
280
     1
102
RTVSPost2010PropOp30
 70
     1
102
RTVSPost2010Prop31
280
     0
102
RTVSPost2010PropOp31
 70
     1
102
RTVSPost2010Prop32
280
     0
102
RTVSPost2010PropOp32
 70
     1
102
RTVSPost2010Prop33
280
     0
102
RTVSPost2010PropOp33
 70
     1
102
RTVSPost2010Prop34
280
     0
102
RTVSPost2010PropOp34
 70
     1
102
RTVSPost2010Prop35
280
     0
102
RTVSPost2010PropOp35
 70
     1
102
RTVSPost2010Prop36
280
     0
102
RTVSPost2010PropOp36
 70
     1
102
RTVSPost2010Prop37
 90
       50
102
RTVSPost2010PropOp37
 70
     1
102
RTVSPost2010Prop38
140
0.0
102
RTVSPost2010PropOp38
 70
     1
102
RTVSPost2010Prop39
140
1.0
102
RTVSPost2010PropOp39
 70
     1
102
RTVSPost2010Prop40
 90
        0
102
RTVSPost2010PropOp40
 70
     1
102
RTVSPost2010Prop41ColorIndex
 90
       18
102
RTVSPost2010Prop41ColorRGB
 90
        0
102
RTVSPost2010PropOp41
 70
     1
102
RTVSPost2010Prop42
 90
       50
102
RTVSPost2010PropOp42
 70
     1
102
RTVSPost2010Prop43
 90
        3
102
RTVSPost2010PropOp43
 70
     1
102
RTVSPost2010Prop44ColorIndex
 90
        5
102
RTVSPost2010Prop44ColorRGB
 90
      255
102
RTVSPost2010PropOp44
 70
     1
102
RTVSPost2010Prop45
280
     0
102
RTVSPost2010PropOp45
 70
     1
102
RTVSPost2010Prop46
 90
       50
102
RTVSPost2010PropOp46
 70
     1
102
RTVSPost2010Prop47
 90
       50
102
RTVSPost2010PropOp47
 70
     1
102
RTVSPost2010Prop48
 90
       50
102
RTVSPost2010PropOp48
 70
     1
102
RTVSPost2010Prop49
280
     0
102
RTVSPost2010PropOp49
 70
     1
102
RTVSPost2010Prop50
 90
       50
102
RTVSPost2010PropOp50
 70
     1
102
RTVSPost2010Prop51ColorIndex
 90
      256
102
RTVSPost2010Prop51ColorRGB
 90
-16777216
102
RTVSPost2010PropOp51
 70
     0
102
RTVSPost2010Prop52
140
1.0
102
RTVSPost2010PropOp52
 70
     0
102
RTVSPost2010Prop53
 90
        2
102
RTVSPost2010PropOp53
 70
     1
102
RTVSPost2010Prop54
  1
strokes_ogs.tif
102
RTVSPost2010PropOp54
 70
     1
102
RTVSPost2010Prop55
280
     0
102
RTVSPost2010PropOp55
 70
     1
102
RTVSPost2010Prop56
140
1.0
102
RTVSPost2010PropOp56
 70
     1
102
RTVSPost2010Prop57
140
1.0
102
RTVSPost2010PropOp57
 70
     1
  0
XRECORD
  5
1EB
102
{ACAD_REACTORS
330
1EA
102
}
330
1EA
100
AcDbXrecord
280
     1
102
RTVSPropertyOp0
 70
     1
102
RTVSPropertyOp1
 70
     1
102
RTVSPropertyOp2
 70
     1
102
RTVSPropertyOp3
 70
     1
102
RTVSPropertyOp4
 70
     1
102
RTVSPropertyOp5
 70
     1
102
RTVSPropertyOp6
 70
     1
102
RTVSPropertyOp7
 70
     1
102
RTVSPropertyOp8
 70
     1
102
RTVSPropertyOp9
 70
     1
102
RTVSPropertyOp10
 70
     1
102
RTVSPropertyOp11
 70
     1
102
RTVSPropertyOp12
 70
     1
102
RTVSPropertyOp13
 70
     1
102
RTVSPropertyOp14
 70
     1
102
RTVSPropertyOp15
 70
     1
102
RTVSPropertyOp16
 70
     1
102
RTVSPropertyOp17
 70
     1
102
RTVSPropertyOp18
 70
     1
102
RTVSPropertyOp19
 70
     1
102
RTVSPropertyOp20
 70
     1
102
RTVSPropertyOp21
 70
     1
102
RTVSPropertyOp22
 70
     1
102
RTVSPropertyOp23
 70
     1
102
RTVSPropertyOp24
 70
     1
102
RTVSPropertyOp25
 70
     1
102
RTVSPropertyOp26
 70
     1
102
RTVSPropertyOp27
 70
     1
102
RTVSPropertyOp28
 70
     1
102
RTVSPropertyOp29
 70
     1
102
RTVSPropertyOp30
 70
     1
102
RTVSPropertyOp31
 70
     1
102
RTVSPropertyOp32
 70
     1
102
RTVSPropertyOp33
 70
     1
102
RTVSPropertyOp34
 70
     1
102
RTVSPropertyOp35
 70
     1
102
RTVSPropertyOp36
 70
     1
102
RTVSPropertyOp37
 70
     1
102
RTVSPropertyOp38
 70
     1
102
RTVSPropertyOp39
 70
     1
102
RTVSPropertyOp40
 70
     1
102
RTVSPropertyOp41
 70
     1
102
RTVSPropertyOp42
 70
     1
102
RTVSPropertyOp43
 70
     1
102
RTVSPropertyOp44
 70
     1
102
RTVSPropertyOp45
 70
     1
102
RTVSPropertyOp46
 70
     1
102
RTVSPropertyOp47
 70
     1
102
RTVSPropertyOp48
 70
     1
102
RTVSPropertyOp49
 70
     1
102
RTVSPropertyOp50
 70
     1
102
RTVSPropertyOp51
 70
     0
102
RTVSPropertyOp52
 70
     0
102
RTVSPropertyOp53
 70
     1
102
RTVSPropertyOp54
 70
     1
102
RTVSPropertyOp55
 70
     1
102
RTVSPropertyOp56
 70
     1
102
RTVSPropertyOp57
 70
     1
102
RTVSPost2010Prop28
280
     0
102
RTVSPost2010PropOp28
 70
     1
102
RTVSPost2010Prop29
280
     1
102
RTVSPost2010PropOp29
 70
     1
102
RTVSPost2010Prop30
280
     1
102
RTVSPost2010PropOp30
 70
     1
102
RTVSPost2010Prop31
280
     0
102
RTVSPost2010PropOp31
 70
     1
102
RTVSPost2010Prop32
280
     0
102
RTVSPost2010PropOp32
 70
     1
102
RTVSPost2010Prop33
280
     0
102
RTVSPost2010PropOp33
 70
     1
102
RTVSPost2010Prop34
280
     0
102
RTVSPost2010PropOp34
 70
     1
102
RTVSPost2010Prop35
280
     0
102
RTVSPost2010PropOp35
 70
     1
102
RTVSPost2010Prop36
280
     0
102
RTVSPost2010PropOp36
 70
     1
102
RTVSPost2010Prop37
 90
       50
102
RTVSPost2010PropOp37
 70
     1
102
RTVSPost2010Prop38
140
0.0
102
RTVSPost2010PropOp38
 70
     1
102
RTVSPost2010Prop39
140
1.0
102
RTVSPost2010PropOp39
 70
     1
102
RTVSPost2010Prop40
 90
        0
102
RTVSPost2010PropOp40
 70
     1
102
RTVSPost2010Prop41ColorIndex
 90
       18
102
RTVSPost2010Prop41ColorRGB
 90
        0
102
RTVSPost2010PropOp41
 70
     1
102
RTVSPost2010Prop42
 90
       50
102
RTVSPost2010PropOp42
 70
     1
102
RTVSPost2010Prop43
 90
        3
102
RTVSPost2010PropOp43
 70
     1
102
RTVSPost2010Prop44ColorIndex
 90
        5
102
RTVSPost2010Prop44ColorRGB
 90
      255
102
RTVSPost2010PropOp44
 70
     1
102
RTVSPost2010Prop45
280
     0
102
RTVSPost2010PropOp45
 70
     1
102
RTVSPost2010Prop46
 90
       50
102
RTVSPost2010PropOp46
 70
     1
102
RTVSPost2010Prop47
 90
       50
102
RTVSPost2010PropOp47
 70
     1
102
RTVSPost2010Prop48
 90
       50
102
RTVSPost2010PropOp48
 70
     1
102
RTVSPost2010Prop49
280
     0
102
RTVSPost2010PropOp49
 70
     1
102
RTVSPost2010Prop50
 90
       50
102
RTVSPost2010PropOp50
 70
     1
102
RTVSPost2010Prop51ColorIndex
 90
      256
102
RTVSPost2010Prop51ColorRGB
 90
-16777216
102
RTVSPost2010PropOp51
 70
     0
102
RTVSPost2010Prop52
140
1.0
102
RTVSPost2010PropOp52
 70
     0
102
RTVSPost2010Prop53
 90
        2
102
RTVSPost2010PropOp53
 70
     1
102
RTVSPost2010Prop54
  1
strokes_ogs.tif
102
RTVSPost2010PropOp54
 70
     1
102
RTVSPost2010Prop55
280
     0
102
RTVSPost2010PropOp55
 70
     1
102
RTVSPost2010Prop56
140
1.0
102
RTVSPost2010PropOp56
 70
     1
102
RTVSPost2010Prop57
140
1.0
102
RTVSPost2010PropOp57
 70
     1
  0
XRECORD
  5
1E9
102
{ACAD_REACTORS
330
1E8
102
}
330
1E8
100
AcDbXrecord
280
     1
102
RTVSPropertyOp0
 70
     1
102
RTVSPropertyOp1
 70
     1
102
RTVSPropertyOp2
 70
     1
102
RTVSPropertyOp3
 70
     1
102
RTVSPropertyOp4
 70
     1
102
RTVSPropertyOp5
 70
     1
102
RTVSPropertyOp6
 70
     1
102
RTVSPropertyOp7
 70
     1
102
RTVSPropertyOp8
 70
     1
102
RTVSPropertyOp9
 70
     1
102
RTVSPropertyOp10
 70
     1
102
RTVSPropertyOp11
 70
     1
102
RTVSPropertyOp12
 70
     1
102
RTVSPropertyOp13
 70
     1
102
RTVSPropertyOp14
 70
     1
102
RTVSPropertyOp15
 70
     1
102
RTVSPropertyOp16
 70
     1
102
RTVSPropertyOp17
 70
     1
102
RTVSPropertyOp18
 70
     1
102
RTVSPropertyOp19
 70
     1
102
RTVSPropertyOp20
 70
     1
102
RTVSPropertyOp21
 70
     1
102
RTVSPropertyOp22
 70
     1
102
RTVSPropertyOp23
 70
     1
102
RTVSPropertyOp24
 70
     1
102
RTVSPropertyOp25
 70
     1
102
RTVSPropertyOp26
 70
     1
102
RTVSPropertyOp27
 70
     1
102
RTVSPropertyOp28
 70
     1
102
RTVSPropertyOp29
 70
     1
102
RTVSPropertyOp30
 70
     1
102
RTVSPropertyOp31
 70
     1
102
RTVSPropertyOp32
 70
     1
102
RTVSPropertyOp33
 70
     1
102
RTVSPropertyOp34
 70
     1
102
RTVSPropertyOp35
 70
     1
102
RTVSPropertyOp36
 70
     1
102
RTVSPropertyOp37
 70
     1
102
RTVSPropertyOp38
 70
     1
102
RTVSPropertyOp39
 70
     1
102
RTVSPropertyOp40
 70
     1
102
RTVSPropertyOp41
 70
     1
102
RTVSPropertyOp42
 70
     1
102
RTVSPropertyOp43
 70
     1
102
RTVSPropertyOp44
 70
     1
102
RTVSPropertyOp45
 70
     1
102
RTVSPropertyOp46
 70
     1
102
RTVSPropertyOp47
 70
     1
102
RTVSPropertyOp48
 70
     1
102
RTVSPropertyOp49
 70
     1
102
RTVSPropertyOp50
 70
     1
102
RTVSPropertyOp51
 70
     0
102
RTVSPropertyOp52
 70
     0
102
RTVSPropertyOp53
 70
     1
102
RTVSPropertyOp54
 70
     1
102
RTVSPropertyOp55
 70
     1
102
RTVSPropertyOp56
 70
     1
102
RTVSPropertyOp57
 70
     1
102
RTVSPost2010Prop28
280
     0
102
RTVSPost2010PropOp28
 70
     1
102
RTVSPost2010Prop29
280
     1
102
RTVSPost2010PropOp29
 70
     1
102
RTVSPost2010Prop30
280
     1
102
RTVSPost2010PropOp30
 70
     1
102
RTVSPost2010Prop31
280
     0
102
RTVSPost2010PropOp31
 70
     1
102
RTVSPost2010Prop32
280
     0
102
RTVSPost2010PropOp32
 70
     1
102
RTVSPost2010Prop33
280
     0
102
RTVSPost2010PropOp33
 70
     1
102
RTVSPost2010Prop34
280
     0
102
RTVSPost2010PropOp34
 70
     1
102
RTVSPost2010Prop35
280
     0
102
RTVSPost2010PropOp35
 70
     1
102
RTVSPost2010Prop36
280
     0
102
RTVSPost2010PropOp36
 70
     1
102
RTVSPost2010Prop37
 90
       50
102
RTVSPost2010PropOp37
 70
     1
102
RTVSPost2010Prop38
140
0.0
102
RTVSPost2010PropOp38
 70
     1
102
RTVSPost2010Prop39
140
1.0
102
RTVSPost2010PropOp39
 70
     1
102
RTVSPost2010Prop40
 90
        0
102
RTVSPost2010PropOp40
 70
     1
102
RTVSPost2010Prop41ColorIndex
 90
       18
102
RTVSPost2010Prop41ColorRGB
 90
        0
102
RTVSPost2010PropOp41
 70
     1
102
RTVSPost2010Prop42
 90
       50
102
RTVSPost2010PropOp42
 70
     1
102
RTVSPost2010Prop43
 90
        3
102
RTVSPost2010PropOp43
 70
     1
102
RTVSPost2010Prop44ColorIndex
 90
        5
102
RTVSPost2010Prop44ColorRGB
 90
      255
102
RTVSPost2010PropOp44
 70
     1
102
RTVSPost2010Prop45
280
     0
102
RTVSPost2010PropOp45
 70
     1
102
RTVSPost2010Prop46
 90
       50
102
RTVSPost2010PropOp46
 70
     1
102
RTVSPost2010Prop47
 90
       50
102
RTVSPost2010PropOp47
 70
     1
102
RTVSPost2010Prop48
 90
       50
102
RTVSPost2010PropOp48
 70
     1
102
RTVSPost2010Prop49
280
     0
102
RTVSPost2010PropOp49
 70
     1
102
RTVSPost2010Prop50
 90
       50
102
RTVSPost2010PropOp50
 70
     1
102
RTVSPost2010Prop51ColorIndex
 90
      256
102
RTVSPost2010Prop51ColorRGB
 90
-16777216
102
RTVSPost2010PropOp51
 70
     0
102
RTVSPost2010Prop52
140
1.0
102
RTVSPost2010PropOp52
 70
     0
102
RTVSPost2010Prop53
 90
        2
102
RTVSPost2010PropOp53
 70
     1
102
RTVSPost2010Prop54
  1
strokes_ogs.tif
102
RTVSPost2010PropOp54
 70
     1
102
RTVSPost2010Prop55
280
     0
102
RTVSPost2010PropOp55
 70
     1
102
RTVSPost2010Prop56
140
1.0
102
RTVSPost2010PropOp56
 70
     1
102
RTVSPost2010Prop57
140
1.0
102
RTVSPost2010PropOp57
 70
     1
  0
XRECORD
  5
1E3
102
{ACAD_REACTORS
330
1E2
102
}
330
1E2
100
AcDbXrecord
280
     1
102
RTVSPropertyOp0
 70
     1
102
RTVSPropertyOp1
 70
     1
102
RTVSPropertyOp2
 70
     1
102
RTVSPropertyOp3
 70
     1
102
RTVSPropertyOp4
 70
     1
102
RTVSPropertyOp5
 70
     1
102
RTVSPropertyOp6
 70
     1
102
RTVSPropertyOp7
 70
     1
102
RTVSPropertyOp8
 70
     1
102
RTVSPropertyOp9
 70
     1
102
RTVSPropertyOp10
 70
     1
102
RTVSPropertyOp11
 70
     1
102
RTVSPropertyOp12
 70
     1
102
RTVSPropertyOp13
 70
     1
102
RTVSPropertyOp14
 70
     1
102
RTVSPropertyOp15
 70
     1
102
RTVSPropertyOp16
 70
     1
102
RTVSPropertyOp17
 70
     1
102
RTVSPropertyOp18
 70
     1
102
RTVSPropertyOp19
 70
     1
102
RTVSPropertyOp20
 70
     1
102
RTVSPropertyOp21
 70
     1
102
RTVSPropertyOp22
 70
     1
102
RTVSPropertyOp23
 70
     1
102
RTVSPropertyOp24
 70
     1
102
RTVSPropertyOp25
 70
     1
102
RTVSPropertyOp26
 70
     1
102
RTVSPropertyOp27
 70
     1
102
RTVSPropertyOp28
 70
     1
102
RTVSPropertyOp29
 70
     1
102
RTVSPropertyOp30
 70
     1
102
RTVSPropertyOp31
 70
     1
102
RTVSPropertyOp32
 70
     1
102
RTVSPropertyOp33
 70
     1
102
RTVSPropertyOp34
 70
     1
102
RTVSPropertyOp35
 70
     1
102
RTVSPropertyOp36
 70
     1
102
RTVSPropertyOp37
 70
     1
102
RTVSPropertyOp38
 70
     1
102
RTVSPropertyOp39
 70
     1
102
RTVSPropertyOp40
 70
     1
102
RTVSPropertyOp41
 70
     1
102
RTVSPropertyOp42
 70
     1
102
RTVSPropertyOp43
 70
     1
102
RTVSPropertyOp44
 70
     1
102
RTVSPropertyOp45
 70
     1
102
RTVSPropertyOp46
 70
     1
102
RTVSPropertyOp47
 70
     1
102
RTVSPropertyOp48
 70
     1
102
RTVSPropertyOp49
 70
     1
102
RTVSPropertyOp50
 70
     1
102
RTVSPropertyOp51
 70
     0
102
RTVSPropertyOp52
 70
     0
102
RTVSPropertyOp53
 70
     1
102
RTVSPropertyOp54
 70
     1
102
RTVSPropertyOp55
 70
     1
102
RTVSPropertyOp56
 70
     1
102
RTVSPropertyOp57
 70
     1
102
RTVSPost2010Prop28
280
     0
102
RTVSPost2010PropOp28
 70
     1
102
RTVSPost2010Prop29
280
     1
102
RTVSPost2010PropOp29
 70
     1
102
RTVSPost2010Prop30
280
     1
102
RTVSPost2010PropOp30
 70
     1
102
RTVSPost2010Prop31
280
     0
102
RTVSPost2010PropOp31
 70
     1
102
RTVSPost2010Prop32
280
     0
102
RTVSPost2010PropOp32
 70
     1
102
RTVSPost2010Prop33
280
     0
102
RTVSPost2010PropOp33
 70
     1
102
RTVSPost2010Prop34
280
     0
102
RTVSPost2010PropOp34
 70
     1
102
RTVSPost2010Prop35
280
     0
102
RTVSPost2010PropOp35
 70
     1
102
RTVSPost2010Prop36
280
     0
102
RTVSPost2010PropOp36
 70
     1
102
RTVSPost2010Prop37
 90
       50
102
RTVSPost2010PropOp37
 70
     1
102
RTVSPost2010Prop38
140
0.0
102
RTVSPost2010PropOp38
 70
     1
102
RTVSPost2010Prop39
140
1.0
102
RTVSPost2010PropOp39
 70
     1
102
RTVSPost2010Prop40
 90
        0
102
RTVSPost2010PropOp40
 70
     1
102
RTVSPost2010Prop41ColorIndex
 90
       18
102
RTVSPost2010Prop41ColorRGB
 90
        0
102
RTVSPost2010PropOp41
 70
     1
102
RTVSPost2010Prop42
 90
       50
102
RTVSPost2010PropOp42
 70
     1
102
RTVSPost2010Prop43
 90
        3
102
RTVSPost2010PropOp43
 70
     1
102
RTVSPost2010Prop44ColorIndex
 90
        5
102
RTVSPost2010Prop44ColorRGB
 90
      255
102
RTVSPost2010PropOp44
 70
     1
102
RTVSPost2010Prop45
280
     0
102
RTVSPost2010PropOp45
 70
     1
102
RTVSPost2010Prop46
 90
       50
102
RTVSPost2010PropOp46
 70
     1
102
RTVSPost2010Prop47
 90
       50
102
RTVSPost2010PropOp47
 70
     1
102
RTVSPost2010Prop48
 90
       50
102
RTVSPost2010PropOp48
 70
     1
102
RTVSPost2010Prop49
280
     0
102
RTVSPost2010PropOp49
 70
     1
102
RTVSPost2010Prop50
 90
       50
102
RTVSPost2010PropOp50
 70
     1
102
RTVSPost2010Prop51ColorIndex
 90
      256
102
RTVSPost2010Prop51ColorRGB
 90
-16777216
102
RTVSPost2010PropOp51
 70
     0
102
RTVSPost2010Prop52
140
1.0
102
RTVSPost2010PropOp52
 70
     0
102
RTVSPost2010Prop53
 90
        2
102
RTVSPost2010PropOp53
 70
     1
102
RTVSPost2010Prop54
  1
strokes_ogs.tif
102
RTVSPost2010PropOp54
 70
     1
102
RTVSPost2010Prop55
280
     0
102
RTVSPost2010PropOp55
 70
     1
102
RTVSPost2010Prop56
140
1.0
102
RTVSPost2010PropOp56
 70
     1
102
RTVSPost2010Prop57
140
1.0
102
RTVSPost2010PropOp57
 70
     1
  0
XRECORD
  5
1E5
102
{ACAD_REACTORS
330
1E4
102
}
330
1E4
100
AcDbXrecord
280
     1
102
RTVSPropertyOp0
 70
     1
102
RTVSPropertyOp1
 70
     1
102
RTVSPropertyOp2
 70
     1
102
RTVSPropertyOp3
 70
     1
102
RTVSPropertyOp4
 70
     1
102
RTVSPropertyOp5
 70
     1
102
RTVSPropertyOp6
 70
     1
102
RTVSPropertyOp7
 70
     1
102
RTVSPropertyOp8
 70
     1
102
RTVSPropertyOp9
 70
     1
102
RTVSPropertyOp10
 70
     1
102
RTVSPropertyOp11
 70
     1
102
RTVSPropertyOp12
 70
     1
102
RTVSPropertyOp13
 70
     1
102
RTVSPropertyOp14
 70
     1
102
RTVSPropertyOp15
 70
     1
102
RTVSPropertyOp16
 70
     1
102
RTVSPropertyOp17
 70
     1
102
RTVSPropertyOp18
 70
     1
102
RTVSPropertyOp19
 70
     1
102
RTVSPropertyOp20
 70
     1
102
RTVSPropertyOp21
 70
     1
102
RTVSPropertyOp22
 70
     1
102
RTVSPropertyOp23
 70
     1
102
RTVSPropertyOp24
 70
     1
102
RTVSPropertyOp25
 70
     1
102
RTVSPropertyOp26
 70
     1
102
RTVSPropertyOp27
 70
     1
102
RTVSPropertyOp28
 70
     1
102
RTVSPropertyOp29
 70
     1
102
RTVSPropertyOp30
 70
     1
102
RTVSPropertyOp31
 70
     1
102
RTVSPropertyOp32
 70
     1
102
RTVSPropertyOp33
 70
     1
102
RTVSPropertyOp34
 70
     1
102
RTVSPropertyOp35
 70
     1
102
RTVSPropertyOp36
 70
     1
102
RTVSPropertyOp37
 70
     1
102
RTVSPropertyOp38
 70
     1
102
RTVSPropertyOp39
 70
     1
102
RTVSPropertyOp40
 70
     1
102
RTVSPropertyOp41
 70
     1
102
RTVSPropertyOp42
 70
     1
102
RTVSPropertyOp43
 70
     1
102
RTVSPropertyOp44
 70
     1
102
RTVSPropertyOp45
 70
     1
102
RTVSPropertyOp46
 70
     1
102
RTVSPropertyOp47
 70
     1
102
RTVSPropertyOp48
 70
     1
102
RTVSPropertyOp49
 70
     1
102
RTVSPropertyOp50
 70
     1
102
RTVSPropertyOp51
 70
     0
102
RTVSPropertyOp52
 70
     0
102
RTVSPropertyOp53
 70
     1
102
RTVSPropertyOp54
 70
     1
102
RTVSPropertyOp55
 70
     1
102
RTVSPropertyOp56
 70
     1
102
RTVSPropertyOp57
 70
     1
102
RTVSPost2010Prop28
280
     0
102
RTVSPost2010PropOp28
 70
     1
102
RTVSPost2010Prop29
280
     1
102
RTVSPost2010PropOp29
 70
     1
102
RTVSPost2010Prop30
280
     1
102
RTVSPost2010PropOp30
 70
     1
102
RTVSPost2010Prop31
280
     0
102
RTVSPost2010PropOp31
 70
     1
102
RTVSPost2010Prop32
280
     0
102
RTVSPost2010PropOp32
 70
     1
102
RTVSPost2010Prop33
280
     0
102
RTVSPost2010PropOp33
 70
     1
102
RTVSPost2010Prop34
280
     0
102
RTVSPost2010PropOp34
 70
     1
102
RTVSPost2010Prop35
280
     0
102
RTVSPost2010PropOp35
 70
     1
102
RTVSPost2010Prop36
280
     0
102
RTVSPost2010PropOp36
 70
     1
102
RTVSPost2010Prop37
 90
       50
102
RTVSPost2010PropOp37
 70
     1
102
RTVSPost2010Prop38
140
0.0
102
RTVSPost2010PropOp38
 70
     1
102
RTVSPost2010Prop39
140
1.0
102
RTVSPost2010PropOp39
 70
     1
102
RTVSPost2010Prop40
 90
        0
102
RTVSPost2010PropOp40
 70
     1
102
RTVSPost2010Prop41ColorIndex
 90
       18
102
RTVSPost2010Prop41ColorRGB
 90
        0
102
RTVSPost2010PropOp41
 70
     1
102
RTVSPost2010Prop42
 90
       50
102
RTVSPost2010PropOp42
 70
     1
102
RTVSPost2010Prop43
 90
        3
102
RTVSPost2010PropOp43
 70
     1
102
RTVSPost2010Prop44ColorIndex
 90
        5
102
RTVSPost2010Prop44ColorRGB
 90
      255
102
RTVSPost2010PropOp44
 70
     1
102
RTVSPost2010Prop45
280
     0
102
RTVSPost2010PropOp45
 70
     1
102
RTVSPost2010Prop46
 90
       50
102
RTVSPost2010PropOp46
 70
     1
102
RTVSPost2010Prop47
 90
       50
102
RTVSPost2010PropOp47
 70
     1
102
RTVSPost2010Prop48
 90
       50
102
RTVSPost2010PropOp48
 70
     1
102
RTVSPost2010Prop49
280
     0
102
RTVSPost2010PropOp49
 70
     1
102
RTVSPost2010Prop50
 90
       50
102
RTVSPost2010PropOp50
 70
     1
102
RTVSPost2010Prop51ColorIndex
 90
      256
102
RTVSPost2010Prop51ColorRGB
 90
-16777216
102
RTVSPost2010PropOp51
 70
     0
102
RTVSPost2010Prop52
140
1.0
102
RTVSPost2010PropOp52
 70
     0
102
RTVSPost2010Prop53
 90
        2
102
RTVSPost2010PropOp53
 70
     1
102
RTVSPost2010Prop54
  1
strokes_ogs.tif
102
RTVSPost2010PropOp54
 70
     1
102
RTVSPost2010Prop55
280
     0
102
RTVSPost2010PropOp55
 70
     1
102
RTVSPost2010Prop56
140
1.0
102
RTVSPost2010PropOp56
 70
     1
102
RTVSPost2010Prop57
140
1.0
102
RTVSPost2010PropOp57
 70
     1
  0
XRECORD
  5
1D5
102
{ACAD_REACTORS
330
1D4
102
}
330
1D4
100
AcDbXrecord
280
     1
102
RTVSPropertyOp0
 70
     1
102
RTVSPropertyOp1
 70
     1
102
RTVSPropertyOp2
 70
     1
102
RTVSPropertyOp3
 70
     1
102
RTVSPropertyOp4
 70
     1
102
RTVSPropertyOp5
 70
     1
102
RTVSPropertyOp6
 70
     1
102
RTVSPropertyOp7
 70
     1
102
RTVSPropertyOp8
 70
     1
102
RTVSPropertyOp9
 70
     1
102
RTVSPropertyOp10
 70
     1
102
RTVSPropertyOp11
 70
     1
102
RTVSPropertyOp12
 70
     1
102
RTVSPropertyOp13
 70
     1
102
RTVSPropertyOp14
 70
     1
102
RTVSPropertyOp15
 70
     1
102
RTVSPropertyOp16
 70
     1
102
RTVSPropertyOp17
 70
     1
102
RTVSPropertyOp18
 70
     1
102
RTVSPropertyOp19
 70
     1
102
RTVSPropertyOp20
 70
     1
102
RTVSPropertyOp21
 70
     1
102
RTVSPropertyOp22
 70
     1
102
RTVSPropertyOp23
 70
     1
102
RTVSPropertyOp24
 70
     1
102
RTVSPropertyOp25
 70
     1
102
RTVSPropertyOp26
 70
     1
102
RTVSPropertyOp27
 70
     1
102
RTVSPropertyOp28
 70
     1
102
RTVSPropertyOp29
 70
     1
102
RTVSPropertyOp30
 70
     1
102
RTVSPropertyOp31
 70
     1
102
RTVSPropertyOp32
 70
     1
102
RTVSPropertyOp33
 70
     1
102
RTVSPropertyOp34
 70
     1
102
RTVSPropertyOp35
 70
     1
102
RTVSPropertyOp36
 70
     1
102
RTVSPropertyOp37
 70
     1
102
RTVSPropertyOp38
 70
     1
102
RTVSPropertyOp39
 70
     1
102
RTVSPropertyOp40
 70
     1
102
RTVSPropertyOp41
 70
     1
102
RTVSPropertyOp42
 70
     1
102
RTVSPropertyOp43
 70
     1
102
RTVSPropertyOp44
 70
     1
102
RTVSPropertyOp45
 70
     1
102
RTVSPropertyOp46
 70
     1
102
RTVSPropertyOp47
 70
     1
102
RTVSPropertyOp48
 70
     1
102
RTVSPropertyOp49
 70
     1
102
RTVSPropertyOp50
 70
     1
102
RTVSPropertyOp51
 70
     0
102
RTVSPropertyOp52
 70
     0
102
RTVSPropertyOp53
 70
     1
102
RTVSPropertyOp54
 70
     1
102
RTVSPropertyOp55
 70
     1
102
RTVSPropertyOp56
 70
     1
102
RTVSPropertyOp57
 70
     1
102
RTVSPost2010Prop28
280
     0
102
RTVSPost2010PropOp28
 70
     1
102
RTVSPost2010Prop29
280
     1
102
RTVSPost2010PropOp29
 70
     1
102
RTVSPost2010Prop30
280
     1
102
RTVSPost2010PropOp30
 70
     1
102
RTVSPost2010Prop31
280
     0
102
RTVSPost2010PropOp31
 70
     1
102
RTVSPost2010Prop32
280
     0
102
RTVSPost2010PropOp32
 70
     1
102
RTVSPost2010Prop33
280
     0
102
RTVSPost2010PropOp33
 70
     1
102
RTVSPost2010Prop34
280
     0
102
RTVSPost2010PropOp34
 70
     1
102
RTVSPost2010Prop35
280
     0
102
RTVSPost2010PropOp35
 70
     1
102
RTVSPost2010Prop36
280
     0
102
RTVSPost2010PropOp36
 70
     1
102
RTVSPost2010Prop37
 90
       50
102
RTVSPost2010PropOp37
 70
     1
102
RTVSPost2010Prop38
140
0.0
102
RTVSPost2010PropOp38
 70
     1
102
RTVSPost2010Prop39
140
1.0
102
RTVSPost2010PropOp39
 70
     1
102
RTVSPost2010Prop40
 90
        0
102
RTVSPost2010PropOp40
 70
     1
102
RTVSPost2010Prop41ColorIndex
 90
       18
102
RTVSPost2010Prop41ColorRGB
 90
        0
102
RTVSPost2010PropOp41
 70
     1
102
RTVSPost2010Prop42
 90
       50
102
RTVSPost2010PropOp42
 70
     1
102
RTVSPost2010Prop43
 90
        3
102
RTVSPost2010PropOp43
 70
     1
102
RTVSPost2010Prop44ColorIndex
 90
        5
102
RTVSPost2010Prop44ColorRGB
 90
      255
102
RTVSPost2010PropOp44
 70
     1
102
RTVSPost2010Prop45
280
     0
102
RTVSPost2010PropOp45
 70
     1
102
RTVSPost2010Prop46
 90
       50
102
RTVSPost2010PropOp46
 70
     1
102
RTVSPost2010Prop47
 90
       50
102
RTVSPost2010PropOp47
 70
     1
102
RTVSPost2010Prop48
 90
       50
102
RTVSPost2010PropOp48
 70
     1
102
RTVSPost2010Prop49
280
     0
102
RTVSPost2010PropOp49
 70
     1
102
RTVSPost2010Prop50
 90
       50
102
RTVSPost2010PropOp50
 70
     1
102
RTVSPost2010Prop51ColorIndex
 90
      256
102
RTVSPost2010Prop51ColorRGB
 90
-16777216
102
RTVSPost2010PropOp51
 70
     0
102
RTVSPost2010Prop52
140
1.0
102
RTVSPost2010PropOp52
 70
     0
102
RTVSPost2010Prop53
 90
        2
102
RTVSPost2010PropOp53
 70
     1
102
RTVSPost2010Prop54
  1
strokes_ogs.tif
102
RTVSPost2010PropOp54
 70
     1
102
RTVSPost2010Prop55
280
     0
102
RTVSPost2010PropOp55
 70
     1
102
RTVSPost2010Prop56
140
1.0
102
RTVSPost2010PropOp56
 70
     1
102
RTVSPost2010Prop57
140
1.0
102
RTVSPost2010PropOp57
 70
     1
  0
XRECORD
  5
1C7
102
{ACAD_REACTORS
330
1C6
102
}
330
1C6
100
AcDbXrecord
280
     1
102
RTVSPropertyOp0
 70
     1
102
RTVSPropertyOp1
 70
     1
102
RTVSPropertyOp2
 70
     1
102
RTVSPropertyOp3
 70
     1
102
RTVSPropertyOp4
 70
     1
102
RTVSPropertyOp5
 70
     1
102
RTVSPropertyOp6
 70
     1
102
RTVSPropertyOp7
 70
     1
102
RTVSPropertyOp8
 70
     1
102
RTVSPropertyOp9
 70
     1
102
RTVSPropertyOp10
 70
     1
102
RTVSPropertyOp11
 70
     1
102
RTVSPropertyOp12
 70
     1
102
RTVSPropertyOp13
 70
     1
102
RTVSPropertyOp14
 70
     1
102
RTVSPropertyOp15
 70
     1
102
RTVSPropertyOp16
 70
     1
102
RTVSPropertyOp17
 70
     1
102
RTVSPropertyOp18
 70
     1
102
RTVSPropertyOp19
 70
     1
102
RTVSPropertyOp20
 70
     1
102
RTVSPropertyOp21
 70
     1
102
RTVSPropertyOp22
 70
     1
102
RTVSPropertyOp23
 70
     1
102
RTVSPropertyOp24
 70
     1
102
RTVSPropertyOp25
 70
     1
102
RTVSPropertyOp26
 70
     1
102
RTVSPropertyOp27
 70
     1
102
RTVSPropertyOp28
 70
     1
102
RTVSPropertyOp29
 70
     1
102
RTVSPropertyOp30
 70
     1
102
RTVSPropertyOp31
 70
     1
102
RTVSPropertyOp32
 70
     1
102
RTVSPropertyOp33
 70
     1
102
RTVSPropertyOp34
 70
     1
102
RTVSPropertyOp35
 70
     1
102
RTVSPropertyOp36
 70
     1
102
RTVSPropertyOp37
 70
     1
102
RTVSPropertyOp38
 70
     1
102
RTVSPropertyOp39
 70
     1
102
RTVSPropertyOp40
 70
     1
102
RTVSPropertyOp41
 70
     1
102
RTVSPropertyOp42
 70
     1
102
RTVSPropertyOp43
 70
     1
102
RTVSPropertyOp44
 70
     1
102
RTVSPropertyOp45
 70
     1
102
RTVSPropertyOp46
 70
     1
102
RTVSPropertyOp47
 70
     1
102
RTVSPropertyOp48
 70
     1
102
RTVSPropertyOp49
 70
     1
102
RTVSPropertyOp50
 70
     1
102
RTVSPropertyOp51
 70
     0
102
RTVSPropertyOp52
 70
     0
102
RTVSPropertyOp53
 70
     1
102
RTVSPropertyOp54
 70
     1
102
RTVSPropertyOp55
 70
     1
102
RTVSPropertyOp56
 70
     1
102
RTVSPropertyOp57
 70
     1
102
RTVSPost2010Prop28
280
     0
102
RTVSPost2010PropOp28
 70
     1
102
RTVSPost2010Prop29
280
     1
102
RTVSPost2010PropOp29
 70
     1
102
RTVSPost2010Prop30
280
     1
102
RTVSPost2010PropOp30
 70
     1
102
RTVSPost2010Prop31
280
     0
102
RTVSPost2010PropOp31
 70
     1
102
RTVSPost2010Prop32
280
     0
102
RTVSPost2010PropOp32
 70
     1
102
RTVSPost2010Prop33
280
     0
102
RTVSPost2010PropOp33
 70
     1
102
RTVSPost2010Prop34
280
     0
102
RTVSPost2010PropOp34
 70
     1
102
RTVSPost2010Prop35
280
     0
102
RTVSPost2010PropOp35
 70
     1
102
RTVSPost2010Prop36
280
     0
102
RTVSPost2010PropOp36
 70
     1
102
RTVSPost2010Prop37
 90
       50
102
RTVSPost2010PropOp37
 70
     1
102
RTVSPost2010Prop38
140
0.0
102
RTVSPost2010PropOp38
 70
     1
102
RTVSPost2010Prop39
140
1.0
102
RTVSPost2010PropOp39
 70
     1
102
RTVSPost2010Prop40
 90
        0
102
RTVSPost2010PropOp40
 70
     1
102
RTVSPost2010Prop41ColorIndex
 90
       18
102
RTVSPost2010Prop41ColorRGB
 90
        0
102
RTVSPost2010PropOp41
 70
     1
102
RTVSPost2010Prop42
 90
       50
102
RTVSPost2010PropOp42
 70
     1
102
RTVSPost2010Prop43
 90
        3
102
RTVSPost2010PropOp43
 70
     1
102
RTVSPost2010Prop44ColorIndex
 90
        5
102
RTVSPost2010Prop44ColorRGB
 90
      255
102
RTVSPost2010PropOp44
 70
     1
102
RTVSPost2010Prop45
280
     0
102
RTVSPost2010PropOp45
 70
     1
102
RTVSPost2010Prop46
 90
       50
102
RTVSPost2010PropOp46
 70
     1
102
RTVSPost2010Prop47
 90
       50
102
RTVSPost2010PropOp47
 70
     1
102
RTVSPost2010Prop48
 90
       50
102
RTVSPost2010PropOp48
 70
     1
102
RTVSPost2010Prop49
280
     0
102
RTVSPost2010PropOp49
 70
     1
102
RTVSPost2010Prop50
 90
       50
102
RTVSPost2010PropOp50
 70
     1
102
RTVSPost2010Prop51ColorIndex
 90
      256
102
RTVSPost2010Prop51ColorRGB
 90
-16777216
102
RTVSPost2010PropOp51
 70
     0
102
RTVSPost2010Prop52
140
1.0
102
RTVSPost2010PropOp52
 70
     0
102
RTVSPost2010Prop53
 90
        2
102
RTVSPost2010PropOp53
 70
     1
102
RTVSPost2010Prop54
  1
strokes_ogs.tif
102
RTVSPost2010PropOp54
 70
     1
102
RTVSPost2010Prop55
280
     0
102
RTVSPost2010PropOp55
 70
     1
102
RTVSPost2010Prop56
140
1.0
102
RTVSPost2010PropOp56
 70
     1
102
RTVSPost2010Prop57
140
1.0
102
RTVSPost2010PropOp57
 70
     1
  0
XRECORD
  5
1E7
102
{ACAD_REACTORS
330
1E6
102
}
330
1E6
100
AcDbXrecord
280
     1
102
RTVSPropertyOp0
 70
     1
102
RTVSPropertyOp1
 70
     1
102
RTVSPropertyOp2
 70
     1
102
RTVSPropertyOp3
 70
     1
102
RTVSPropertyOp4
 70
     1
102
RTVSPropertyOp5
 70
     1
102
RTVSPropertyOp6
 70
     1
102
RTVSPropertyOp7
 70
     1
102
RTVSPropertyOp8
 70
     1
102
RTVSPropertyOp9
 70
     1
102
RTVSPropertyOp10
 70
     1
102
RTVSPropertyOp11
 70
     1
102
RTVSPropertyOp12
 70
     1
102
RTVSPropertyOp13
 70
     1
102
RTVSPropertyOp14
 70
     1
102
RTVSPropertyOp15
 70
     1
102
RTVSPropertyOp16
 70
     1
102
RTVSPropertyOp17
 70
     1
102
RTVSPropertyOp18
 70
     1
102
RTVSPropertyOp19
 70
     1
102
RTVSPropertyOp20
 70
     1
102
RTVSPropertyOp21
 70
     1
102
RTVSPropertyOp22
 70
     1
102
RTVSPropertyOp23
 70
     1
102
RTVSPropertyOp24
 70
     1
102
RTVSPropertyOp25
 70
     1
102
RTVSPropertyOp26
 70
     1
102
RTVSPropertyOp27
 70
     1
102
RTVSPropertyOp28
 70
     1
102
RTVSPropertyOp29
 70
     1
102
RTVSPropertyOp30
 70
     1
102
RTVSPropertyOp31
 70
     1
102
RTVSPropertyOp32
 70
     1
102
RTVSPropertyOp33
 70
     1
102
RTVSPropertyOp34
 70
     1
102
RTVSPropertyOp35
 70
     1
102
RTVSPropertyOp36
 70
     1
102
RTVSPropertyOp37
 70
     1
102
RTVSPropertyOp38
 70
     1
102
RTVSPropertyOp39
 70
     1
102
RTVSPropertyOp40
 70
     1
102
RTVSPropertyOp41
 70
     1
102
RTVSPropertyOp42
 70
     1
102
RTVSPropertyOp43
 70
     1
102
RTVSPropertyOp44
 70
     1
102
RTVSPropertyOp45
 70
     1
102
RTVSPropertyOp46
 70
     1
102
RTVSPropertyOp47
 70
     1
102
RTVSPropertyOp48
 70
     1
102
RTVSPropertyOp49
 70
     1
102
RTVSPropertyOp50
 70
     1
102
RTVSPropertyOp51
 70
     0
102
RTVSPropertyOp52
 70
     0
102
RTVSPropertyOp53
 70
     1
102
RTVSPropertyOp54
 70
     1
102
RTVSPropertyOp55
 70
     1
102
RTVSPropertyOp56
 70
     1
102
RTVSPropertyOp57
 70
     1
102
RTVSPost2010Prop28
280
     0
102
RTVSPost2010PropOp28
 70
     1
102
RTVSPost2010Prop29
280
     1
102
RTVSPost2010PropOp29
 70
     1
102
RTVSPost2010Prop30
280
     1
102
RTVSPost2010PropOp30
 70
     1
102
RTVSPost2010Prop31
280
     0
102
RTVSPost2010PropOp31
 70
     1
102
RTVSPost2010Prop32
280
     0
102
RTVSPost2010PropOp32
 70
     1
102
RTVSPost2010Prop33
280
     0
102
RTVSPost2010PropOp33
 70
     1
102
RTVSPost2010Prop34
280
     0
102
RTVSPost2010PropOp34
 70
     1
102
RTVSPost2010Prop35
280
     0
102
RTVSPost2010PropOp35
 70
     1
102
RTVSPost2010Prop36
280
     0
102
RTVSPost2010PropOp36
 70
     1
102
RTVSPost2010Prop37
 90
       50
102
RTVSPost2010PropOp37
 70
     1
102
RTVSPost2010Prop38
140
0.0
102
RTVSPost2010PropOp38
 70
     1
102
RTVSPost2010Prop39
140
1.0
102
RTVSPost2010PropOp39
 70
     1
102
RTVSPost2010Prop40
 90
        0
102
RTVSPost2010PropOp40
 70
     1
102
RTVSPost2010Prop41ColorIndex
 90
       18
102
RTVSPost2010Prop41ColorRGB
 90
        0
102
RTVSPost2010PropOp41
 70
     1
102
RTVSPost2010Prop42
 90
       50
102
RTVSPost2010PropOp42
 70
     1
102
RTVSPost2010Prop43
 90
        3
102
RTVSPost2010PropOp43
 70
     1
102
RTVSPost2010Prop44ColorIndex
 90
        5
102
RTVSPost2010Prop44ColorRGB
 90
      255
102
RTVSPost2010PropOp44
 70
     1
102
RTVSPost2010Prop45
280
     0
102
RTVSPost2010PropOp45
 70
     1
102
RTVSPost2010Prop46
 90
       50
102
RTVSPost2010PropOp46
 70
     1
102
RTVSPost2010Prop47
 90
       50
102
RTVSPost2010PropOp47
 70
     1
102
RTVSPost2010Prop48
 90
       50
102
RTVSPost2010PropOp48
 70
     1
102
RTVSPost2010Prop49
280
     0
102
RTVSPost2010PropOp49
 70
     1
102
RTVSPost2010Prop50
 90
       50
102
RTVSPost2010PropOp50
 70
     1
102
RTVSPost2010Prop51ColorIndex
 90
      256
102
RTVSPost2010Prop51ColorRGB
 90
-16777216
102
RTVSPost2010PropOp51
 70
     0
102
RTVSPost2010Prop52
140
1.0
102
RTVSPost2010PropOp52
 70
     0
102
RTVSPost2010Prop53
 90
        2
102
RTVSPost2010PropOp53
 70
     1
102
RTVSPost2010Prop54
  1
strokes_ogs.tif
102
RTVSPost2010PropOp54
 70
     1
102
RTVSPost2010Prop55
280
     0
102
RTVSPost2010PropOp55
 70
     1
102
RTVSPost2010Prop56
140
1.0
102
RTVSPost2010PropOp56
 70
     1
102
RTVSPost2010Prop57
140
1.0
102
RTVSPost2010PropOp57
 70
     1
  0
ENDSEC
  0
EOF
