  0
SECTION
  2
HEADER
  9
$ACADVER
  1
AC1021
  9
$ACADMAINTVER
 70
    25
  9
$DWGCODEPAGE
  3
ANSI_1252
  9
$INSBASE
 10
0.0
 20
0.0
 30
0.0
  9
$EXTMIN
 10
0.0
 20
0.0
 30
0.0
  9
$EXTMAX
 10
594.0
 20
420.0
 30
0.0
  9
$LIMMIN
 10
0.0
 20
0.0
  9
$LIMMAX
 10
594.0
 20
420.0
  9
$ORTHOMODE
 70
     0
  9
$REGENMODE
 70
     1
  9
$FILLMODE
 70
     1
  9
$QTEXTMODE
 70
     0
  9
$MIRRTEXT
 70
     1
  9
$LTSCALE
 40
1.0
  9
$ATTMODE
 70
     1
  9
$TEXTSIZE
 40
4.57
  9
$TRACEWID
 40
1.0
  9
$TEXTSTYLE
  7
Standard
  9
$CLAYER
  8
0
  9
$CELTYPE
  6
ByLayer
  9
$CECOLOR
 62
   256
  9
$CELTSCALE
 40
1.0
  9
$DISPSILH
 70
     0
  9
$DIMSCALE
 40
1.0
  9
$DIMASZ
 40
2.5
  9
$DIMEXO
 40
0.625
  9
$DIMDLI
 40
3.75
  9
$DIMRND
 40
0.0
  9
$DIMDLE
 40
0.0
  9
$DIMEXE
 40
1.25
  9
$DIMTP
 40
0.0
  9
$DIMTM
 40
0.0
  9
$DIMTXT
 40
2.5
  9
$DIMCEN
 40
2.5
  9
$DIMTSZ
 40
0.0
  9
$DIMTOL
 70
     0
  9
$DIMLIM
 70
     0
  9
$DIMTIH
 70
     0
  9
$DIMTOH
 70
     0
  9
$DIMSE1
 70
     0
  9
$DIMSE2
 70
     0
  9
$DIMTAD
 70
     1
  9
$DIMZIN
 70
     8
  9
$DIMBLK
  1

  9
$DIMASO
 70
     1
  9
$DIMSHO
 70
     1
  9
$DIMPOST
  1

  9
$DIMAPOST
  1

  9
$DIMALT
 70
     0
  9
$DIMALTD
 70
     3
  9
$DIMALTF
 40
0.0393700787
  9
$DIMLFAC
 40
1.0
  9
$DIMTOFL
 70
     1
  9
$DIMTVP
 40
0.0
  9
$DIMTIX
 70
     0
  9
$DIMSOXD
 70
     0
  9
$DIMSAH
 70
     0
  9
$DIMBLK1
  1

  9
$DIMBLK2
  1

  9
$DIMSTYLE
  2
ISO-25
  9
$DIMCLRD
 70
     0
  9
$DIMCLRE
 70
     0
  9
$DIMCLRT
 70
     0
  9
$DIMTFAC
 40
1.0
  9
$DIMGAP
 40
0.625
  9
$DIMJUST
 70
     0
  9
$DIMSD1
 70
     0
  9
$DIMSD2
 70
     0
  9
$DIMTOLJ
 70
     0
  9
$DIMTZIN
 70
     8
  9
$DIMALTZ
 70
     0
  9
$DIMALTTZ
 70
     0
  9
$DIMUPT
 70
     0
  9
$DIMDEC
 70
     2
  9
$DIMTDEC
 70
     2
  9
$DIMALTU
 70
     2
  9
$DIMALTTD
 70
     3
  9
$DIMTXSTY
  7
Standard
  9
$DIMAUNIT
 70
     0
  9
$DIMADEC
 70
     0
  9
$DIMALTRND
 40
0.0
  9
$DIMAZIN
 70
     0
  9
$DIMDSEP
 70
    44
  9
$DIMATFIT
 70
     3
  9
$DIMFRAC
 70
     0
  9
$DIMLDRBLK
  1

  9
$DIMLUNIT
 70
     2
  9
$DIMLWD
 70
    -2
  9
$DIMLWE
 70
    -2
  9
$DIMTMOVE
 70
     0
  9
$DIMFXL
 40
1.0
  9
$DIMFXLON
 70
     0
  9
$DIMJOGANG
 40
0.7853981634
  9
$DIMTFILL
 70
     0
  9
$DIMTFILLCLR
 70
     0
  9
$DIMARCSYM
 70
     0
  9
$DIMLTYPE
  6

  9
$DIMLTEX1
  6

  9
$DIMLTEX2
  6

  9
$LUNITS
 70
     2
  9
$LUPREC
 70
     4
  9
$SKETCHINC
 40
1.0
  9
$FILLETRAD
 40
10.0
  9
$AUNITS
 70
     0
  9
$AUPREC
 70
     0
  9
$MENU
  1
.
  9
$ELEVATION
 40
0.0
  9
$PELEVATION
 40
0.0
  9
$THICKNESS
 40
0.0
  9
$LIMCHECK
 70
     0
  9
$CHAMFERA
 40
0.0
  9
$CHAMFERB
 40
0.0
  9
$CHAMFERC
 40
0.0
  9
$CHAMFERD
 40
0.0
  9
$SKPOLY
 70
     0
  9
$TDCREATE
 40
2460686.373830185
  9
$TDUCREATE
 40
2460686.332163518
  9
$TDUPDATE
 40
2460686.373832546
  9
$TDUUPDATE
 40
2460686.33216588
  9
$TDINDWG
 40
0.0000000116
  9
$TDUSRTIMER
 40
0.0000000116
  9
$USRTIMER
 70
     1
  9
$ANGBASE
 50
0.0
  9
$ANGDIR
 70
     0
  9
$PDMODE
 70
     0
  9
$PDSIZE
 40
0.0
  9
$PLINEWID
 40
0.0
  9
$SPLFRAME
 70
     0
  9
$SPLINETYPE
 70
     6
  9
$SPLINESEGS
 70
     8
  9
$HANDSEED
  5
223
  9
$SURFTAB1
 70
     6
  9
$SURFTAB2
 70
     6
  9
$SURFTYPE
 70
     6
  9
$SURFU
 70
     6
  9
$SURFV
 70
     6
  9
$UCSBASE
  2

  9
$UCSNAME
  2

  9
$UCSORG
 10
0.0
 20
0.0
 30
0.0
  9
$UCSXDIR
 10
1.0
 20
0.0
 30
0.0
  9
$UCSYDIR
 10
0.0
 20
1.0
 30
0.0
  9
$UCSORTHOREF
  2

  9
$UCSORTHOVIEW
 70
     0
  9
$UCSORGTOP
 10
0.0
 20
0.0
 30
0.0
  9
$UCSORGBOTTOM
 10
0.0
 20
0.0
 30
0.0
  9
$UCSORGLEFT
 10
0.0
 20
0.0
 30
0.0
  9
$UCSORGRIGHT
 10
0.0
 20
0.0
 30
0.0
  9
$UCSORGFRONT
 10
0.0
 20
0.0
 30
0.0
  9
$UCSORGBACK
 10
0.0
 20
0.0
 30
0.0
  9
$PUCSBASE
  2

  9
$PUCSNAME
  2

  9
$PUCSORG
 10
0.0
 20
0.0
 30
0.0
  9
$PUCSXDIR
 10
1.0
 20
0.0
 30
0.0
  9
$PUCSYDIR
 10
0.0
 20
1.0
 30
0.0
  9
$PUCSORTHOREF
  2

  9
$PUCSORTHOVIEW
 70
     0
  9
$PUCSORGTOP
 10
0.0
 20
0.0
 30
0.0
  9
$PUCSORGBOTTOM
 10
0.0
 20
0.0
 30
0.0
  9
$PUCSORGLEFT
 10
0.0
 20
0.0
 30
0.0
  9
$PUCSORGRIGHT
 10
0.0
 20
0.0
 30
0.0
  9
$PUCSORGFRONT
 10
0.0
 20
0.0
 30
0.0
  9
$PUCSORGBACK
 10
0.0
 20
0.0
 30
0.0
  9
$USERI1
 70
     0
  9
$USERI2
 70
     0
  9
$USERI3
 70
     0
  9
$USERI4
 70
     0
  9
$USERI5
 70
     0
  9
$USERR1
 40
0.0
  9
$USERR2
 40
0.0
  9
$USERR3
 40
0.0
  9
$USERR4
 40
0.0
  9
$USERR5
 40
0.0
  9
$WORLDVIEW
 70
     1
  9
$SHADEDGE
 70
     3
  9
$SHADEDIF
 70
    70
  9
$TILEMODE
 70
     1
  9
$MAXACTVP
 70
    64
  9
$PINSBASE
 10
0.0
 20
0.0
 30
0.0
  9
$PLIMCHECK
 70
     0
  9
$PEXTMIN
 10
0.0
 20
0.0
 30
0.0
  9
$PEXTMAX
 10
594.0
 20
420.0
 30
0.0
  9
$PLIMMIN
 10
0.0
 20
0.0
  9
$PLIMMAX
 10
594.0
 20
420.0
  9
$UNITMODE
 70
     0
  9
$VISRETAIN
 70
     1
  9
$PLINEGEN
 70
     0
  9
$PSLTSCALE
 70
     1
  9
$TREEDEPTH
 70
  3020
  9
$CMLSTYLE
  2
Standard
  9
$CMLJUST
 70
     0
  9
$CMLSCALE
 40
20.0
  9
$PROXYGRAPHICS
 70
     1
  9
$MEASUREMENT
 70
     1
  9
$CELWEIGHT
370
    -1
  9
$ENDCAPS
280
     0
  9
$JOINSTYLE
280
     0
  9
$LWDISPLAY
290
     0
  9
$INSUNITS
 70
     4
  9
$HYPERLINKBASE
  1

  9
$STYLESHEET
  1

  9
$XEDIT
290
     1
  9
$CEPSNTYPE
380
     0
  9
$PSTYLEMODE
290
     1
  9
$FINGERPRINTGUID
  2
{88e4d586-b81e-4560-af29-2cd38bd03185}
  9
$VERSIONGUID
  2
{FAEB1C32-E019-11D5-929B-00C0DF256EC4}
  9
$EXTNAMES
290
     1
  9
$PSVPSCALE
 40
0.0
  9
$OLESTARTUP
290
     0
  9
$SORTENTS
280
   127
  9
$INDEXCTL
280
     0
  9
$HIDETEXT
280
     1
  9
$XCLIPFRAME
290
     0
  9
$HALOGAP
280
     0
  9
$OBSCOLOR
 70
   257
  9
$OBSLTYPE
280
     0
  9
$INTERSECTIONDISPLAY
280
     0
  9
$INTERSECTIONCOLOR
 70
   257
  9
$DIMASSOC
280
     2
  9
$PROJECTNAME
  1

  9
$CAMERADISPLAY
290
     0
  9
$LENSLENGTH
 40
50.0
  9
$CAMERAHEIGHT
 40
0.0
  9
$STEPSPERSEC
 40
2.0
  9
$STEPSIZE
 40
6.0
  9
$3DDWFPREC
 40
2.0
  9
$PSOLWIDTH
 40
5.0
  9
$PSOLHEIGHT
 40
80.0
  9
$LOFTANG1
 40
1.5707963268
  9
$LOFTANG2
 40
1.5707963268
  9
$LOFTMAG1
 40
0.0
  9
$LOFTMAG2
 40
0.0
  9
$LOFTPARAM
 70
     7
  9
$LOFTNORMALS
280
     1
  9
$LATITUDE
 40
37.795
  9
$LONGITUDE
 40
-122.394
  9
$NORTHDIRECTION
 40
0.0
  9
$TIMEZONE
 70
 -8000
  9
$LIGHTGLYPHDISPLAY
280
     1
  9
$TILEMODELIGHTSYNCH
280
     1
  9
$CMATERIAL
347
44
  9
$SOLIDHIST
280
     0
  9
$SHOWHIST
280
     1
  9
$DWFFRAME
280
     2
  9
$DGNFRAME
280
     2
  9
$REALWORLDSCALE
290
     1
  9
$INTERFERECOLOR
 62
   256
  9
$CSHADOW
280
     0
  9
$SHADOWPLANELOCATION
 40
0.0
  0
ENDSEC
  0
SECTION
  2
CLASSES
  0
CLASS
  1
ACDBDICTIONARYWDFLT
  2
AcDbDictionaryWithDefault
  3
ObjectDBX Classes
 90
        0
 91
        3
280
     0
281
     0
  0
CLASS
  1
VISUALSTYLE
  2
AcDbVisualStyle
  3
ObjectDBX Classes
 90
     4095
 91
        3
280
     0
281
     0
  0
CLASS
  1
MATERIAL
  2
AcDbMaterial
  3
ObjectDBX Classes
 90
     1153
 91
        3
280
     0
281
     0
  0
CLASS
  1
SCALE
  2
AcDbScale
  3
ObjectDBX Classes
 90
     1153
 91
        3
280
     0
281
     0
  0
CLASS
  1
TABLESTYLE
  2
AcDbTableStyle
  3
ObjectDBX Classes
 90
     4095
 91
        3
280
     0
281
     0
  0
CLASS
  1
MLEADERSTYLE
  2
AcDbMLeaderStyle
  3
ACDB_MLEADERSTYLE_CLASS
 90
     4095
 91
        3
280
     0
281
     0
  0
CLASS
  1
SUN
  2
AcDbSun
  3
SCENEOE
 90
     1153
 91
        3
280
     0
281
     0
  0
CLASS
  1
DICTIONARYVAR
  2
AcDbDictionaryVar
  3
ObjectDBX Classes
 90
        0
 91
        3
280
     0
281
     0
  0
CLASS
  1
CELLSTYLEMAP
  2
AcDbCellStyleMap
  3
ObjectDBX Classes
 90
     1152
 91
        3
280
     0
281
     0
  0
ENDSEC
  0
SECTION
  2
TABLES
  0
TABLE
  2
VPORT
  5
8
330
0
100
AcDbSymbolTable
 70
     1
  0
VPORT
  5
29
330
8
100
AcDbSymbolTableRecord
100
AcDbViewportTableRecord
  2
*Active
 70
     0
 10
0.0
 20
0.0
 11
1.0
 21
1.0
 12
344.1869158879
 22
148.5
 13
0.0
 23
0.0
 14
10.0
 24
10.0
 15
10.0
 25
10.0
 16
0.0
 26
0.0
 36
1.0
 17
0.0
 27
0.0
 37
0.0
 40
297.0
 41
1.9729729729
 42
50.0
 43
0.0
 44
0.0
 50
0.0
 51
0.0
 71
     0
 72
   100
 73
     1
 74
     3
 75
     0
 76
     0
 77
     0
 78
     0
281
     0
 65
     1
110
0.0
120
0.0
130
0.0
111
1.0
121
0.0
131
0.0
112
0.0
122
1.0
132
0.0
 79
     0
146
0.0
348
2F
 60
     3
 61
     5
292
     1
282
     1
141
0.0
142
0.0
 63
   250
361
6D
  0
ENDTAB
  0
TABLE
  2
LTYPE
  5
5
330
0
100
AcDbSymbolTable
 70
     3
  0
LTYPE
  5
14
330
5
100
AcDbSymbolTableRecord
100
AcDbLinetypeTableRecord
  2
ByBlock
 70
     0
  3

 72
    65
 73
     0
 40
0.0
  0
LTYPE
  5
15
330
5
100
AcDbSymbolTableRecord
100
AcDbLinetypeTableRecord
  2
ByLayer
 70
     0
  3

 72
    65
 73
     0
 40
0.0
  0
LTYPE
  5
16
330
5
100
AcDbSymbolTableRecord
100
AcDbLinetypeTableRecord
  2
Continuous
 70
     0
  3
Solid line
 72
    65
 73
     0
 40
0.0
  0
LTYPE
  5
6F
330
5
100
AcDbSymbolTableRecord
100
AcDbLinetypeTableRecord
  2
HIDDEN2
 70
     0
  3
Hidden (.5x) _ _ _ _ _ _ _ _ _ _ _ _ _ _ _ _ _ 
 72
    65
 73
     2
 40
4.7625
 49
3.175
 74
     4
 75
     0
340
0
 46
0.0
 50
0.0
 44
0.0
 45
0.0
 49
-1.5875
 74
     4
 75
     0
340
0
 46
0.0
 50
0.0
 44
0.0
 45
0.0
  0
LTYPE
  5
173
330
5
100
AcDbSymbolTableRecord
100
AcDbLinetypeTableRecord
  2
CENTER2
 70
     0
  3
Center (.5x) ___ _ ___ _ ___ _ ___ _ ___ _ ___
 72
    65
 73
     4
 40
28.575
 49
19.05
 74
     4
 75
     0
340
0
 46
0.0
 50
0.0
 44
0.0
 45
0.0
 49
-3.175
 74
     4
 75
     0
340
0
 46
0.0
 50
0.0
 44
0.0
 45
0.0
 49
3.175
 74
     4
 75
     0
340
0
 46
0.0
 50
0.0
 44
0.0
 45
0.0
 49
-3.175
 74
     4
 75
     0
340
0
 46
0.0
 50
0.0
 44
0.0
 45
0.0
  0
ENDTAB
  0
TABLE
  2
LAYER
  5
2
330
0
100
AcDbSymbolTable
 70
    10
  0
LAYER
  5
10
330
2
100
AcDbSymbolTableRecord
100
AcDbLayerTableRecord
  2
0
 70
     0
 62
     7
  6
Continuous
370
    -3
390
F
347
46
  0
LAYER
  5
6E
330
2
100
AcDbSymbolTableRecord
100
AcDbLayerTableRecord
  2
Verdeckt_(ISO)
 70
     0
 62
     7
  6
Continuous
370
    -3
390
F
347
46
  0
LAYER
  5
7B
330
2
100
AcDbSymbolTableRecord
100
AcDbLayerTableRecord
  2
Sichtbar_(ISO)
 70
     0
 62
     7
  6
Continuous
370
    -3
390
F
347
46
  0
LAYER
  5
CD
330
2
100
AcDbSymbolTableRecord
100
AcDbLayerTableRecord
  2
Sichtbar_schmal_(ISO)
 70
     0
 62
     7
  6
Continuous
370
    -3
390
F
347
46
  0
LAYER
  5
172
330
2
100
AcDbSymbolTableRecord
100
AcDbLayerTableRecord
  2
Mittellinie_(ISO)
 70
     0
 62
     7
  6
Continuous
370
    -3
390
F
347
46
  0
LAYER
  5
176
330
2
100
AcDbSymbolTableRecord
100
AcDbLayerTableRecord
  2
Mittelpunktmarkierung_(ISO)
 70
     0
 62
     7
  6
Continuous
370
    -3
390
F
347
46
  0
LAYER
  5
17D
330
2
100
AcDbSymbolTableRecord
100
AcDbLayerTableRecord
  2
Skizziergeometrie_(ISO)
 70
     0
 62
     7
  6
Continuous
370
    -3
390
F
347
46
  0
LAYER
  5
17F
330
2
100
AcDbSymbolTableRecord
100
AcDbLayerTableRecord
  2
_Konvertierung
 70
     1
 62
    -7
  6
Continuous
370
    -3
390
F
347
46
  0
LAYER
  5
190
330
2
100
AcDbSymbolTableRecord
100
AcDbLayerTableRecord
  2
6
 70
     0
 62
     7
  6
Continuous
370
    -3
390
F
347
46
  0
LAYER
  5
193
330
2
100
AcDbSymbolTableRecord
100
AcDbLayerTableRecord
  2
Bemaßung_(ISO)
 70
     0
 62
     7
  6
Continuous
370
    -3
390
F
347
46
  0
ENDTAB
  0
TABLE
  2
STYLE
  5
3
330
0
100
AcDbSymbolTable
 70
     2
  0
STYLE
  5
11
330
3
100
AcDbSymbolTableRecord
100
AcDbTextStyleTableRecord
  2
Standard
 70
     0
 40
0.0
 41
1.0
 50
0.0
 71
     0
 42
4.57
  3
txt
  4

  0
STYLE
  5
1A3
330
3
100
AcDbSymbolTableRecord
100
AcDbTextStyleTableRecord
  2
SEACAD_Arial
 70
     0
 40
0.0
 41
1.0
 50
0.0
 71
     0
 42
4.57
  3
arial.ttf
  4

1001
ACAD
1000
Arial
1071
        0
  0
ENDTAB
  0
TABLE
  2
VIEW
  5
6
330
0
100
AcDbSymbolTable
 70
     0
  0
ENDTAB
  0
TABLE
  2
UCS
  5
7
330
0
100
AcDbSymbolTable
 70
     0
  0
ENDTAB
  0
TABLE
  2
APPID
  5
9
330
0
100
AcDbSymbolTable
 70
     2
  0
APPID
  5
12
330
9
100
AcDbSymbolTableRecord
100
AcDbRegAppTableRecord
  2
ACAD
 70
     0
  0
APPID
  5
219
330
9
100
AcDbSymbolTableRecord
100
AcDbRegAppTableRecord
  2
ACAD_MLEADERVER
 70
     0
  0
ENDTAB
  0
TABLE
  2
DIMSTYLE
  5
A
330
0
100
AcDbSymbolTable
 70
     3
100
AcDbDimStyleTable
  0
DIMSTYLE
105
27
330
A
100
AcDbSymbolTableRecord
100
AcDbDimStyleTableRecord
  2
ISO-25
 70
     0
 41
2.5
 42
0.625
 43
3.75
 44
1.25
 73
     0
 74
     0
 77
     1
 78
     8
140
2.5
141
2.5
143
0.0393700787
147
0.625
171
     3
172
     1
178
     0
271
     2
272
     2
274
     3
278
    44
283
     0
284
     8
340
11
  0
DIMSTYLE
105
194
330
A
100
AcDbSymbolTableRecord
100
AcDbDimStyleTableRecord
  2
Standard
 70
     0
178
     0
340
11
  0
DIMSTYLE
105
1A4
102
{ACAD_REACTORS
330
1A5
330
1AF
330
1BA
330
1C4
330
1CE
330
1D9
102
}
330
A
100
AcDbSymbolTableRecord
100
AcDbDimStyleTableRecord
  2
Standard_(DIN)
 70
     0
 41
2.5
 42
1.75
 44
1.75
 73
     0
 74
     0
 77
     1
140
3.5
141
1.75
143
1.0
144
1.0
147
0.875
173
     1
178
     0
271
     1
272
     2
278
    44
340
1A3
343
19E
344
19E
  0
ENDTAB
  0
TABLE
  2
BLOCK_RECORD
  5
1
330
0
100
AcDbSymbolTable
 70
     9
  0
BLOCK_RECORD
  5
1F
330
1
100
AcDbSymbolTableRecord
100
AcDbBlockTableRecord
  2
*Model_Space
340
22
 70
     0
280
     1
281
     0
  0
BLOCK_RECORD
  5
1B
330
1
100
AcDbSymbolTableRecord
100
AcDbBlockTableRecord
  2
*Paper_Space
340
1E
 70
     0
280
     1
281
     0
  0
BLOCK_RECORD
  5
195
330
1
100
AcDbSymbolTableRecord
100
AcDbBlockTableRecord
  2
_Oblique
340
0
 70
     0
280
     1
281
     0
  0
BLOCK_RECORD
  5
199
330
1
100
AcDbSymbolTableRecord
100
AcDbBlockTableRecord
  2
_Dot
340
0
 70
     0
280
     1
281
     0
  0
BLOCK_RECORD
  5
19E
330
1
100
AcDbSymbolTableRecord
100
AcDbBlockTableRecord
  2
_SE_FILLED
340
0
 70
     0
280
     1
281
     0
  0
BLOCK_RECORD
  5
1A6
330
1
100
AcDbSymbolTableRecord
100
AcDbBlockTableRecord
  2
DMBLK43
340
0
 70
     0
280
     1
281
     0
  0
BLOCK_RECORD
  5
1B0
330
1
100
AcDbSymbolTableRecord
100
AcDbBlockTableRecord
  2
DMBLK44
340
0
 70
     0
280
     1
281
     0
  0
BLOCK_RECORD
  5
1BB
330
1
100
AcDbSymbolTableRecord
100
AcDbBlockTableRecord
  2
DMBLK45
340
0
 70
     0
280
     1
281
     0
  0
BLOCK_RECORD
  5
1C5
330
1
100
AcDbSymbolTableRecord
100
AcDbBlockTableRecord
  2
DMBLK46
340
0
 70
     0
280
     1
281
     0
  0
BLOCK_RECORD
  5
1CF
330
1
100
AcDbSymbolTableRecord
100
AcDbBlockTableRecord
  2
DMBLK47
340
0
 70
     0
280
     1
281
     0
  0
BLOCK_RECORD
  5
1DA
330
1
100
AcDbSymbolTableRecord
100
AcDbBlockTableRecord
  2
DMBLK48
340
0
 70
     0
280
     1
281
     0
  0
ENDTAB
  0
ENDSEC
  0
SECTION
  2
BLOCKS
  0
BLOCK
  5
20
330
1F
100
AcDbEntity
  8
0
100
AcDbBlockBegin
  2
*Model_Space
 70
     0
 10
0.0
 20
0.0
 30
0.0
  3
*Model_Space
  1

  0
ENDBLK
  5
21
330
1F
100
AcDbEntity
  8
0
100
AcDbBlockEnd
  0
BLOCK
  5
1C
330
1B
100
AcDbEntity
 67
     1
  8
0
100
AcDbBlockBegin
  2
*Paper_Space
 70
     0
 10
0.0
 20
0.0
 30
0.0
  3
*Paper_Space
  1

  0
ENDBLK
  5
1D
330
1B
100
AcDbEntity
 67
     1
  8
0
100
AcDbBlockEnd
  0
BLOCK
  5
196
330
195
100
AcDbEntity
  8
0
100
AcDbBlockBegin
  2
_Oblique
 70
     0
 10
0.0
 20
0.0
 30
0.0
  3
_Oblique
  1

  0
LINE
  5
198
330
195
100
AcDbEntity
  8
0
  6
ByBlock
 62
     0
370
    -2
100
AcDbLine
 10
-0.5
 20
-0.5
 30
0.0
 11
0.5
 21
0.5
 31
0.0
  0
ENDBLK
  5
197
330
195
100
AcDbEntity
  8
0
100
AcDbBlockEnd
  0
BLOCK
  5
19A
330
199
100
AcDbEntity
  8
0
100
AcDbBlockBegin
  2
_Dot
 70
     0
 10
0.0
 20
0.0
 30
0.0
  3
_Dot
  1

  0
LWPOLYLINE
  5
19C
330
199
100
AcDbEntity
  8
0
  6
ByBlock
 62
     0
100
AcDbPolyline
 90
        2
 70
     1
 43
0.5
 10
-0.25
 20
0.0
 42
1.0
 10
0.25
 20
0.0
 42
1.0
  0
LINE
  5
19D
330
199
100
AcDbEntity
  8
0
  6
ByBlock
 62
     0
370
    -2
100
AcDbLine
 10
-0.5
 20
0.0
 30
0.0
 11
-1.0
 21
0.0
 31
0.0
  0
ENDBLK
  5
19B
330
199
100
AcDbEntity
  8
0
100
AcDbBlockEnd
  0
BLOCK
  5
1A1
330
19E
100
AcDbEntity
  8
0
100
AcDbBlockBegin
  2
_SE_FILLED
 70
     0
 10
0.0
 20
0.0
 30
0.0
  3
_SE_FILLED
  1

  0
SOLID
  5
19F
330
19E
100
AcDbEntity
  8
0
 62
     0
100
AcDbTrace
 10
0.0
 20
0.0
 30
0.0
 11
-1.0
 21
-0.1665
 31
0.0
 12
-1.0
 22
0.1665
 32
0.0
 13
0.0
 23
0.0
 33
0.0
  0
LINE
  5
1A0
330
19E
100
AcDbEntity
  8
0
 62
     0
100
AcDbLine
 10
0.0
 20
0.0
 30
0.0
 11
-1.0
 21
0.0
 31
0.0
  0
ENDBLK
  5
1A2
330
19E
100
AcDbEntity
  8
0
100
AcDbBlockEnd
  0
BLOCK
  5
1AD
330
1A6
100
AcDbEntity
  8
0
100
AcDbBlockBegin
  2
DMBLK43
 70
     0
 10
0.0
 20
0.0
 30
0.0
  3
DMBLK43
  1

  0
HATCH
  5
1A7
330
1A6
100
AcDbEntity
  8
Bemaßung_(ISO)
  6
Continuous
 62
     7
100
AcDbHatch
 10
0.0
 20
0.0
 30
0.0
210
0.0
220
0.0
230
1.0
  2
SOLID
 70
     1
 71
     0
 91
        1
 92
        1
 93
        3
 72
     1
 10
-2.500000442145972
 20
40.69307870078983
 11
-2.500000442145972
 21
39.85974538608295
 72
     1
 10
-2.500000442145972
 20
39.85974538608295
 11
-0.0000004980253263
 21
40.27641204343639
 72
     1
 10
-0.0000004980253263
 20
40.27641204343639
 11
-2.500000442145972
 21
40.69307870078983
 97
        0
 75
     0
 76
     1
 98
        0
  0
HATCH
  5
1A8
330
1A6
100
AcDbEntity
  8
Bemaßung_(ISO)
  6
Continuous
 62
     7
100
AcDbHatch
 10
0.0
 20
0.0
 30
0.0
210
0.0
220
0.0
230
1.0
  2
SOLID
 70
     1
 71
     0
 91
        1
 92
        1
 93
        3
 72
     1
 10
-62.89999749022594
 20
40.69307870078983
 11
-65.39999743434659
 21
40.27641204343639
 72
     1
 10
-65.39999743434659
 20
40.27641204343639
 11
-62.89999749022594
 21
39.85974538608295
 72
     1
 10
-62.89999749022594
 20
39.85974538608295
 11
-62.89999749022594
 21
40.69307870078983
 97
        0
 75
     0
 76
     1
 98
        0
  0
LINE
  5
1A9
330
1A6
100
AcDbEntity
  8
Bemaßung_(ISO)
  6
Continuous
 62
     7
100
AcDbLine
 10
-0.000000498
 20
24.0249860861
 30
0.0
 11
-0.000000498
 21
42.0264120975
 31
0.0
  0
LINE
  5
1AA
330
1A6
100
AcDbEntity
  8
Bemaßung_(ISO)
  6
Continuous
 62
     7
100
AcDbLine
 10
-65.400000498
 20
12.8808582269
 30
0.0
 11
-65.400000498
 21
42.0264120975
 31
0.0
  0
LINE
  5
1AB
330
1A6
100
AcDbEntity
  8
Bemaßung_(ISO)
  6
Continuous
 62
     7
100
AcDbLine
 10
-0.000000498
 20
40.2764120434
 30
0.0
 11
-65.3999974343
 21
40.2764120434
 31
0.0
  0
TEXT
  5
1AC
330
1A6
100
AcDbEntity
  8
Bemaßung_(ISO)
  6
Continuous
 62
     7
100
AcDbText
 10
-37.4934772271
 20
41.1514120434
 30
0.0
 40
3.5
  1
65,4
  7
SEACAD_Arial
 11
-37.4934772271
 21
44.6514120434
 31
0.0
100
AcDbText
 73
     3
  0
ENDBLK
  5
1AE
330
1A6
100
AcDbEntity
  8
0
100
AcDbBlockEnd
  0
BLOCK
  5
1B8
330
1B0
100
AcDbEntity
  8
0
100
AcDbBlockBegin
  2
DMBLK44
 70
     0
 10
0.0
 20
0.0
 30
0.0
  3
DMBLK44
  1

  0
HATCH
  5
1B1
330
1B0
100
AcDbEntity
  8
Bemaßung_(ISO)
  6
Continuous
 62
     7
100
AcDbHatch
 10
0.0
 20
0.0
 30
0.0
210
0.0
220
0.0
230
1.0
  2
SOLID
 70
     1
 71
     0
 91
        1
 92
        1
 93
        3
 72
     1
 10
-80.03007910644385
 20
28.99998608799184
 11
-79.19674579173696
 21
28.99998608799184
 72
     1
 10
-79.19674579173696
 20
28.99998608799184
 11
-79.6134124490904
 21
31.49998603211248
 72
     1
 10
-79.6134124490904
 20
31.49998603211248
 11
-80.03007910644385
 21
28.99998608799184
 97
        0
 75
     0
 76
     1
 98
        0
  0
HATCH
  5
1B2
330
1B0
100
AcDbEntity
  8
Bemaßung_(ISO)
  6
Continuous
 62
     7
100
AcDbHatch
 10
0.0
 20
0.0
 30
0.0
210
0.0
220
0.0
230
1.0
  2
SOLID
 70
     1
 71
     0
 91
        1
 92
        1
 93
        3
 72
     1
 10
-80.03007910644385
 20
-29.00001503704583
 11
-79.6134124490904
 21
-31.50001498116648
 72
     1
 10
-79.6134124490904
 20
-31.50001498116648
 11
-79.19674579173696
 21
-29.00001503704583
 72
     1
 10
-79.19674579173696
 20
-29.00001503704583
 11
-80.03007910644385
 21
-29.00001503704583
 97
        0
 75
     0
 76
     1
 98
        0
  0
LINE
  5
1B3
330
1B0
100
AcDbEntity
  8
Bemaßung_(ISO)
  6
Continuous
 62
     7
100
AcDbLine
 10
1.449999448
 20
31.4999860321
 30
0.0
 11
-81.3634125031
 21
31.4999860321
 31
0.0
  0
LINE
  5
1B4
330
1B0
100
AcDbEntity
  8
Bemaßung_(ISO)
  6
Continuous
 62
     7
100
AcDbLine
 10
1.449999448
 20
-31.5000139679
 30
0.0
 11
-81.3634125031
 21
-31.5000139679
 31
0.0
  0
LINE
  5
1B5
330
1B0
100
AcDbEntity
  8
Bemaßung_(ISO)
  6
Continuous
 62
     7
100
AcDbLine
 10
-79.6134124491
 20
31.4999860321
 30
0.0
 11
-79.6134124491
 21
-31.5000149812
 31
0.0
  0
TEXT
  5
1B6
330
1B0
100
AcDbEntity
  8
Bemaßung_(ISO)
  6
Continuous
 62
     7
100
AcDbText
 10
-80.4884124491
 20
-0.1445796919
 30
0.0
 40
3.5
  1
63
 50
90.0
  7
SEACAD_Arial
 11
-83.9884124491
 21
-0.1445796919
 31
0.0
100
AcDbText
 73
     3
  0
TEXT
  5
1B7
330
1B0
100
AcDbEntity
  8
Bemaßung_(ISO)
  6
Continuous
 62
     7
100
AcDbText
 10
-80.4884124491
 20
-5.3337101267
 30
0.0
 40
3.5
  1
n
 50
90.0
  7
SEACAD_Arial
 11
-83.9884124491
 21
-5.3337101267
 31
0.0
100
AcDbText
 73
     3
  0
ENDBLK
  5
1B9
330
1B0
100
AcDbEntity
  8
0
100
AcDbBlockEnd
  0
BLOCK
  5
1C2
330
1BB
100
AcDbEntity
  8
0
100
AcDbBlockBegin
  2
DMBLK45
 70
     0
 10
0.0
 20
0.0
 30
0.0
  3
DMBLK45
  1

  0
HATCH
  5
1BC
330
1BB
100
AcDbEntity
  8
Bemaßung_(ISO)
  6
Continuous
 62
     7
100
AcDbHatch
 10
0.0
 20
0.0
 30
0.0
210
0.0
220
0.0
230
1.0
  2
SOLID
 70
     1
 71
     0
 91
        1
 92
        1
 93
        3
 72
     1
 10
2.499999446095319
 20
40.69307870078983
 11
-0.0000004980253263
 21
40.27641204343639
 72
     1
 10
-0.0000004980253263
 20
40.27641204343639
 11
2.499999446095319
 21
39.85974538608295
 72
     1
 10
2.499999446095319
 20
39.85974538608295
 11
2.499999446095319
 21
40.69307870078983
 97
        0
 75
     0
 76
     1
 98
        0
  0
HATCH
  5
1BD
330
1BB
100
AcDbEntity
  8
Bemaßung_(ISO)
  6
Continuous
 62
     7
100
AcDbHatch
 10
0.0
 20
0.0
 30
0.0
210
0.0
220
0.0
230
1.0
  2
SOLID
 70
     1
 71
     0
 91
        1
 92
        1
 93
        3
 72
     1
 10
26.499998723389
 20
40.69307870078983
 11
26.499998723389
 21
39.85974538608295
 72
     1
 10
26.499998723389
 20
39.85974538608295
 11
28.99999866750965
 21
40.27641204343639
 72
     1
 10
28.99999866750965
 20
40.27641204343639
 11
26.499998723389
 21
40.69307870078983
 97
        0
 75
     0
 76
     1
 98
        0
  0
LINE
  5
1BE
330
1BB
100
AcDbEntity
  8
Bemaßung_(ISO)
  6
Continuous
 62
     7
100
AcDbLine
 10
-0.000000498
 20
24.0249860861
 30
0.0
 11
-0.000000498
 21
42.0264120975
 31
0.0
  0
LINE
  5
1BF
330
1BB
100
AcDbEntity
  8
Bemaßung_(ISO)
  6
Continuous
 62
     7
100
AcDbLine
 10
28.999999502
 20
33.2499860861
 30
0.0
 11
28.999999502
 21
42.0264120975
 31
0.0
  0
LINE
  5
1C0
330
1BB
100
AcDbEntity
  8
Bemaßung_(ISO)
  6
Continuous
 62
     7
100
AcDbLine
 10
-0.000000498
 20
40.2764120434
 30
0.0
 11
28.9999986675
 21
40.2764120434
 31
0.0
  0
TEXT
  5
1C1
330
1BB
100
AcDbEntity
  8
Bemaßung_(ISO)
  6
Continuous
 62
     7
100
AcDbText
 10
11.76086865
 20
41.1514120434
 30
0.0
 40
3.5
  1
29
  7
SEACAD_Arial
 11
11.76086865
 21
44.6514120434
 31
0.0
100
AcDbText
 73
     3
  0
ENDBLK
  5
1C3
330
1BB
100
AcDbEntity
  8
0
100
AcDbBlockEnd
  0
BLOCK
  5
1CC
330
1C5
100
AcDbEntity
  8
0
100
AcDbBlockBegin
  2
DMBLK46
 70
     0
 10
0.0
 20
0.0
 30
0.0
  3
DMBLK46
  1

  0
HATCH
  5
1C6
330
1C5
100
AcDbEntity
  8
Bemaßung_(ISO)
  6
Continuous
 62
     7
100
AcDbHatch
 10
0.0
 20
0.0
 30
0.0
210
0.0
220
0.0
230
1.0
  2
SOLID
 70
     1
 71
     0
 91
        1
 92
        1
 93
        3
 72
     1
 10
2.499999446095319
 20
50.69165355373325
 11
-0.0000004980253263
 21
50.27498689637981
 72
     1
 10
-0.0000004980253263
 20
50.27498689637981
 11
2.499999446095319
 21
49.85832023902637
 72
     1
 10
2.499999446095319
 20
49.85832023902637
 11
2.499999446095319
 21
50.69165355373325
 97
        0
 75
     0
 76
     1
 98
        0
  0
HATCH
  5
1C7
330
1C5
100
AcDbEntity
  8
Bemaßung_(ISO)
  6
Continuous
 62
     7
100
AcDbHatch
 10
0.0
 20
0.0
 30
0.0
210
0.0
220
0.0
230
1.0
  2
SOLID
 70
     1
 71
     0
 91
        1
 92
        1
 93
        3
 72
     1
 10
87.50000313413271
 20
50.69165355373325
 11
87.50000313413271
 21
49.85832023902637
 72
     1
 10
87.50000313413271
 20
49.85832023902637
 11
90.00000307825336
 21
50.27498689637981
 72
     1
 10
90.00000307825336
 20
50.27498689637981
 11
87.50000313413271
 21
50.69165355373325
 97
        0
 75
     0
 76
     1
 98
        0
  0
LINE
  5
1C8
330
1C5
100
AcDbEntity
  8
Bemaßung_(ISO)
  6
Continuous
 62
     7
100
AcDbLine
 10
-0.000000498
 20
24.0249860861
 30
0.0
 11
-0.000000498
 21
52.0249869504
 31
0.0
  0
LINE
  5
1C9
330
1C5
100
AcDbEntity
  8
Bemaßung_(ISO)
  6
Continuous
 62
     7
100
AcDbLine
 10
89.999999502
 20
18.9999860861
 30
0.0
 11
89.999999502
 21
52.0249869504
 31
0.0
  0
LINE
  5
1CA
330
1C5
100
AcDbEntity
  8
Bemaßung_(ISO)
  6
Continuous
 62
     7
100
AcDbLine
 10
-0.000000498
 20
50.2749868964
 30
0.0
 11
90.0000030783
 21
50.2749868964
 31
0.0
  0
TEXT
  5
1CB
330
1C5
100
AcDbEntity
  8
Bemaßung_(ISO)
  6
Continuous
 62
     7
100
AcDbText
 10
42.2608708553
 20
51.1499868964
 30
0.0
 40
3.5
  1
90
  7
SEACAD_Arial
 11
42.2608708553
 21
54.6499868964
 31
0.0
100
AcDbText
 73
     3
  0
ENDBLK
  5
1CD
330
1C5
100
AcDbEntity
  8
0
100
AcDbBlockEnd
  0
BLOCK
  5
1D7
330
1CF
100
AcDbEntity
  8
0
100
AcDbBlockBegin
  2
DMBLK47
 70
     0
 10
0.0
 20
0.0
 30
0.0
  3
DMBLK47
  1

  0
HATCH
  5
1D0
330
1CF
100
AcDbEntity
  8
Bemaßung_(ISO)
  6
Continuous
 62
     7
100
AcDbHatch
 10
0.0
 20
0.0
 30
0.0
210
0.0
220
0.0
230
1.0
  2
SOLID
 70
     1
 71
     0
 91
        1
 92
        1
 93
        3
 72
     1
 10
117.634036531616
 20
29.74998608799182
 11
117.2173698742626
 21
32.24998603211247
 72
     1
 10
117.2173698742626
 20
32.24998603211247
 11
116.8007032169091
 21
29.74998608799182
 72
     1
 10
116.8007032169091
 20
29.74998608799182
 11
117.634036531616
 21
29.74998608799182
 97
        0
 75
     0
 76
     1
 98
        0
  0
HATCH
  5
1D1
330
1CF
100
AcDbEntity
  8
Bemaßung_(ISO)
  6
Continuous
 62
     7
100
AcDbHatch
 10
0.0
 20
0.0
 30
0.0
210
0.0
220
0.0
230
1.0
  2
SOLID
 70
     1
 71
     0
 91
        1
 92
        1
 93
        3
 72
     1
 10
117.634036531616
 20
-29.75001062630214
 11
116.8007032169091
 21
-29.75001062630214
 72
     1
 10
116.8007032169091
 20
-29.75001062630214
 11
117.2173698742626
 21
-32.25001057042278
 72
     1
 10
117.2173698742626
 20
-32.25001057042278
 11
117.634036531616
 21
-29.75001062630214
 97
        0
 75
     0
 76
     1
 98
        0
  0
LINE
  5
1D2
330
1CF
100
AcDbEntity
  8
Bemaßung_(ISO)
  6
Continuous
 62
     7
100
AcDbLine
 10
80.9215724312
 20
32.2499860321
 30
0.0
 11
118.9673699283
 21
32.2499860321
 31
0.0
  0
LINE
  5
1D3
330
1CF
100
AcDbEntity
  8
Bemaßung_(ISO)
  6
Continuous
 62
     7
100
AcDbLine
 10
80.9215724312
 20
-32.2500139679
 30
0.0
 11
118.9673699283
 21
-32.2500139679
 31
0.0
  0
LINE
  5
1D4
330
1CF
100
AcDbEntity
  8
Bemaßung_(ISO)
  6
Continuous
 62
     7
100
AcDbLine
 10
117.2173698743
 20
32.2499860321
 30
0.0
 11
117.2173698743
 21
-32.2500105704
 31
0.0
  0
TEXT
  5
1D5
330
1CF
100
AcDbEntity
  8
Bemaßung_(ISO)
  6
Continuous
 62
     7
100
AcDbText
 10
116.3423698743
 20
-2.1989253126
 30
0.0
 40
3.5
  1
64,5
 50
90.0
  7
SEACAD_Arial
 11
112.8423698743
 21
-2.1989253126
 31
0.0
100
AcDbText
 73
     3
  0
TEXT
  5
1D6
330
1CF
100
AcDbEntity
  8
Bemaßung_(ISO)
  6
Continuous
 62
     7
100
AcDbText
 10
116.3423698743
 20
-7.3880557474
 30
0.0
 40
3.5
  1
n
 50
90.0
  7
SEACAD_Arial
 11
112.8423698743
 21
-7.3880557474
 31
0.0
100
AcDbText
 73
     3
  0
ENDBLK
  5
1D8
330
1CF
100
AcDbEntity
  8
0
100
AcDbBlockEnd
  0
BLOCK
  5
1E2
330
1DA
100
AcDbEntity
  8
0
100
AcDbBlockBegin
  2
DMBLK48
 70
     0
 10
0.0
 20
0.0
 30
0.0
  3
DMBLK48
  1

  0
HATCH
  5
1DB
330
1DA
100
AcDbEntity
  8
Bemaßung_(ISO)
  6
Continuous
 62
     7
100
AcDbHatch
 10
0.0
 20
0.0
 30
0.0
210
0.0
220
0.0
230
1.0
  2
SOLID
 70
     1
 71
     0
 91
        1
 92
        1
 93
        3
 72
     1
 10
103.9067741650306
 20
9.999986087991827
 11
103.4901075076772
 21
12.49998603211247
 72
     1
 10
103.4901075076772
 20
12.49998603211247
 11
103.0734408503237
 21
9.999986087991827
 72
     1
 10
103.0734408503237
 20
9.999986087991827
 11
103.9067741650306
 21
9.999986087991827
 97
        0
 75
     0
 76
     1
 98
        0
  0
HATCH
  5
1DC
330
1DA
100
AcDbEntity
  8
Bemaßung_(ISO)
  6
Continuous
 62
     7
100
AcDbHatch
 10
0.0
 20
0.0
 30
0.0
210
0.0
220
0.0
230
1.0
  2
SOLID
 70
     1
 71
     0
 91
        1
 92
        1
 93
        3
 72
     1
 10
103.9067741650306
 20
-10.00001439629591
 11
103.0734408503237
 21
-10.00001439629591
 72
     1
 10
103.0734408503237
 20
-10.00001439629591
 11
103.4901075076772
 21
-12.50001434041656
 72
     1
 10
103.4901075076772
 20
-12.50001434041656
 11
103.9067741650306
 21
-10.00001439629591
 97
        0
 75
     0
 76
     1
 98
        0
  0
LINE
  5
1DD
330
1DA
100
AcDbEntity
  8
Bemaßung_(ISO)
  6
Continuous
 62
     7
100
AcDbLine
 10
90.749999556
 20
12.4999860321
 30
0.0
 11
105.2401075617
 21
12.4999860321
 31
0.0
  0
LINE
  5
1DE
330
1DA
100
AcDbEntity
  8
Bemaßung_(ISO)
  6
Continuous
 62
     7
100
AcDbLine
 10
90.749999556
 20
-12.5000139679
 30
0.0
 11
105.2401075617
 21
-12.5000139679
 31
0.0
  0
LINE
  5
1DF
330
1DA
100
AcDbEntity
  8
Bemaßung_(ISO)
  6
Continuous
 62
     7
100
AcDbLine
 10
103.4901075077
 20
12.4999860321
 30
0.0
 11
103.4901075077
 21
-12.5000143404
 31
0.0
  0
TEXT
  5
1E0
330
1DA
100
AcDbEntity
  8
Bemaßung_(ISO)
  6
Continuous
 62
     7
100
AcDbText
 10
102.6151075077
 20
-0.1445793715
 30
0.0
 40
3.5
  1
25
 50
90.0
  7
SEACAD_Arial
 11
99.1151075077
 21
-0.1445793715
 31
0.0
100
AcDbText
 73
     3
  0
TEXT
  5
1E1
330
1DA
100
AcDbEntity
  8
Bemaßung_(ISO)
  6
Continuous
 62
     7
100
AcDbText
 10
102.6151075077
 20
-5.3337098063
 30
0.0
 40
3.5
  1
n
 50
90.0
  7
SEACAD_Arial
 11
99.1151075077
 21
-5.3337098063
 31
0.0
100
AcDbText
 73
     3
  0
ENDBLK
  5
1E3
330
1DA
100
AcDbEntity
  8
0
100
AcDbBlockEnd
  0
ENDSEC
  0
SECTION
  2
ENTITIES
  0
SPLINE
  5
70
330
1F
100
AcDbEntity
  8
Verdeckt_(ISO)
  6
HIDDEN2
 62
     7
100
AcDbSpline
210
0.0
220
0.0
230
1.0
 70
     8
 71
     3
 72
    16
 73
    12
 74
     0
 42
0.000000001
 43
0.0000000001
 40
0.0
 40
0.0
 40
0.0
 40
0.0
 40
0.2546166708407158
 40
0.2546166708407158
 40
0.4898266903042211
 40
0.4898266903042211
 40
0.7151273964837962
 40
0.7151273964837962
 40
0.8608020155893906
 40
0.8608020155893906
 40
1.0
 40
1.0
 40
1.0
 40
1.0
 10
28.99999950197465
 20
7.457350850175146
 30
0.0
 10
27.99828754752812
 20
6.466619904791025
 30
0.0
 10
27.19447223302633
 20
5.298867690352129
 30
0.0
 10
26.13868976613795
 20
2.78528996557248
 30
0.0
 10
25.86391167421207
 20
1.493946713019687
 30
0.0
 10
25.81957005323813
 20
-1.085195693907579
 30
0.0
 10
26.02993460299906
 20
-2.332722764383469
 30
0.0
 10
26.73503016164898
 20
-4.276056912401115
 30
0.0
 10
27.09918888930119
 20
-5.000231277540785
 30
0.0
 10
27.96332162440518
 20
-6.320939057076044
 30
0.0
 10
28.45306497847852
 20
-6.916439891169892
 30
0.0
 10
28.99999950197465
 20
-7.457378785950204
 30
0.0
  0
SPLINE
  5
71
330
1F
100
AcDbEntity
  8
Verdeckt_(ISO)
  6
HIDDEN2
 62
     7
100
AcDbSpline
210
0.0
220
0.0
230
1.0
 70
     8
 71
     3
 72
     8
 73
     4
 74
     0
 42
0.000000001
 43
0.0000000001
 40
0.0
 40
0.0
 40
0.0
 40
0.0
 40
1.0
 40
1.0
 40
1.0
 40
1.0
 10
29.13284221444929
 20
7.460577987407237
 30
0.0
 10
29.08844895634885
 20
7.460391731530487
 30
0.0
 10
29.04416422857697
 20
7.459314708386525
 30
0.0
 10
28.99999950197465
 20
7.457350850175785
 30
0.0
  0
SPLINE
  5
72
330
1F
100
AcDbEntity
  8
Verdeckt_(ISO)
  6
HIDDEN2
 62
     7
100
AcDbSpline
210
0.0
220
0.0
230
1.0
 70
     8
 71
     3
 72
    14
 73
    10
 74
     0
 42
0.000000001
 43
0.0000000001
 40
0.0
 40
0.0
 40
0.0
 40
0.0
 40
0.3604849557764174
 40
0.3604849557764174
 40
0.6854115347225886
 40
0.6854115347225886
 40
0.9854845360365321
 40
0.9854845360365321
 40
0.9999999999999999
 40
0.9999999999999999
 40
0.9999999999999999
 40
0.9999999999999999
 10
29.41568492692392
 20
7.613210450511026
 30
0.0
 10
29.38319428814537
 20
7.583578527891506
 30
0.0
 10
29.34909556794454
 20
7.555957742232276
 30
0.0
 10
29.28325866239256
 20
7.511227581246956
 30
0.0
 10
29.25123596148111
 20
7.493097785078376
 30
0.0
 10
29.19080296896707
 20
7.468499686668115
 30
0.0
 10
29.16258291596477
 20
7.461370039385696
 30
0.0
 10
29.13533294844958
 20
7.460603489831317
 30
0.0
 10
29.13408356072754
 20
7.460583195586337
 30
0.0
 10
29.13284221444929
 20
7.460577987407237
 30
0.0
  0
SPLINE
  5
73
330
1F
100
AcDbEntity
  8
Verdeckt_(ISO)
  6
HIDDEN2
 62
     7
100
AcDbSpline
210
0.0
220
0.0
230
1.0
 70
     8
 71
     3
 72
     8
 73
     4
 74
     0
 42
0.000000001
 43
0.0000000001
 40
0.0
 40
0.0
 40
0.0
 40
0.0
 40
1.0
 40
1.0
 40
1.0
 40
1.0
 10
31.99999950197628
 20
9.397815484352416
 30
0.0
 10
31.06209316967394
 20
8.915763864031629
 30
0.0
 10
30.19112960982272
 20
8.320426981278727
 30
0.0
 10
29.4156849269239
 20
7.613210450511315
 30
0.0
  0
SPLINE
  5
74
330
1F
100
AcDbEntity
  8
Verdeckt_(ISO)
  6
HIDDEN2
 62
     7
100
AcDbSpline
210
0.0
220
0.0
230
1.0
 70
     8
 71
     3
 72
     8
 73
     4
 74
     0
 42
0.000000001
 43
0.0000000001
 40
0.0
 40
0.0
 40
0.0
 40
0.0
 40
1.0
 40
1.0
 40
1.0
 40
1.0
 10
32.99999950197466
 20
10.62302054263541
 30
0.0
 10
32.65047569816822
 20
10.23973616519655
 30
0.0
 10
32.31612437491178
 20
9.830341801583987
 30
0.0
 10
31.99999950197466
 20
9.397815484350607
 30
0.0
  0
SPLINE
  5
75
330
1F
100
AcDbEntity
  8
Verdeckt_(ISO)
  6
HIDDEN2
 62
     7
100
AcDbSpline
210
0.0
220
0.0
230
1.0
 70
     8
 71
     3
 72
    36
 73
    32
 74
     0
 42
0.000000001
 43
0.0000000001
 40
0.0
 40
0.0
 40
0.0
 40
0.0
 40
0.0747742671849964
 40
0.0747742671849964
 40
0.1269024502331628
 40
0.1269024502331628
 40
0.1876396657641519
 40
0.1876396657641519
 40
0.2581870262800083
 40
0.2581870262800083
 40
0.3549291586475468
 40
0.3549291586475468
 40
0.4410639362959391
 40
0.4410639362959391
 40
0.4915032140713224
 40
0.4915032140713224
 40
0.537000512247084
 40
0.537000512247084
 40
0.6131969898097797
 40
0.6131969898097797
 40
0.6931068871764825
 40
0.6931068871764825
 40
0.791390836942271
 40
0.791390836942271
 40
0.8603898988671174
 40
0.8603898988671174
 40
0.912077598779518
 40
0.912077598779518
 40
0.9764618596392292
 40
0.9764618596392292
 40
1.0
 40
1.0
 40
1.0
 40
1.0
 10
32.99999950197466
 20
-10.62304847841084
 30
0.0
 10
34.16488605505804
 20
-11.08752076843497
 30
0.0
 10
35.39519940476504
 20
-11.39453170203152
 30
0.0
 10
37.5244998189296
 20
-11.6525337863294
 30
0.0
 10
38.4092487445828
 20
-11.68287644774709
 30
0.0
 10
40.31606737258098
 20
-11.58519422968208
 30
0.0
 10
41.33521621015737
 20
-11.43031316373515
 30
0.0
 10
43.47498206410388
 20
-10.87201905504113
 30
0.0
 10
44.5803971177171
 20
-10.43382734110052
 30
0.0
 10
47.0150123373522
 20
-9.063589122684736
 30
0.0
 10
48.25261109637912
 20
-8.020782612222835
 30
0.0
 10
50.1124455463961
 20
-5.614886556103527
 30
0.0
 10
50.76566945609728
 20
-4.326414681045338
 30
0.0
 10
51.37872191383935
 20
-2.117945402446866
 30
0.0
 10
51.51028307000576
 20
-1.278179751480493
 30
0.0
 10
51.57352213342331
 20
0.336547325537107
 30
0.0
 10
51.52320622966195
 20
1.102223044542454
 30
0.0
 10
51.17674929108271
 20
3.119435087533193
 30
0.0
 10
50.74242050192508
 20
4.324643438724275
 30
0.0
 10
49.45680462539507
 20
6.587637900844837
 30
0.0
 10
48.60088110799225
 20
7.609907482468685
 30
0.0
 10
46.35006774919171
 20
9.534193275857605
 30
0.0
 10
44.90273440449577
 20
10.33347689524523
 30
0.0
 10
42.24260441463832
 20
11.24169457171487
 30
0.0
 10
41.09692591977066
 20
11.4823878791784
 30
0.0
 10
39.06497911604351
 20
11.67246295297315
 30
0.0
 10
38.18713081273921
 20
11.67957555895168
 30
0.0
 10
36.22973765104258
 20
11.5288065374015
 30
0.0
 10
35.15549472011532
 20
11.33019642465035
 30
0.0
 10
33.74030751680495
 20
10.8999607457325
 30
0.0
 10
33.36681649311522
 20
10.7692805603546
 30
0.0
 10
32.99999950197466
 20
10.62302054263541
 30
0.0
  0
SPLINE
  5
76
330
1F
100
AcDbEntity
  8
Verdeckt_(ISO)
  6
HIDDEN2
 62
     7
100
AcDbSpline
210
0.0
220
0.0
230
1.0
 70
     8
 71
     3
 72
     8
 73
     4
 74
     0
 42
0.000000001
 43
0.0000000001
 40
0.0
 40
0.0
 40
0.0
 40
0.0
 40
0.9999999999999999
 40
0.9999999999999999
 40
0.9999999999999999
 40
0.9999999999999999
 10
31.99999950197466
 20
-9.397843420125508
 30
0.0
 10
32.31630475246912
 20
-9.830616354261203
 30
0.0
 10
32.65069573593282
 20
-10.24000538884945
 30
0.0
 10
32.99999950197466
 20
-10.62304847841084
 30
0.0
  0
SPLINE
  5
77
330
1F
100
AcDbEntity
  8
Verdeckt_(ISO)
  6
HIDDEN2
 62
     7
100
AcDbSpline
210
0.0
220
0.0
230
1.0
 70
     8
 71
     3
 72
     8
 73
     4
 74
     0
 42
0.000000001
 43
0.0000000001
 40
0.0
 40
0.0
 40
0.0
 40
0.0
 40
1.0
 40
1.0
 40
1.0
 40
1.0
 10
29.4156849269239
 20
-7.613238386286369
 30
0.0
 10
30.19112960982525
 20
-8.320454917056093
 30
0.0
 10
31.06209316968083
 20
-8.915791799808481
 30
0.0
 10
31.99999950197466
 20
-9.397843420125154
 30
0.0
  0
SPLINE
  5
78
330
1F
100
AcDbEntity
  8
Verdeckt_(ISO)
  6
HIDDEN2
 62
     7
100
AcDbSpline
210
0.0
220
0.0
230
1.0
 70
     8
 71
     3
 72
    12
 73
     8
 74
     0
 42
0.000000001
 43
0.0000000001
 40
0.0
 40
0.0
 40
0.0
 40
0.0
 40
0.0955297086380622
 40
0.0955297086380622
 40
0.4701365121992733
 40
0.4701365121992733
 40
1.0
 40
1.0
 40
1.0
 40
1.0
 10
29.13284221444929
 20
-7.460605923182161
 30
0.0
 10
29.14060958620071
 20
-7.460638511883636
 30
0.0
 10
29.1486589449898
 20
-7.461261684946011
 30
0.0
 10
29.18951624188427
 20
-7.467146650647552
 30
0.0
 10
29.22446639507468
 20
-7.480399692174422
 30
0.0
 10
29.30894933259768
 20
-7.525367131834414
 30
0.0
 10
29.36208401623439
 20
-7.564353596771526
 30
0.0
 10
29.41568492692392
 20
-7.613238386286244
 30
0.0
  0
SPLINE
  5
79
330
1F
100
AcDbEntity
  8
Verdeckt_(ISO)
  6
HIDDEN2
 62
     7
100
AcDbSpline
210
0.0
220
0.0
230
1.0
 70
     8
 71
     3
 72
     8
 73
     4
 74
     0
 42
0.000000001
 43
0.0000000001
 40
0.0
 40
0.0
 40
0.0
 40
0.0
 40
1.0
 40
1.0
 40
1.0
 40
1.0
 10
28.99999950197465
 20
-7.457378785950491
 30
0.0
 10
29.04416642599473
 20
-7.459342736258847
 30
0.0
 10
29.08845108423328
 20
-7.460419684156679
 30
0.0
 10
29.13284221444929
 20
-7.460605923182161
 30
0.0
  0
CIRCLE
  5
7A
330
1F
100
AcDbEntity
  8
Verdeckt_(ISO)
  6
HIDDEN2
 62
     7
100
AcDbCircle
 10
38.499999502
 20
-0.0000139679
 30
0.0
 40
2.0
  0
LINE
  5
7C
330
1F
100
AcDbEntity
  8
Sichtbar_(ISO)
  6
Continuous
 62
     7
100
AcDbLine
 10
32.999999502
 20
32.2499860321
 30
0.0
 11
32.999999502
 21
4.6086353877
 31
0.0
  0
LINE
  5
7D
330
1F
100
AcDbEntity
  8
Sichtbar_(ISO)
  6
Continuous
 62
     7
100
AcDbLine
 10
32.999999502
 20
-4.6086633235
 30
0.0
 11
32.999999502
 21
-32.2500139679
 31
0.0
  0
LINE
  5
7E
330
1F
100
AcDbEntity
  8
Sichtbar_(ISO)
  6
Continuous
 62
     7
100
AcDbLine
 10
31.999999502
 20
31.2499860321
 30
0.0
 11
31.999999502
 21
-31.2500139679
 31
0.0
  0
LINE
  5
7F
330
1F
100
AcDbEntity
  8
Sichtbar_(ISO)
  6
Continuous
 62
     7
100
AcDbLine
 10
34.999999502
 20
4.6636755587
 30
0.0
 11
34.999999502
 21
-4.6637034944
 31
0.0
  0
LINE
  5
80
330
1F
100
AcDbEntity
  8
Sichtbar_(ISO)
  6
Continuous
 62
     7
100
AcDbLine
 10
14.099999502
 20
27.094057687
 30
0.0
 11
14.099999502
 21
8.8120883874
 31
0.0
  0
LINE
  5
81
330
1F
100
AcDbEntity
  8
Sichtbar_(ISO)
  6
Continuous
 62
     7
100
AcDbLine
 10
11.5690358093
 20
31.4999860321
 30
0.0
 11
11.5690358093
 21
8.6772341676
 31
0.0
  0
LINE
  5
82
330
1F
100
AcDbEntity
  8
Sichtbar_(ISO)
  6
Continuous
 62
     7
100
AcDbLine
 10
19.099999502
 20
27.094057687
 30
0.0
 11
19.099999502
 21
8.5207574945
 31
0.0
  0
LINE
  5
83
330
1F
100
AcDbEntity
  8
Sichtbar_(ISO)
  6
Continuous
 62
     7
100
AcDbLine
 10
21.6309631946
 20
31.4999860321
 30
0.0
 11
21.6309631946
 21
5.4888593281
 31
0.0
  0
LINE
  5
84
330
1F
100
AcDbEntity
  8
Sichtbar_(ISO)
  6
Continuous
 62
     7
100
AcDbLine
 10
14.099999502
 20
-8.8121163232
 30
0.0
 11
14.099999502
 21
-27.0940856228
 31
0.0
  0
LINE
  5
85
330
1F
100
AcDbEntity
  8
Sichtbar_(ISO)
  6
Continuous
 62
     7
100
AcDbLine
 10
11.5690358093
 20
-8.6772621034
 30
0.0
 11
11.5690358093
 21
-31.5000139679
 31
0.0
  0
LINE
  5
86
330
1F
100
AcDbEntity
  8
Sichtbar_(ISO)
  6
Continuous
 62
     7
100
AcDbLine
 10
19.099999502
 20
-8.5207854303
 30
0.0
 11
19.099999502
 21
-27.0940856228
 31
0.0
  0
LINE
  5
87
330
1F
100
AcDbEntity
  8
Sichtbar_(ISO)
  6
Continuous
 62
     7
100
AcDbLine
 10
21.6309631946
 20
-5.4888872639
 30
0.0
 11
21.6309631946
 21
-31.5000139679
 31
0.0
  0
LINE
  5
88
330
1F
100
AcDbEntity
  8
Sichtbar_(ISO)
  6
Continuous
 62
     7
100
AcDbLine
 10
28.999999502
 20
31.4999860321
 30
0.0
 11
28.999999502
 21
-31.5000139679
 31
0.0
  0
LINE
  5
89
330
1F
100
AcDbEntity
  8
Sichtbar_(ISO)
  6
Continuous
 62
     7
100
AcDbLine
 10
89.999999502
 20
21.4215589074
 30
0.0
 11
89.999999502
 21
-21.4215868431
 31
0.0
  0
LINE
  5
8A
330
1F
100
AcDbEntity
  8
Sichtbar_(ISO)
  6
Continuous
 62
     7
100
AcDbLine
 10
-65.400000498
 20
11.1308581729
 30
0.0
 11
-65.400000498
 21
-11.1308861087
 31
0.0
  0
LINE
  5
8B
330
1F
100
AcDbEntity
  8
Sichtbar_(ISO)
  6
Continuous
 62
     7
100
AcDbLine
 10
-0.200000498
 20
22.19581909
 30
0.0
 11
-0.200000498
 21
-22.1958470258
 31
0.0
  0
LINE
  5
8C
330
1F
100
AcDbEntity
  8
Sichtbar_(ISO)
  6
Continuous
 62
     7
100
AcDbLine
 10
79.1715723772
 20
-32.2500139679
 30
0.0
 11
32.999999502
 21
-32.2500139679
 31
0.0
  0
LINE
  5
8D
330
1F
100
AcDbEntity
  8
Sichtbar_(ISO)
  6
Continuous
 62
     7
100
AcDbLine
 10
79.1715723772
 20
32.2499860321
 30
0.0
 11
32.999999502
 21
32.2499860321
 31
0.0
  0
LINE
  5
8E
330
1F
100
AcDbEntity
  8
Sichtbar_(ISO)
  6
Continuous
 62
     7
100
AcDbLine
 10
31.999999502
 20
31.2499860321
 30
0.0
 11
32.999999502
 21
32.2499860321
 31
0.0
  0
LINE
  5
8F
330
1F
100
AcDbEntity
  8
Sichtbar_(ISO)
  6
Continuous
 62
     7
100
AcDbLine
 10
31.999999502
 20
-31.2500139679
 30
0.0
 11
32.999999502
 21
-32.2500139679
 31
0.0
  0
ARC
  5
90
330
1F
100
AcDbEntity
  8
Sichtbar_(ISO)
  6
Continuous
 62
     7
100
AcDbCircle
 10
1.499999502
 20
22.59581909
 30
0.0
 40
0.5
100
AcDbArc
 50
270.0
 51
0.0
  0
ARC
  5
91
330
1F
100
AcDbEntity
  8
Sichtbar_(ISO)
  6
Continuous
 62
     7
100
AcDbCircle
 10
1.499999502
 20
-22.5958470258
 30
0.0
 40
0.5
100
AcDbArc
 50
0.0
 51
90.0
  0
ARC
  5
92
330
1F
100
AcDbEntity
  8
Sichtbar_(ISO)
  6
Continuous
 62
     7
100
AcDbCircle
 10
14.299999502
 20
26.6999860321
 30
0.0
 40
0.2
100
AcDbArc
 50
180.0
 51
270.0
  0
LINE
  5
93
330
1F
100
AcDbEntity
  8
Sichtbar_(ISO)
  6
Continuous
 62
     7
100
AcDbLine
 10
14.099999502
 20
27.094057687
 30
0.0
 11
11.5690358093
 21
31.4999860321
 31
0.0
  0
ARC
  5
94
330
1F
100
AcDbEntity
  8
Sichtbar_(ISO)
  6
Continuous
 62
     7
100
AcDbCircle
 10
18.899999502
 20
26.6999860321
 30
0.0
 40
0.2
100
AcDbArc
 50
270.0
 51
360.0
  0
LINE
  5
95
330
1F
100
AcDbEntity
  8
Sichtbar_(ISO)
  6
Continuous
 62
     7
100
AcDbLine
 10
19.099999502
 20
27.094057687
 30
0.0
 11
21.6309631946
 21
31.4999860321
 31
0.0
  0
LINE
  5
96
330
1F
100
AcDbEntity
  8
Sichtbar_(ISO)
  6
Continuous
 62
     7
100
AcDbLine
 10
18.899999502
 20
26.4999860321
 30
0.0
 11
14.299999502
 21
26.4999860321
 31
0.0
  0
ARC
  5
97
330
1F
100
AcDbEntity
  8
Sichtbar_(ISO)
  6
Continuous
 62
     7
100
AcDbCircle
 10
14.299999502
 20
-26.7000139679
 30
0.0
 40
0.2
100
AcDbArc
 50
90.0
 51
180.0
  0
LINE
  5
98
330
1F
100
AcDbEntity
  8
Sichtbar_(ISO)
  6
Continuous
 62
     7
100
AcDbLine
 10
14.099999502
 20
-27.0940856228
 30
0.0
 11
11.5690358093
 21
-31.5000139679
 31
0.0
  0
ARC
  5
99
330
1F
100
AcDbEntity
  8
Sichtbar_(ISO)
  6
Continuous
 62
     7
100
AcDbCircle
 10
18.899999502
 20
-26.7000139679
 30
0.0
 40
0.2
100
AcDbArc
 50
0.0
 51
90.0
  0
LINE
  5
9A
330
1F
100
AcDbEntity
  8
Sichtbar_(ISO)
  6
Continuous
 62
     7
100
AcDbLine
 10
19.099999502
 20
-27.0940856228
 30
0.0
 11
21.6309631946
 21
-31.5000139679
 31
0.0
  0
LINE
  5
9B
330
1F
100
AcDbEntity
  8
Sichtbar_(ISO)
  6
Continuous
 62
     7
100
AcDbLine
 10
18.899999502
 20
-26.5000139679
 30
0.0
 11
14.299999502
 21
-26.5000139679
 31
0.0
  0
LINE
  5
9C
330
1F
100
AcDbEntity
  8
Sichtbar_(ISO)
  6
Continuous
 62
     7
100
AcDbLine
 10
11.5690358093
 20
31.4999860321
 30
0.0
 11
3.199999502
 21
31.4999860321
 31
0.0
  0
LINE
  5
9D
330
1F
100
AcDbEntity
  8
Sichtbar_(ISO)
  6
Continuous
 62
     7
100
AcDbLine
 10
11.5690358093
 20
-31.5000139679
 30
0.0
 11
3.199999502
 21
-31.5000139679
 31
0.0
  0
LINE
  5
9E
330
1F
100
AcDbEntity
  8
Sichtbar_(ISO)
  6
Continuous
 62
     7
100
AcDbLine
 10
28.999999502
 20
-31.5000139679
 30
0.0
 11
21.6309631946
 21
-31.5000139679
 31
0.0
  0
LINE
  5
9F
330
1F
100
AcDbEntity
  8
Sichtbar_(ISO)
  6
Continuous
 62
     7
100
AcDbLine
 10
28.999999502
 20
31.4999860321
 30
0.0
 11
21.6309631946
 21
31.4999860321
 31
0.0
  0
ARC
  5
A0
330
1F
100
AcDbEntity
  8
Sichtbar_(ISO)
  6
Continuous
 62
     7
100
AcDbCircle
 10
-63.600000498
 20
11.1308581729
 30
0.0
 40
1.8
100
AcDbArc
 50
98.2972222222
 51
180.0
  0
ARC
  5
A1
330
1F
100
AcDbEntity
  8
Sichtbar_(ISO)
  6
Continuous
 62
     7
100
AcDbCircle
 10
-63.600000498
 20
-11.1308861087
 30
0.0
 40
1.8
100
AcDbArc
 50
180.0
 51
261.7027777778
  0
ARC
  5
A2
330
1F
100
AcDbEntity
  8
Sichtbar_(ISO)
  6
Continuous
 62
     7
100
AcDbCircle
 10
87.999999502
 20
21.4215589074
 30
0.0
 40
2.0
100
AcDbArc
 50
0.0
 51
45.0
  0
ARC
  5
A3
330
1F
100
AcDbEntity
  8
Sichtbar_(ISO)
  6
Continuous
 62
     7
100
AcDbCircle
 10
87.999999502
 20
-21.4215868431
 30
0.0
 40
2.0
100
AcDbArc
 50
315.0
 51
0.0
  0
LINE
  5
A4
330
1F
100
AcDbEntity
  8
Sichtbar_(ISO)
  6
Continuous
 62
     7
100
AcDbLine
 10
89.4142130643
 20
-22.8358004055
 30
0.0
 11
80.5857859396
 21
-31.6642275303
 31
0.0
  0
LINE
  5
A5
330
1F
100
AcDbEntity
  8
Sichtbar_(ISO)
  6
Continuous
 62
     7
100
AcDbLine
 10
89.4142130643
 20
22.8357724697
 30
0.0
 11
80.5857859396
 21
31.6641995945
 31
0.0
  0
ARC
  5
A6
330
1F
100
AcDbEntity
  8
Sichtbar_(ISO)
  6
Continuous
 62
     7
100
AcDbCircle
 10
79.1715723772
 20
30.2499860321
 30
0.0
 40
2.000000000000112
100
AcDbArc
 50
45.0
 51
90.0
  0
ARC
  5
A7
330
1F
100
AcDbEntity
  8
Sichtbar_(ISO)
  6
Continuous
 62
     7
100
AcDbCircle
 10
79.1715723772
 20
-30.2500139679
 30
0.0
 40
2.000000000000112
100
AcDbArc
 50
270.0
 51
315.0
  0
LINE
  5
A8
330
1F
100
AcDbEntity
  8
Sichtbar_(ISO)
  6
Continuous
 62
     7
100
AcDbLine
 10
31.999999502
 20
-31.2500139679
 30
0.0
 11
29.4156849269
 21
-31.2500139679
 31
0.0
  0
LINE
  5
A9
330
1F
100
AcDbEntity
  8
Sichtbar_(ISO)
  6
Continuous
 62
     7
100
AcDbLine
 10
31.999999502
 20
31.2499860321
 30
0.0
 11
29.4156849269
 21
31.2499860321
 31
0.0
  0
ARC
  5
AA
330
1F
100
AcDbEntity
  8
Sichtbar_(ISO)
  6
Continuous
 62
     7
100
AcDbCircle
 10
29.4156849269
 20
31.6499860321
 30
0.0
 40
0.4000000000000137
100
AcDbArc
 50
225.0
 51
270.0
  0
ARC
  5
AB
330
1F
100
AcDbEntity
  8
Sichtbar_(ISO)
  6
Continuous
 62
     7
100
AcDbCircle
 10
29.4156849269
 20
-31.6500139679
 30
0.0
 40
0.4000000000000137
100
AcDbArc
 50
90.0
 51
135.0
  0
LINE
  5
AC
330
1F
100
AcDbEntity
  8
Sichtbar_(ISO)
  6
Continuous
 62
     7
100
AcDbLine
 10
29.1328422144
 20
-31.3671712554
 30
0.0
 11
28.999999502
 21
-31.5000139679
 31
0.0
  0
LINE
  5
AD
330
1F
100
AcDbEntity
  8
Sichtbar_(ISO)
  6
Continuous
 62
     7
100
AcDbLine
 10
29.1328422144
 20
31.3671433196
 30
0.0
 11
28.999999502
 21
31.4999860321
 31
0.0
  0
LINE
  5
AE
330
1F
100
AcDbEntity
  8
Sichtbar_(ISO)
  6
Continuous
 62
     7
100
AcDbLine
 10
1.499999502
 20
-22.0958470258
 30
0.0
 11
0.2390308315
 21
-22.0958470258
 31
0.0
  0
LINE
  5
AF
330
1F
100
AcDbEntity
  8
Sichtbar_(ISO)
  6
Continuous
 62
     7
100
AcDbLine
 10
1.499999502
 20
22.09581909
 30
0.0
 11
0.2390308315
 21
22.09581909
 31
0.0
  0
ARC
  5
B0
330
1F
100
AcDbEntity
  8
Sichtbar_(ISO)
  6
Continuous
 62
     7
100
AcDbCircle
 10
0.2390308315
 20
22.59581909
 30
0.0
 40
0.5
100
AcDbArc
 50
255.0
 51
270.0
  0
ARC
  5
B1
330
1F
100
AcDbEntity
  8
Sichtbar_(ISO)
  6
Continuous
 62
     7
100
AcDbCircle
 10
0.2390308315
 20
-22.5958470258
 30
0.0
 40
0.5
100
AcDbArc
 50
90.0
 51
105.0
  0
LINE
  5
B2
330
1F
100
AcDbEntity
  8
Sichtbar_(ISO)
  6
Continuous
 62
     7
100
AcDbLine
 10
0.109621309
 20
-22.1128841127
 30
0.0
 11
-0.200000498
 21
-22.1958470258
 31
0.0
  0
LINE
  5
B3
330
1F
100
AcDbEntity
  8
Sichtbar_(ISO)
  6
Continuous
 62
     7
100
AcDbLine
 10
0.109621309
 20
22.1128561769
 30
0.0
 11
-0.200000498
 21
22.19581909
 31
0.0
  0
LINE
  5
B4
330
1F
100
AcDbEntity
  8
Sichtbar_(ISO)
  6
Continuous
 62
     7
100
AcDbLine
 10
-63.8597553071
 20
12.9120171886
 30
0.0
 11
-0.200000498
 21
22.19581909
 31
0.0
  0
LINE
  5
B5
330
1F
100
AcDbEntity
  8
Sichtbar_(ISO)
  6
Continuous
 62
     7
100
AcDbLine
 10
-63.8597553071
 20
-12.9120451244
 30
0.0
 11
-0.200000498
 21
-22.1958470258
 31
0.0
  0
LINE
  5
B6
330
1F
100
AcDbEntity
  8
Verdeckt_(ISO)
  6
HIDDEN2
 62
     7
100
AcDbLine
 10
-58.400000498
 20
8.6749860321
 30
0.0
 11
-58.400000498
 21
-8.6750139679
 31
0.0
  0
LINE
  5
B7
330
1F
100
AcDbEntity
  8
Verdeckt_(ISO)
  6
HIDDEN2
 62
     7
100
AcDbLine
 10
-56.400000498
 20
8.6749860321
 30
0.0
 11
-56.400000498
 21
-8.6750139679
 31
0.0
  0
LINE
  5
B8
330
1F
100
AcDbEntity
  8
Verdeckt_(ISO)
  6
HIDDEN2
 62
     7
100
AcDbLine
 10
29.999999502
 20
12.9999860321
 30
0.0
 11
29.999999502
 21
-13.0000139679
 31
0.0
  0
LINE
  5
B9
330
1F
100
AcDbEntity
  8
Verdeckt_(ISO)
  6
HIDDEN2
 62
     7
100
AcDbLine
 10
34.999999502
 20
12.9999860321
 30
0.0
 11
34.999999502
 21
4.6636755587
 31
0.0
  0
LINE
  5
BA
330
1F
100
AcDbEntity
  8
Verdeckt_(ISO)
  6
HIDDEN2
 62
     7
100
AcDbLine
 10
34.999999502
 20
-4.6637034944
 30
0.0
 11
34.999999502
 21
-13.0000139679
 31
0.0
  0
LINE
  5
BB
330
1F
100
AcDbEntity
  8
Verdeckt_(ISO)
  6
HIDDEN2
 62
     7
100
AcDbLine
 10
88.999999502
 20
-12.5000139679
 30
0.0
 11
34.999999502
 21
-12.5000139679
 31
0.0
  0
LINE
  5
BC
330
1F
100
AcDbEntity
  8
Verdeckt_(ISO)
  6
HIDDEN2
 62
     7
100
AcDbLine
 10
88.999999502
 20
12.4999860321
 30
0.0
 11
34.999999502
 21
12.4999860321
 31
0.0
  0
ARC
  5
BD
330
1F
100
AcDbEntity
  8
Verdeckt_(ISO)
  6
HIDDEN2
 62
     7
100
AcDbCircle
 10
-64.400000498
 20
9.4999860321
 30
0.0
 40
1.0
100
AcDbArc
 50
180.0
 51
270.0
  0
ARC
  5
BE
330
1F
100
AcDbEntity
  8
Verdeckt_(ISO)
  6
HIDDEN2
 62
     7
100
AcDbCircle
 10
-64.400000498
 20
-9.5000139679
 30
0.0
 40
1.0
100
AcDbArc
 50
90.0
 51
180.0
  0
LINE
  5
BF
330
1F
100
AcDbEntity
  8
Verdeckt_(ISO)
  6
HIDDEN2
 62
     7
100
AcDbLine
 10
-58.400000498
 20
-8.5000139679
 30
0.0
 11
-64.400000498
 21
-8.5000139679
 31
0.0
  0
LINE
  5
C0
330
1F
100
AcDbEntity
  8
Verdeckt_(ISO)
  6
HIDDEN2
 62
     7
100
AcDbLine
 10
-58.400000498
 20
8.4999860321
 30
0.0
 11
-64.400000498
 21
8.4999860321
 31
0.0
  0
LINE
  5
C1
330
1F
100
AcDbEntity
  8
Verdeckt_(ISO)
  6
HIDDEN2
 62
     7
100
AcDbLine
 10
-56.400000498
 20
-8.6750139679
 30
0.0
 11
-58.400000498
 21
-8.6750139679
 31
0.0
  0
LINE
  5
C2
330
1F
100
AcDbEntity
  8
Verdeckt_(ISO)
  6
HIDDEN2
 62
     7
100
AcDbLine
 10
-56.400000498
 20
8.6749860321
 30
0.0
 11
-58.400000498
 21
8.6749860321
 31
0.0
  0
LINE
  5
C3
330
1F
100
AcDbEntity
  8
Verdeckt_(ISO)
  6
HIDDEN2
 62
     7
100
AcDbLine
 10
29.999999502
 20
-7.0000139679
 30
0.0
 11
-56.400000498
 21
-7.0000139679
 31
0.0
  0
LINE
  5
C4
330
1F
100
AcDbEntity
  8
Verdeckt_(ISO)
  6
HIDDEN2
 62
     7
100
AcDbLine
 10
29.999999502
 20
6.9999860321
 30
0.0
 11
-56.400000498
 21
6.9999860321
 31
0.0
  0
LINE
  5
C5
330
1F
100
AcDbEntity
  8
Verdeckt_(ISO)
  6
HIDDEN2
 62
     7
100
AcDbLine
 10
34.999999502
 20
-13.0000139679
 30
0.0
 11
29.999999502
 21
-13.0000139679
 31
0.0
  0
LINE
  5
C6
330
1F
100
AcDbEntity
  8
Verdeckt_(ISO)
  6
HIDDEN2
 62
     7
100
AcDbLine
 10
34.999999502
 20
12.9999860321
 30
0.0
 11
29.999999502
 21
12.9999860321
 31
0.0
  0
ARC
  5
C7
330
1F
100
AcDbEntity
  8
Verdeckt_(ISO)
  6
HIDDEN2
 62
     7
100
AcDbCircle
 10
88.999999502
 20
13.4999860321
 30
0.0
 40
1.000000000000002
100
AcDbArc
 50
270.0
 51
360.0
  0
ARC
  5
C8
330
1F
100
AcDbEntity
  8
Verdeckt_(ISO)
  6
HIDDEN2
 62
     7
100
AcDbCircle
 10
88.999999502
 20
-13.5000139679
 30
0.0
 40
1.000000000000002
100
AcDbArc
 50
0.0
 51
90.0
  0
SPLINE
  5
C9
330
1F
100
AcDbEntity
  8
Sichtbar_(ISO)
  6
Continuous
 62
     7
100
AcDbSpline
210
0.0
220
0.0
230
1.0
 70
     8
 71
     3
 72
    20
 73
    16
 74
     0
 42
0.000000001
 43
0.0000000001
 40
0.0
 40
0.0
 40
0.0
 40
0.0
 40
0.1039471290180272
 40
0.1039471290180272
 40
0.2516939601110629
 40
0.2516939601110629
 40
0.399440791204099
 40
0.399440791204099
 40
0.5471876222971341
 40
0.5471876222971341
 40
0.6949344533901692
 40
0.6949344533901692
 40
0.8474672266950849
 40
0.8474672266950849
 40
1.0
 40
1.0
 40
1.0
 40
1.0
 10
32.99999950197469
 20
4.608635387737426
 30
0.0
 10
33.4943009868308
 20
5.308345874104949
 30
0.0
 10
34.09055874267271
 20
5.92831508513494
 30
0.0
 10
35.62161003134279
 20
7.171309720635457
 30
0.0
 10
36.72182742192672
 20
7.784279170221257
 30
0.0
 10
39.07731725535342
 20
8.589356812166077
 30
0.0
 10
40.33284484111736
 20
8.781407734668658
 30
0.0
 10
42.667154162832
 20
8.781407734668658
 30
0.0
 10
43.92268174859593
 20
8.589356812166077
 30
0.0
 10
46.27817158202264
 20
7.784279170221257
 30
0.0
 10
47.37838897260661
 20
7.171309720635468
 30
0.0
 10
49.20498614272524
 20
5.688374106081304
 30
0.0
 10
50.04892884426447
 20
4.701008704998031
 30
0.0
 10
51.19738202057903
 20
2.460023849979839
 30
0.0
 10
51.4999995019747
 20
1.204948168892379
 30
0.0
 10
51.4999995019747
 20
-0.0000139678875297
 30
0.0
  0
SPLINE
  5
CA
330
1F
100
AcDbEntity
  8
Sichtbar_(ISO)
  6
Continuous
 62
     7
100
AcDbSpline
210
0.0
220
0.0
230
1.0
 70
     8
 71
     3
 72
    21
 73
    17
 74
     0
 42
0.000000001
 43
0.0000000001
 40
0.0
 40
0.0
 40
0.0
 40
0.0
 40
0.1525327731995534
 40
0.1525327731995534
 40
0.3050655463991067
 40
0.3050655463991067
 40
0.4528123773900868
 40
0.4528123773900868
 40
0.6005592083810672
 40
0.6005592083810672
 40
0.6005592083810672
 40
0.7483060393720474
 40
0.7483060393720474
 40
0.8960528703630277
 40
0.8960528703630277
 40
0.9999999999999999
 40
0.9999999999999999
 40
0.9999999999999999
 40
0.9999999999999999
 10
51.4999995019747
 20
-0.0000139678875297
 30
0.0
 10
51.4999995019747
 20
-1.204976104667437
 30
0.0
 10
51.19738202057903
 20
-2.460051785754892
 30
0.0
 10
50.04892884426447
 20
-4.701036640773082
 30
0.0
 10
49.20498614272526
 20
-5.688402041856361
 30
0.0
 10
47.37838897260661
 20
-7.171337656410527
 30
0.0
 10
46.27817158202268
 20
-7.784307105996316
 30
0.0
 10
43.92268174859597
 20
-8.58938474794114
 30
0.0
 10
42.667154162832
 20
-8.78143567044372
 30
0.0
 10
41.49999950197468
 20
-8.78143567044372
 30
0.0
 10
40.33284484111736
 20
-8.78143567044372
 30
0.0
 10
39.07731725535342
 20
-8.589384747941137
 30
0.0
 10
36.72182742192672
 20
-7.784307105996322
 30
0.0
 10
35.62161003134279
 20
-7.171337656410523
 30
0.0
 10
34.09055873847091
 20
-5.928343017498743
 30
0.0
 10
33.49430099060842
 20
-5.308373815227437
 30
0.0
 10
32.99999950197469
 20
-4.608663323512489
 30
0.0
  0
SPLINE
  5
CB
330
1F
100
AcDbEntity
  8
Sichtbar_(ISO)
  6
Continuous
 62
     7
100
AcDbSpline
210
0.0
220
0.0
230
1.0
 70
     8
 71
     3
 72
    14
 73
    10
 74
     0
 42
0.000000001
 43
0.0000000001
 40
0.0
 40
0.0
 40
0.0
 40
0.0
 40
0.0005969231157105
 40
0.0005969231157105
 40
0.5000000000000007
 40
0.5000000000000007
 40
0.9994030768842894
 40
0.9994030768842894
 40
1.0
 40
1.0
 40
1.0
 40
1.0
 10
32.99999950197469
 20
-4.608663323512489
 30
0.0
 10
32.99940882999906
 20
-4.606866211614379
 30
0.0
 10
32.99881847441942
 20
-4.605068970631548
 30
0.0
 10
32.50458508581219
 20
-3.099540095631825
 30
0.0
 10
32.24999950197469
 20
-1.498518535876677
 30
0.0
 10
32.24999950197469
 20
1.498490600101614
 30
0.0
 10
32.50458508581219
 20
3.09951215985676
 30
0.0
 10
32.99881847441942
 20
4.605041034856483
 30
0.0
 10
32.99940882999906
 20
4.606838275839314
 30
0.0
 10
32.99999950197469
 20
4.608635387737426
 30
0.0
  0
CIRCLE
  5
CC
330
1F
100
AcDbEntity
  8
Sichtbar_(ISO)
  6
Continuous
 62
     7
100
AcDbCircle
 10
41.499999502
 20
-0.0000139679
 30
0.0
 40
8.0
  0
ARC
  5
CE
330
1F
100
AcDbEntity
  8
Sichtbar_schmal_(ISO)
  6
Continuous
 62
     7
100
AcDbCircle
 10
41.499999502
 20
-0.0000139679
 30
0.0
 40
9.082532000004216
100
AcDbArc
 50
122.7620382219
 51
169.9999999999
  0
SPLINE
  5
CF
330
1F
100
AcDbEntity
  8
Sichtbar_schmal_(ISO)
  6
Continuous
 62
     7
100
AcDbSpline
210
0.0
220
0.0
230
1.0
 70
     8
 71
     3
 72
    15
 73
    11
 74
     0
 42
0.000000001
 43
0.0000000001
 40
0.0
 40
0.0
 40
0.0
 40
0.0
 40
0.1545258755260566
 40
0.1545258755260566
 40
0.5
 40
0.5
 40
0.5
 40
0.8454741244739417
 40
0.8454741244739417
 40
1.0
 40
1.0
 40
1.0
 40
1.0
 10
46.41502229563072
 20
7.637717270437006
 30
0.0
 10
45.96531166979731
 20
7.927114462816525
 30
0.0
 10
45.48435383509993
 20
8.179867433970246
 30
0.0
 10
43.86648321196007
 20
8.851958018601476
 30
0.0
 10
42.64727757665865
 20
9.082518032112464
 30
0.0
 10
41.49999950197468
 20
9.082518032112464
 30
0.0
 10
40.35272142729071
 20
9.082518032112464
 30
0.0
 10
39.13351579198931
 20
8.851958018601476
 30
0.0
 10
37.51564516884946
 20
8.179867433970246
 30
0.0
 10
37.03468733415248
 20
7.927114462815946
 30
0.0
 10
36.58497670831907
 20
7.637717270436427
 30
0.0
  0
ARC
  5
D0
330
1F
100
AcDbEntity
  8
Sichtbar_schmal_(ISO)
  6
Continuous
 62
     7
100
AcDbCircle
 10
41.499999502
 20
-0.0000139679
 30
0.0
 40
9.082532000001542
100
AcDbArc
 50
302.7620382219
 51
57.2379617781
  0
SPLINE
  5
D1
330
1F
100
AcDbEntity
  8
Sichtbar_schmal_(ISO)
  6
Continuous
 62
     7
100
AcDbSpline
210
0.0
220
0.0
230
1.0
 70
     8
 71
     3
 72
    12
 73
     8
 74
     0
 42
0.000000001
 43
0.0000000001
 40
0.0
 40
0.0
 40
0.0
 40
0.0
 40
0.2371754356943802
 40
0.2371754356943802
 40
0.764247732655782
 40
0.764247732655782
 40
1.0
 40
1.0
 40
1.0
 40
1.0
 10
39.92283437154493
 20
-8.944561898464036
 30
0.0
 10
40.45249077396522
 20
-9.037954612717437
 30
0.0
 10
40.98373981844646
 20
-9.08254596788753
 30
0.0
 10
42.64727757665865
 20
-9.08254596788753
 30
0.0
 10
43.86648321196007
 20
-8.851985954376547
 30
0.0
 10
45.48435383509995
 20
-8.179895369745312
 30
0.0
 10
45.96531166979732
 20
-7.927142398591586
 30
0.0
 10
46.41502229563074
 20
-7.637745206212058
 30
0.0
  0
SPLINE
  5
D2
330
1F
100
AcDbEntity
  8
Sichtbar_(ISO)
  6
Continuous
 62
     7
100
AcDbSpline
210
0.0
220
0.0
230
1.0
 70
     8
 71
     3
 72
    22
 73
    18
 74
     0
 42
0.000000001
 43
0.0000000001
 40
0.0
 40
0.0
 40
0.0
 40
0.0
 40
0.1269922857487588
 40
0.1269922857487588
 40
0.253984571497517
 40
0.253984571497517
 40
0.3769922857487591
 40
0.3769922857487591
 40
0.5000000000000001
 40
0.5000000000000001
 40
0.6230077142512412
 40
0.6230077142512412
 40
0.746015428502483
 40
0.746015428502483
 40
0.8730077142512418
 40
0.8730077142512418
 40
1.0
 40
1.0
 40
1.0
 40
1.0
 10
56.49999950197469
 20
-0.0000139678875319
 30
0.0
 10
56.49999950197469
 20
1.204948168892376
 30
0.0
 10
56.80261698337035
 20
2.460023849979829
 30
0.0
 10
57.95107015968491
 20
4.701008704998018
 30
0.0
 10
58.79501286122414
 20
5.688374106081299
 30
0.0
 10
60.62161003134278
 20
7.171309720635468
 30
0.0
 10
61.72182742192674
 20
7.784279170221257
 30
0.0
 10
64.07731725535344
 20
8.589356812166077
 30
0.0
 10
65.33284484111738
 20
8.781407734668658
 30
0.0
 10
67.66715416283202
 20
8.781407734668658
 30
0.0
 10
68.92268174859593
 20
8.589356812166077
 30
0.0
 10
71.27817158202267
 20
7.784279170221257
 30
0.0
 10
72.37838897260661
 20
7.171309720635468
 30
0.0
 10
74.20498614272528
 20
5.688374106081301
 30
0.0
 10
75.04892884426445
 20
4.701008704998024
 30
0.0
 10
76.19738202057901
 20
2.460023849979839
 30
0.0
 10
76.49999950197468
 20
1.204948168892378
 30
0.0
 10
76.49999950197468
 20
-0.0000139678875297
 30
0.0
  0
SPLINE
  5
D3
330
1F
100
AcDbEntity
  8
Sichtbar_(ISO)
  6
Continuous
 62
     7
100
AcDbSpline
210
0.0
220
0.0
230
1.0
 70
     8
 71
     3
 72
    23
 73
    19
 74
     0
 42
0.000000001
 43
0.0000000001
 40
0.0
 40
0.0
 40
0.0
 40
0.0
 40
0.126992285748759
 40
0.126992285748759
 40
0.2539845714975176
 40
0.2539845714975176
 40
0.3769922857487585
 40
0.3769922857487585
 40
0.4999999999999997
 40
0.4999999999999997
 40
0.4999999999999997
 40
0.6230077142512418
 40
0.6230077142512418
 40
0.7460154285024827
 40
0.7460154285024827
 40
0.873007714251241
 40
0.873007714251241
 40
1.0
 40
1.0
 40
1.0
 40
1.0
 10
76.49999950197468
 20
-0.0000139678875297
 30
0.0
 10
76.49999950197468
 20
-1.204976104667437
 30
0.0
 10
76.19738202057901
 20
-2.460051785754892
 30
0.0
 10
75.04892884426445
 20
-4.701036640773079
 30
0.0
 10
74.20498614272528
 20
-5.688402041856361
 30
0.0
 10
72.37838897260661
 20
-7.171337656410527
 30
0.0
 10
71.2781715820227
 20
-7.784307105996313
 30
0.0
 10
68.92268174859599
 20
-8.589384747941137
 30
0.0
 10
67.66715416283203
 20
-8.78143567044372
 30
0.0
 10
66.49999950197468
 20
-8.78143567044372
 30
0.0
 10
65.33284484111738
 20
-8.78143567044372
 30
0.0
 10
64.07731725535344
 20
-8.58938474794114
 30
0.0
 10
61.72182742192674
 20
-7.784307105996322
 30
0.0
 10
60.62161003134278
 20
-7.171337656410527
 30
0.0
 10
58.79501286122414
 20
-5.688402041856361
 30
0.0
 10
57.95107015968491
 20
-4.701036640773081
 30
0.0
 10
56.80261698337035
 20
-2.460051785754893
 30
0.0
 10
56.49999950197469
 20
-1.204976104667439
 30
0.0
 10
56.49999950197469
 20
-0.0000139678875319
 30
0.0
  0
CIRCLE
  5
D4
330
1F
100
AcDbEntity
  8
Sichtbar_(ISO)
  6
Continuous
 62
     7
100
AcDbCircle
 10
66.499999502
 20
-0.0000139679
 30
0.0
 40
8.0
  0
SPLINE
  5
D5
330
1F
100
AcDbEntity
  8
Verdeckt_(ISO)
  6
HIDDEN2
 62
     7
100
AcDbSpline
210
0.0
220
0.0
230
1.0
 70
    11
 71
     3
 72
    48
 73
    44
 74
     0
 42
0.000000001
 43
0.0000000001
 40
0.0
 40
0.0
 40
0.0
 40
0.0
 40
0.0352494811985103
 40
0.0352494811985103
 40
0.1040516408258873
 40
0.1040516408258873
 40
0.1650297569930964
 40
0.1650297569930964
 40
0.2200407707188193
 40
0.2200407707188193
 40
0.2504312357758617
 40
0.2504312357758617
 40
0.2809845867197761
 40
0.2809845867197761
 40
0.3365485869374794
 40
0.3365485869374794
 40
0.390549559039965
 40
0.390549559039965
 40
0.4580039096412261
 40
0.4580039096412261
 40
0.4949401653516221
 40
0.4949401653516221
 40
0.5290510512405084
 40
0.5290510512405084
 40
0.5859178283717208
 40
0.5859178283717208
 40
0.6496067330679459
 40
0.6496067330679459
 40
0.7047154536455614
 40
0.7047154536455614
 40
0.7397388112626583
 40
0.7397388112626583
 40
0.7684272412672153
 40
0.7684272412672153
 40
0.809949744569376
 40
0.809949744569376
 40
0.859286236004002
 40
0.859286236004002
 40
0.9185635061431074
 40
0.9185635061431074
 40
0.9722613190466677
 40
0.9722613190466677
 40
0.9999999999999999
 40
0.9999999999999999
 40
0.9999999999999999
 40
0.9999999999999999
 10
65.49999950197478
 20
11.65794425033517
 30
0.0
 10
64.57226666407907
 20
11.65794425033517
 30
0.0
 10
63.64503275829078
 20
11.5745358405161
 30
0.0
 10
60.95791963967351
 20
11.08051683920622
 30
0.0
 10
59.26046892078198
 20
10.43785984628673
 30
0.0
 10
56.43037961629069
 20
8.622536753776227
 30
0.0
 10
55.28061895715585
 20
7.533202381689985
 30
0.0
 10
53.58271204815622
 20
5.05969558514327
 30
0.0
 10
53.00726832453758
 20
3.743914905068063
 30
0.0
 10
52.53130720082312
 20
1.564898931023448
 30
0.0
 10
52.44644588506918
 20
0.7730443869979685
 30
0.0
 10
52.44974172792261
 20
-0.822644538457814
 30
0.0
 10
52.53881087760898
 20
-1.618349690527256
 30
0.0
 10
53.03038920310869
 20
-3.813084245248793
 30
0.0
 10
53.62131829693463
 20
-5.137931683773098
 30
0.0
 10
55.24623350207446
 20
-7.460215739730756
 30
0.0
 10
56.24842234047594
 20
-8.439328281056184
 30
0.0
 10
58.83414964930543
 20
-10.22741935992742
 30
0.0
 10
60.47113930921526
 20
-10.91476238489238
 30
0.0
 10
63.14433665170187
 20
-11.50850278948886
 30
0.0
 10
64.11261222402653
 20
-11.62623503552248
 30
0.0
 10
65.98195748281228
 20
-11.67653181723255
 30
0.0
 10
66.88147907878704
 20
-11.62252450617816
 30
0.0
 10
69.24621706958195
 20
-11.26911909845966
 30
0.0
 10
70.68154775917898
 20
-10.83157870673884
 30
0.0
 10
73.49054370089227
 20
-9.436913988499274
 30
0.0
 10
74.81256698125988
 20
-8.434805130256322
 30
0.0
 10
76.80767175938384
 20
-6.101190306478358
 30
0.0
 10
77.52246966573414
 20
-4.856557037639177
 30
0.0
 10
78.2709695441089
 20
-2.629888180059769
 30
0.0
 10
78.45329344484912
 20
-1.730751079775945
 30
0.0
 10
78.5774411166529
 20
-0.0666417573992551
 30
0.0
 10
78.5562076790423
 20
0.6857191444304159
 30
0.0
 10
78.31651838739006
 20
2.507920757398125
 30
0.0
 10
78.01646725858363
 20
3.552334455508805
 30
0.0
 10
77.04063765220609
 20
5.703150407153449
 30
0.0
 10
76.31581738230162
 20
6.760264448814156
 30
0.0
 10
74.37159185471084
 20
8.783982945865016
 30
0.0
 10
73.1047050968774
 20
9.666816862934194
 30
0.0
 10
70.43876452816195
 20
10.90845859745386
 30
0.0
 10
69.0782903648662
 20
11.30218296802849
 30
0.0
 10
66.95987355761488
 20
11.60626197021485
 30
0.0
 10
66.23005521699068
 20
11.65794425033516
 30
0.0
 10
65.49999950197478
 20
11.65794425033517
 30
0.0
  0
CIRCLE
  5
D6
330
1F
100
AcDbEntity
  8
Verdeckt_(ISO)
  6
HIDDEN2
 62
     7
100
AcDbCircle
 10
65.499999502
 20
-0.0000139679
 30
0.0
 40
2.0
  0
CIRCLE
  5
D7
330
1F
100
AcDbEntity
  8
Verdeckt_(ISO)
  6
HIDDEN2
 62
     7
100
AcDbCircle
 10
14.499999502
 20
-0.0000139679
 30
0.0
 40
4.899999999999999
  0
CIRCLE
  5
D8
330
1F
100
AcDbEntity
  8
Verdeckt_(ISO)
  6
HIDDEN2
 62
     7
100
AcDbCircle
 10
14.499999502
 20
-0.0000139679
 30
0.0
 40
5.150000000000003
  0
CIRCLE
  5
D9
330
1F
100
AcDbEntity
  8
Sichtbar_(ISO)
  6
Continuous
 62
     7
100
AcDbCircle
 10
14.499999502
 20
-0.0000139679
 30
0.0
 40
1.75
  0
CIRCLE
  5
DA
330
1F
100
AcDbEntity
  8
Sichtbar_(ISO)
  6
Continuous
 62
     7
100
AcDbCircle
 10
14.499999502
 20
-0.0000139679
 30
0.0
 40
5.500000000000004
  0
CIRCLE
  5
DB
330
1F
100
AcDbEntity
  8
Sichtbar_(ISO)
  6
Continuous
 62
     7
100
AcDbCircle
 10
14.499999502
 20
-0.0000139679
 30
0.0
 40
5.025000000000002
  0
SPLINE
  5
DC
330
1F
100
AcDbEntity
  8
Verdeckt_(ISO)
  6
HIDDEN2
 62
     7
100
AcDbSpline
210
0.0
220
0.0
230
1.0
 70
    15
 71
     3
 72
    24
 73
    20
 74
     0
 42
0.000000001
 43
0.0000000001
 40
0.0
 40
0.0
 40
0.0
 40
0.0
 40
0.0477173970602358
 40
0.0477173970602358
 40
0.1240652323566135
 40
0.1240652323566135
 40
0.2233174182419042
 40
0.2233174182419042
 40
0.3398992504639479
 40
0.3398992504639479
 40
0.461369651113631
 40
0.461369651113631
 40
0.5914494244595652
 40
0.5914494244595652
 40
0.7404605155746677
 40
0.7404605155746677
 40
0.8864017164904057
 40
0.8864017164904057
 40
1.0
 40
1.0
 40
1.0
 40
1.0
 10
89.7000604192728
 20
-13.2587204608101
 30
0.0
 41
1.0
 10
89.7000604192728
 20
-13.21098617297338
 30
0.0
 41
1.0
 10
89.70005854548776
 20
-13.18302494083837
 30
0.0
 41
1.0
 10
89.7000496306502
 20
-13.16495380992177
 30
0.0
 41
1.0
 10
89.70004009852187
 20
-13.20823156935758
 30
0.0
 41
1.0
 10
89.70001771641671
 20
-13.4220947864491
 30
0.0
 41
1.0
 10
89.70000541657753
 20
-13.62759460751137
 30
0.0
 41
1.0
 10
89.69999629594037
 20
-14.17718949696099
 30
0.0
 41
1.0
 10
89.7000034510869
 20
-14.53773228475517
 30
0.0
 41
1.0
 10
89.7000309033365
 20
-15.22111028850841
 30
0.0
 41
1.0
 10
89.70004964060041
 20
-15.53792947672588
 30
0.0
 41
1.0
 10
89.70006465486269
 20
-15.95085259340292
 30
0.0
 41
1.0
 10
89.70005755349145
 20
-16.02598041753271
 30
0.0
 41
1.0
 10
89.70002500606665
 20
-15.84126226956848
 30
0.0
 41
1.0
 10
89.70000193764082
 20
-15.53034173249589
 30
0.0
 41
1.0
 10
89.6999975312829
 20
-14.7353648561669
 30
0.0
 41
1.0
 10
89.70001594627615
 20
-14.26452757719032
 30
0.0
 41
1.0
 10
89.70004868309101
 20
-13.60117983558772
 30
0.0
 41
1.0
 10
89.7000604192728
 20
-13.37235895529794
 30
0.0
 41
1.0
 10
89.7000604192728
 20
-13.2587204608101
 30
0.0
 41
1.0
  0
SPLINE
  5
DD
330
1F
100
AcDbEntity
  8
Verdeckt_(ISO)
  6
HIDDEN2
 62
     7
100
AcDbSpline
210
0.0
220
0.0
230
1.0
 70
    11
 71
     3
 72
    46
 73
    42
 74
     0
 42
0.000000001
 43
0.0000000001
 40
0.0
 40
0.0
 40
0.0
 40
0.0
 40
0.0318514065020518
 40
0.0318514065020518
 40
0.0637028130041035
 40
0.0637028130041035
 40
0.1274056260082069
 40
0.1274056260082069
 40
0.1878003070880886
 40
0.1878003070880886
 40
0.2481949881679702
 40
0.2481949881679702
 40
0.3085896692478519
 40
0.3085896692478519
 40
0.3689843503277336
 40
0.3689843503277336
 40
0.4326871633318368
 40
0.4326871633318368
 40
0.4645385698338884
 40
0.4645385698338884
 40
0.49638997633594
 40
0.49638997633594
 40
0.5285227893394013
 40
0.5285227893394013
 40
0.5606556023428627
 40
0.5606556023428627
 40
0.6249212283497858
 40
0.6249212283497858
 40
0.6865581082588781
 40
0.6865581082588781
 40
0.7481949881679704
 40
0.7481949881679704
 40
0.8098318680770624
 40
0.8098318680770624
 40
0.8714687479861543
 40
0.8714687479861543
 40
0.9357343739930772
 40
0.9357343739930772
 40
0.9678671869965387
 40
0.9678671869965387
 40
1.0
 40
1.0
 40
1.0
 40
1.0
 10
17.47321196180331
 20
-17.42402904997259
 30
0.0
 10
17.47321196180331
 20
-17.51575248958198
 30
0.0
 10
17.49001005115937
 20
-17.60143117006175
 30
0.0
 10
17.54705952149155
 20
-17.75949561266558
 30
0.0
 10
17.58702604002188
 20
-17.83194683237779
 30
0.0
 10
17.72194465537209
 20
-18.02855500327224
 30
0.0
 10
17.83049520317225
 20
-18.13185863583569
 30
0.0
 10
18.01014907053095
 20
-18.26845919666707
 30
0.0
 10
18.09642126566705
 20
-18.31372405380059
 30
0.0
 10
18.21664826389307
 20
-18.32942197380603
 30
0.0
 10
18.24999950197467
 20
-18.2993841287243
 30
0.0
 10
18.24999950197467
 20
-18.17278046500849
 30
0.0
 10
18.21664826389307
 20
-18.07186141559414
 30
0.0
 10
18.09642126566705
 20
-17.82233330898796
 30
0.0
 10
18.01014907053095
 20
-17.67394616464107
 30
0.0
 10
17.83049520317225
 20
-17.37254952967118
 30
0.0
 10
17.72194465537208
 20
-17.19722009621675
 30
0.0
 10
17.58702604002187
 20
-16.92663282308642
 30
0.0
 10
17.54705952149154
 20
-16.83496775682582
 30
0.0
 10
17.49001005115937
 20
-16.65074370813605
 30
0.0
 10
17.47321196180333
 20
-16.55809608827011
 30
0.0
 10
17.47321196180331
 20
-16.3738388344063
 30
0.0
 10
17.49019561533345
 20
-16.28729644192715
 30
0.0
 10
17.54689672634539
 20
-16.12656644079162
 30
0.0
 10
17.58633717639808
 20
-16.05232351210543
 30
0.0
 10
17.71928476413454
 20
-15.84900773587856
 30
0.0
 10
17.82603721785514
 20
-15.73961467055182
 30
0.0
 10
18.00517118374088
 20
-15.59005749014067
 30
0.0
 10
18.09259919329612
 20
-15.53747487442165
 30
0.0
 10
18.21534095971951
 20
-15.51153554509262
 30
0.0
 10
18.24999950197467
 20
-15.53873533766901
 30
0.0
 10
18.24999950197467
 20
-15.66794298769668
 30
0.0
 10
18.21534095971951
 20
-15.77335353891426
 30
0.0
 10
18.09259919329612
 20
-16.03451065865613
 30
0.0
 10
18.00517118374088
 20
-16.18999300809349
 30
0.0
 10
17.82603721785514
 20
-16.50206618886162
 30
0.0
 10
17.71928476413453
 20
-16.68190429861454
 30
0.0
 10
17.58633717639807
 20
-16.95796247071196
 30
0.0
 10
17.54689672634538
 20
-17.05117230435212
 30
0.0
 10
17.49019561533345
 20
-17.23789542869457
 30
0.0
 10
17.47321196180331
 20
-17.33149523571817
 30
0.0
 10
17.47321196180331
 20
-17.42402904997259
 30
0.0
  0
LINE
  5
DE
330
1F
100
AcDbEntity
  8
Verdeckt_(ISO)
  6
HIDDEN2
 62
     7
100
AcDbLine
 10
89.7000532812
 20
-13.1743386982
 30
0.0
 11
89.799999502
 21
-13.0710589835
 31
0.0
  0
LINE
  5
DF
330
1F
100
AcDbEntity
  8
Verdeckt_(ISO)
  6
HIDDEN2
 62
     7
100
AcDbLine
 10
89.799999502
 20
-16.0725661124
 30
0.0
 11
89.7000533146
 21
-15.975845825
 31
0.0
  0
LINE
  5
E0
330
1F
100
AcDbEntity
  8
Verdeckt_(ISO)
  6
HIDDEN2
 62
     7
100
AcDbLine
 10
18.1790720703
 20
-15.521284634
 30
0.0
 11
89.7000532823
 21
-13.1743386976
 31
0.0
  0
LINE
  5
E1
330
1F
100
AcDbEntity
  8
Verdeckt_(ISO)
  6
HIDDEN2
 62
     7
100
AcDbLine
 10
18.1790720703
 20
-18.322791763
 30
0.0
 11
89.7000533157
 21
-15.9758458255
 31
0.0
  0
LINE
  5
E2
330
1F
100
AcDbEntity
  8
Verdeckt_(ISO)
  6
HIDDEN2
 62
     7
100
AcDbLine
 10
89.799999502
 20
17.0499860321
 30
0.0
 11
89.799999502
 21
-17.0500139679
 31
0.0
  0
LINE
  5
E3
330
1F
100
AcDbEntity
  8
Verdeckt_(ISO)
  6
HIDDEN2
 62
     7
100
AcDbLine
 10
89.999999502
 20
-13.7500139679
 30
0.0
 11
89.799999502
 21
-13.9500139679
 31
0.0
  0
LINE
  5
E4
330
1F
100
AcDbEntity
  8
Verdeckt_(ISO)
  6
HIDDEN2
 62
     7
100
AcDbLine
 10
89.999999502
 20
13.7499860321
 30
0.0
 11
89.799999502
 21
13.9499860321
 31
0.0
  0
LINE
  5
E5
330
1F
100
AcDbEntity
  8
Verdeckt_(ISO)
  6
HIDDEN2
 62
     7
100
AcDbLine
 10
89.799999502
 20
17.0499860321
 30
0.0
 11
89.999999502
 21
17.2499860321
 31
0.0
  0
LINE
  5
E6
330
1F
100
AcDbEntity
  8
Verdeckt_(ISO)
  6
HIDDEN2
 62
     7
100
AcDbLine
 10
89.799999502
 20
-17.0500139679
 30
0.0
 11
89.999999502
 21
-17.2500139679
 31
0.0
  0
SPLINE
  5
E7
330
1F
100
AcDbEntity
  8
Verdeckt_(ISO)
  6
HIDDEN2
 62
     7
100
AcDbSpline
210
0.0
220
0.0
230
1.0
 70
    15
 71
     3
 72
    24
 73
    20
 74
     0
 42
0.000000001
 43
0.0000000001
 40
0.0
 40
0.0
 40
0.0
 40
0.0
 40
0.0477173970602358
 40
0.0477173970602358
 40
0.1240652323566135
 40
0.1240652323566135
 40
0.2233174182419042
 40
0.2233174182419042
 40
0.3398992504639132
 40
0.3398992504639132
 40
0.4613696511136073
 40
0.4613696511136073
 40
0.5914494244595302
 40
0.5914494244595302
 40
0.7404605155746886
 40
0.7404605155746886
 40
0.8864017164903616
 40
0.8864017164903616
 40
1.0
 40
1.0
 40
1.0
 40
1.0
 10
89.7000604192728
 20
13.25869252503503
 30
0.0
 41
1.0
 10
89.7000604192728
 20
13.21095823719831
 30
0.0
 41
1.0
 10
89.70005854548776
 20
13.18299700506331
 30
0.0
 41
1.0
 10
89.7000496306502
 20
13.16492587414672
 30
0.0
 41
1.0
 10
89.70004009852187
 20
13.20820363358253
 30
0.0
 41
1.0
 10
89.70001771641671
 20
13.42206685067403
 30
0.0
 41
1.0
 10
89.70000541657753
 20
13.62756667173631
 30
0.0
 41
1.0
 10
89.69999629594037
 20
14.17716156118585
 30
0.0
 41
1.0
 10
89.7000034510869
 20
14.53770434897989
 30
0.0
 41
1.0
 10
89.7000309033365
 20
15.2210823527331
 30
0.0
 41
1.0
 10
89.70004964060041
 20
15.53790154095064
 30
0.0
 41
1.0
 10
89.70006465486269
 20
15.95082465762776
 30
0.0
 41
1.0
 10
89.70005755349145
 20
16.02595248175762
 30
0.0
 41
1.0
 10
89.70002500606665
 20
15.84123433379355
 30
0.0
 41
1.0
 10
89.70000193764083
 20
15.53031379672084
 30
0.0
 41
1.0
 10
89.6999975312829
 20
14.73533692039183
 30
0.0
 41
1.0
 10
89.70001594627615
 20
14.2644996414155
 30
0.0
 41
1.0
 10
89.70004868309101
 20
13.60115189981284
 30
0.0
 41
1.0
 10
89.7000604192728
 20
13.37233101952292
 30
0.0
 41
1.0
 10
89.7000604192728
 20
13.25869252503503
 30
0.0
 41
1.0
  0
LINE
  5
E8
330
1F
100
AcDbEntity
  8
Verdeckt_(ISO)
  6
HIDDEN2
 62
     7
100
AcDbLine
 10
89.7000533146
 20
15.9758178892
 30
0.0
 11
89.799999502
 21
16.0725381767
 31
0.0
  0
LINE
  5
E9
330
1F
100
AcDbEntity
  8
Verdeckt_(ISO)
  6
HIDDEN2
 62
     7
100
AcDbLine
 10
89.799999502
 20
13.0710310477
 30
0.0
 11
89.7000532812
 21
13.1743107624
 31
0.0
  0
SPLINE
  5
EA
330
1F
100
AcDbEntity
  8
Verdeckt_(ISO)
  6
HIDDEN2
 62
     7
100
AcDbSpline
210
0.0
220
0.0
230
1.0
 70
    11
 71
     3
 72
    46
 73
    42
 74
     0
 42
0.000000001
 43
0.0000000001
 40
0.0
 40
0.0
 40
0.0
 40
0.0
 40
0.0322894505960277
 40
0.0322894505960277
 40
0.0645789011920553
 40
0.0645789011920553
 40
0.1291578023841106
 40
0.1291578023841106
 40
0.1904864233541769
 40
0.1904864233541769
 40
0.2518150443242431
 40
0.2518150443242431
 40
0.3131436652943094
 40
0.3131436652943094
 40
0.3744722862643756
 40
0.3744722862643756
 40
0.4390511874564311
 40
0.4390511874564311
 40
0.4713406380524588
 40
0.4713406380524588
 40
0.5036300886484866
 40
0.5036300886484866
 40
0.5354802076588364
 40
0.5354802076588364
 40
0.5673303266691859
 40
0.5673303266691859
 40
0.6310305646898854
 40
0.6310305646898854
 40
0.6914228045070643
 40
0.6914228045070643
 40
0.7518150443242433
 40
0.7518150443242433
 40
0.812207284141422
 40
0.812207284141422
 40
0.8725995239586007
 40
0.8725995239586007
 40
0.9362997619793002
 40
0.9362997619793002
 40
0.9681498809896499
 40
0.9681498809896499
 40
0.9999999999999999
 40
0.9999999999999999
 40
0.9999999999999999
 40
0.9999999999999999
 10
17.47321196180333
 20
16.46634471288566
 30
0.0
 10
17.47321196180333
 20
16.37335606594205
 30
0.0
 10
17.49035770810278
 20
16.28646738598976
 30
0.0
 10
17.54750214872288
 20
16.12516907533635
 30
0.0
 10
17.58721912061265
 20
16.05070323581462
 30
0.0
 10
17.72099572128107
 20
15.84686006481437
 30
0.0
 10
17.8282840683709
 20
15.73731718080038
 30
0.0
 10
18.0071727136053
 20
15.58874323349721
 30
0.0
 10
18.09393518032496
 20
15.53687034245683
 30
0.0
 10
18.21567536855537
 20
15.5117352548477
 30
0.0
 10
18.24999950197467
 20
15.53902790069772
 30
0.0
 10
18.24999950197467
 20
15.66759455311785
 30
0.0
 10
18.21567536855537
 20
15.77235028216346
 30
0.0
 10
18.09393518032495
 20
16.03190036226705
 30
0.0
 10
18.0071727136053
 20
16.18643012912723
 30
0.0
 10
17.8282840683709
 20
16.49817313616578
 30
0.0
 10
17.72099572128108
 20
16.67872986535902
 30
0.0
 10
17.58721912061265
 20
16.95590406630882
 30
0.0
 10
17.54750214872288
 20
17.04948967578733
 30
0.0
 10
17.49035770810278
 20
17.23699969894918
 30
0.0
 10
17.47321196180333
 20
17.33101246725395
 30
0.0
 10
17.47321196180333
 20
17.51572455380692
 30
0.0
 10
17.49001005115939
 20
17.60140323428669
 30
0.0
 10
17.54705952149155
 20
17.75946767689053
 30
0.0
 10
17.58702604002188
 20
17.83191889660272
 30
0.0
 10
17.72194465537209
 20
18.02852706749718
 30
0.0
 10
17.83049520317226
 20
18.13183070006062
 30
0.0
 10
18.01014907053095
 20
18.26843126089199
 30
0.0
 10
18.09642126566707
 20
18.31369611802554
 30
0.0
 10
18.21664826389307
 20
18.32939403803098
 30
0.0
 10
18.24999950197467
 20
18.29935619294923
 30
0.0
 10
18.24999950197467
 20
18.17275252923344
 30
0.0
 10
18.21664826389307
 20
18.07183347981908
 30
0.0
 10
18.09642126566707
 20
17.8223053732129
 30
0.0
 10
18.01014907053095
 20
17.67391822886601
 30
0.0
 10
17.83049520317227
 20
17.37252159389613
 30
0.0
 10
17.72194465537209
 20
17.19719216044169
 30
0.0
 10
17.58702604002188
 20
16.92660488731136
 30
0.0
 10
17.54705952149155
 20
16.83493982105076
 30
0.0
 10
17.49001005115937
 20
16.65071577236098
 30
0.0
 10
17.47321196180333
 20
16.55806815249504
 30
0.0
 10
17.47321196180333
 20
16.46634471288566
 30
0.0
  0
LINE
  5
EB
330
1F
100
AcDbEntity
  8
Verdeckt_(ISO)
  6
HIDDEN2
 62
     7
100
AcDbLine
 10
18.1790720703
 20
18.3227638272
 30
0.0
 11
89.7000533157
 21
15.9758178897
 31
0.0
  0
LINE
  5
EC
330
1F
100
AcDbEntity
  8
Verdeckt_(ISO)
  6
HIDDEN2
 62
     7
100
AcDbLine
 10
18.1790720703
 20
15.5212566983
 30
0.0
 11
89.7000532823
 21
13.1743107618
 31
0.0
  0
ELLIPSE
  5
ED
330
1F
100
AcDbEntity
  8
Verdeckt_(ISO)
  6
HIDDEN2
 62
     7
100
AcDbEllipse
 10
16.599999502
 20
24.6199326967
 30
0.0
 11
1.649999999999999
 21
1.000000000000000E-16
 31
0.0
210
0.0
220
0.0
230
1.0
 40
0.3420201433
 41
3.438964887018388
 42
5.985813073750977
  0
SPLINE
  5
EE
330
1F
100
AcDbEntity
  8
Verdeckt_(ISO)
  6
HIDDEN2
 62
     7
100
AcDbSpline
210
0.0
220
0.0
230
1.0
 70
    11
 71
     3
 72
    38
 73
    34
 74
     0
 42
0.000000001
 43
0.0000000001
 40
0.0
 40
0.0
 40
0.0
 40
0.0
 40
0.0625034299179982
 40
0.0625034299179982
 40
0.1250068598359965
 40
0.1250068598359965
 40
0.1875034299179983
 40
0.1875034299179983
 40
0.2500000000000002
 40
0.2500000000000002
 40
0.312496570082002
 40
0.312496570082002
 40
0.3749931401640039
 40
0.3749931401640039
 40
0.4374965700820019
 40
0.4374965700820019
 40
0.5
 40
0.5
 40
0.5625034299179984
 40
0.5625034299179984
 40
0.625006859835997
 40
0.625006859835997
 40
0.6875034299179987
 40
0.6875034299179987
 40
0.7500000000000002
 40
0.7500000000000002
 40
0.8124965700820019
 40
0.8124965700820019
 40
0.8749931401640039
 40
0.8749931401640039
 40
0.9374965700820018
 40
0.9374965700820018
 40
1.0
 40
1.0
 40
1.0
 40
1.0
 10
16.59999950197467
 20
5.828153156064624
 30
0.0
 10
16.80803397681196
 20
5.828153156064624
 30
0.0
 10
17.02937447692679
 20
5.852327979829611
 30
0.0
 10
17.43565331101177
 20
5.945346168467709
 30
0.0
 10
17.62066281830144
 20
6.013620797736079
 30
0.0
 10
17.91277253296563
 20
6.159928482429771
 30
0.0
 10
18.03963382288617
 20
6.247792244752536
 30
0.0
 10
18.20826854837855
 20
6.421396547442377
 30
0.0
 10
18.24999950197467
 20
6.506690205739467
 30
0.0
 10
18.24999950197467
 20
6.648978549488186
 30
0.0
 10
18.20826854837855
 20
6.715096507342886
 30
0.0
 10
18.03963382288617
 20
6.819419486783516
 30
0.0
 10
17.91277253296562
 20
6.858114275479207
 30
0.0
 10
17.62066281830144
 20
6.911621403738047
 30
0.0
 10
17.43565331101177
 20
6.930116444622607
 30
0.0
 10
17.02937447692679
 20
6.952444964784927
 30
0.0
 10
16.80803397681196
 20
6.956819629039326
 30
0.0
 10
16.39196502713738
 20
6.956819629039326
 30
0.0
 10
16.17062452702256
 20
6.952444964784927
 30
0.0
 10
15.76434569293757
 20
6.930116444622596
 30
0.0
 10
15.57933618564789
 20
6.911621403738047
 30
0.0
 10
15.28722647098371
 20
6.858114275479207
 30
0.0
 10
15.16036518106318
 20
6.819419486783516
 30
0.0
 10
14.99173045557078
 20
6.715096507342886
 30
0.0
 10
14.94999950197467
 20
6.648978549488186
 30
0.0
 10
14.94999950197467
 20
6.506690205739467
 30
0.0
 10
14.99173045557079
 20
6.421396547442377
 30
0.0
 10
15.16036518106318
 20
6.247792244752536
 30
0.0
 10
15.28722647098372
 20
6.159928482429771
 30
0.0
 10
15.5793361856479
 20
6.013620797736079
 30
0.0
 10
15.76434569293758
 20
5.945346168467709
 30
0.0
 10
16.17062452702256
 20
5.852327979829614
 30
0.0
 10
16.39196502713738
 20
5.828153156064624
 30
0.0
 10
16.59999950197467
 20
5.828153156064624
 30
0.0
  0
ELLIPSE
  5
EF
330
1F
100
AcDbEntity
  8
Verdeckt_(ISO)
  6
HIDDEN2
 62
     7
100
AcDbEllipse
 10
16.599999502
 20
17.4507226949
 30
0.0
 11
1.630806915604048
 21
0.9705897086632861
 31
0.0
210
0.0
220
0.0
230
1.0
 40
0.2585395808
 41
2.100209181304378
 42
3.877626571236454
  0
SPLINE
  5
F0
330
1F
100
AcDbEntity
  8
Verdeckt_(ISO)
  6
HIDDEN2
 62
     7
100
AcDbSpline
210
0.0
220
0.0
230
1.0
 70
     8
 71
     3
 72
    10
 73
     6
 74
     0
 42
0.000000001
 43
0.0000000001
 40
0.0
 40
0.0
 40
0.0
 40
0.0
 40
0.2358652090922874
 40
0.2358652090922874
 40
1.0
 40
1.0
 40
1.0
 40
1.0
 10
16.25327128596917
 20
17.46332331498373
 30
0.0
 10
16.20686203696969
 20
17.36813043195532
 30
0.0
 10
16.15772183959014
 20
17.27511405721615
 30
0.0
 10
15.93920004477274
 20
16.89499072688005
 30
0.0
 10
15.74499975668484
 20
16.6411439444418
 30
0.0
 10
15.55981485395819
 20
16.44832107872876
 30
0.0
  0
ELLIPSE
  5
F1
330
1F
100
AcDbEntity
  8
Verdeckt_(ISO)
  6
HIDDEN2
 62
     7
100
AcDbEllipse
 10
16.599999502
 20
17.4507226949
 30
0.0
 11
1.630806915604049
 21
-2.740118890859393
 31
0.0
210
0.0
220
0.0
230
1.0
 40
0.0915784557
 41
1.9351875332765
 42
4.653347328541819
  0
SPLINE
  5
F2
330
1F
100
AcDbEntity
  8
Verdeckt_(ISO)
  6
HIDDEN2
 62
     7
100
AcDbSpline
210
0.0
220
0.0
230
1.0
 70
     8
 71
     3
 72
    10
 73
     6
 74
     0
 42
0.000000001
 43
0.0000000001
 40
0.0
 40
0.0
 40
0.0
 40
0.0
 40
0.6627832268854281
 40
0.6627832268854281
 40
1.0
 40
1.0
 40
1.0
 40
1.0
 10
15.55981485395819
 20
17.32445783802605
 30
0.0
 10
15.72129666517628
 20
17.58230680675695
 30
0.0
 10
15.88866184986318
 20
17.85328347601492
 30
0.0
 10
16.11500863056053
 20
18.27605077695248
 30
0.0
 10
16.18694023254323
 20
18.42098043477814
 30
0.0
 10
16.25327128596916
 20
18.56678854772048
 30
0.0
  0
ELLIPSE
  5
F3
330
1F
100
AcDbEntity
  8
Verdeckt_(ISO)
  6
HIDDEN2
 62
     7
100
AcDbEllipse
 10
16.599999502
 20
-17.4507506306
 30
0.0
 11
1.630806915604048
 21
2.740118890859403
 31
0.0
210
0.0
220
0.0
230
1.0
 40
0.0915784557
 41
1.629837978637744
 42
4.34799777390306
  0
SPLINE
  5
F4
330
1F
100
AcDbEntity
  8
Verdeckt_(ISO)
  6
HIDDEN2
 62
     7
100
AcDbSpline
210
0.0
220
0.0
230
1.0
 70
     8
 71
     3
 72
    12
 73
     8
 74
     0
 42
0.000000001
 43
0.0000000001
 40
0.0
 40
0.0
 40
0.0
 40
0.0
 40
0.2544208714267625
 40
0.2544208714267625
 40
0.7485243181538964
 40
0.7485243181538964
 40
1.0
 40
1.0
 40
1.0
 40
1.0
 10
15.55981485395819
 20
-17.32448577380112
 30
0.0
 10
15.62408301390829
 20
-17.42710710706685
 30
0.0
 10
15.69023119151091
 20
-17.53318806038293
 30
0.0
 10
15.88165627331673
 20
-17.84843108866921
 30
0.0
 10
16.00308274703753
 20
-18.06126875055483
 30
0.0
 10
16.15531035341445
 20
-18.3582674401715
 30
0.0
 10
16.20530141760558
 20
-18.46136970370038
 30
0.0
 10
16.25327128596916
 20
-18.56681648349554
 30
0.0
  0
ELLIPSE
  5
F5
330
1F
100
AcDbEntity
  8
Verdeckt_(ISO)
  6
HIDDEN2
 62
     7
100
AcDbEllipse
 10
16.599999502
 20
-17.4507506306
 30
0.0
 11
1.630806915604046
 21
-0.9705897086632893
 31
0.0
210
0.0
220
0.0
230
1.0
 40
0.2585395808
 41
2.405558735943128
 42
4.182976125875214
  0
SPLINE
  5
F6
330
1F
100
AcDbEntity
  8
Verdeckt_(ISO)
  6
HIDDEN2
 62
     7
100
AcDbSpline
210
0.0
220
0.0
230
1.0
 70
     8
 71
     3
 72
    12
 73
     8
 74
     0
 42
0.000000001
 43
0.0000000001
 40
0.0
 40
0.0
 40
0.0
 40
0.0
 40
0.251475681846101
 40
0.251475681846101
 40
0.7455791285732314
 40
0.7455791285732314
 40
1.0
 40
1.0
 40
1.0
 40
1.0
 10
16.25327128596917
 20
-17.46335125075879
 30
0.0
 10
16.20530141760559
 20
-17.36495728476133
 30
0.0
 10
16.15531035341446
 20
-17.27074023645768
 30
0.0
 10
16.00308274703753
 20
-17.00656404244291
 30
0.0
 10
15.88165627331673
 20
-16.82737159571448
 30
0.0
 10
15.6902311915109
 20
-16.5901649866396
 30
0.0
 10
15.62408301390829
 20
-16.51526791876232
 30
0.0
 10
15.55981485395819
 20
-16.44834901450383
 30
0.0
  0
SPLINE
  5
F7
330
1F
100
AcDbEntity
  8
Verdeckt_(ISO)
  6
HIDDEN2
 62
     7
100
AcDbSpline
210
0.0
220
0.0
230
1.0
 70
    11
 71
     3
 72
    38
 73
    34
 74
     0
 42
0.000000001
 43
0.0000000001
 40
0.0
 40
0.0
 40
0.0
 40
0.0
 40
0.062503429917998
 40
0.062503429917998
 40
0.1250068598359961
 40
0.1250068598359961
 40
0.187503429917998
 40
0.187503429917998
 40
0.2499999999999998
 40
0.2499999999999998
 40
0.3124965700820016
 40
0.3124965700820016
 40
0.3749931401640033
 40
0.3749931401640033
 40
0.4374965700820017
 40
0.4374965700820017
 40
0.5000000000000003
 40
0.5000000000000003
 40
0.5625034299179982
 40
0.5625034299179982
 40
0.6250068598359961
 40
0.6250068598359961
 40
0.687503429917998
 40
0.687503429917998
 40
0.75
 40
0.75
 40
0.8124965700820017
 40
0.8124965700820017
 40
0.8749931401640036
 40
0.8749931401640036
 40
0.9374965700820017
 40
0.9374965700820017
 40
1.0
 40
1.0
 40
1.0
 40
1.0
 10
16.59999950197467
 20
-6.956847564814392
 30
0.0
 10
16.39196502713738
 20
-6.956847564814392
 30
0.0
 10
16.17062452702256
 20
-6.952472900559993
 30
0.0
 10
15.76434569293758
 20
-6.930144380397665
 30
0.0
 10
15.5793361856479
 20
-6.911649339513109
 30
0.0
 10
15.28722647098372
 20
-6.858142211254275
 30
0.0
 10
15.16036518106318
 20
-6.819447422558584
 30
0.0
 10
14.99173045557078
 20
-6.715124443117947
 30
0.0
 10
14.94999950197467
 20
-6.649006485263251
 30
0.0
 10
14.94999950197466
 20
-6.506718141514525
 30
0.0
 10
14.99173045557078
 20
-6.421424483217439
 30
0.0
 10
15.16036518106318
 20
-6.247820180527605
 30
0.0
 10
15.28722647098371
 20
-6.159956418204836
 30
0.0
 10
15.57933618564789
 20
-6.013648733511139
 30
0.0
 10
15.76434569293757
 20
-5.945374104242773
 30
0.0
 10
16.17062452702256
 20
-5.852355915604672
 30
0.0
 10
16.39196502713738
 20
-5.828181091839686
 30
0.0
 10
16.80803397681195
 20
-5.828181091839686
 30
0.0
 10
17.02937447692679
 20
-5.852355915604672
 30
0.0
 10
17.43565331101176
 20
-5.945374104242771
 30
0.0
 10
17.62066281830144
 20
-6.013648733511139
 30
0.0
 10
17.91277253296562
 20
-6.159956418204834
 30
0.0
 10
18.03963382288617
 20
-6.247820180527605
 30
0.0
 10
18.20826854837855
 20
-6.421424483217439
 30
0.0
 10
18.24999950197467
 20
-6.506718141514525
 30
0.0
 10
18.24999950197467
 20
-6.649006485263251
 30
0.0
 10
18.20826854837855
 20
-6.715124443117947
 30
0.0
 10
18.03963382288617
 20
-6.819447422558584
 30
0.0
 10
17.91277253296563
 20
-6.858142211254275
 30
0.0
 10
17.62066281830144
 20
-6.911649339513109
 30
0.0
 10
17.43565331101177
 20
-6.930144380397665
 30
0.0
 10
17.02937447692679
 20
-6.952472900559993
 30
0.0
 10
16.80803397681196
 20
-6.956847564814392
 30
0.0
 10
16.59999950197467
 20
-6.956847564814392
 30
0.0
  0
ELLIPSE
  5
F8
330
1F
100
AcDbEntity
  8
Verdeckt_(ISO)
  6
HIDDEN2
 62
     7
100
AcDbEllipse
 10
16.599999502
 20
-24.6199606325
 30
0.0
 11
1.649999999999999
 21
0.0
 31
0.0
210
0.0
220
0.0
230
1.0
 40
0.3420201433
 41
0.0
 42
6.283185307179586
  0
ELLIPSE
  5
F9
330
1F
100
AcDbEntity
  8
Verdeckt_(ISO)
  6
HIDDEN2
 62
     7
100
AcDbEllipse
 10
16.599999502
 20
-24.6199606325
 30
0.0
 11
1.999999999999999
 21
0.0
 31
0.0
210
0.0
220
0.0
230
1.0
 40
0.3420201433
 41
0.0
 42
6.283185307179586
  0
SPLINE
  5
FA
330
1F
100
AcDbEntity
  8
Verdeckt_(ISO)
  6
HIDDEN2
 62
     7
100
AcDbSpline
210
0.0
220
0.0
230
1.0
 70
    11
 71
     3
 72
    38
 73
    34
 74
     0
 42
0.000000001
 43
0.0000000001
 40
0.0
 40
0.0
 40
0.0
 40
0.0
 40
0.0625000343709569
 40
0.0625000343709569
 40
0.1250000687419137
 40
0.1250000687419137
 40
0.1875000343709569
 40
0.1875000343709569
 40
0.2500000000000001
 40
0.2500000000000001
 40
0.3124999656290433
 40
0.3124999656290433
 40
0.3749999312580866
 40
0.3749999312580866
 40
0.4374999656290433
 40
0.4374999656290433
 40
0.5000000000000001
 40
0.5000000000000001
 40
0.5625000343709569
 40
0.5625000343709569
 40
0.6250000687419137
 40
0.6250000687419137
 40
0.6875000343709569
 40
0.6875000343709569
 40
0.7500000000000001
 40
0.7500000000000001
 40
0.8124999656290434
 40
0.8124999656290434
 40
0.8749999312580863
 40
0.8749999312580863
 40
0.9374999656290433
 40
0.9374999656290433
 40
1.0
 40
1.0
 40
1.0
 40
1.0
 10
16.59999950197467
 20
-25.51488722896631
 30
0.0
 10
16.85122660270785
 20
-25.51488722896631
 30
0.0
 10
17.11913379178409
 20
-25.50142179280245
 30
0.0
 10
17.61186411813193
 20
-25.44501046645377
 30
0.0
 10
17.83669538565395
 20
-25.40187229604284
 30
0.0
 10
18.1917305477952
 20
-25.29827288414344
 30
0.0
 10
18.34563509704972
 20
-25.23086444769927
 30
0.0
 10
18.5497722142909
 20
-25.07572125443151
 30
0.0
 10
18.59999950197466
 20
-24.98779305320813
 30
0.0
 10
18.59999950197466
 20
-24.8159437842201
 30
0.0
 10
18.5497722142909
 20
-24.72061260686386
 30
0.0
 10
18.34563509704971
 20
-24.53870821132417
 30
0.0
 10
18.1917305477952
 20
-24.45232294381455
 30
0.0
 10
17.83669538565395
 20
-24.31306400163154
 30
0.0
 10
17.61186411813193
 20
-24.25092536319489
 30
0.0
 10
17.11913379178409
 20
-24.16769875746838
 30
0.0
 10
16.85122660270785
 20
-24.14680665566364
 30
0.0
 10
16.34877240124148
 20
-24.14680665566364
 30
0.0
 10
16.08086521216524
 20
-24.16769875746838
 30
0.0
 10
15.5881348858174
 20
-24.25092536319488
 30
0.0
 10
15.36330361829538
 20
-24.31306400163154
 30
0.0
 10
15.00826845615413
 20
-24.45232294381455
 30
0.0
 10
14.85436390689961
 20
-24.53870821132417
 30
0.0
 10
14.65022678965843
 20
-24.72061260686386
 30
0.0
 10
14.59999950197466
 20
-24.8159437842201
 30
0.0
 10
14.59999950197466
 20
-24.98779305320813
 30
0.0
 10
14.65022678965843
 20
-25.07572125443149
 30
0.0
 10
14.85436390689961
 20
-25.23086444769927
 30
0.0
 10
15.00826845615413
 20
-25.29827288414344
 30
0.0
 10
15.36330361829538
 20
-25.40187229604284
 30
0.0
 10
15.5881348858174
 20
-25.44501046645378
 30
0.0
 10
16.08086521216524
 20
-25.50142179280245
 30
0.0
 10
16.34877240124148
 20
-25.51488722896631
 30
0.0
 10
16.59999950197467
 20
-25.51488722896631
 30
0.0
  0
ELLIPSE
  5
FB
330
1F
100
AcDbEntity
  8
Verdeckt_(ISO)
  6
HIDDEN2
 62
     7
100
AcDbEllipse
 10
16.599999502
 20
24.6199326967
 30
0.0
 11
-1.999999999999999
 21
7.000000000000000E-16
 31
0.0
210
0.0
220
0.0
230
1.0
 40
0.3420201433
 41
6.077839881609858
 42
9.630123386339116
  0
LINE
  5
FC
330
1F
100
AcDbEntity
  8
Verdeckt_(ISO)
  6
HIDDEN2
 62
     7
100
AcDbLine
 10
18.249999502
 20
24.6199326967
 30
0.0
 11
18.249999502
 21
18.2360543611
 31
0.0
  0
LINE
  5
FD
330
1F
100
AcDbEntity
  8
Verdeckt_(ISO)
  6
HIDDEN2
 62
     7
100
AcDbLine
 10
18.249999502
 20
15.6033112269
 30
0.0
 11
18.249999502
 21
6.5778343776
 31
0.0
  0
LINE
  5
FE
330
1F
100
AcDbEntity
  8
Verdeckt_(ISO)
  6
HIDDEN2
 62
     7
100
AcDbLine
 10
14.949999502
 20
24.6199326967
 30
0.0
 11
14.949999502
 21
20.1362550433
 31
0.0
  0
LINE
  5
FF
330
1F
100
AcDbEntity
  8
Verdeckt_(ISO)
  6
HIDDEN2
 62
     7
100
AcDbLine
 10
14.949999502
 20
16.5555452454
 30
0.0
 11
14.949999502
 21
6.5778343776
 31
0.0
  0
LINE
  5
100
330
1F
100
AcDbEntity
  8
Verdeckt_(ISO)
  6
HIDDEN2
 62
     7
100
AcDbLine
 10
18.249999502
 20
-6.5778623134
 30
0.0
 11
18.249999502
 21
-15.6033391627
 31
0.0
  0
LINE
  5
101
330
1F
100
AcDbEntity
  8
Verdeckt_(ISO)
  6
HIDDEN2
 62
     7
100
AcDbLine
 10
18.249999502
 20
-18.2360822969
 30
0.0
 11
18.249999502
 21
-24.6199606325
 31
0.0
  0
LINE
  5
102
330
1F
100
AcDbEntity
  8
Verdeckt_(ISO)
  6
HIDDEN2
 62
     7
100
AcDbLine
 10
14.949999502
 20
-6.5778623134
 30
0.0
 11
14.949999502
 21
-16.5555731812
 31
0.0
  0
LINE
  5
103
330
1F
100
AcDbEntity
  8
Verdeckt_(ISO)
  6
HIDDEN2
 62
     7
100
AcDbLine
 10
14.949999502
 20
-20.1362829791
 30
0.0
 11
14.949999502
 21
-24.6199606325
 31
0.0
  0
LINE
  5
104
330
1F
100
AcDbEntity
  8
Verdeckt_(ISO)
  6
HIDDEN2
 62
     7
100
AcDbLine
 10
18.599999502
 20
-24.6199606325
 30
0.0
 11
18.599999502
 21
-24.9018684187
 31
0.0
  0
LINE
  5
105
330
1F
100
AcDbEntity
  8
Verdeckt_(ISO)
  6
HIDDEN2
 62
     7
100
AcDbLine
 10
14.599999502
 20
-24.6199606325
 30
0.0
 11
14.599999502
 21
-24.9018684187
 31
0.0
  0
LINE
  5
106
330
1F
100
AcDbEntity
  8
Verdeckt_(ISO)
  6
HIDDEN2
 62
     7
100
AcDbLine
 10
18.599999502
 20
24.9018404829
 30
0.0
 11
18.599999502
 21
24.6199326967
 31
0.0
  0
LINE
  5
107
330
1F
100
AcDbEntity
  8
Verdeckt_(ISO)
  6
HIDDEN2
 62
     7
100
AcDbLine
 10
14.599999502
 20
24.9018404829
 30
0.0
 11
14.599999502
 21
24.6199326967
 31
0.0
  0
ELLIPSE
  5
108
330
1F
100
AcDbEntity
  8
Sichtbar_(ISO)
  6
Continuous
 62
     7
100
AcDbEllipse
 10
16.599999502
 20
24.6199326967
 30
0.0
 11
1.649999999999999
 21
0.0
 31
0.0
210
0.0
220
0.0
230
1.0
 40
0.3420201433
 41
5.985813073750984
 42
9.722150194197978
  0
SPLINE
  5
109
330
1F
100
AcDbEntity
  8
Sichtbar_(ISO)
  6
Continuous
 62
     7
100
AcDbSpline
210
0.0
220
0.0
230
1.0
 70
    11
 71
     3
 72
    38
 73
    34
 74
     0
 42
0.000000001
 43
0.0000000001
 40
0.0
 40
0.0
 40
0.0
 40
0.0
 40
0.0625000343709568
 40
0.0625000343709568
 40
0.1250000687419137
 40
0.1250000687419137
 40
0.1875000343709567
 40
0.1875000343709567
 40
0.2499999999999998
 40
0.2499999999999998
 40
0.312499965629043
 40
0.312499965629043
 40
0.3749999312580863
 40
0.3749999312580863
 40
0.4374999656290431
 40
0.4374999656290431
 40
0.5000000000000001
 40
0.5000000000000001
 40
0.5625000343709569
 40
0.5625000343709569
 40
0.6250000687419136
 40
0.6250000687419136
 40
0.6875000343709569
 40
0.6875000343709569
 40
0.7500000000000001
 40
0.7500000000000001
 40
0.8124999656290433
 40
0.8124999656290433
 40
0.8749999312580855
 40
0.8749999312580855
 40
0.9374999656290433
 40
0.9374999656290433
 40
1.0
 40
1.0
 40
1.0
 40
1.0
 10
16.59999950197467
 20
24.14677871988857
 30
0.0
 10
16.34877240124149
 20
24.14677871988857
 30
0.0
 10
16.08086521216525
 20
24.16767082169333
 30
0.0
 10
15.58813488581741
 20
24.25089742741983
 30
0.0
 10
15.36330361829539
 20
24.31303606585648
 30
0.0
 10
15.00826845615414
 20
24.45229500803949
 30
0.0
 10
14.85436390689962
 20
24.53868027554911
 30
0.0
 10
14.65022678965844
 20
24.7205846710888
 30
0.0
 10
14.59999950197467
 20
24.81591584844503
 30
0.0
 10
14.59999950197467
 20
24.98776511743307
 30
0.0
 10
14.65022678965844
 20
25.07569331865643
 30
0.0
 10
14.85436390689962
 20
25.23083651192421
 30
0.0
 10
15.00826845615413
 20
25.29824494836838
 30
0.0
 10
15.36330361829538
 20
25.40184436026778
 30
0.0
 10
15.58813488581741
 20
25.44498253067872
 30
0.0
 10
16.08086521216525
 20
25.50139385702739
 30
0.0
 10
16.34877240124149
 20
25.51485929319126
 30
0.0
 10
16.85122660270786
 20
25.51485929319126
 30
0.0
 10
17.1191337917841
 20
25.50139385702739
 30
0.0
 10
17.61186411813193
 20
25.44498253067871
 30
0.0
 10
17.83669538565396
 20
25.40184436026778
 30
0.0
 10
18.19173054779521
 20
25.29824494836838
 30
0.0
 10
18.34563509704972
 20
25.23083651192421
 30
0.0
 10
18.54977221429091
 20
25.07569331865643
 30
0.0
 10
18.59999950197467
 20
24.98776511743307
 30
0.0
 10
18.59999950197467
 20
24.81591584844502
 30
0.0
 10
18.54977221429091
 20
24.7205846710888
 30
0.0
 10
18.34563509704973
 20
24.53868027554911
 30
0.0
 10
18.19173054779522
 20
24.45229500803949
 30
0.0
 10
17.83669538565396
 20
24.31303606585648
 30
0.0
 10
17.61186411813194
 20
24.25089742741983
 30
0.0
 10
17.1191337917841
 20
24.16767082169333
 30
0.0
 10
16.85122660270786
 20
24.14677871988857
 30
0.0
 10
16.59999950197467
 20
24.14677871988857
 30
0.0
  0
ELLIPSE
  5
10A
330
1F
100
AcDbEntity
  8
Sichtbar_(ISO)
  6
Continuous
 62
     7
100
AcDbEllipse
 10
16.599999502
 20
24.6199326967
 30
0.0
 11
-1.999999999999999
 21
4.000000000000000E-16
 31
0.0
210
0.0
220
0.0
230
1.0
 40
0.3420201433
 41
3.34693807915953
 42
6.077839881609849
  0
ELLIPSE
  5
10B
330
1F
100
AcDbEntity
  8
Verdeckt_(ISO)
  6
HIDDEN2
 62
     7
100
AcDbEllipse
 10
16.079907178
 20
-17.7329172489
 30
0.0
 11
0.7868370884739303
 21
-1.450305966409109
 31
0.0
210
0.0
220
0.0
230
1.0
 40
0.1710100717
 41
4.335650903194598
 42
5.229454964185661
  0
ELLIPSE
  5
10C
330
1F
100
AcDbEntity
  8
Verdeckt_(ISO)
  6
HIDDEN2
 62
     7
100
AcDbEllipse
 10
3.049999502
 20
-24.8020563522
 30
0.0
 11
-0.786837088473933
 21
1.450305966409114
 31
0.0
210
0.0
220
0.0
230
1.0
 40
0.1710100717
 41
0.0
 42
6.283185307179586
  0
ELLIPSE
  5
10D
330
1F
100
AcDbEntity
  8
Verdeckt_(ISO)
  6
HIDDEN2
 62
     7
100
AcDbEllipse
 10
16.079907178
 20
-17.7329172489
 30
0.0
 11
-0.7868370884739302
 21
1.450305966409109
 31
0.0
210
0.0
220
0.0
230
1.0
 40
0.1710100717
 41
4.806022105861201
 42
5.699826166852304
  0
ELLIPSE
  5
10E
330
1F
100
AcDbEntity
  8
Verdeckt_(ISO)
  6
HIDDEN2
 62
     7
100
AcDbEllipse
 10
3.049999502
 20
-24.8020563522
 30
0.0
 11
-0.9537419254229454
 21
1.757946625950435
 31
0.0
210
0.0
220
0.0
230
1.0
 40
0.1710100717
 41
0.0
 42
6.283185307179586
  0
LINE
  5
10F
330
1F
100
AcDbEntity
  8
Verdeckt_(ISO)
  6
HIDDEN2
 62
     7
100
AcDbLine
 10
2.2631624135
 20
-23.3517503858
 30
0.0
 11
15.026325325
 21
-16.4273287964
 31
0.0
  0
LINE
  5
110
330
1F
100
AcDbEntity
  8
Verdeckt_(ISO)
  6
HIDDEN2
 62
     7
100
AcDbLine
 10
3.8368365904
 20
-26.2523623186
 30
0.0
 11
15.026325325
 21
-20.1817089934
 31
0.0
  0
LINE
  5
111
330
1F
100
AcDbEntity
  8
Verdeckt_(ISO)
  6
HIDDEN2
 62
     7
100
AcDbLine
 10
1.999999502
 20
-23.0963327915
 30
0.0
 11
2.0962575766
 21
-23.0441097262
 31
0.0
  0
LINE
  5
112
330
1F
100
AcDbEntity
  8
Verdeckt_(ISO)
  6
HIDDEN2
 62
     7
100
AcDbLine
 10
1.999999502
 20
-27.6470966667
 30
0.0
 11
4.0037414274
 21
-26.5600029781
 31
0.0
  0
ELLIPSE
  5
113
330
1F
100
AcDbEntity
  8
Verdeckt_(ISO)
  6
HIDDEN2
 62
     7
100
AcDbEllipse
 10
16.079907178
 20
17.7328893131
 30
0.0
 11
-0.7868370884739299
 21
-1.450305966409107
 31
0.0
210
0.0
220
0.0
230
1.0
 40
0.1710100717
 41
0.5833591403272846
 42
1.477163201318376
  0
ELLIPSE
  5
114
330
1F
100
AcDbEntity
  8
Verdeckt_(ISO)
  6
HIDDEN2
 62
     7
100
AcDbEllipse
 10
3.049999502
 20
24.8020284164
 30
0.0
 11
0.7868370884739279
 21
1.450305966409102
 31
0.0
210
0.0
220
0.0
230
1.0
 40
0.1710100717
 41
0.0
 42
6.283185307179586
  0
ELLIPSE
  5
115
330
1F
100
AcDbEntity
  8
Verdeckt_(ISO)
  6
HIDDEN2
 62
     7
100
AcDbEllipse
 10
16.079907178
 20
17.7328893131
 30
0.0
 11
0.7868370884739299
 21
1.450305966409108
 31
0.0
210
0.0
220
0.0
230
1.0
 40
0.1710100717
 41
1.053730342993918
 42
1.947534403984996
  0
ELLIPSE
  5
116
330
1F
100
AcDbEntity
  8
Verdeckt_(ISO)
  6
HIDDEN2
 62
     7
100
AcDbEllipse
 10
3.049999502
 20
24.8020284164
 30
0.0
 11
0.9537419254229483
 21
1.757946625950439
 31
0.0
210
0.0
220
0.0
230
1.0
 40
0.1710100717
 41
0.0
 42
6.283185307179586
  0
LINE
  5
117
330
1F
100
AcDbEntity
  8
Verdeckt_(ISO)
  6
HIDDEN2
 62
     7
100
AcDbLine
 10
3.8368365904
 20
26.2523343828
 30
0.0
 11
15.026325325
 21
20.1816810577
 31
0.0
  0
LINE
  5
118
330
1F
100
AcDbEntity
  8
Verdeckt_(ISO)
  6
HIDDEN2
 62
     7
100
AcDbLine
 10
2.2631624135
 20
23.35172245
 30
0.0
 11
15.026325325
 21
16.4273008606
 31
0.0
  0
LINE
  5
119
330
1F
100
AcDbEntity
  8
Verdeckt_(ISO)
  6
HIDDEN2
 62
     7
100
AcDbLine
 10
1.999999502
 20
27.647068731
 30
0.0
 11
4.0037414274
 21
26.5599750423
 31
0.0
  0
LINE
  5
11A
330
1F
100
AcDbEntity
  8
Verdeckt_(ISO)
  6
HIDDEN2
 62
     7
100
AcDbLine
 10
1.999999502
 20
23.0963048557
 30
0.0
 11
2.0962575766
 21
23.0440817904
 31
0.0
  0
SPLINE
  5
11B
330
1F
100
AcDbEntity
  8
Sichtbar_(ISO)
  6
Continuous
 62
     7
100
AcDbSpline
210
0.0
220
0.0
230
1.0
 70
     8
 71
     3
 72
     8
 73
     4
 74
     0
 42
0.000000001
 43
0.0000000001
 40
0.0
 40
0.0
 40
0.0
 40
0.0
 40
1.0
 40
1.0
 40
1.0
 40
1.0
 10
2.999999501974683
 20
-8.663690214023418
 30
0.0
 10
3.067837030525473
 20
-8.672963108946314
 30
0.0
 10
3.136491444615319
 20
-8.677262103413806
 30
0.0
 10
3.199999501974681
 20
-8.677262103413806
 30
0.0
  0
SPLINE
  5
11C
330
1F
100
AcDbEntity
  8
Sichtbar_(ISO)
  6
Continuous
 62
     7
100
AcDbSpline
210
0.0
220
0.0
230
1.0
 70
     8
 71
     3
 72
    16
 73
    12
 74
     0
 42
0.000000001
 43
0.0000000001
 40
0.0
 40
0.0
 40
0.0
 40
0.0
 40
0.1827446806696718
 40
0.1827446806696718
 40
0.3460735960752609
 40
0.3460735960752609
 40
0.5495729575075808
 40
0.5495729575075808
 40
0.7609013718221005
 40
0.7609013718221005
 40
1.0
 40
1.0
 40
1.0
 40
1.0
 10
2.138584697098529
 20
-8.542111876987942
 30
0.0
 10
2.185339034396185
 20
-8.607410986395472
 30
0.0
 10
2.233766839071363
 20
-8.642387400358128
 30
0.0
 10
2.311989475134937
 20
-8.68118496542999
 30
0.0
 10
2.351419618553025
 20
-8.691738562607078
 30
0.0
 10
2.447790791957963
 20
-8.701434166870522
 30
0.0
 10
2.504426318786835
 20
-8.696832408228461
 30
0.0
 10
2.624676623562102
 20
-8.681315219869267
 30
0.0
 10
2.689939734630971
 20
-8.670073861780114
 30
0.0
 10
2.836039110610709
 20
-8.654921882024777
 30
0.0
 10
2.916625814350699
 20
-8.652293639572841
 30
0.0
 10
2.999999501974683
 20
-8.663690214023411
 30
0.0
  0
SPLINE
  5
11D
330
1F
100
AcDbEntity
  8
Sichtbar_(ISO)
  6
Continuous
 62
     7
100
AcDbSpline
210
0.0
220
0.0
230
1.0
 70
     8
 71
     3
 72
    11
 73
     7
 74
     0
 42
0.000000001
 43
0.0000000001
 40
0.0
 40
0.0
 40
0.0
 40
0.0
 40
0.2293394552075721
 40
0.2293394552075721
 40
0.2293394552075721
 40
0.9999999999999999
 40
0.9999999999999999
 40
0.9999999999999999
 40
0.9999999999999999
 10
2.138584697107211
 20
-8.542111876973214
 30
0.0
 10
2.17870093883948
 20
-8.474073715362955
 30
0.0
 10
2.226987029175595
 20
-8.411049106198268
 30
0.0
 10
2.279945168525387
 20
-8.35609628049162
 30
0.0
 10
2.457902984312313
 20
-8.171435622958274
 30
0.0
 10
2.740727404377071
 20
-8.050013967887532
 30
0.0
 10
2.999999501974683
 20
-8.050013967887532
 30
0.0
  0
LINE
  5
11E
330
1F
100
AcDbEntity
  8
Sichtbar_(ISO)
  6
Continuous
 62
     7
100
AcDbLine
 10
11.5690358093
 20
-8.6772621034
 30
0.0
 11
3.199999502
 21
-8.6772621034
 31
0.0
  0
LINE
  5
11F
330
1F
100
AcDbEntity
  8
Sichtbar_(ISO)
  6
Continuous
 62
     7
100
AcDbLine
 10
2.999999502
 20
-8.0500139679
 30
0.0
 11
11.5690358093
 21
-8.0500139679
 31
0.0
  0
SPLINE
  5
120
330
1F
100
AcDbEntity
  8
Sichtbar_(ISO)
  6
Continuous
 62
     7
100
AcDbSpline
210
0.0
220
0.0
230
1.0
 70
     8
 71
     3
 72
    10
 73
     6
 74
     0
 42
0.000000001
 43
0.0000000001
 40
0.0
 40
0.0
 40
0.0
 40
0.0
 40
0.0054497009768099
 40
0.0054497009768099
 40
0.9999999999999999
 40
0.9999999999999999
 40
0.9999999999999999
 40
0.9999999999999999
 10
1.999999501974681
 20
-9.050013967887525
 30
0.0
 10
1.999999501974681
 20
-9.049044684230674
 30
0.0
 10
2.000000911240888
 20
-9.048075355900526
 30
0.0
 10
2.000518173043078
 20
-8.87019955413783
 30
0.0
 10
2.047879155964252
 20
-8.695950771160645
 30
0.0
 10
2.138584697103802
 20
-8.542111876971202
 30
0.0
  0
SPLINE
  5
121
330
1F
100
AcDbEntity
  8
Sichtbar_(ISO)
  6
Continuous
 62
     7
100
AcDbSpline
210
0.0
220
0.0
230
1.0
 70
     8
 71
     3
 72
    10
 73
     6
 74
     0
 42
0.000000001
 43
0.0000000001
 40
0.0
 40
0.0
 40
0.0
 40
0.0
 40
0.9945502990728533
 40
0.9945502990728533
 40
1.0
 40
1.0
 40
1.0
 40
1.0
 10
2.138584697103802
 20
8.542083941196138
 30
0.0
 10
2.047879157002324
 20
8.695922833624987
 30
0.0
 10
2.000518173049561
 20
8.870171616118567
 30
0.0
 10
2.000000911240879
 20
9.048047420129114
 30
0.0
 10
1.999999501974681
 20
9.0490167484523
 30
0.0
 10
1.999999501974681
 20
9.049986032112487
 30
0.0
  0
LINE
  5
122
330
1F
100
AcDbEntity
  8
Sichtbar_(ISO)
  6
Continuous
 62
     7
100
AcDbLine
 10
1.999999502
 20
-9.0500139679
 30
0.0
 11
1.999999502
 21
-30.3000139679
 31
0.0
  0
LINE
  5
123
330
1F
100
AcDbEntity
  8
Sichtbar_(ISO)
  6
Continuous
 62
     7
100
AcDbLine
 10
1.999999502
 20
30.2999860321
 30
0.0
 11
1.999999502
 21
9.0499860321
 31
0.0
  0
ARC
  5
124
330
1F
100
AcDbEntity
  8
Sichtbar_(ISO)
  6
Continuous
 62
     7
100
AcDbCircle
 10
3.199999502
 20
-30.3000139679
 30
0.0
 40
1.199999999999999
100
AcDbArc
 50
180.0
 51
270.0
  0
ARC
  5
125
330
1F
100
AcDbEntity
  8
Sichtbar_(ISO)
  6
Continuous
 62
     7
100
AcDbCircle
 10
3.199999502
 20
30.2999860321
 30
0.0
 40
1.199999999999999
100
AcDbArc
 50
90.0
 51
180.0
  0
SPLINE
  5
126
330
1F
100
AcDbEntity
  8
Sichtbar_(ISO)
  6
Continuous
 62
     7
100
AcDbSpline
210
0.0
220
0.0
230
1.0
 70
     8
 71
     3
 72
    16
 73
    12
 74
     0
 42
0.000000001
 43
0.0000000001
 40
0.0
 40
0.0
 40
0.0
 40
0.0
 40
0.1427633585968077
 40
0.1427633585968077
 40
0.3788797099403137
 40
0.3788797099403137
 40
0.5718385276639257
 40
0.5718385276639257
 40
0.8106959421179483
 40
0.8106959421179483
 40
1.0
 40
1.0
 40
1.0
 40
1.0
 10
2.999999501974683
 20
8.663662278248347
 30
0.0
 10
2.950913869026106
 20
8.656952630561008
 30
0.0
 10
2.902497914424612
 20
8.655065325158247
 30
0.0
 10
2.776077020395964
 20
8.658533252892205
 30
0.0
 10
2.701344021348316
 20
8.669445043662096
 30
0.0
 10
2.573959340759993
 20
8.688037982698425
 30
0.0
 10
2.518873267083701
 20
8.696040299209567
 30
0.0
 10
2.401824026278252
 20
8.700307515197755
 30
0.0
 10
2.343124971993837
 20
8.693037452411806
 30
0.0
 10
2.245574992404674
 20
8.650321722670926
 30
0.0
 10
2.19123820484652
 20
8.615622084663338
 30
0.0
 10
2.138584697098529
 20
8.54208394121288
 30
0.0
  0
SPLINE
  5
127
330
1F
100
AcDbEntity
  8
Sichtbar_(ISO)
  6
Continuous
 62
     7
100
AcDbSpline
210
0.0
220
0.0
230
1.0
 70
     8
 71
     3
 72
     8
 73
     4
 74
     0
 42
0.000000001
 43
0.0000000001
 40
0.0
 40
0.0
 40
0.0
 40
0.0
 40
1.0
 40
1.0
 40
1.0
 40
1.0
 10
3.199999501974681
 20
8.677234167638748
 30
0.0
 10
3.136491444615319
 20
8.677234167638748
 30
0.0
 10
3.067837030525473
 20
8.672935173171247
 30
0.0
 10
2.999999501974683
 20
8.663662278248356
 30
0.0
  0
LINE
  5
128
330
1F
100
AcDbEntity
  8
Sichtbar_(ISO)
  6
Continuous
 62
     7
100
AcDbLine
 10
3.199999502
 20
8.6772341676
 30
0.0
 11
11.5690358093
 21
8.6772341676
 31
0.0
  0
LINE
  5
129
330
1F
100
AcDbEntity
  8
Sichtbar_(ISO)
  6
Continuous
 62
     7
100
AcDbLine
 10
11.5690358093
 20
8.0499860321
 30
0.0
 11
2.999999502
 21
8.0499860321
 31
0.0
  0
SPLINE
  5
12A
330
1F
100
AcDbEntity
  8
Sichtbar_(ISO)
  6
Continuous
 62
     7
100
AcDbSpline
210
0.0
220
0.0
230
1.0
 70
     8
 71
     3
 72
    11
 73
     7
 74
     0
 42
0.000000001
 43
0.0000000001
 40
0.0
 40
0.0
 40
0.0
 40
0.0
 40
0.7706605447924278
 40
0.7706605447924278
 40
0.7706605447924278
 40
0.9999999999999999
 40
0.9999999999999999
 40
0.9999999999999999
 40
0.9999999999999999
 10
2.999999501974683
 20
8.049986032112466
 30
0.0
 10
2.740727404377071
 20
8.049986032112466
 30
0.0
 10
2.457902984312313
 20
8.171407687183208
 30
0.0
 10
2.279945168525387
 20
8.356068344716558
 30
0.0
 10
2.226987029175595
 20
8.41102117042321
 30
0.0
 10
2.17870093883948
 20
8.474045779587888
 30
0.0
 10
2.138584697107211
 20
8.542083941198158
 30
0.0
  0
LINE
  5
12B
330
1F
100
AcDbEntity
  8
Sichtbar_(ISO)
  6
Continuous
 62
     7
100
AcDbLine
 10
1.999999502
 20
2.5249276059
 30
0.0
 11
1.999999502
 21
6.6499860321
 31
0.0
  0
LINE
  5
12C
330
1F
100
AcDbEntity
  8
Sichtbar_(ISO)
  6
Continuous
 62
     7
100
AcDbLine
 10
1.999999502
 20
-6.6500139679
 30
0.0
 11
1.999999502
 21
-2.5249555417
 31
0.0
  0
SPLINE
  5
12D
330
1F
100
AcDbEntity
  8
Sichtbar_(ISO)
  6
Continuous
 62
     7
100
AcDbSpline
210
0.0
220
0.0
230
1.0
 70
     8
 71
     3
 72
    16
 73
    12
 74
     0
 42
0.000000001
 43
0.0000000001
 40
0.0
 40
0.0
 40
0.0
 40
0.0
 40
0.0370440437484276
 40
0.0370440437484276
 40
0.1946712040077224
 40
0.1946712040077224
 40
0.2980372872294407
 40
0.2980372872294407
 40
0.4186683407335761
 40
0.4186683407335761
 40
1.0
 40
1.0
 40
1.0
 40
1.0
 10
1.999999501974678
 20
-2.524955541724391
 30
0.0
 10
1.999999501974679
 20
-2.405650901748939
 30
0.0
 10
1.999470498824676
 20
-2.290134090623573
 30
0.0
 10
1.995310901361558
 20
-1.710818609944564
 30
0.0
 10
1.986480507208376
 20
-1.239467797638285
 30
0.0
 10
1.978142814974012
 20
-0.3811204517945166
 30
0.0
 10
1.976953157820629
 20
-0.0698487598371043
 30
0.0
 10
1.979833585898892
 20
0.6608225251326152
 30
0.0
 10
1.988860167320722
 20
1.33405937369912
 30
0.0
 10
1.994864660191478
 20
1.77742486249653
 30
0.0
 10
1.99999950197468
 20
2.153400728562237
 30
0.0
 10
1.999999501974678
 20
2.524927605949328
 30
0.0
  0
LINE
  5
12E
330
1F
100
AcDbEntity
  8
Sichtbar_(ISO)
  6
Continuous
 62
     7
100
AcDbLine
 10
2.3483309793
 20
6.6499860321
 30
0.0
 11
2.3483309793
 21
-6.6500139679
 31
0.0
  0
LINE
  5
12F
330
1F
100
AcDbEntity
  8
Sichtbar_(ISO)
  6
Continuous
 62
     7
100
AcDbLine
 10
1.999999502
 20
6.6499860321
 30
0.0
 11
1.999999502
 21
7.2824415641
 31
0.0
  0
ARC
  5
130
330
1F
100
AcDbEntity
  8
Sichtbar_(ISO)
  6
Continuous
 62
     7
100
AcDbCircle
 10
1.599999502
 20
6.6499860321
 30
0.0
 40
0.7483314773547983
100
AcDbArc
 50
0.0
 51
57.6884667626
  0
LINE
  5
131
330
1F
100
AcDbEntity
  8
Sichtbar_(ISO)
  6
Continuous
 62
     7
100
AcDbLine
 10
1.999999502
 20
7.2824415641
 30
0.0
 11
1.999999502
 21
9.0499860321
 31
0.0
  0
LINE
  5
132
330
1F
100
AcDbEntity
  8
Sichtbar_(ISO)
  6
Continuous
 62
     7
100
AcDbLine
 10
1.999999502
 20
-9.0500139679
 30
0.0
 11
1.999999502
 21
-7.2824694999
 31
0.0
  0
LINE
  5
133
330
1F
100
AcDbEntity
  8
Sichtbar_(ISO)
  6
Continuous
 62
     7
100
AcDbLine
 10
14.1679257809
 20
8.0499860321
 30
0.0
 11
14.299999502
 21
8.0499860321
 31
0.0
  0
SPLINE
  5
134
330
1F
100
AcDbEntity
  8
Sichtbar_(ISO)
  6
Continuous
 62
     7
100
AcDbSpline
210
0.0
220
0.0
230
1.0
 70
     8
 71
     3
 72
    12
 73
     8
 74
     0
 42
0.000000001
 43
0.0000000001
 40
0.0
 40
0.0
 40
0.0
 40
0.0
 40
0.4457309545290266
 40
0.4457309545290266
 40
0.8987026791455895
 40
0.8987026791455895
 40
0.9999999999999999
 40
0.9999999999999999
 40
0.9999999999999999
 40
0.9999999999999999
 10
18.89999950197468
 20
7.014257198812536
 30
0.0
 10
18.91852818191199
 20
7.003823002013897
 30
0.0
 10
18.93671040442838
 20
6.993485630384535
 30
0.0
 10
18.97171281264665
 20
6.973416723933185
 30
0.0
 10
18.9885457057325
 20
6.963675374775897
 30
0.0
 10
19.00759454091034
 20
6.952571072105566
 30
0.0
 10
19.01101521762836
 20
6.950573436097736
 30
0.0
 10
19.01436955923608
 20
6.948611510409378
 30
0.0
  0
LINE
  5
135
330
1F
100
AcDbEntity
  8
Sichtbar_(ISO)
  6
Continuous
 62
     7
100
AcDbLine
 10
14.299999502
 20
8.0499860321
 30
0.0
 11
14.949999502
 21
8.0499860321
 31
0.0
  0
SPLINE
  5
136
330
1F
100
AcDbEntity
  8
Sichtbar_(ISO)
  6
Continuous
 62
     7
100
AcDbSpline
210
0.0
220
0.0
230
1.0
 70
     8
 71
     3
 72
     8
 73
     4
 74
     0
 42
0.000000001
 43
0.0000000001
 40
0.0
 40
0.0
 40
0.0
 40
0.0
 40
1.0
 40
1.0
 40
1.0
 40
1.0
 10
14.94999950197468
 20
8.049986032112466
 30
0.0
 10
15.48176618167528
 20
8.049986032112466
 30
0.0
 10
16.03074827689252
 20
7.994106808818638
 30
0.0
 10
16.57557632576664
 20
7.884147369245945
 30
0.0
  0
SPLINE
  5
137
330
1F
100
AcDbEntity
  8
Sichtbar_(ISO)
  6
Continuous
 62
     7
100
AcDbSpline
210
0.0
220
0.0
230
1.0
 70
     8
 71
     3
 72
    10
 73
     6
 74
     0
 42
0.000000001
 43
0.0000000001
 40
0.0
 40
0.0
 40
0.0
 40
0.0
 40
0.5395900930127022
 40
0.5395900930127022
 40
1.0
 40
1.0
 40
1.0
 40
1.0
 10
16.97469446074614
 20
7.791206111402067
 30
0.0
 10
17.33596549365678
 20
7.696050923557935
 30
0.0
 10
17.69326716908672
 20
7.577425363979585
 30
0.0
 10
18.33497432555643
 20
7.310718891167036
 30
0.0
 10
18.62288850299965
 20
7.170308828402784
 30
0.0
 10
18.89999950197467
 20
7.014257198812547
 30
0.0
  0
LINE
  5
138
330
1F
100
AcDbEntity
  8
Sichtbar_(ISO)
  6
Continuous
 62
     7
100
AcDbLine
 10
14.299999502
 20
-8.0500139679
 30
0.0
 11
14.1679257801
 21
-8.0500139679
 31
0.0
  0
SPLINE
  5
139
330
1F
100
AcDbEntity
  8
Sichtbar_(ISO)
  6
Continuous
 62
     7
100
AcDbSpline
210
0.0
220
0.0
230
1.0
 70
     8
 71
     3
 72
    10
 73
     6
 74
     0
 42
0.000000001
 43
0.0000000001
 40
0.0
 40
0.0
 40
0.0
 40
0.0
 40
0.2852868834537139
 40
0.2852868834537139
 40
1.0
 40
1.0
 40
1.0
 40
1.0
 10
19.01436955923649
 20
-6.948639446184199
 30
0.0
 10
19.00491795498227
 20
-6.954167851398141
 30
0.0
 10
18.99493215891325
 20
-6.959982659766721
 30
0.0
 10
18.95848399140518
 20
-6.981092561689445
 30
0.0
 10
18.92968252989514
 20
-6.997569504766723
 30
0.0
 10
18.89999950197468
 20
-7.014285134587601
 30
0.0
  0
SPLINE
  5
13A
330
1F
100
AcDbEntity
  8
Sichtbar_(ISO)
  6
Continuous
 62
     7
100
AcDbSpline
210
0.0
220
0.0
230
1.0
 70
     8
 71
     3
 72
    10
 73
     6
 74
     0
 42
0.000000001
 43
0.0000000001
 40
0.0
 40
0.0
 40
0.0
 40
0.0
 40
0.4604099069888902
 40
0.4604099069888902
 40
1.0
 40
1.0
 40
1.0
 40
1.0
 10
18.89999950197468
 20
-7.014285134587607
 30
0.0
 10
18.62288850299965
 20
-7.170336764177849
 30
0.0
 10
18.33497432555643
 20
-7.310746826942098
 30
0.0
 10
17.69326716908894
 20
-7.577453299753725
 30
0.0
 10
17.33632059222021
 20
-7.697258700837661
 30
0.0
 10
16.97469446075312
 20
-7.791234047175318
 30
0.0
  0
SPLINE
  5
13B
330
1F
100
AcDbEntity
  8
Sichtbar_(ISO)
  6
Continuous
 62
     7
100
AcDbSpline
210
0.0
220
0.0
230
1.0
 70
     8
 71
     3
 72
     8
 73
     4
 74
     0
 42
0.000000001
 43
0.0000000001
 40
0.0
 40
0.0
 40
0.0
 40
0.0
 40
1.0
 40
1.0
 40
1.0
 40
1.0
 10
16.57557632587279
 20
-7.884175304999129
 30
0.0
 10
16.03132318346578
 20
-7.996390828857837
 30
0.0
 10
15.4817296253925
 20
-8.050013967887532
 30
0.0
 10
14.94999950197468
 20
-8.050013967887532
 30
0.0
  0
LINE
  5
13C
330
1F
100
AcDbEntity
  8
Sichtbar_(ISO)
  6
Continuous
 62
     7
100
AcDbLine
 10
14.949999502
 20
-8.0500139679
 30
0.0
 11
14.299999502
 21
-8.0500139679
 31
0.0
  0
LINE
  5
13D
330
1F
100
AcDbEntity
  8
Sichtbar_(ISO)
  6
Continuous
 62
     7
100
AcDbLine
 10
1.999999502
 20
-7.2824694999
 30
0.0
 11
1.999999502
 21
-6.6500139679
 31
0.0
  0
ARC
  5
13E
330
1F
100
AcDbEntity
  8
Sichtbar_(ISO)
  6
Continuous
 62
     7
100
AcDbCircle
 10
1.599999502
 20
-6.6500139679
 30
0.0
 40
0.7483314773547984
100
AcDbArc
 50
302.3115332374
 51
0.0
  0
LINE
  5
13F
330
1F
100
AcDbEntity
  8
Sichtbar_(ISO)
  6
Continuous
 62
     7
100
AcDbLine
 10
11.5690358093
 20
-8.6772621034
 30
0.0
 11
11.5690358093
 21
-8.0500139679
 31
0.0
  0
SPLINE
  5
140
330
1F
100
AcDbEntity
  8
Sichtbar_(ISO)
  6
Continuous
 62
     7
100
AcDbSpline
210
0.0
220
0.0
230
1.0
 70
     8
 71
     3
 72
    10
 73
     6
 74
     0
 42
0.000000001
 43
0.0000000001
 40
0.0
 40
0.0
 40
0.0
 40
0.0
 40
0.6444979141936303
 40
0.6444979141936303
 40
1.0
 40
1.0
 40
1.0
 40
1.0
 10
14.00197856665186
 20
-8.642339082920747
 30
0.0
 10
13.9772130137505
 20
-8.649753057772497
 30
0.0
 10
13.95245191126358
 20
-8.655278248770237
 30
0.0
 10
13.91458660624693
 20
-8.660160209731904
 30
0.0
 10
13.90123295809333
 20
-8.661172920819716
 30
0.0
 10
13.88804506530733
 20
-8.66138686151329
 30
0.0
  0
SPLINE
  5
141
330
1F
100
AcDbEntity
  8
Sichtbar_(ISO)
  6
Continuous
 62
     7
100
AcDbSpline
210
0.0
220
0.0
230
1.0
 70
    12
 71
     2
 72
     6
 73
     3
 74
     0
 42
0.000000001
 43
0.0000000001
 40
0.0
 40
0.0
 40
0.0
 40
1.0
 40
1.0
 40
1.0
 10
13.88804506530733
 20
-8.66138686151329
 30
0.0
 41
1.0
 10
12.79519643843934
 20
-8.6791156068855
 30
0.0
 41
1.001377039465079
 10
11.56903580931283
 20
-8.677262103413806
 30
0.0
 41
1.0
  0
ELLIPSE
  5
142
330
1F
100
AcDbEntity
  8
Sichtbar_(ISO)
  6
Continuous
 62
     7
100
AcDbEllipse
 10
39.5511244904
 20
38.2985499852
 30
0.0
 11
29.31820427041565
 21
49.24952598260104
 31
0.0
210
0.0
220
0.0
230
1.0
 40
0.2114815726
 41
3.67463890315967
 42
3.757258626395848
  0
SPLINE
  5
143
330
1F
100
AcDbEntity
  8
Sichtbar_(ISO)
  6
Continuous
 62
     7
100
AcDbSpline
210
0.0
220
0.0
230
1.0
 70
     8
 71
     3
 72
    12
 73
     8
 74
     0
 42
0.000000001
 43
0.0000000001
 40
0.0
 40
0.0
 40
0.0
 40
0.0
 40
0.0853380059306098
 40
0.0853380059306098
 40
0.4330109715817518
 40
0.4330109715817518
 40
0.9999999999999999
 40
0.9999999999999999
 40
0.9999999999999999
 40
0.9999999999999999
 10
22.31838658995108
 20
-3.241830085300801
 30
0.0
 10
22.29529956845746
 20
-3.305464876916989
 30
0.0
 10
22.27251445736724
 20
-3.369209560582008
 30
0.0
 10
22.15836748208372
 20
-3.693351086479837
 30
0.0
 10
22.07223919588146
 20
-3.953832079470514
 30
0.0
 10
21.85776521239214
 20
-4.642783758908777
 30
0.0
 10
21.73887482302001
 20
-5.067822783564707
 30
0.0
 10
21.63096319463653
 20
-5.488887263881041
 30
0.0
  0
ARC
  5
144
330
1F
100
AcDbEntity
  8
Sichtbar_(ISO)
  6
Continuous
 62
     7
100
AcDbCircle
 10
14.949999502
 20
-0.0000139679
 30
0.0
 40
8.050000000000013
100
AcDbArc
 50
308.6798728099
 51
336.2522918584
  0
LINE
  5
145
330
1F
100
AcDbEntity
  8
Sichtbar_(ISO)
  6
Continuous
 62
     7
100
AcDbLine
 10
11.5690358093
 20
-8.0500139679
 30
0.0
 11
13.659999502
 21
-8.0500139679
 31
0.0
  0
LINE
  5
146
330
1F
100
AcDbEntity
  8
Sichtbar_(ISO)
  6
Continuous
 62
     7
100
AcDbLine
 10
14.099999502
 20
8.8120883874
 30
0.0
 11
14.099999502
 21
8.5322776352
 31
0.0
  0
SPLINE
  5
147
330
1F
100
AcDbEntity
  8
Sichtbar_(ISO)
  6
Continuous
 62
     7
100
AcDbSpline
210
0.0
220
0.0
230
1.0
 70
     8
 71
     3
 72
     8
 73
     4
 74
     0
 42
0.000000001
 43
0.0000000001
 40
0.0
 40
0.0
 40
0.0
 40
0.0
 40
1.0
 40
1.0
 40
1.0
 40
1.0
 10
14.09999950197467
 20
8.532277635193088
 30
0.0
 10
14.09999950197467
 20
8.378681326818636
 30
0.0
 10
14.11640044601227
 20
8.199425948692516
 30
0.0
 10
14.16792578012919
 20
8.049986032112466
 30
0.0
  0
SPLINE
  5
148
330
1F
100
AcDbEntity
  8
Sichtbar_(ISO)
  6
Continuous
 62
     7
100
AcDbSpline
210
0.0
220
0.0
230
1.0
 70
    12
 71
     2
 72
     6
 73
     3
 74
     0
 42
0.000000001
 43
0.0000000001
 40
0.0
 40
0.0
 40
0.0
 40
1.0
 40
1.0
 40
1.0
 10
11.56903580931283
 20
8.677234167638748
 30
0.0
 41
1.0
 10
12.79519643843934
 20
8.679087671110437
 30
0.0
 41
1.001377039465079
 10
13.88804506530733
 20
8.661358925738229
 30
0.0
 41
1.0
  0
SPLINE
  5
149
330
1F
100
AcDbEntity
  8
Sichtbar_(ISO)
  6
Continuous
 62
     7
100
AcDbSpline
210
0.0
220
0.0
230
1.0
 70
     8
 71
     3
 72
    10
 73
     6
 74
     0
 42
0.000000001
 43
0.0000000001
 40
0.0
 40
0.0
 40
0.0
 40
0.0
 40
0.3554989923681625
 40
0.3554989923681625
 40
1.0
 40
1.0
 40
1.0
 40
1.0
 10
13.88804506530733
 20
8.661358925738229
 30
0.0
 10
13.90123295809333
 20
8.661144985044658
 30
0.0
 10
13.91458660624693
 20
8.660132273956837
 30
0.0
 10
13.95245224075531
 20
8.65525027051391
 30
0.0
 10
13.9772131538808
 20
8.649725080053546
 30
0.0
 10
14.00197856662749
 20
8.642311147159758
 30
0.0
  0
SPLINE
  5
14A
330
1F
100
AcDbEntity
  8
Sichtbar_(ISO)
  6
Continuous
 62
     7
100
AcDbSpline
210
0.0
220
0.0
230
1.0
 70
    28
 71
     2
 72
     6
 73
     3
 74
     0
 42
0.000000001
 43
0.0000000001
 40
0.0
 40
0.0
 40
0.0
 40
1.0
 40
1.0
 40
1.0
 10
14.00197856662749
 20
8.642311147159758
 30
0.0
 41
1.000000377094715
 10
14.05121537328183
 20
8.727591797887515
 30
0.0
 41
1.000000243693365
 10
14.09999950197467
 20
8.812088387442786
 30
0.0
 41
1.0
  0
ELLIPSE
  5
14B
330
1F
100
AcDbEntity
  8
Sichtbar_(ISO)
  6
Continuous
 62
     7
100
AcDbEllipse
 10
39.5511244904
 20
-38.298577921
 30
0.0
 11
-29.31820427041623
 21
49.24952598260015
 31
0.0
210
0.0
220
0.0
230
1.0
 40
0.2114815726
 41
-0.6156659728061218
 42
-0.5330462495699422
  0
LINE
  5
14C
330
1F
100
AcDbEntity
  8
Sichtbar_(ISO)
  6
Continuous
 62
     7
100
AcDbLine
 10
16.5755763258
 20
7.8841473692
 30
0.0
 11
17.0283541208
 21
7.8841473699
 31
0.0
  0
LINE
  5
14D
330
1F
100
AcDbEntity
  8
Sichtbar_(ISO)
  6
Continuous
 62
     7
100
AcDbLine
 10
16.9746944604
 20
7.7912061116
 30
0.0
 11
17.0283541208
 21
7.8841473699
 31
0.0
  0
ARC
  5
14E
330
1F
100
AcDbEntity
  8
Sichtbar_(ISO)
  6
Continuous
 62
     7
100
AcDbCircle
 10
14.949999502
 20
-0.0000139679
 30
0.0
 40
8.05
100
AcDbArc
 50
75.4328256204
 51
78.3498640423
  0
ARC
  5
14F
330
1F
100
AcDbEntity
  8
Sichtbar_(ISO)
  6
Continuous
 62
     7
100
AcDbCircle
 10
14.949999502
 20
-0.0000139679
 30
0.0
 40
8.050000000000013
100
AcDbArc
 50
23.7477081416
 51
51.3201271901
  0
SPLINE
  5
150
330
1F
100
AcDbEntity
  8
Sichtbar_(ISO)
  6
Continuous
 62
     7
100
AcDbSpline
210
0.0
220
0.0
230
1.0
 70
     8
 71
     3
 72
    12
 73
     8
 74
     0
 42
0.000000001
 43
0.0000000001
 40
0.0
 40
0.0
 40
0.0
 40
0.0
 40
0.528854142100736
 40
0.528854142100736
 40
0.8191657153647708
 40
0.8191657153647708
 40
1.0
 40
1.0
 40
1.0
 40
1.0
 10
21.63096319463651
 20
5.488859328105979
 30
0.0
 10
21.73159497004007
 20
5.096200382556341
 30
0.0
 10
21.84181221775952
 20
4.699936674729299
 30
0.0
 10
22.03119999661579
 20
4.083275207580434
 30
0.0
 10
22.10158945983041
 20
3.865331501448947
 30
0.0
 10
22.22199799347631
 20
3.511703863002252
 30
0.0
 10
22.26949054373079
 20
3.376574394310139
 30
0.0
 10
22.3183865899511
 20
3.241802149525706
 30
0.0
  0
LINE
  5
151
330
1F
100
AcDbEntity
  8
Sichtbar_(ISO)
  6
Continuous
 62
     7
100
AcDbLine
 10
14.1679257801
 20
8.0499860321
 30
0.0
 11
13.659999502
 21
8.0499860321
 31
0.0
  0
LINE
  5
152
330
1F
100
AcDbEntity
  8
Sichtbar_(ISO)
  6
Continuous
 62
     7
100
AcDbLine
 10
13.659999502
 20
8.0499860321
 30
0.0
 11
13.8880450653
 21
8.4449725342
 31
0.0
  0
LINE
  5
153
330
1F
100
AcDbEntity
  8
Sichtbar_(ISO)
  6
Continuous
 62
     7
100
AcDbLine
 10
13.8880450653
 20
8.4449725342
 30
0.0
 11
14.0019785666
 21
8.6423111472
 31
0.0
  0
LINE
  5
154
330
1F
100
AcDbEntity
  8
Sichtbar_(ISO)
  6
Continuous
 62
     7
100
AcDbLine
 10
11.5690358093
 20
8.0499860321
 30
0.0
 11
11.5690358093
 21
8.6772341676
 31
0.0
  0
LINE
  5
155
330
1F
100
AcDbEntity
  8
Sichtbar_(ISO)
  6
Continuous
 62
     7
100
AcDbLine
 10
13.659999502
 20
8.0499860321
 30
0.0
 11
11.5690358093
 21
8.0499860321
 31
0.0
  0
SPLINE
  5
156
330
1F
100
AcDbEntity
  8
Sichtbar_(ISO)
  6
Continuous
 62
     7
100
AcDbSpline
210
0.0
220
0.0
230
1.0
 70
     8
 71
     3
 72
     8
 73
     4
 74
     0
 42
0.000000001
 43
0.0000000001
 40
0.0
 40
0.0
 40
0.0
 40
0.0
 40
0.9999999999999999
 40
0.9999999999999999
 40
0.9999999999999999
 40
0.9999999999999999
 10
19.01436955923649
 20
6.948611510409136
 30
0.0
 10
19.08268405631
 20
7.130467321132236
 30
0.0
 10
19.09999950197468
 20
7.358680265425576
 30
0.0
 10
19.09999950197468
 20
7.551005830788666
 30
0.0
  0
LINE
  5
157
330
1F
100
AcDbEntity
  8
Sichtbar_(ISO)
  6
Continuous
 62
     7
100
AcDbLine
 10
19.593103206
 20
7.2689408139
 30
0.0
 11
19.099999502
 21
8.5207574945
 31
0.0
  0
SPLINE
  5
158
330
1F
100
AcDbEntity
  8
Sichtbar_(ISO)
  6
Continuous
 62
     7
100
AcDbSpline
210
0.0
220
0.0
230
1.0
 70
     8
 71
     3
 72
     8
 73
     4
 74
     0
 42
0.000000001
 43
0.0000000001
 40
0.0
 40
0.0
 40
0.0
 40
0.0
 40
0.9999999999999999
 40
0.9999999999999999
 40
0.9999999999999999
 40
0.9999999999999999
 10
19.09999950197468
 20
-7.551033766563729
 30
0.0
 10
19.09999950197468
 20
-7.358708201200643
 30
0.0
 10
19.08268405631
 20
-7.130495256907304
 30
0.0
 10
19.01436955923649
 20
-6.948639446184199
 30
0.0
  0
LINE
  5
159
330
1F
100
AcDbEntity
  8
Sichtbar_(ISO)
  6
Continuous
 62
     7
100
AcDbLine
 10
19.099999502
 20
-8.5207854303
 30
0.0
 11
19.099999502
 21
-7.5510337666
 31
0.0
  0
LINE
  5
15A
330
1F
100
AcDbEntity
  8
Sichtbar_(ISO)
  6
Continuous
 62
     7
100
AcDbLine
 10
19.099999502
 20
-8.5207854303
 30
0.0
 11
19.593103206
 21
-7.2689687497
 31
0.0
  0
LINE
  5
15B
330
1F
100
AcDbEntity
  8
Sichtbar_(ISO)
  6
Continuous
 62
     7
100
AcDbLine
 10
19.099999502
 20
7.5510058308
 30
0.0
 11
19.099999502
 21
8.5207574945
 31
0.0
  0
LINE
  5
15C
330
1F
100
AcDbEntity
  8
Sichtbar_(ISO)
  6
Continuous
 62
     7
100
AcDbLine
 10
19.593103206
 20
7.2689408139
 30
0.0
 11
19.9809956347
 21
6.2842185161
 31
0.0
  0
ARC
  5
15D
330
1F
100
AcDbEntity
  8
Sichtbar_(ISO)
  6
Continuous
 62
     7
100
AcDbCircle
 10
14.949999502
 20
-0.0000139679
 30
0.0
 40
8.05
100
AcDbArc
 50
51.3201271901
 51
59.6759035858
  0
LINE
  5
15E
330
1F
100
AcDbEntity
  8
Sichtbar_(ISO)
  6
Continuous
 62
     7
100
AcDbLine
 10
19.9809956347
 20
-6.2842464518
 30
0.0
 11
19.593103206
 21
-7.2689687497
 31
0.0
  0
ARC
  5
15F
330
1F
100
AcDbEntity
  8
Sichtbar_(ISO)
  6
Continuous
 62
     7
100
AcDbCircle
 10
14.949999502
 20
-0.0000139679
 30
0.0
 40
8.05
100
AcDbArc
 50
300.3240964142
 51
308.6798728099
  0
LINE
  5
160
330
1F
100
AcDbEntity
  8
Sichtbar_(ISO)
  6
Continuous
 62
     7
100
AcDbLine
 10
14.099999502
 20
-8.532305571
 30
0.0
 11
14.099999502
 21
-8.8121163232
 31
0.0
  0
SPLINE
  5
161
330
1F
100
AcDbEntity
  8
Sichtbar_(ISO)
  6
Continuous
 62
     7
100
AcDbSpline
210
0.0
220
0.0
230
1.0
 70
     8
 71
     3
 72
     8
 73
     4
 74
     0
 42
0.000000001
 43
0.0000000001
 40
0.0
 40
0.0
 40
0.0
 40
0.0
 40
1.0
 40
1.0
 40
1.0
 40
1.0
 10
14.16792578012919
 20
-8.050013967887534
 30
0.0
 10
14.11640044601227
 20
-8.199453884467578
 30
0.0
 10
14.09999950197467
 20
-8.378709262593702
 30
0.0
 10
14.09999950197467
 20
-8.532305570968148
 30
0.0
  0
SPLINE
  5
162
330
1F
100
AcDbEntity
  8
Sichtbar_(ISO)
  6
Continuous
 62
     7
100
AcDbSpline
210
0.0
220
0.0
230
1.0
 70
    28
 71
     2
 72
     6
 73
     3
 74
     0
 42
0.000000001
 43
0.0000000001
 40
0.0
 40
0.0
 40
0.0
 40
1.0
 40
1.0
 40
1.0
 10
14.09999950197467
 20
-8.812116323217847
 30
0.0
 41
1.000000005285293
 10
14.05121537328179
 20
-8.72761973366252
 30
0.0
 41
1.00000024838099
 10
14.00197856662749
 20
-8.642339082934814
 30
0.0
 41
1.000000381184517
  0
LINE
  5
163
330
1F
100
AcDbEntity
  8
Sichtbar_(ISO)
  6
Continuous
 62
     7
100
AcDbLine
 10
17.0283541208
 20
-7.8841753057
 30
0.0
 11
16.9746944604
 21
-7.7912340474
 31
0.0
  0
LINE
  5
164
330
1F
100
AcDbEntity
  8
Sichtbar_(ISO)
  6
Continuous
 62
     7
100
AcDbLine
 10
17.0283541208
 20
-7.8841753057
 30
0.0
 11
16.5755763258
 21
-7.884175305
 31
0.0
  0
ARC
  5
165
330
1F
100
AcDbEntity
  8
Sichtbar_(ISO)
  6
Continuous
 62
     7
100
AcDbCircle
 10
14.949999502
 20
-0.0000139679
 30
0.0
 40
8.05
100
AcDbArc
 50
281.6501359577
 51
284.5671743796
  0
LINE
  5
166
330
1F
100
AcDbEntity
  8
Sichtbar_(ISO)
  6
Continuous
 62
     7
100
AcDbLine
 10
13.659999502
 20
-8.0500139679
 30
0.0
 11
14.1679257801
 21
-8.0500139679
 31
0.0
  0
LINE
  5
167
330
1F
100
AcDbEntity
  8
Sichtbar_(ISO)
  6
Continuous
 62
     7
100
AcDbLine
 10
13.8880450653
 20
-8.44500047
 30
0.0
 11
13.659999502
 21
-8.0500139679
 31
0.0
  0
LINE
  5
168
330
1F
100
AcDbEntity
  8
Sichtbar_(ISO)
  6
Continuous
 62
     7
100
AcDbLine
 10
14.0019785666
 20
-8.642339083
 30
0.0
 11
13.8880450653
 21
-8.44500047
 31
0.0
  0
SPLINE
  5
169
330
1F
100
AcDbEntity
  8
Sichtbar_(ISO)
  6
Continuous
 62
     7
100
AcDbSpline
210
0.0
220
0.0
230
1.0
 70
    12
 71
     3
 72
    15
 73
    11
 74
     0
 42
0.000000001
 43
0.0000000001
 40
0.0
 40
0.0
 40
0.0
 40
0.0
 40
0.2663878877736001
 40
0.2663878877736001
 40
0.4999999999999972
 40
0.4999999999999972
 40
0.4999999999999972
 40
0.7336121122263943
 40
0.7336121122263943
 40
1.0
 40
1.0
 40
1.0
 40
1.0
 10
22.31838658895356
 20
3.241802149112765
 30
0.0
 41
1.0
 10
22.56155174316946
 20
2.689107326932189
 30
0.0
 41
1.0
 10
22.74164602311771
 20
2.108677543016791
 30
0.0
 41
1.0
 10
22.95310248629357
 20
1.012391207448799
 30
0.0
 41
1.0
 10
22.99999950197468
 20
0.4981073609933669
 30
0.0
 41
1.0
 10
22.99999950197468
 20
-0.0000139678875319
 30
0.0
 41
1.0
 10
22.99999950197468
 20
-0.4981352967684272
 30
0.0
 41
1.0
 10
22.95310248629357
 20
-1.012419143223865
 30
0.0
 41
1.0
 10
22.74164602311771
 20
-2.108705478791866
 30
0.0
 41
1.0
 10
22.56155174316945
 20
-2.689135262707281
 30
0.0
 41
1.0
 10
22.31838658895355
 20
-3.24183008488786
 30
0.0
 41
1.0
  0
SPLINE
  5
16A
330
1F
100
AcDbEntity
  8
Sichtbar_(ISO)
  6
Continuous
 62
     7
100
AcDbSpline
210
0.0
220
0.0
230
1.0
 70
    12
 71
     3
 72
    19
 73
    15
 74
     0
 42
0.000000001
 43
0.0000000001
 40
0.0
 40
0.0
 40
0.0
 40
0.0
 40
0.1273586504310254
 40
0.1273586504310254
 40
0.3566764040119328
 40
0.3566764040119328
 40
0.5000000000000004
 40
0.5000000000000004
 40
0.5000000000000004
 40
0.643323595988068
 40
0.643323595988068
 40
0.8726413495689749
 40
0.8726413495689749
 40
1.0
 40
1.0
 40
1.0
 40
1.0
 10
21.63096319463653
 20
-5.488887263881042
 30
0.0
 41
1.0
 10
21.95078489105664
 20
-5.101143632140612
 30
0.0
 41
1.0
 10
22.23645244979976
 20
-4.685994746529914
 30
0.0
 41
1.0
 10
22.9361057939704
 20
-3.446311848806669
 30
0.0
 41
1.0
 10
23.2614273881802
 20
-2.563941249439458
 30
0.0
 41
1.0
 10
23.54756076825079
 20
-1.109006893034929
 30
0.0
 41
1.0
 10
23.5999995019747
 20
-0.5456555248507821
 30
0.0
 41
1.0
 10
23.5999995019747
 20
-0.0000139678875297
 30
0.0
 41
1.0
 10
23.5999995019747
 20
0.5456275890757221
 30
0.0
 41
1.0
 10
23.54756076825079
 20
1.108978957259862
 30
0.0
 41
1.0
 10
23.2614273881802
 20
2.563913313664393
 30
0.0
 41
1.0
 10
22.93610579397041
 20
3.446283913031595
 30
0.0
 41
1.0
 10
22.23645244979977
 20
4.685966810754854
 30
0.0
 41
1.0
 10
21.95078489105663
 20
5.10111569636555
 30
0.0
 41
1.0
 10
21.63096319463653
 20
5.488859328105977
 30
0.0
 41
1.0
  0
ARC
  5
16B
330
1F
100
AcDbEntity
  8
Sichtbar_schmal_(ISO)
  6
Continuous
 62
     7
100
AcDbCircle
 10
66.499999502
 20
-0.0000139679
 30
0.0
 40
9.082532000004205
100
AcDbArc
 50
122.7620382219
 51
169.9999999999
  0
SPLINE
  5
16C
330
1F
100
AcDbEntity
  8
Sichtbar_schmal_(ISO)
  6
Continuous
 62
     7
100
AcDbSpline
210
0.0
220
0.0
230
1.0
 70
     8
 71
     3
 72
    15
 73
    11
 74
     0
 42
0.000000001
 43
0.0000000001
 40
0.0
 40
0.0
 40
0.0
 40
0.0
 40
0.1545258755260593
 40
0.1545258755260593
 40
0.5000000000000027
 40
0.5000000000000027
 40
0.5000000000000027
 40
0.8454741244739443
 40
0.8454741244739443
 40
1.0
 40
1.0
 40
1.0
 40
1.0
 10
71.41502229563073
 20
7.637717270436995
 30
0.0
 10
70.96531166979733
 20
7.927114462816525
 30
0.0
 10
70.48435383509995
 20
8.179867433970246
 30
0.0
 10
68.86648321196006
 20
8.851958018601476
 30
0.0
 10
67.64727757665867
 20
9.082518032112464
 30
0.0
 10
66.49999950197468
 20
9.082518032112464
 30
0.0
 10
65.35272142729073
 20
9.082518032112464
 30
0.0
 10
64.1335157919893
 20
8.851958018601476
 30
0.0
 10
62.51564516884947
 20
8.179867433970246
 30
0.0
 10
62.03468733415211
 20
7.927114462816548
 30
0.0
 10
61.58497670831869
 20
7.637717270437015
 30
0.0
  0
ARC
  5
16D
330
1F
100
AcDbEntity
  8
Sichtbar_schmal_(ISO)
  6
Continuous
 62
     7
100
AcDbCircle
 10
66.499999502
 20
-0.0000139679
 30
0.0
 40
9.082532000001542
100
AcDbArc
 50
302.7620382219
 51
57.2379617781
  0
SPLINE
  5
16E
330
1F
100
AcDbEntity
  8
Sichtbar_schmal_(ISO)
  6
Continuous
 62
     7
100
AcDbSpline
210
0.0
220
0.0
230
1.0
 70
     8
 71
     3
 72
    12
 73
     8
 74
     0
 42
0.000000001
 43
0.0000000001
 40
0.0
 40
0.0
 40
0.0
 40
0.0
 40
0.2371754356943795
 40
0.2371754356943795
 40
0.7642477326557799
 40
0.7642477326557799
 40
1.0
 40
1.0
 40
1.0
 40
1.0
 10
64.9228343715449
 20
-8.94456189846403
 30
0.0
 10
65.45249077396521
 20
-9.037954612717435
 30
0.0
 10
65.98373981844647
 20
-9.08254596788753
 30
0.0
 10
67.64727757665867
 20
-9.08254596788753
 30
0.0
 10
68.86648321196006
 20
-8.851985954376547
 30
0.0
 10
70.48435383509995
 20
-8.17989536974531
 30
0.0
 10
70.96531166979737
 20
-7.927142398591578
 30
0.0
 10
71.41502229563076
 20
-7.637745206212047
 30
0.0
  0
LINE
  5
16F
330
1F
100
AcDbEntity
  8
Verdeckt_(ISO)
  6
HIDDEN2
 62
     7
100
AcDbLine
 10
-56.400000498
 20
-8.0825139679
 30
0.0
 11
-36.200000498
 21
-8.0825139679
 31
0.0
  0
LINE
  5
170
330
1F
100
AcDbEntity
  8
Verdeckt_(ISO)
  6
HIDDEN2
 62
     7
100
AcDbLine
 10
-36.200000498
 20
8.0824860321
 30
0.0
 11
-56.400000498
 21
8.0824860321
 31
0.0
  0
LINE
  5
171
330
1F
100
AcDbEntity
  8
Verdeckt_(ISO)
  6
HIDDEN2
 62
     7
100
AcDbLine
 10
-36.200000498
 20
-8.0825139679
 30
0.0
 11
-36.200000498
 21
8.0824860321
 31
0.0
  0
LINE
  5
174
330
1F
100
AcDbEntity
  8
Mittellinie_(ISO)
  6
CENTER2
 62
     7
100
AcDbLine
 10
91.745670499
 20
-0.0000139679
 30
0.0
 11
-67.2029430109
 21
-0.0000139679
 31
0.0
  0
LINE
  5
175
330
1F
100
AcDbEntity
  8
Mittellinie_(ISO)
  6
CENTER2
 62
     7
100
AcDbLine
 10
16.599999502
 20
27.8525705421
 30
0.0
 11
16.599999502
 21
-22.2200662649
 31
0.0
  0
LINE
  5
177
330
1F
100
AcDbEntity
  8
Mittelpunktmarkierung_(ISO)
  6
CENTER2
 62
     7
100
AcDbLine
 10
22.024999502
 20
-0.0000139679
 30
0.0
 11
6.974999502
 21
-0.0000139679
 31
0.0
  0
LINE
  5
178
330
1F
100
AcDbEntity
  8
Mittelpunktmarkierung_(ISO)
  6
CENTER2
 62
     7
100
AcDbLine
 10
14.499999502
 20
7.5249860321
 30
0.0
 11
14.499999502
 21
-7.5250139679
 31
0.0
  0
LINE
  5
179
330
1F
100
AcDbEntity
  8
Mittelpunktmarkierung_(ISO)
  6
CENTER2
 62
     7
100
AcDbLine
 10
76.999999502
 20
-0.0000139679
 30
0.0
 11
55.999999502
 21
-0.0000139679
 31
0.0
  0
LINE
  5
17A
330
1F
100
AcDbEntity
  8
Mittelpunktmarkierung_(ISO)
  6
CENTER2
 62
     7
100
AcDbLine
 10
66.499999502
 20
10.4999860321
 30
0.0
 11
66.499999502
 21
-10.5000139679
 31
0.0
  0
LINE
  5
17B
330
1F
100
AcDbEntity
  8
Mittellinie_(ISO)
  6
CENTER2
 62
     7
100
AcDbLine
 10
0.8525662195
 20
25.9942058232
 30
0.0
 11
17.2237586075
 21
17.1123135524
 31
0.0
  0
LINE
  5
17C
330
1F
100
AcDbEntity
  8
Mittellinie_(ISO)
  6
CENTER2
 62
     7
100
AcDbLine
 10
0.8525662195
 20
-25.9942337589
 30
0.0
 11
17.2237586075
 21
-17.1123414881
 31
0.0
  0
LINE
  5
17E
330
1F
100
AcDbEntity
  8
Skizziergeometrie_(ISO)
  6
Continuous
 62
     7
100
AcDbLine
 10
-0.000000498
 20
22.2749860321
 30
0.0
 11
-0.000000498
 21
22.1749860321
 31
0.0
  0
CIRCLE
  5
180
330
1F
100
AcDbEntity
  8
_Konvertierung
  6
Continuous
 62
     7
100
AcDbCircle
 10
-0.000000498
 20
22.2749860321
 30
0.0
 40
0.01
  0
CIRCLE
  5
181
330
1F
100
AcDbEntity
  8
_Konvertierung
  6
Continuous
 62
     7
100
AcDbCircle
 10
-65.400000498
 20
11.1308581729
 30
0.0
 40
0.01
  0
CIRCLE
  5
182
330
1F
100
AcDbEntity
  8
_Konvertierung
  6
Continuous
 62
     7
100
AcDbCircle
 10
3.199999502
 20
31.4999860321
 30
0.0
 40
0.01
  0
CIRCLE
  5
183
330
1F
100
AcDbEntity
  8
_Konvertierung
  6
Continuous
 62
     7
100
AcDbCircle
 10
3.199999502
 20
-31.5000139679
 30
0.0
 40
0.01
  0
CIRCLE
  5
184
330
1F
100
AcDbEntity
  8
_Konvertierung
  6
Continuous
 62
     7
100
AcDbCircle
 10
-0.000000498
 20
22.2749860321
 30
0.0
 40
0.01
  0
CIRCLE
  5
185
330
1F
100
AcDbEntity
  8
_Konvertierung
  6
Continuous
 62
     7
100
AcDbCircle
 10
28.999999502
 20
31.4999860321
 30
0.0
 40
0.01
  0
CIRCLE
  5
186
330
1F
100
AcDbEntity
  8
_Konvertierung
  6
Continuous
 62
     7
100
AcDbCircle
 10
-0.000000498
 20
22.2749860321
 30
0.0
 40
0.01
  0
CIRCLE
  5
187
330
1F
100
AcDbEntity
  8
_Konvertierung
  6
Continuous
 62
     7
100
AcDbCircle
 10
89.999999502
 20
17.2499860321
 30
0.0
 40
0.01
  0
CIRCLE
  5
188
330
1F
100
AcDbEntity
  8
_Konvertierung
  6
Continuous
 62
     7
100
AcDbCircle
 10
79.1715723772
 20
32.2499860321
 30
0.0
 40
0.01
  0
CIRCLE
  5
189
330
1F
100
AcDbEntity
  8
_Konvertierung
  6
Continuous
 62
     7
100
AcDbCircle
 10
79.1715723772
 20
-32.2500139679
 30
0.0
 40
0.01
  0
CIRCLE
  5
18A
330
1F
100
AcDbEntity
  8
_Konvertierung
  6
Continuous
 62
     7
100
AcDbCircle
 10
88.999999502
 20
12.4999860321
 30
0.0
 40
0.01
  0
CIRCLE
  5
18B
330
1F
100
AcDbEntity
  8
_Konvertierung
  6
Continuous
 62
     7
100
AcDbCircle
 10
88.999999502
 20
-12.5000139679
 30
0.0
 40
0.01
  0
LINE
  5
18C
330
1F
100
AcDbEntity
  8
Mittelpunktmarkierung_(ISO)
  6
CENTER2
 62
     7
100
AcDbLine
 10
51.999999502
 20
-0.0000139679
 30
0.0
 11
30.999999502
 21
-0.0000139679
 31
0.0
  0
LINE
  5
18D
330
1F
100
AcDbEntity
  8
Mittelpunktmarkierung_(ISO)
  6
CENTER2
 62
     7
100
AcDbLine
 10
41.499999502
 20
10.4999860321
 30
0.0
 11
41.499999502
 21
-10.5000139679
 31
0.0
  0
LINE
  5
18E
330
1F
100
AcDbEntity
  8
Mittellinie_(ISO)
  6
CENTER2
 62
     7
100
AcDbLine
 10
15.6804169972
 20
17.0040031027
 30
0.0
 11
92.1987083721
 21
14.4930714858
 31
0.0
  0
LINE
  5
18F
330
1F
100
AcDbEntity
  8
Mittellinie_(ISO)
  6
CENTER2
 62
     7
100
AcDbLine
 10
15.6804169972
 20
-17.0040310385
 30
0.0
 11
92.1987083721
 21
-14.4930994215
 31
0.0
  0
MTEXT
  5
191
330
1F
100
AcDbEntity
  8
6
100
AcDbMText
 10
-34.6777388673
 20
-46.925296576
 30
0.0
 40
4.57
 41
87.778500566
 46
7.6741609434
 71
     7
 72
     1
  1
{\fsimplex|b0||i0||c0|p34;\C7;\H4.57;\W0.94;BT 40 JD/JF ISO 7388-2}
 73
     1
 44
1.0
1001
ACAD
1000
ACAD_MTEXT_DEFINED_HEIGHT_BEGIN
1070
    46
1040
7.6741609434
1000
ACAD_MTEXT_DEFINED_HEIGHT_END
  0
MTEXT
  5
192
330
1F
100
AcDbEntity
  8
6
100
AcDbMText
 10
-34.9210235113
 20
-66.6070390113
 30
0.0
 40
4.57
 41
43.2856703774
 46
7.6741609434
 71
     7
 72
     1
  1
{\fsimplex|b0||i0||c0|p34;\C7;\H4.57;\W0.94;BT 40-6-50}
 73
     1
 44
1.0
1001
ACAD
1000
ACAD_MTEXT_DEFINED_HEIGHT_BEGIN
1070
    46
1040
7.6741609434
1000
ACAD_MTEXT_DEFINED_HEIGHT_END
  0
DIMENSION
  5
1A5
330
1F
100
AcDbEntity
  8
Bemaßung_(ISO)
  6
Continuous
 62
     7
100
AcDbDimension
  2
DMBLK43
 10
-65.400000498
 20
40.2764120434
 30
0.0
 11
-32.6999989662
 21
40.2764120434
 31
0.0
 70
   160
  1
\A1;<>
 71
     5
 42
-1.0
 73
     0
 74
     0
 75
     0
  3
Standard_(DIN)
100
AcDbAlignedDimension
 13
-0.000000498
 23
22.2749860321
 33
0.0
 14
-65.400000498
 24
11.1308581729
 34
0.0
100
AcDbRotatedDimension
  0
DIMENSION
  5
1AF
330
1F
100
AcDbEntity
  8
Bemaßung_(ISO)
  6
Continuous
 62
     7
100
AcDbDimension
  2
DMBLK44
 10
-79.6134124491
 20
31.4999860321
 30
0.0
 11
-79.6134124491
 21
-0.0000144745
 31
0.0
 70
   161
  1
\A1;n <>
 71
     5
 42
-1.0
 73
     0
 74
     0
 75
     0
  3
Standard_(DIN)
100
AcDbAlignedDimension
 13
3.199999502
 23
31.4999860321
 33
0.0
 14
3.199999502
 24
-31.5000139679
 34
0.0
1001
ACAD
1000
DSTYLE
1002
{
1070
   144
1041
1.0
1070
   271
1070
     0
1070
     0
1002
}
  0
DIMENSION
  5
1BA
330
1F
100
AcDbEntity
  8
Bemaßung_(ISO)
  6
Continuous
 62
     7
100
AcDbDimension
  2
DMBLK45
 10
28.999999502
 20
40.2764120434
 30
0.0
 11
14.4999990847
 21
40.2764120434
 31
0.0
 70
   160
  1
\A1;<>
 71
     5
 42
-1.0
 73
     0
 74
     0
 75
     0
  3
Standard_(DIN)
100
AcDbAlignedDimension
 13
-0.000000498
 23
22.2749860321
 33
0.0
 14
28.999999502
 24
31.4999860321
 34
0.0
100
AcDbRotatedDimension
1001
ACAD
1000
DSTYLE
1002
{
1070
   144
1041
1.0
1070
   271
1070
     0
1070
     0
1002
}
  0
DIMENSION
  5
1C4
330
1F
100
AcDbEntity
  8
Bemaßung_(ISO)
  6
Continuous
 62
     7
100
AcDbDimension
  2
DMBLK46
 10
89.999999502
 20
50.2749868964
 30
0.0
 11
45.0000012901
 21
50.2749868964
 31
0.0
 70
   160
  1
\A1;<>
 71
     5
 42
-1.0
 73
     0
 74
     0
 75
     0
  3
Standard_(DIN)
100
AcDbAlignedDimension
 13
-0.000000498
 23
22.2749860321
 33
0.0
 14
89.999999502
 24
17.2499860321
 34
0.0
100
AcDbRotatedDimension
1001
ACAD
1000
DSTYLE
1002
{
1070
   144
1041
1.0
1070
   271
1070
     0
1070
     0
1002
}
  0
DIMENSION
  5
1CE
330
1F
100
AcDbEntity
  8
Bemaßung_(ISO)
  6
Continuous
 62
     7
100
AcDbDimension
  2
DMBLK47
 10
117.2173698743
 20
32.2499860321
 30
0.0
 11
117.2173698743
 21
-0.0000122692
 31
0.0
 70
   161
  1
\A1;n <>
 71
     5
 42
-1.0
 73
     0
 74
     0
 75
     0
  3
Standard_(DIN)
100
AcDbAlignedDimension
 13
79.1715723772
 23
32.2499860321
 33
0.0
 14
79.1715723772
 24
-32.2500139679
 34
0.0
  0
DIMENSION
  5
1D9
330
1F
100
AcDbEntity
  8
Bemaßung_(ISO)
  6
Continuous
 62
     7
100
AcDbDimension
  2
DMBLK48
 10
103.4901075077
 20
12.4999860321
 30
0.0
 11
103.4901075077
 21
-0.0000141542
 31
0.0
 70
   161
  1
\A1;n <>
 71
     5
 42
-1.0
 73
     0
 74
     0
 75
     0
  3
Standard_(DIN)
100
AcDbAlignedDimension
 13
88.999999502
 23
12.4999860321
 33
0.0
 14
88.999999502
 24
-12.5000139679
 34
0.0
1001
ACAD
1000
DSTYLE
1002
{
1070
   144
1041
1.0
1070
   271
1070
     0
1070
     0
1002
}
  0
ENDSEC
  0
SECTION
  2
OBJECTS
  0
DICTIONARY
  5
C
330
0
100
AcDbDictionary
281
     1
  3
ACAD_DETAILVIEWSTYLE
350
21F
  3
ACAD_GROUP
350
D
  3
ACAD_LAYOUT
350
1A
  3
ACAD_MATERIAL
350
43
  3
ACAD_MLEADERSTYLE
350
6B
  3
ACAD_MLINESTYLE
350
17
  3
ACAD_PLOTSETTINGS
350
19
  3
ACAD_PLOTSTYLENAME
350
E
  3
ACAD_SCALELIST
350
47
  3
ACAD_SECTIONVIEWSTYLE
350
220
  3
ACAD_TABLESTYLE
350
69
  3
ACAD_VISUALSTYLE
350
2A
  3
ACDB_RECOMPOSE_DATA
350
21C
  3
AcDbVariableDictionary
350
1E4
  0
SUN
  5
6D
330
29
100
AcDbSun
 90
        1
290
     0
 63
     7
421
 16777215
 40
1.0
291
     1
 91
  2455826
 92
 54000000
292
     0
 70
     2
 71
   256
280
     1
  0
DICTIONARY
  5
21F
102
{ACAD_REACTORS
330
C
102
}
330
C
100
AcDbDictionary
281
     1
  0
DICTIONARY
  5
D
102
{ACAD_REACTORS
330
C
102
}
330
C
100
AcDbDictionary
281
     1
  0
DICTIONARY
  5
1A
102
{ACAD_REACTORS
330
C
102
}
330
C
100
AcDbDictionary
281
     1
  3
Layout1
350
1E
  3
Model
350
22
  0
DICTIONARY
  5
43
102
{ACAD_REACTORS
330
C
102
}
330
C
100
AcDbDictionary
281
     1
  3
ByBlock
350
45
  3
ByLayer
350
44
  3
Global
350
46
  0
DICTIONARY
  5
6B
102
{ACAD_REACTORS
330
C
102
}
330
C
100
AcDbDictionary
281
     1
  3
Standard
350
6C
  0
DICTIONARY
  5
17
102
{ACAD_REACTORS
330
C
102
}
330
C
100
AcDbDictionary
281
     1
  3
Standard
350
18
  0
DICTIONARY
  5
19
102
{ACAD_REACTORS
330
C
102
}
330
C
100
AcDbDictionary
281
     1
  0
ACDBDICTIONARYWDFLT
  5
E
102
{ACAD_REACTORS
330
C
102
}
330
C
100
AcDbDictionary
281
     1
  3
Normal
350
F
100
AcDbDictionaryWithDefault
340
F
  0
DICTIONARY
  5
47
102
{ACAD_REACTORS
330
C
102
}
330
C
100
AcDbDictionary
281
     1
  3
A0
350
48
  3
A1
350
49
  3
A2
350
4A
  3
A3
350
4B
  3
A4
350
4C
  3
A5
350
4D
  3
A6
350
4E
  3
A7
350
4F
  3
A8
350
50
  3
A9
350
51
  3
B0
350
52
  3
B1
350
53
  3
B2
350
54
  3
B3
350
55
  3
B4
350
56
  3
B5
350
57
  3
B6
350
58
  3
B7
350
59
  3
B8
350
5A
  3
B9
350
5B
  3
C0
350
5C
  3
C1
350
5D
  3
C2
350
5E
  3
C3
350
5F
  3
C4
350
60
  3
C5
350
61
  3
C6
350
62
  3
C7
350
63
  3
C8
350
64
  3
C9
350
65
  3
D0
350
66
  3
D1
350
67
  3
D2
350
68
  0
DICTIONARY
  5
220
102
{ACAD_REACTORS
330
C
102
}
330
C
100
AcDbDictionary
281
     1
  0
DICTIONARY
  5
69
102
{ACAD_REACTORS
330
C
102
}
330
C
100
AcDbDictionary
281
     1
  3
Standard
350
6A
  0
DICTIONARY
  5
2A
102
{ACAD_REACTORS
330
C
102
}
330
C
100
AcDbDictionary
281
     1
  3
2dWireframe
350
2F
  3
Basic
350
32
  3
Brighten
350
36
  3
ColorChange
350
3A
  3
Conceptual
350
34
  3
Dim
350
35
  3
EdgeColorOff
350
3D
  3
Facepattern
350
39
  3
Flat
350
2B
  3
FlatWithEdges
350
2C
  3
Gouraud
350
2D
  3
GouraudWithEdges
350
2E
  3
Hidden
350
31
  3
JitterOff
350
3B
  3
Linepattern
350
38
  3
OverhangOff
350
3C
  3
Realistic
350
33
  3
Shaded
350
42
  3
Shaded with edges
350
41
  3
Shades of Gray
350
3E
  3
Sketchy
350
3F
  3
Thicken
350
37
  3
Wireframe
350
30
  3
X-Ray
350
40
  0
XRECORD
  5
21C
102
{ACAD_REACTORS
330
C
102
}
330
C
100
AcDbXrecord
280
     1
 90
        1
330
6A
  0
DICTIONARY
  5
1E4
102
{ACAD_REACTORS
330
C
102
}
330
C
100
AcDbDictionary
281
     1
  3
CANNOSCALE
350
1E5
  3
CENTEREXE
350
221
  3
CENTERLTYPEFILE
350
222
  3
CMLEADERSTYLE
350
21E
  3
CTABLESTYLE
350
21D
  3
XCLIPFRAME
350
1E6
  0
LAYOUT
  5
1E
102
{ACAD_REACTORS
330
1A
102
}
330
1A
100
AcDbPlotSettings
  1

  2
none_device
  4

  6

 40
0.0
 41
0.0
 42
0.0
 43
0.0
 44
0.0
 45
0.0
 46
0.0
 47
0.0
 48
0.0
 49
0.0
140
0.0
141
0.0
142
1.0
143
1.0
 70
   688
 72
     1
 73
     0
 74
     5
  7

 75
    16
 76
     0
 77
     2
 78
   300
147
1.0
148
0.0
149
0.0
100
AcDbLayout
  1
Layout1
 70
     1
 71
     1
 10
0.0
 20
0.0
 11
594.0
 21
420.0
 12
0.0
 22
0.0
 32
0.0
 14
0.0
 24
0.0
 34
0.0
 15
594.0
 25
420.0
 35
0.0
146
0.0
 13
0.0
 23
0.0
 33
0.0
 16
1.0
 26
0.0
 36
0.0
 17
0.0
 27
1.0
 37
0.0
 76
     0
330
1B
  0
LAYOUT
  5
22
102
{ACAD_REACTORS
330
1A
102
}
330
1A
100
AcDbPlotSettings
  1

  2
none_device
  4
Letter_(8.50_x_11.00_Inches)
  6

 40
6.35
 41
6.35
 42
6.35000508
 43
6.35000508
 44
215.9
 45
279.4
 46
0.0
 47
0.0
 48
0.0
 49
0.0
140
0.0
141
0.0
142
1.0
143
1.0
 70
  1712
 72
     1
 73
     0
 74
     0
  7

 75
     0
 76
     0
 77
     2
 78
   300
147
1.0
148
0.0
149
0.0
100
AcDbLayout
  1
Model
 70
     1
 71
     0
 10
0.0
 20
0.0
 11
594.0
 21
420.0
 12
0.0
 22
0.0
 32
0.0
 14
0.0
 24
0.0
 34
0.0
 15
594.0
 25
420.0
 35
0.0
146
0.0
 13
0.0
 23
0.0
 33
0.0
 16
1.0
 26
0.0
 36
0.0
 17
0.0
 27
1.0
 37
0.0
 76
     0
330
1F
331
29
  0
MATERIAL
  5
45
102
{ACAD_REACTORS
330
43
102
}
330
43
100
AcDbMaterial
  1
ByBlock
 72
     1
 94
      127
  0
MATERIAL
  5
44
102
{ACAD_REACTORS
330
43
102
}
330
43
100
AcDbMaterial
  1
ByLayer
 72
     1
 94
      127
  0
MATERIAL
  5
46
102
{ACAD_REACTORS
330
43
102
}
330
43
100
AcDbMaterial
  1
Global
 72
     1
 94
      127
  0
MLEADERSTYLE
  5
6C
102
{ACAD_REACTORS
330
6B
102
}
102
{ACAD_XDICTIONARY
360
21A
102
}
330
6B
100
AcDbMLeaderStyle
170
     2
171
     1
172
     0
 90
        2
 40
0.0
 41
0.0
173
     1
 91
-1056964608
340
14
 92
       -2
290
     1
 42
2.0
291
     1
 43
8.0
  3
Standard
341
0
 44
4.0
300

342
11
174
     1
178
     6
175
     1
176
     0
 93
-1056964608
 45
4.0
292
     0
297
     0
 46
4.0
343
0
 94
-1056964608
 47
1.0
 49
1.0
140
1.0
293
     1
141
0.0
294
     1
177
     0
142
1.0
295
     0
296
     0
143
3.75
1001
ACAD_MLEADERVER
1070
     2
  0
MLINESTYLE
  5
18
102
{ACAD_REACTORS
330
17
102
}
330
17
100
AcDbMlineStyle
  2
Standard
 70
     0
  3

 62
   256
 51
90.0
 52
90.0
 71
     2
 49
0.5
 62
   256
  6
BYLAYER
 49
-0.5
 62
   256
  6
BYLAYER
  0
ACDBPLACEHOLDER
  5
F
102
{ACAD_REACTORS
330
E
102
}
330
E
  0
SCALE
  5
48
102
{ACAD_REACTORS
330
47
102
}
330
47
100
AcDbScale
 70
     0
300
1:1
140
1.0
141
1.0
290
     1
  0
SCALE
  5
49
102
{ACAD_REACTORS
330
47
102
}
330
47
100
AcDbScale
 70
     0
300
1:2
140
1.0
141
2.0
290
     0
  0
SCALE
  5
4A
102
{ACAD_REACTORS
330
47
102
}
330
47
100
AcDbScale
 70
     0
300
1:4
140
1.0
141
4.0
290
     0
  0
SCALE
  5
4B
102
{ACAD_REACTORS
330
47
102
}
330
47
100
AcDbScale
 70
     0
300
1:5
140
1.0
141
5.0
290
     0
  0
SCALE
  5
4C
102
{ACAD_REACTORS
330
47
102
}
330
47
100
AcDbScale
 70
     0
300
1:8
140
1.0
141
8.0
290
     0
  0
SCALE
  5
4D
102
{ACAD_REACTORS
330
47
102
}
330
47
100
AcDbScale
 70
     0
300
1:10
140
1.0
141
10.0
290
     0
  0
SCALE
  5
4E
102
{ACAD_REACTORS
330
47
102
}
330
47
100
AcDbScale
 70
     0
300
1:16
140
1.0
141
16.0
290
     0
  0
SCALE
  5
4F
102
{ACAD_REACTORS
330
47
102
}
330
47
100
AcDbScale
 70
     0
300
1:20
140
1.0
141
20.0
290
     0
  0
SCALE
  5
50
102
{ACAD_REACTORS
330
47
102
}
330
47
100
AcDbScale
 70
     0
300
1:30
140
1.0
141
30.0
290
     0
  0
SCALE
  5
51
102
{ACAD_REACTORS
330
47
102
}
330
47
100
AcDbScale
 70
     0
300
1:40
140
1.0
141
40.0
290
     0
  0
SCALE
  5
52
102
{ACAD_REACTORS
330
47
102
}
330
47
100
AcDbScale
 70
     0
300
1:50
140
1.0
141
50.0
290
     0
  0
SCALE
  5
53
102
{ACAD_REACTORS
330
47
102
}
330
47
100
AcDbScale
 70
     0
300
1:100
140
1.0
141
100.0
290
     0
  0
SCALE
  5
54
102
{ACAD_REACTORS
330
47
102
}
330
47
100
AcDbScale
 70
     0
300
2:1
140
2.0
141
1.0
290
     0
  0
SCALE
  5
55
102
{ACAD_REACTORS
330
47
102
}
330
47
100
AcDbScale
 70
     0
300
4:1
140
4.0
141
1.0
290
     0
  0
SCALE
  5
56
102
{ACAD_REACTORS
330
47
102
}
330
47
100
AcDbScale
 70
     0
300
8:1
140
8.0
141
1.0
290
     0
  0
SCALE
  5
57
102
{ACAD_REACTORS
330
47
102
}
330
47
100
AcDbScale
 70
     0
300
10:1
140
10.0
141
1.0
290
     0
  0
SCALE
  5
58
102
{ACAD_REACTORS
330
47
102
}
330
47
100
AcDbScale
 70
     0
300
100:1
140
100.0
141
1.0
290
     0
  0
SCALE
  5
59
102
{ACAD_REACTORS
330
47
102
}
330
47
100
AcDbScale
 70
     0
300
1/128" = 1'-0"
140
0.0078125
141
12.0
290
     0
  0
SCALE
  5
5A
102
{ACAD_REACTORS
330
47
102
}
330
47
100
AcDbScale
 70
     0
300
1/64" = 1'-0"
140
0.015625
141
12.0
290
     0
  0
SCALE
  5
5B
102
{ACAD_REACTORS
330
47
102
}
330
47
100
AcDbScale
 70
     0
300
1/32" = 1'-0"
140
0.03125
141
12.0
290
     0
  0
SCALE
  5
5C
102
{ACAD_REACTORS
330
47
102
}
330
47
100
AcDbScale
 70
     0
300
1/16" = 1'-0"
140
0.0625
141
12.0
290
     0
  0
SCALE
  5
5D
102
{ACAD_REACTORS
330
47
102
}
330
47
100
AcDbScale
 70
     0
300
3/32" = 1'-0"
140
0.09375
141
12.0
290
     0
  0
SCALE
  5
5E
102
{ACAD_REACTORS
330
47
102
}
330
47
100
AcDbScale
 70
     0
300
1/8" = 1'-0"
140
0.125
141
12.0
290
     0
  0
SCALE
  5
5F
102
{ACAD_REACTORS
330
47
102
}
330
47
100
AcDbScale
 70
     0
300
3/16" = 1'-0"
140
0.1875
141
12.0
290
     0
  0
SCALE
  5
60
102
{ACAD_REACTORS
330
47
102
}
330
47
100
AcDbScale
 70
     0
300
1/4" = 1'-0"
140
0.25
141
12.0
290
     0
  0
SCALE
  5
61
102
{ACAD_REACTORS
330
47
102
}
330
47
100
AcDbScale
 70
     0
300
3/8" = 1'-0"
140
0.375
141
12.0
290
     0
  0
SCALE
  5
62
102
{ACAD_REACTORS
330
47
102
}
330
47
100
AcDbScale
 70
     0
300
1/2" = 1'-0"
140
0.5
141
12.0
290
     0
  0
SCALE
  5
63
102
{ACAD_REACTORS
330
47
102
}
330
47
100
AcDbScale
 70
     0
300
3/4" = 1'-0"
140
0.75
141
12.0
290
     0
  0
SCALE
  5
64
102
{ACAD_REACTORS
330
47
102
}
330
47
100
AcDbScale
 70
     0
300
1" = 1'-0"
140
1.0
141
12.0
290
     0
  0
SCALE
  5
65
102
{ACAD_REACTORS
330
47
102
}
330
47
100
AcDbScale
 70
     0
300
1-1/2" = 1'-0"
140
1.5
141
12.0
290
     0
  0
SCALE
  5
66
102
{ACAD_REACTORS
330
47
102
}
330
47
100
AcDbScale
 70
     0
300
3" = 1'-0"
140
3.0
141
12.0
290
     0
  0
SCALE
  5
67
102
{ACAD_REACTORS
330
47
102
}
330
47
100
AcDbScale
 70
     0
300
6" = 1'-0"
140
6.0
141
12.0
290
     0
  0
SCALE
  5
68
102
{ACAD_REACTORS
330
47
102
}
330
47
100
AcDbScale
 70
     0
300
1'-0" = 1'-0"
140
12.0
141
12.0
290
     0
  0
TABLESTYLE
  5
6A
102
{ACAD_REACTORS
330
69
102
}
102
{ACAD_XDICTIONARY
360
217
102
}
330
69
100
AcDbTableStyle
  3
Standard
 70
     0
 71
     0
 40
0.06
 41
0.06
280
     0
281
     0
  7
Standard
140
4.5
170
     2
 62
     0
 63
   257
283
     0
 90
        4
 91
        0
  1

274
    -2
284
     1
 64
     0
275
    -2
285
     1
 65
     0
276
    -2
286
     1
 66
     0
277
    -2
287
     1
 67
     0
278
    -2
288
     1
 68
     0
279
    -2
289
     1
 69
     0
  7
Standard
140
6.0
170
     5
 62
     0
 63
   257
283
     0
 90
        4
 91
        0
  1

274
    -2
284
     1
 64
     0
275
    -2
285
     1
 65
     0
276
    -2
286
     1
 66
     0
277
    -2
287
     1
 67
     0
278
    -2
288
     1
 68
     0
279
    -2
289
     1
 69
     0
  7
Standard
140
4.5
170
     5
 62
     0
 63
   257
283
     0
 90
        4
 91
        0
  1

274
    -2
284
     1
 64
     0
275
    -2
285
     1
 65
     0
276
    -2
286
     1
 66
     0
277
    -2
287
     1
 67
     0
278
    -2
288
     1
 68
     0
279
    -2
289
     1
 69
     0
  0
VISUALSTYLE
  5
2F
102
{ACAD_REACTORS
330
2A
102
}
102
{ACAD_XDICTIONARY
360
1EF
102
}
330
2A
100
AcDbVisualStyle
  2
2dWireframe
 70
     4
 71
     0
 72
     2
 73
     0
 90
        0
 40
0.6
 41
30.0
 62
     5
 63
     7
421
 16777215
 74
     1
 91
        4
 64
     7
 65
   257
 75
     1
175
     1
 42
1.0
 92
        0
 66
   257
 43
1.0
 76
     1
 77
     6
 78
     2
 67
     7
 79
     5
170
     0
171
     0
290
     0
174
     0
 93
        1
 44
0.0
173
     0
291
     0
 45
0.0
  0
VISUALSTYLE
  5
32
102
{ACAD_REACTORS
330
2A
102
}
102
{ACAD_XDICTIONARY
360
1F5
102
}
330
2A
100
AcDbVisualStyle
  2
Basic
 70
     7
 71
     1
 72
     0
 73
     1
 90
        0
 40
0.6
 41
30.0
 62
     5
 63
     7
421
 16777215
 74
     0
 91
        4
 64
     7
 65
   257
 75
     1
175
     1
 42
1.0
 92
        8
 66
     7
 43
1.0
 76
     1
 77
     6
 78
     2
 67
     7
 79
     5
170
     0
171
     0
290
     0
174
     0
 93
        1
 44
0.0
173
     0
291
     1
 45
0.0
  0
VISUALSTYLE
  5
36
102
{ACAD_REACTORS
330
2A
102
}
102
{ACAD_XDICTIONARY
360
1FD
102
}
330
2A
100
AcDbVisualStyle
  2
Brighten
 70
    12
 71
     2
 72
     2
 73
     0
 90
        0
 40
0.6
 41
30.0
 62
     5
 63
     7
421
 16777215
 74
     1
 91
        4
 64
     7
 65
   257
 75
     1
175
     1
 42
1.0
 92
        8
 66
     7
 43
1.0
 76
     1
 77
     6
 78
     2
 67
     7
 79
     5
170
     0
171
     0
290
     0
174
     0
 93
        1
 44
50.0
173
     0
291
     1
 45
0.0
  0
VISUALSTYLE
  5
3A
102
{ACAD_REACTORS
330
2A
102
}
102
{ACAD_XDICTIONARY
360
205
102
}
330
2A
100
AcDbVisualStyle
  2
ColorChange
 70
    16
 71
     2
 72
     2
 73
     3
 90
        0
 40
0.6
 41
30.0
 62
     5
 63
     8
421
  8421504
 74
     1
 91
        4
 64
     7
 65
   257
 75
     1
175
     1
 42
1.0
 92
        8
 66
     8
424
  8421504
 43
1.0
 76
     1
 77
     6
 78
     2
 67
     7
 79
     5
170
     0
171
     0
290
     0
174
     0
 93
        1
 44
0.0
173
     0
291
     1
 45
0.0
  0
VISUALSTYLE
  5
34
102
{ACAD_REACTORS
330
2A
102
}
102
{ACAD_XDICTIONARY
360
1F9
102
}
330
2A
100
AcDbVisualStyle
  2
Conceptual
 70
     9
 71
     3
 72
     2
 73
     0
 90
        0
 40
0.6
 41
30.0
 62
     5
 63
     7
421
 16777215
 74
     2
 91
        2
 64
     7
 65
   257
 75
     1
175
     1
 42
179.0
 92
        8
 66
     7
 43
1.0
 76
     1
 77
     6
 78
     2
 67
     7
 79
     3
170
     0
171
     0
290
     0
174
     0
 93
        1
 44
0.0
173
     0
291
     0
 45
0.0
  0
VISUALSTYLE
  5
35
102
{ACAD_REACTORS
330
2A
102
}
102
{ACAD_XDICTIONARY
360
1FB
102
}
330
2A
100
AcDbVisualStyle
  2
Dim
 70
    11
 71
     2
 72
     2
 73
     0
 90
        0
 40
0.6
 41
30.0
 62
     5
 63
     7
421
 16777215
 74
     1
 91
        4
 64
     7
 65
   257
 75
     1
175
     1
 42
1.0
 92
        8
 66
     7
 43
1.0
 76
     1
 77
     6
 78
     2
 67
     7
 79
     5
170
     0
171
     0
290
     0
174
     0
 93
        1
 44
-50.0
173
     0
291
     1
 45
0.0
  0
VISUALSTYLE
  5
3D
102
{ACAD_REACTORS
330
2A
102
}
102
{ACAD_XDICTIONARY
360
20B
102
}
330
2A
100
AcDbVisualStyle
  2
EdgeColorOff
 70
    22
 71
     2
 72
     2
 73
     0
 90
        0
 40
0.6
 41
30.0
 62
     5
 63
     7
421
 16777215
 74
     1
 91
        4
 64
     7
 65
   257
 75
     1
175
     1
 42
1.0
 92
        8
 66
     7
 43
1.0
 76
     1
 77
     6
 78
     2
 67
     7
 79
     5
170
     0
171
     0
290
     0
174
     0
 93
        1
 44
0.0
173
     0
291
     1
 45
0.0
  0
VISUALSTYLE
  5
39
102
{ACAD_REACTORS
330
2A
102
}
102
{ACAD_XDICTIONARY
360
203
102
}
330
2A
100
AcDbVisualStyle
  2
Facepattern
 70
    15
 71
     2
 72
     2
 73
     0
 90
        0
 40
0.6
 41
30.0
 62
     5
 63
     7
421
 16777215
 74
     1
 91
        4
 64
     7
 65
   257
 75
     1
175
     1
 42
1.0
 92
        8
 66
     7
 43
1.0
 76
     1
 77
     6
 78
     2
 67
     7
 79
     5
170
     0
171
     0
290
     0
174
     0
 93
        1
 44
0.0
173
     0
291
     1
 45
0.0
  0
VISUALSTYLE
  5
2B
102
{ACAD_REACTORS
330
2A
102
}
102
{ACAD_XDICTIONARY
360
1E7
102
}
330
2A
100
AcDbVisualStyle
  2
Flat
 70
     0
 71
     2
 72
     1
 73
     1
 90
        2
 40
0.6
 41
30.0
 62
     5
 63
     7
421
 16777215
 74
     0
 91
        0
 64
     7
 65
   257
 75
     1
175
     1
 42
1.0
 92
        8
 66
     7
 43
1.0
 76
     1
 77
     6
 78
     2
 67
     7
 79
     5
170
     0
171
     0
290
     0
174
     0
 93
       13
 44
0.0
173
     0
291
     1
 45
0.0
  0
VISUALSTYLE
  5
2C
102
{ACAD_REACTORS
330
2A
102
}
102
{ACAD_XDICTIONARY
360
1E9
102
}
330
2A
100
AcDbVisualStyle
  2
FlatWithEdges
 70
     1
 71
     2
 72
     1
 73
     1
 90
        2
 40
0.6
 41
30.0
 62
     5
 63
     7
421
 16777215
 74
     1
 91
        0
 64
     7
 65
   257
 75
     1
175
     1
 42
1.0
 92
        0
 66
   257
 43
1.0
 76
     1
 77
     6
 78
     2
 67
     7
 79
     5
170
     0
171
     0
290
     0
174
     0
 93
       13
 44
0.0
173
     0
291
     1
 45
0.0
  0
VISUALSTYLE
  5
2D
102
{ACAD_REACTORS
330
2A
102
}
102
{ACAD_XDICTIONARY
360
1EB
102
}
330
2A
100
AcDbVisualStyle
  2
Gouraud
 70
     2
 71
     2
 72
     2
 73
     1
 90
        2
 40
0.6
 41
30.0
 62
     5
 63
     7
421
 16777215
 74
     0
 91
        0
 64
     7
 65
   257
 75
     1
175
     1
 42
1.0
 92
        0
 66
     7
 43
1.0
 76
     1
 77
     6
 78
     2
 67
     7
 79
     5
170
     0
171
     0
290
     0
174
     0
 93
       13
 44
0.0
173
     0
291
     1
 45
0.0
  0
VISUALSTYLE
  5
2E
102
{ACAD_REACTORS
330
2A
102
}
102
{ACAD_XDICTIONARY
360
1ED
102
}
330
2A
100
AcDbVisualStyle
  2
GouraudWithEdges
 70
     3
 71
     2
 72
     2
 73
     1
 90
        2
 40
0.6
 41
30.0
 62
     5
 63
     7
421
 16777215
 74
     1
 91
        0
 64
     7
 65
   257
 75
     1
175
     1
 42
1.0
 92
        0
 66
   257
 43
1.0
 76
     1
 77
     6
 78
     2
 67
     7
 79
     5
170
     0
171
     0
290
     0
174
     0
 93
       13
 44
0.0
173
     0
291
     1
 45
0.0
  0
VISUALSTYLE
  5
31
102
{ACAD_REACTORS
330
2A
102
}
102
{ACAD_XDICTIONARY
360
1F3
102
}
330
2A
100
AcDbVisualStyle
  2
Hidden
 70
     6
 71
     1
 72
     2
 73
     2
 90
        0
 40
0.6
 41
30.0
 62
     5
 63
     7
421
 16777215
 74
     2
 91
        2
 64
     7
 65
   257
 75
     2
175
     1
 42
40.0
 92
        0
 66
   257
 43
1.0
 76
     1
 77
     6
 78
     2
 67
     7
 79
     3
170
     0
171
     0
290
     0
174
     0
 93
        1
 44
0.0
173
     0
291
     0
 45
0.0
  0
VISUALSTYLE
  5
3B
102
{ACAD_REACTORS
330
2A
102
}
102
{ACAD_XDICTIONARY
360
207
102
}
330
2A
100
AcDbVisualStyle
  2
JitterOff
 70
    20
 71
     2
 72
     2
 73
     0
 90
        0
 40
0.6
 41
30.0
 62
     5
 63
     7
421
 16777215
 74
     1
 91
        4
 64
     7
 65
   257
 75
     1
175
     1
 42
1.0
 92
       10
 66
     7
 43
1.0
 76
     1
 77
     6
 78
     2
 67
     7
 79
     5
170
     0
171
     0
290
     0
174
     0
 93
        1
 44
0.0
173
     0
291
     1
 45
0.0
  0
VISUALSTYLE
  5
38
102
{ACAD_REACTORS
330
2A
102
}
102
{ACAD_XDICTIONARY
360
201
102
}
330
2A
100
AcDbVisualStyle
  2
Linepattern
 70
    14
 71
     2
 72
     2
 73
     0
 90
        0
 40
0.6
 41
30.0
 62
     5
 63
     7
421
 16777215
 74
     1
 91
        4
 64
     7
 65
   257
 75
     7
175
     7
 42
1.0
 92
        8
 66
     7
 43
1.0
 76
     1
 77
     6
 78
     2
 67
     7
 79
     5
170
     0
171
     0
290
     0
174
     0
 93
        1
 44
0.0
173
     0
291
     1
 45
0.0
  0
VISUALSTYLE
  5
3C
102
{ACAD_REACTORS
330
2A
102
}
102
{ACAD_XDICTIONARY
360
209
102
}
330
2A
100
AcDbVisualStyle
  2
OverhangOff
 70
    21
 71
     2
 72
     2
 73
     0
 90
        0
 40
0.6
 41
30.0
 62
     5
 63
     7
421
 16777215
 74
     1
 91
        4
 64
     7
 65
   257
 75
     1
175
     1
 42
1.0
 92
        9
 66
     7
 43
1.0
 76
     1
 77
     6
 78
     2
 67
     7
 79
     5
170
     0
171
     0
290
     0
174
     0
 93
        1
 44
0.0
173
     0
291
     1
 45
0.0
  0
VISUALSTYLE
  5
33
102
{ACAD_REACTORS
330
2A
102
}
102
{ACAD_XDICTIONARY
360
1F7
102
}
330
2A
100
AcDbVisualStyle
  2
Realistic
 70
     8
 71
     2
 72
     3
 73
     0
 90
        2
 40
0.6
 41
30.0
 62
     5
 63
     7
421
 16777215
 74
     0
 91
        0
 64
     7
 65
   257
 75
     1
175
     1
 42
1.0
 92
        8
 66
   257
 43
1.0
 76
     1
 77
     6
 78
     2
 67
     7
 79
     3
170
     0
171
     0
290
     0
174
     0
 93
       13
 44
0.0
173
     0
291
     0
 45
0.0
  0
VISUALSTYLE
  5
42
102
{ACAD_REACTORS
330
2A
102
}
102
{ACAD_XDICTIONARY
360
215
102
}
330
2A
100
AcDbVisualStyle
  2
Shaded
 70
    27
 71
     2
 72
     2
 73
     1
 90
        2
 40
0.6
 41
30.0
 62
     5
 63
     7
421
 16777215
 74
     0
 91
        4
 64
     7
 65
   257
 75
     1
175
     1
 42
1.0
 92
        8
 66
   257
 43
1.0
 76
     1
 77
     6
 78
     2
 67
     8
425
  7895160
 79
     3
170
     0
171
     0
290
     0
174
     0
 93
        5
 44
0.0
173
     0
291
     0
 45
0.0
  0
VISUALSTYLE
  5
41
102
{ACAD_REACTORS
330
2A
102
}
102
{ACAD_XDICTIONARY
360
213
102
}
330
2A
100
AcDbVisualStyle
  2
Shaded with edges
 70
    26
 71
     2
 72
     2
 73
     1
 90
        2
 40
0.6
 41
30.0
 62
     5
 63
     7
421
 16777215
 74
     1
 91
       10
 64
     7
 65
   257
 75
     2
175
     1
 42
1.0
 92
        8
 66
   257
 43
1.0
 76
     1
 77
     6
 78
     2
 67
     7
 79
     3
170
     0
171
     0
290
     0
174
     0
 93
        5
 44
0.0
173
     0
291
     0
 45
0.0
  0
VISUALSTYLE
  5
3E
102
{ACAD_REACTORS
330
2A
102
}
102
{ACAD_XDICTIONARY
360
20D
102
}
330
2A
100
AcDbVisualStyle
  2
Shades of Gray
 70
    23
 71
     2
 72
     2
 73
     3
 90
        0
 40
0.6
 41
30.0
 62
     5
 63
     7
421
 16777215
 74
     2
 91
        2
 64
     7
 65
     7
 75
     1
175
     1
 42
40.0
 92
        8
 66
     7
 43
1.0
 76
     1
 77
     6
 78
     2
 67
     7
 79
     3
170
     0
171
     0
290
     0
174
     0
 93
        1
 44
0.0
173
     0
291
     0
 45
0.0
  0
VISUALSTYLE
  5
3F
102
{ACAD_REACTORS
330
2A
102
}
102
{ACAD_XDICTIONARY
360
20F
102
}
330
2A
100
AcDbVisualStyle
  2
Sketchy
 70
    24
 71
     1
 72
     2
 73
     2
 90
        0
 40
0.6
 41
30.0
 62
     5
 63
     7
421
 16777215
 74
     2
 91
        2
 64
     7
 65
     7
 75
     1
175
     1
 42
40.0
 92
       11
 66
     7
 43
1.0
 76
     1
 77
     6
 78
     2
 67
     7
 79
     6
170
     0
171
     0
290
     0
174
     0
 93
        1
 44
0.0
173
     0
291
     0
 45
0.0
  0
VISUALSTYLE
  5
37
102
{ACAD_REACTORS
330
2A
102
}
102
{ACAD_XDICTIONARY
360
1FF
102
}
330
2A
100
AcDbVisualStyle
  2
Thicken
 70
    13
 71
     2
 72
     2
 73
     0
 90
        0
 40
0.6
 41
30.0
 62
     5
 63
     7
421
 16777215
 74
     1
 91
        4
 64
     7
 65
   257
 75
     1
175
     1
 42
1.0
 92
       12
 66
     7
 43
1.0
 76
     1
 77
     6
 78
     2
 67
     7
 79
     5
170
     0
171
     0
290
     0
174
     0
 93
        1
 44
0.0
173
     0
291
     1
 45
0.0
  0
VISUALSTYLE
  5
30
102
{ACAD_REACTORS
330
2A
102
}
102
{ACAD_XDICTIONARY
360
1F1
102
}
330
2A
100
AcDbVisualStyle
  2
Wireframe
 70
     5
 71
     0
 72
     2
 73
     0
 90
        0
 40
0.6
 41
30.0
 62
     5
 63
     7
421
 16777215
 74
     1
 91
        4
 64
     7
 65
   257
 75
     1
175
     1
 42
1.0
 92
        0
 66
   257
 43
1.0
 76
     1
 77
     6
 78
     2
 67
     7
 79
     3
170
     0
171
     0
290
     0
174
     0
 93
        1
 44
0.0
173
     0
291
     0
 45
0.0
  0
VISUALSTYLE
  5
40
102
{ACAD_REACTORS
330
2A
102
}
102
{ACAD_XDICTIONARY
360
211
102
}
330
2A
100
AcDbVisualStyle
  2
X-Ray
 70
    25
 71
     2
 72
     2
 73
     1
 90
        1
 40
0.5
 41
30.0
 62
     5
 63
     7
421
 16777215
 74
     1
 91
        0
 64
     7
 65
   257
 75
     1
175
     1
 42
1.0
 92
        8
 66
     7
 43
1.0
 76
     1
 77
     6
 78
     2
 67
     7
 79
     3
170
     0
171
     0
290
     0
174
     0
 93
       13
 44
0.0
173
     0
291
     0
 45
0.0
  0
DICTIONARYVAR
  5
1E5
102
{ACAD_REACTORS
330
1E4
102
}
330
1E4
100
DictionaryVariables
280
     0
  1
1:1
  0
DICTIONARYVAR
  5
221
102
{ACAD_REACTORS
330
1E4
102
}
330
1E4
100
DictionaryVariables
280
     0
  1
3.500000
  0
DICTIONARYVAR
  5
222
102
{ACAD_REACTORS
330
1E4
102
}
330
1E4
100
DictionaryVariables
280
     0
  1
acadiso.lin
  0
DICTIONARYVAR
  5
21E
102
{ACAD_REACTORS
330
1E4
102
}
330
1E4
100
DictionaryVariables
280
     0
  1
Standard
  0
DICTIONARYVAR
  5
21D
102
{ACAD_REACTORS
330
1E4
102
}
330
1E4
100
DictionaryVariables
280
     0
  1
Standard
  0
DICTIONARYVAR
  5
1E6
102
{ACAD_REACTORS
330
1E4
102
}
330
1E4
100
DictionaryVariables
280
     0
  1
2
  0
DICTIONARY
  5
21A
330
6C
100
AcDbDictionary
280
     1
281
     1
  3
ACAD_XREC_ROUNDTRIP
360
21B
  0
DICTIONARY
  5
217
330
6A
100
AcDbDictionary
280
     1
281
     1
  3
ACAD_ROUNDTRIP_2008_TABLESTYLE_CELLSTYLEMAP
360
218
  0
DICTIONARY
  5
1EF
330
2F
100
AcDbDictionary
280
     1
281
     1
  3
ACAD_XREC_ROUNDTRIP
360
1F0
  0
DICTIONARY
  5
1F5
330
32
100
AcDbDictionary
280
     1
281
     1
  3
ACAD_XREC_ROUNDTRIP
360
1F6
  0
DICTIONARY
  5
1FD
330
36
100
AcDbDictionary
280
     1
281
     1
  3
ACAD_XREC_ROUNDTRIP
360
1FE
  0
DICTIONARY
  5
205
330
3A
100
AcDbDictionary
280
     1
281
     1
  3
ACAD_XREC_ROUNDTRIP
360
206
  0
DICTIONARY
  5
1F9
330
34
100
AcDbDictionary
280
     1
281
     1
  3
ACAD_XREC_ROUNDTRIP
360
1FA
  0
DICTIONARY
  5
1FB
330
35
100
AcDbDictionary
280
     1
281
     1
  3
ACAD_XREC_ROUNDTRIP
360
1FC
  0
DICTIONARY
  5
20B
330
3D
100
AcDbDictionary
280
     1
281
     1
  3
ACAD_XREC_ROUNDTRIP
360
20C
  0
DICTIONARY
  5
203
330
39
100
AcDbDictionary
280
     1
281
     1
  3
ACAD_XREC_ROUNDTRIP
360
204
  0
DICTIONARY
  5
1E7
330
2B
100
AcDbDictionary
280
     1
281
     1
  3
ACAD_XREC_ROUNDTRIP
360
1E8
  0
DICTIONARY
  5
1E9
330
2C
100
AcDbDictionary
280
     1
281
     1
  3
ACAD_XREC_ROUNDTRIP
360
1EA
  0
DICTIONARY
  5
1EB
330
2D
100
AcDbDictionary
280
     1
281
     1
  3
ACAD_XREC_ROUNDTRIP
360
1EC
  0
DICTIONARY
  5
1ED
330
2E
100
AcDbDictionary
280
     1
281
     1
  3
ACAD_XREC_ROUNDTRIP
360
1EE
  0
DICTIONARY
  5
1F3
330
31
100
AcDbDictionary
280
     1
281
     1
  3
ACAD_XREC_ROUNDTRIP
360
1F4
  0
DICTIONARY
  5
207
330
3B
100
AcDbDictionary
280
     1
281
     1
  3
ACAD_XREC_ROUNDTRIP
360
208
  0
DICTIONARY
  5
201
330
38
100
AcDbDictionary
280
     1
281
     1
  3
ACAD_XREC_ROUNDTRIP
360
202
  0
DICTIONARY
  5
209
330
3C
100
AcDbDictionary
280
     1
281
     1
  3
ACAD_XREC_ROUNDTRIP
360
20A
  0
DICTIONARY
  5
1F7
330
33
100
AcDbDictionary
280
     1
281
     1
  3
ACAD_XREC_ROUNDTRIP
360
1F8
  0
DICTIONARY
  5
215
330
42
100
AcDbDictionary
280
     1
281
     1
  3
ACAD_XREC_ROUNDTRIP
360
216
  0
DICTIONARY
  5
213
330
41
100
AcDbDictionary
280
     1
281
     1
  3
ACAD_XREC_ROUNDTRIP
360
214
  0
DICTIONARY
  5
20D
330
3E
100
AcDbDictionary
280
     1
281
     1
  3
ACAD_XREC_ROUNDTRIP
360
20E
  0
DICTIONARY
  5
20F
330
3F
100
AcDbDictionary
280
     1
281
     1
  3
ACAD_XREC_ROUNDTRIP
360
210
  0
DICTIONARY
  5
1FF
330
37
100
AcDbDictionary
280
     1
281
     1
  3
ACAD_XREC_ROUNDTRIP
360
200
  0
DICTIONARY
  5
1F1
330
30
100
AcDbDictionary
280
     1
281
     1
  3
ACAD_XREC_ROUNDTRIP
360
1F2
  0
DICTIONARY
  5
211
330
40
100
AcDbDictionary
280
     1
281
     1
  3
ACAD_XREC_ROUNDTRIP
360
212
  0
XRECORD
  5
21B
102
{ACAD_REACTORS
330
21A
102
}
330
21A
100
AcDbXrecord
280
     1
102
ACAD_ROUNDTRIP_2010_MLEADER_STYLE
  0
CELLSTYLEMAP
  5
218
102
{ACAD_REACTORS
330
217
102
}
330
217
100
AcDbCellStyleMap
 90
        3
300
CELLSTYLE
  1
TABLEFORMAT_BEGIN
 90
        5
170
     1
 91
        0
 92
    32768
 62
   257
 93
        1
300
CONTENTFORMAT
  1
CONTENTFORMAT_BEGIN
 90
        0
 91
        0
 92
        4
 93
        0
300

 40
0.0
140
1.0
 94
        5
 62
     0
340
11
144
6.0
309
CONTENTFORMAT_END
171
     1
301
MARGIN
  1
CELLMARGIN_BEGIN
 40
1.5
 40
1.5
 40
1.5
 40
1.5
 40
1.5
 40
1.5
309
CELLMARGIN_END
 94
        6
 95
        1
302
GRIDFORMAT
  1
GRIDFORMAT_BEGIN
 90
        0
 91
        1
 62
     0
 92
       -2
340
14
 93
        0
 40
0.045
309
GRIDFORMAT_END
 95
        2
302
GRIDFORMAT
  1
GRIDFORMAT_BEGIN
 90
        0
 91
        1
 62
     0
 92
       -2
340
14
 93
        0
 40
0.045
309
GRIDFORMAT_END
 95
        4
302
GRIDFORMAT
  1
GRIDFORMAT_BEGIN
 90
        0
 91
        1
 62
     0
 92
       -2
340
14
 93
        0
 40
0.045
309
GRIDFORMAT_END
 95
        8
302
GRIDFORMAT
  1
GRIDFORMAT_BEGIN
 90
        0
 91
        1
 62
     0
 92
       -2
340
14
 93
        0
 40
0.045
309
GRIDFORMAT_END
 95
       16
302
GRIDFORMAT
  1
GRIDFORMAT_BEGIN
 90
        0
 91
        1
 62
     0
 92
       -2
340
14
 93
        0
 40
0.045
309
GRIDFORMAT_END
 95
       32
302
GRIDFORMAT
  1
GRIDFORMAT_BEGIN
 90
        0
 91
        1
 62
     0
 92
       -2
340
14
 93
        0
 40
0.045
309
GRIDFORMAT_END
309
TABLEFORMAT_END
  1
CELLSTYLE_BEGIN
 90
        1
 91
        1
300
_TITLE
309
CELLSTYLE_END
300
CELLSTYLE
  1
TABLEFORMAT_BEGIN
 90
        5
170
     1
 91
        0
 92
        0
 62
   257
 93
        1
300
CONTENTFORMAT
  1
CONTENTFORMAT_BEGIN
 90
        0
 91
        0
 92
        4
 93
        0
300

 40
0.0
140
1.0
 94
        5
 62
     0
340
11
144
4.5
309
CONTENTFORMAT_END
171
     1
301
MARGIN
  1
CELLMARGIN_BEGIN
 40
1.5
 40
1.5
 40
1.5
 40
1.5
 40
1.5
 40
1.5
309
CELLMARGIN_END
 94
        6
 95
        1
302
GRIDFORMAT
  1
GRIDFORMAT_BEGIN
 90
        0
 91
        1
 62
     0
 92
       -2
340
14
 93
        0
 40
0.045
309
GRIDFORMAT_END
 95
        2
302
GRIDFORMAT
  1
GRIDFORMAT_BEGIN
 90
        0
 91
        1
 62
     0
 92
       -2
340
14
 93
        0
 40
0.045
309
GRIDFORMAT_END
 95
        4
302
GRIDFORMAT
  1
GRIDFORMAT_BEGIN
 90
        0
 91
        1
 62
     0
 92
       -2
340
14
 93
        0
 40
0.045
309
GRIDFORMAT_END
 95
        8
302
GRIDFORMAT
  1
GRIDFORMAT_BEGIN
 90
        0
 91
        1
 62
     0
 92
       -2
340
14
 93
        0
 40
0.045
309
GRIDFORMAT_END
 95
       16
302
GRIDFORMAT
  1
GRIDFORMAT_BEGIN
 90
        0
 91
        1
 62
     0
 92
       -2
340
14
 93
        0
 40
0.045
309
GRIDFORMAT_END
 95
       32
302
GRIDFORMAT
  1
GRIDFORMAT_BEGIN
 90
        0
 91
        1
 62
     0
 92
       -2
340
14
 93
        0
 40
0.045
309
GRIDFORMAT_END
309
TABLEFORMAT_END
  1
CELLSTYLE_BEGIN
 90
        2
 91
        1
300
_HEADER
309
CELLSTYLE_END
300
CELLSTYLE
  1
TABLEFORMAT_BEGIN
 90
        5
170
     1
 91
        0
 92
        0
 62
   257
 93
        1
300
CONTENTFORMAT
  1
CONTENTFORMAT_BEGIN
 90
        0
 91
        0
 92
        4
 93
        0
300

 40
0.0
140
1.0
 94
        2
 62
     0
340
11
144
4.5
309
CONTENTFORMAT_END
171
     1
301
MARGIN
  1
CELLMARGIN_BEGIN
 40
1.5
 40
1.5
 40
1.5
 40
1.5
 40
1.5
 40
1.5
309
CELLMARGIN_END
 94
        6
 95
        1
302
GRIDFORMAT
  1
GRIDFORMAT_BEGIN
 90
        0
 91
        1
 62
     0
 92
       -2
340
14
 93
        0
 40
0.045
309
GRIDFORMAT_END
 95
        2
302
GRIDFORMAT
  1
GRIDFORMAT_BEGIN
 90
        0
 91
        1
 62
     0
 92
       -2
340
14
 93
        0
 40
0.045
309
GRIDFORMAT_END
 95
        4
302
GRIDFORMAT
  1
GRIDFORMAT_BEGIN
 90
        0
 91
        1
 62
     0
 92
       -2
340
14
 93
        0
 40
0.045
309
GRIDFORMAT_END
 95
        8
302
GRIDFORMAT
  1
GRIDFORMAT_BEGIN
 90
        0
 91
        1
 62
     0
 92
       -2
340
14
 93
        0
 40
0.045
309
GRIDFORMAT_END
 95
       16
302
GRIDFORMAT
  1
GRIDFORMAT_BEGIN
 90
        0
 91
        1
 62
     0
 92
       -2
340
14
 93
        0
 40
0.045
309
GRIDFORMAT_END
 95
       32
302
GRIDFORMAT
  1
GRIDFORMAT_BEGIN
 90
        0
 91
        1
 62
     0
 92
       -2
340
14
 93
        0
 40
0.045
309
GRIDFORMAT_END
309
TABLEFORMAT_END
  1
CELLSTYLE_BEGIN
 90
        3
 91
        2
300
_DATA
309
CELLSTYLE_END
  0
XRECORD
  5
1F0
102
{ACAD_REACTORS
330
1EF
102
}
330
1EF
100
AcDbXrecord
280
     1
102
RTVSPropertyOp0
 70
     1
102
RTVSPropertyOp1
 70
     1
102
RTVSPropertyOp2
 70
     1
102
RTVSPropertyOp3
 70
     1
102
RTVSPropertyOp4
 70
     1
102
RTVSPropertyOp5
 70
     1
102
RTVSPropertyOp6
 70
     1
102
RTVSPropertyOp7
 70
     1
102
RTVSPropertyOp8
 70
     1
102
RTVSPropertyOp9
 70
     1
102
RTVSPropertyOp10
 70
     1
102
RTVSPropertyOp11
 70
     1
102
RTVSPropertyOp12
 70
     1
102
RTVSPropertyOp13
 70
     1
102
RTVSPropertyOp14
 70
     1
102
RTVSPropertyOp15
 70
     1
102
RTVSPropertyOp16
 70
     1
102
RTVSPropertyOp17
 70
     1
102
RTVSPropertyOp18
 70
     1
102
RTVSPropertyOp19
 70
     1
102
RTVSPropertyOp20
 70
     1
102
RTVSPropertyOp21
 70
     1
102
RTVSPropertyOp22
 70
     1
102
RTVSPropertyOp23
 70
     1
102
RTVSPropertyOp24
 70
     1
102
RTVSPropertyOp25
 70
     1
102
RTVSPropertyOp26
 70
     1
102
RTVSPropertyOp27
 70
     1
102
RTVSPropertyOp28
 70
     1
102
RTVSPropertyOp29
 70
     1
102
RTVSPropertyOp30
 70
     1
102
RTVSPropertyOp31
 70
     1
102
RTVSPropertyOp32
 70
     1
102
RTVSPropertyOp33
 70
     1
102
RTVSPropertyOp34
 70
     1
102
RTVSPropertyOp35
 70
     1
102
RTVSPropertyOp36
 70
     1
102
RTVSPropertyOp37
 70
     1
102
RTVSPropertyOp38
 70
     1
102
RTVSPropertyOp39
 70
     1
102
RTVSPropertyOp40
 70
     1
102
RTVSPropertyOp41
 70
     1
102
RTVSPropertyOp42
 70
     1
102
RTVSPropertyOp43
 70
     1
102
RTVSPropertyOp44
 70
     1
102
RTVSPropertyOp45
 70
     1
102
RTVSPropertyOp46
 70
     1
102
RTVSPropertyOp47
 70
     1
102
RTVSPropertyOp48
 70
     1
102
RTVSPropertyOp49
 70
     1
102
RTVSPropertyOp50
 70
     1
102
RTVSPropertyOp51
 70
     0
102
RTVSPropertyOp52
 70
     0
102
RTVSPropertyOp53
 70
     1
102
RTVSPropertyOp54
 70
     1
102
RTVSPropertyOp55
 70
     1
102
RTVSPropertyOp56
 70
     1
102
RTVSPropertyOp57
 70
     1
102
RTVSPost2010Prop28
280
     1
102
RTVSPost2010PropOp28
 70
     1
102
RTVSPost2010Prop29
280
     1
102
RTVSPost2010PropOp29
 70
     1
102
RTVSPost2010Prop30
280
     0
102
RTVSPost2010PropOp30
 70
     1
102
RTVSPost2010Prop31
280
     0
102
RTVSPost2010PropOp31
 70
     1
102
RTVSPost2010Prop32
280
     0
102
RTVSPost2010PropOp32
 70
     1
102
RTVSPost2010Prop33
280
     0
102
RTVSPost2010PropOp33
 70
     1
102
RTVSPost2010Prop34
280
     0
102
RTVSPost2010PropOp34
 70
     1
102
RTVSPost2010Prop35
280
     0
102
RTVSPost2010PropOp35
 70
     1
102
RTVSPost2010Prop36
280
     0
102
RTVSPost2010PropOp36
 70
     1
102
RTVSPost2010Prop37
 90
       50
102
RTVSPost2010PropOp37
 70
     1
102
RTVSPost2010Prop38
140
0.0
102
RTVSPost2010PropOp38
 70
     1
102
RTVSPost2010Prop39
140
1.0
102
RTVSPost2010PropOp39
 70
     1
102
RTVSPost2010Prop40
 90
        0
102
RTVSPost2010PropOp40
 70
     1
102
RTVSPost2010Prop41ColorIndex
 90
       18
102
RTVSPost2010Prop41ColorRGB
 90
        0
102
RTVSPost2010PropOp41
 70
     1
102
RTVSPost2010Prop42
 90
       50
102
RTVSPost2010PropOp42
 70
     1
102
RTVSPost2010Prop43
 90
        3
102
RTVSPost2010PropOp43
 70
     1
102
RTVSPost2010Prop44ColorIndex
 90
        5
102
RTVSPost2010Prop44ColorRGB
 90
      255
102
RTVSPost2010PropOp44
 70
     1
102
RTVSPost2010Prop45
280
     0
102
RTVSPost2010PropOp45
 70
     1
102
RTVSPost2010Prop46
 90
       50
102
RTVSPost2010PropOp46
 70
     1
102
RTVSPost2010Prop47
 90
       50
102
RTVSPost2010PropOp47
 70
     1
102
RTVSPost2010Prop48
 90
       50
102
RTVSPost2010PropOp48
 70
     1
102
RTVSPost2010Prop49
280
     0
102
RTVSPost2010PropOp49
 70
     1
102
RTVSPost2010Prop50
 90
       50
102
RTVSPost2010PropOp50
 70
     1
102
RTVSPost2010Prop51ColorIndex
 90
      256
102
RTVSPost2010Prop51ColorRGB
 90
-16777216
102
RTVSPost2010PropOp51
 70
     0
102
RTVSPost2010Prop52
140
1.0
102
RTVSPost2010PropOp52
 70
     0
102
RTVSPost2010Prop53
 90
        2
102
RTVSPost2010PropOp53
 70
     1
102
RTVSPost2010Prop54
  1
strokes_ogs.tif
102
RTVSPost2010PropOp54
 70
     1
102
RTVSPost2010Prop55
280
     0
102
RTVSPost2010PropOp55
 70
     1
102
RTVSPost2010Prop56
140
1.0
102
RTVSPost2010PropOp56
 70
     1
102
RTVSPost2010Prop57
140
1.0
102
RTVSPost2010PropOp57
 70
     1
  0
XRECORD
  5
1F6
102
{ACAD_REACTORS
330
1F5
102
}
330
1F5
100
AcDbXrecord
280
     1
102
RTVSPropertyOp0
 70
     1
102
RTVSPropertyOp1
 70
     1
102
RTVSPropertyOp2
 70
     1
102
RTVSPropertyOp3
 70
     1
102
RTVSPropertyOp4
 70
     1
102
RTVSPropertyOp5
 70
     1
102
RTVSPropertyOp6
 70
     1
102
RTVSPropertyOp7
 70
     1
102
RTVSPropertyOp8
 70
     1
102
RTVSPropertyOp9
 70
     1
102
RTVSPropertyOp10
 70
     1
102
RTVSPropertyOp11
 70
     1
102
RTVSPropertyOp12
 70
     1
102
RTVSPropertyOp13
 70
     1
102
RTVSPropertyOp14
 70
     1
102
RTVSPropertyOp15
 70
     1
102
RTVSPropertyOp16
 70
     1
102
RTVSPropertyOp17
 70
     1
102
RTVSPropertyOp18
 70
     1
102
RTVSPropertyOp19
 70
     1
102
RTVSPropertyOp20
 70
     1
102
RTVSPropertyOp21
 70
     1
102
RTVSPropertyOp22
 70
     1
102
RTVSPropertyOp23
 70
     1
102
RTVSPropertyOp24
 70
     1
102
RTVSPropertyOp25
 70
     1
102
RTVSPropertyOp26
 70
     1
102
RTVSPropertyOp27
 70
     1
102
RTVSPropertyOp28
 70
     1
102
RTVSPropertyOp29
 70
     1
102
RTVSPropertyOp30
 70
     1
102
RTVSPropertyOp31
 70
     1
102
RTVSPropertyOp32
 70
     1
102
RTVSPropertyOp33
 70
     1
102
RTVSPropertyOp34
 70
     1
102
RTVSPropertyOp35
 70
     1
102
RTVSPropertyOp36
 70
     1
102
RTVSPropertyOp37
 70
     1
102
RTVSPropertyOp38
 70
     1
102
RTVSPropertyOp39
 70
     1
102
RTVSPropertyOp40
 70
     1
102
RTVSPropertyOp41
 70
     1
102
RTVSPropertyOp42
 70
     1
102
RTVSPropertyOp43
 70
     1
102
RTVSPropertyOp44
 70
     1
102
RTVSPropertyOp45
 70
     1
102
RTVSPropertyOp46
 70
     1
102
RTVSPropertyOp47
 70
     1
102
RTVSPropertyOp48
 70
     1
102
RTVSPropertyOp49
 70
     1
102
RTVSPropertyOp50
 70
     1
102
RTVSPropertyOp51
 70
     0
102
RTVSPropertyOp52
 70
     0
102
RTVSPropertyOp53
 70
     1
102
RTVSPropertyOp54
 70
     1
102
RTVSPropertyOp55
 70
     1
102
RTVSPropertyOp56
 70
     1
102
RTVSPropertyOp57
 70
     1
102
RTVSPost2010Prop28
280
     0
102
RTVSPost2010PropOp28
 70
     1
102
RTVSPost2010Prop29
280
     1
102
RTVSPost2010PropOp29
 70
     1
102
RTVSPost2010Prop30
280
     1
102
RTVSPost2010PropOp30
 70
     1
102
RTVSPost2010Prop31
280
     0
102
RTVSPost2010PropOp31
 70
     1
102
RTVSPost2010Prop32
280
     0
102
RTVSPost2010PropOp32
 70
     1
102
RTVSPost2010Prop33
280
     0
102
RTVSPost2010PropOp33
 70
     1
102
RTVSPost2010Prop34
280
     0
102
RTVSPost2010PropOp34
 70
     1
102
RTVSPost2010Prop35
280
     0
102
RTVSPost2010PropOp35
 70
     1
102
RTVSPost2010Prop36
280
     0
102
RTVSPost2010PropOp36
 70
     1
102
RTVSPost2010Prop37
 90
       50
102
RTVSPost2010PropOp37
 70
     1
102
RTVSPost2010Prop38
140
0.0
102
RTVSPost2010PropOp38
 70
     1
102
RTVSPost2010Prop39
140
1.0
102
RTVSPost2010PropOp39
 70
     1
102
RTVSPost2010Prop40
 90
        0
102
RTVSPost2010PropOp40
 70
     1
102
RTVSPost2010Prop41ColorIndex
 90
       18
102
RTVSPost2010Prop41ColorRGB
 90
        0
102
RTVSPost2010PropOp41
 70
     1
102
RTVSPost2010Prop42
 90
       50
102
RTVSPost2010PropOp42
 70
     1
102
RTVSPost2010Prop43
 90
        3
102
RTVSPost2010PropOp43
 70
     1
102
RTVSPost2010Prop44ColorIndex
 90
        5
102
RTVSPost2010Prop44ColorRGB
 90
      255
102
RTVSPost2010PropOp44
 70
     1
102
RTVSPost2010Prop45
280
     0
102
RTVSPost2010PropOp45
 70
     1
102
RTVSPost2010Prop46
 90
       50
102
RTVSPost2010PropOp46
 70
     1
102
RTVSPost2010Prop47
 90
       50
102
RTVSPost2010PropOp47
 70
     1
102
RTVSPost2010Prop48
 90
       50
102
RTVSPost2010PropOp48
 70
     1
102
RTVSPost2010Prop49
280
     0
102
RTVSPost2010PropOp49
 70
     1
102
RTVSPost2010Prop50
 90
       50
102
RTVSPost2010PropOp50
 70
     1
102
RTVSPost2010Prop51ColorIndex
 90
      256
102
RTVSPost2010Prop51ColorRGB
 90
-16777216
102
RTVSPost2010PropOp51
 70
     0
102
RTVSPost2010Prop52
140
1.0
102
RTVSPost2010PropOp52
 70
     0
102
RTVSPost2010Prop53
 90
        2
102
RTVSPost2010PropOp53
 70
     1
102
RTVSPost2010Prop54
  1
strokes_ogs.tif
102
RTVSPost2010PropOp54
 70
     1
102
RTVSPost2010Prop55
280
     0
102
RTVSPost2010PropOp55
 70
     1
102
RTVSPost2010Prop56
140
1.0
102
RTVSPost2010PropOp56
 70
     1
102
RTVSPost2010Prop57
140
1.0
102
RTVSPost2010PropOp57
 70
     1
  0
XRECORD
  5
1FE
102
{ACAD_REACTORS
330
1FD
102
}
330
1FD
100
AcDbXrecord
280
     1
102
RTVSPropertyOp0
 70
     1
102
RTVSPropertyOp1
 70
     1
102
RTVSPropertyOp2
 70
     1
102
RTVSPropertyOp3
 70
     1
102
RTVSPropertyOp4
 70
     1
102
RTVSPropertyOp5
 70
     1
102
RTVSPropertyOp6
 70
     1
102
RTVSPropertyOp7
 70
     1
102
RTVSPropertyOp8
 70
     1
102
RTVSPropertyOp9
 70
     1
102
RTVSPropertyOp10
 70
     1
102
RTVSPropertyOp11
 70
     1
102
RTVSPropertyOp12
 70
     1
102
RTVSPropertyOp13
 70
     1
102
RTVSPropertyOp14
 70
     1
102
RTVSPropertyOp15
 70
     1
102
RTVSPropertyOp16
 70
     1
102
RTVSPropertyOp17
 70
     1
102
RTVSPropertyOp18
 70
     1
102
RTVSPropertyOp19
 70
     1
102
RTVSPropertyOp20
 70
     1
102
RTVSPropertyOp21
 70
     1
102
RTVSPropertyOp22
 70
     1
102
RTVSPropertyOp23
 70
     1
102
RTVSPropertyOp24
 70
     1
102
RTVSPropertyOp25
 70
     1
102
RTVSPropertyOp26
 70
     1
102
RTVSPropertyOp27
 70
     1
102
RTVSPropertyOp28
 70
     1
102
RTVSPropertyOp29
 70
     1
102
RTVSPropertyOp30
 70
     1
102
RTVSPropertyOp31
 70
     1
102
RTVSPropertyOp32
 70
     1
102
RTVSPropertyOp33
 70
     1
102
RTVSPropertyOp34
 70
     1
102
RTVSPropertyOp35
 70
     1
102
RTVSPropertyOp36
 70
     1
102
RTVSPropertyOp37
 70
     1
102
RTVSPropertyOp38
 70
     1
102
RTVSPropertyOp39
 70
     1
102
RTVSPropertyOp40
 70
     1
102
RTVSPropertyOp41
 70
     1
102
RTVSPropertyOp42
 70
     1
102
RTVSPropertyOp43
 70
     1
102
RTVSPropertyOp44
 70
     1
102
RTVSPropertyOp45
 70
     1
102
RTVSPropertyOp46
 70
     1
102
RTVSPropertyOp47
 70
     1
102
RTVSPropertyOp48
 70
     1
102
RTVSPropertyOp49
 70
     1
102
RTVSPropertyOp50
 70
     1
102
RTVSPropertyOp51
 70
     0
102
RTVSPropertyOp52
 70
     0
102
RTVSPropertyOp53
 70
     1
102
RTVSPropertyOp54
 70
     1
102
RTVSPropertyOp55
 70
     1
102
RTVSPropertyOp56
 70
     1
102
RTVSPropertyOp57
 70
     1
102
RTVSPost2010Prop28
280
     0
102
RTVSPost2010PropOp28
 70
     1
102
RTVSPost2010Prop29
280
     1
102
RTVSPost2010PropOp29
 70
     1
102
RTVSPost2010Prop30
280
     1
102
RTVSPost2010PropOp30
 70
     1
102
RTVSPost2010Prop31
280
     0
102
RTVSPost2010PropOp31
 70
     1
102
RTVSPost2010Prop32
280
     0
102
RTVSPost2010PropOp32
 70
     1
102
RTVSPost2010Prop33
280
     0
102
RTVSPost2010PropOp33
 70
     1
102
RTVSPost2010Prop34
280
     0
102
RTVSPost2010PropOp34
 70
     1
102
RTVSPost2010Prop35
280
     0
102
RTVSPost2010PropOp35
 70
     1
102
RTVSPost2010Prop36
280
     0
102
RTVSPost2010PropOp36
 70
     1
102
RTVSPost2010Prop37
 90
       50
102
RTVSPost2010PropOp37
 70
     1
102
RTVSPost2010Prop38
140
0.0
102
RTVSPost2010PropOp38
 70
     1
102
RTVSPost2010Prop39
140
1.0
102
RTVSPost2010PropOp39
 70
     1
102
RTVSPost2010Prop40
 90
        0
102
RTVSPost2010PropOp40
 70
     1
102
RTVSPost2010Prop41ColorIndex
 90
       18
102
RTVSPost2010Prop41ColorRGB
 90
        0
102
RTVSPost2010PropOp41
 70
     1
102
RTVSPost2010Prop42
 90
       50
102
RTVSPost2010PropOp42
 70
     1
102
RTVSPost2010Prop43
 90
        3
102
RTVSPost2010PropOp43
 70
     1
102
RTVSPost2010Prop44ColorIndex
 90
        5
102
RTVSPost2010Prop44ColorRGB
 90
      255
102
RTVSPost2010PropOp44
 70
     1
102
RTVSPost2010Prop45
280
     0
102
RTVSPost2010PropOp45
 70
     1
102
RTVSPost2010Prop46
 90
       50
102
RTVSPost2010PropOp46
 70
     1
102
RTVSPost2010Prop47
 90
       50
102
RTVSPost2010PropOp47
 70
     1
102
RTVSPost2010Prop48
 90
       50
102
RTVSPost2010PropOp48
 70
     1
102
RTVSPost2010Prop49
280
     0
102
RTVSPost2010PropOp49
 70
     1
102
RTVSPost2010Prop50
 90
       50
102
RTVSPost2010PropOp50
 70
     1
102
RTVSPost2010Prop51ColorIndex
 90
      256
102
RTVSPost2010Prop51ColorRGB
 90
-16777216
102
RTVSPost2010PropOp51
 70
     0
102
RTVSPost2010Prop52
140
1.0
102
RTVSPost2010PropOp52
 70
     0
102
RTVSPost2010Prop53
 90
        2
102
RTVSPost2010PropOp53
 70
     1
102
RTVSPost2010Prop54
  1
strokes_ogs.tif
102
RTVSPost2010PropOp54
 70
     1
102
RTVSPost2010Prop55
280
     0
102
RTVSPost2010PropOp55
 70
     1
102
RTVSPost2010Prop56
140
1.0
102
RTVSPost2010PropOp56
 70
     1
102
RTVSPost2010Prop57
140
1.0
102
RTVSPost2010PropOp57
 70
     1
  0
XRECORD
  5
206
102
{ACAD_REACTORS
330
205
102
}
330
205
100
AcDbXrecord
280
     1
102
RTVSPropertyOp0
 70
     1
102
RTVSPropertyOp1
 70
     1
102
RTVSPropertyOp2
 70
     1
102
RTVSPropertyOp3
 70
     1
102
RTVSPropertyOp4
 70
     1
102
RTVSPropertyOp5
 70
     1
102
RTVSPropertyOp6
 70
     1
102
RTVSPropertyOp7
 70
     1
102
RTVSPropertyOp8
 70
     1
102
RTVSPropertyOp9
 70
     1
102
RTVSPropertyOp10
 70
     1
102
RTVSPropertyOp11
 70
     1
102
RTVSPropertyOp12
 70
     1
102
RTVSPropertyOp13
 70
     1
102
RTVSPropertyOp14
 70
     1
102
RTVSPropertyOp15
 70
     1
102
RTVSPropertyOp16
 70
     1
102
RTVSPropertyOp17
 70
     1
102
RTVSPropertyOp18
 70
     1
102
RTVSPropertyOp19
 70
     1
102
RTVSPropertyOp20
 70
     1
102
RTVSPropertyOp21
 70
     1
102
RTVSPropertyOp22
 70
     1
102
RTVSPropertyOp23
 70
     1
102
RTVSPropertyOp24
 70
     1
102
RTVSPropertyOp25
 70
     1
102
RTVSPropertyOp26
 70
     1
102
RTVSPropertyOp27
 70
     1
102
RTVSPropertyOp28
 70
     1
102
RTVSPropertyOp29
 70
     1
102
RTVSPropertyOp30
 70
     1
102
RTVSPropertyOp31
 70
     1
102
RTVSPropertyOp32
 70
     1
102
RTVSPropertyOp33
 70
     1
102
RTVSPropertyOp34
 70
     1
102
RTVSPropertyOp35
 70
     1
102
RTVSPropertyOp36
 70
     1
102
RTVSPropertyOp37
 70
     1
102
RTVSPropertyOp38
 70
     1
102
RTVSPropertyOp39
 70
     1
102
RTVSPropertyOp40
 70
     1
102
RTVSPropertyOp41
 70
     1
102
RTVSPropertyOp42
 70
     1
102
RTVSPropertyOp43
 70
     1
102
RTVSPropertyOp44
 70
     1
102
RTVSPropertyOp45
 70
     1
102
RTVSPropertyOp46
 70
     1
102
RTVSPropertyOp47
 70
     1
102
RTVSPropertyOp48
 70
     1
102
RTVSPropertyOp49
 70
     1
102
RTVSPropertyOp50
 70
     1
102
RTVSPropertyOp51
 70
     0
102
RTVSPropertyOp52
 70
     0
102
RTVSPropertyOp53
 70
     1
102
RTVSPropertyOp54
 70
     1
102
RTVSPropertyOp55
 70
     1
102
RTVSPropertyOp56
 70
     1
102
RTVSPropertyOp57
 70
     1
102
RTVSPost2010Prop28
280
     0
102
RTVSPost2010PropOp28
 70
     1
102
RTVSPost2010Prop29
280
     1
102
RTVSPost2010PropOp29
 70
     1
102
RTVSPost2010Prop30
280
     1
102
RTVSPost2010PropOp30
 70
     1
102
RTVSPost2010Prop31
280
     0
102
RTVSPost2010PropOp31
 70
     1
102
RTVSPost2010Prop32
280
     0
102
RTVSPost2010PropOp32
 70
     1
102
RTVSPost2010Prop33
280
     0
102
RTVSPost2010PropOp33
 70
     1
102
RTVSPost2010Prop34
280
     0
102
RTVSPost2010PropOp34
 70
     1
102
RTVSPost2010Prop35
280
     0
102
RTVSPost2010PropOp35
 70
     1
102
RTVSPost2010Prop36
280
     0
102
RTVSPost2010PropOp36
 70
     1
102
RTVSPost2010Prop37
 90
       50
102
RTVSPost2010PropOp37
 70
     1
102
RTVSPost2010Prop38
140
0.0
102
RTVSPost2010PropOp38
 70
     1
102
RTVSPost2010Prop39
140
1.0
102
RTVSPost2010PropOp39
 70
     1
102
RTVSPost2010Prop40
 90
        0
102
RTVSPost2010PropOp40
 70
     1
102
RTVSPost2010Prop41ColorIndex
 90
       18
102
RTVSPost2010Prop41ColorRGB
 90
        0
102
RTVSPost2010PropOp41
 70
     1
102
RTVSPost2010Prop42
 90
       50
102
RTVSPost2010PropOp42
 70
     1
102
RTVSPost2010Prop43
 90
        3
102
RTVSPost2010PropOp43
 70
     1
102
RTVSPost2010Prop44ColorIndex
 90
        5
102
RTVSPost2010Prop44ColorRGB
 90
      255
102
RTVSPost2010PropOp44
 70
     1
102
RTVSPost2010Prop45
280
     0
102
RTVSPost2010PropOp45
 70
     1
102
RTVSPost2010Prop46
 90
       50
102
RTVSPost2010PropOp46
 70
     1
102
RTVSPost2010Prop47
 90
       50
102
RTVSPost2010PropOp47
 70
     1
102
RTVSPost2010Prop48
 90
       50
102
RTVSPost2010PropOp48
 70
     1
102
RTVSPost2010Prop49
280
     0
102
RTVSPost2010PropOp49
 70
     1
102
RTVSPost2010Prop50
 90
       50
102
RTVSPost2010PropOp50
 70
     1
102
RTVSPost2010Prop51ColorIndex
 90
      256
102
RTVSPost2010Prop51ColorRGB
 90
-16777216
102
RTVSPost2010PropOp51
 70
     0
102
RTVSPost2010Prop52
140
1.0
102
RTVSPost2010PropOp52
 70
     0
102
RTVSPost2010Prop53
 90
        2
102
RTVSPost2010PropOp53
 70
     1
102
RTVSPost2010Prop54
  1
strokes_ogs.tif
102
RTVSPost2010PropOp54
 70
     1
102
RTVSPost2010Prop55
280
     0
102
RTVSPost2010PropOp55
 70
     1
102
RTVSPost2010Prop56
140
1.0
102
RTVSPost2010PropOp56
 70
     1
102
RTVSPost2010Prop57
140
1.0
102
RTVSPost2010PropOp57
 70
     1
  0
XRECORD
  5
1FA
102
{ACAD_REACTORS
330
1F9
102
}
330
1F9
100
AcDbXrecord
280
     1
102
RTVSPropertyOp0
 70
     1
102
RTVSPropertyOp1
 70
     1
102
RTVSPropertyOp2
 70
     1
102
RTVSPropertyOp3
 70
     1
102
RTVSPropertyOp4
 70
     1
102
RTVSPropertyOp5
 70
     1
102
RTVSPropertyOp6
 70
     1
102
RTVSPropertyOp7
 70
     1
102
RTVSPropertyOp8
 70
     1
102
RTVSPropertyOp9
 70
     1
102
RTVSPropertyOp10
 70
     1
102
RTVSPropertyOp11
 70
     1
102
RTVSPropertyOp12
 70
     1
102
RTVSPropertyOp13
 70
     1
102
RTVSPropertyOp14
 70
     1
102
RTVSPropertyOp15
 70
     1
102
RTVSPropertyOp16
 70
     1
102
RTVSPropertyOp17
 70
     1
102
RTVSPropertyOp18
 70
     1
102
RTVSPropertyOp19
 70
     1
102
RTVSPropertyOp20
 70
     1
102
RTVSPropertyOp21
 70
     1
102
RTVSPropertyOp22
 70
     1
102
RTVSPropertyOp23
 70
     1
102
RTVSPropertyOp24
 70
     1
102
RTVSPropertyOp25
 70
     1
102
RTVSPropertyOp26
 70
     1
102
RTVSPropertyOp27
 70
     1
102
RTVSPropertyOp28
 70
     1
102
RTVSPropertyOp29
 70
     1
102
RTVSPropertyOp30
 70
     1
102
RTVSPropertyOp31
 70
     1
102
RTVSPropertyOp32
 70
     1
102
RTVSPropertyOp33
 70
     1
102
RTVSPropertyOp34
 70
     1
102
RTVSPropertyOp35
 70
     1
102
RTVSPropertyOp36
 70
     1
102
RTVSPropertyOp37
 70
     1
102
RTVSPropertyOp38
 70
     1
102
RTVSPropertyOp39
 70
     1
102
RTVSPropertyOp40
 70
     1
102
RTVSPropertyOp41
 70
     1
102
RTVSPropertyOp42
 70
     1
102
RTVSPropertyOp43
 70
     1
102
RTVSPropertyOp44
 70
     1
102
RTVSPropertyOp45
 70
     1
102
RTVSPropertyOp46
 70
     1
102
RTVSPropertyOp47
 70
     1
102
RTVSPropertyOp48
 70
     1
102
RTVSPropertyOp49
 70
     1
102
RTVSPropertyOp50
 70
     1
102
RTVSPropertyOp51
 70
     0
102
RTVSPropertyOp52
 70
     0
102
RTVSPropertyOp53
 70
     1
102
RTVSPropertyOp54
 70
     1
102
RTVSPropertyOp55
 70
     1
102
RTVSPropertyOp56
 70
     1
102
RTVSPropertyOp57
 70
     1
102
RTVSPost2010Prop28
280
     0
102
RTVSPost2010PropOp28
 70
     1
102
RTVSPost2010Prop29
280
     1
102
RTVSPost2010PropOp29
 70
     1
102
RTVSPost2010Prop30
280
     1
102
RTVSPost2010PropOp30
 70
     1
102
RTVSPost2010Prop31
280
     0
102
RTVSPost2010PropOp31
 70
     1
102
RTVSPost2010Prop32
280
     0
102
RTVSPost2010PropOp32
 70
     1
102
RTVSPost2010Prop33
280
     0
102
RTVSPost2010PropOp33
 70
     1
102
RTVSPost2010Prop34
280
     0
102
RTVSPost2010PropOp34
 70
     1
102
RTVSPost2010Prop35
280
     0
102
RTVSPost2010PropOp35
 70
     1
102
RTVSPost2010Prop36
280
     0
102
RTVSPost2010PropOp36
 70
     1
102
RTVSPost2010Prop37
 90
       50
102
RTVSPost2010PropOp37
 70
     1
102
RTVSPost2010Prop38
140
0.0
102
RTVSPost2010PropOp38
 70
     1
102
RTVSPost2010Prop39
140
1.0
102
RTVSPost2010PropOp39
 70
     1
102
RTVSPost2010Prop40
 90
        0
102
RTVSPost2010PropOp40
 70
     1
102
RTVSPost2010Prop41ColorIndex
 90
       18
102
RTVSPost2010Prop41ColorRGB
 90
        0
102
RTVSPost2010PropOp41
 70
     1
102
RTVSPost2010Prop42
 90
       50
102
RTVSPost2010PropOp42
 70
     1
102
RTVSPost2010Prop43
 90
        3
102
RTVSPost2010PropOp43
 70
     1
102
RTVSPost2010Prop44ColorIndex
 90
        5
102
RTVSPost2010Prop44ColorRGB
 90
      255
102
RTVSPost2010PropOp44
 70
     1
102
RTVSPost2010Prop45
280
     0
102
RTVSPost2010PropOp45
 70
     1
102
RTVSPost2010Prop46
 90
       50
102
RTVSPost2010PropOp46
 70
     1
102
RTVSPost2010Prop47
 90
       50
102
RTVSPost2010PropOp47
 70
     1
102
RTVSPost2010Prop48
 90
       50
102
RTVSPost2010PropOp48
 70
     1
102
RTVSPost2010Prop49
280
     0
102
RTVSPost2010PropOp49
 70
     1
102
RTVSPost2010Prop50
 90
       50
102
RTVSPost2010PropOp50
 70
     1
102
RTVSPost2010Prop51ColorIndex
 90
      256
102
RTVSPost2010Prop51ColorRGB
 90
-16777216
102
RTVSPost2010PropOp51
 70
     0
102
RTVSPost2010Prop52
140
1.0
102
RTVSPost2010PropOp52
 70
     0
102
RTVSPost2010Prop53
 90
        2
102
RTVSPost2010PropOp53
 70
     1
102
RTVSPost2010Prop54
  1
strokes_ogs.tif
102
RTVSPost2010PropOp54
 70
     1
102
RTVSPost2010Prop55
280
     0
102
RTVSPost2010PropOp55
 70
     1
102
RTVSPost2010Prop56
140
1.0
102
RTVSPost2010PropOp56
 70
     1
102
RTVSPost2010Prop57
140
1.0
102
RTVSPost2010PropOp57
 70
     1
  0
XRECORD
  5
1FC
102
{ACAD_REACTORS
330
1FB
102
}
330
1FB
100
AcDbXrecord
280
     1
102
RTVSPropertyOp0
 70
     1
102
RTVSPropertyOp1
 70
     1
102
RTVSPropertyOp2
 70
     1
102
RTVSPropertyOp3
 70
     1
102
RTVSPropertyOp4
 70
     1
102
RTVSPropertyOp5
 70
     1
102
RTVSPropertyOp6
 70
     1
102
RTVSPropertyOp7
 70
     1
102
RTVSPropertyOp8
 70
     1
102
RTVSPropertyOp9
 70
     1
102
RTVSPropertyOp10
 70
     1
102
RTVSPropertyOp11
 70
     1
102
RTVSPropertyOp12
 70
     1
102
RTVSPropertyOp13
 70
     1
102
RTVSPropertyOp14
 70
     1
102
RTVSPropertyOp15
 70
     1
102
RTVSPropertyOp16
 70
     1
102
RTVSPropertyOp17
 70
     1
102
RTVSPropertyOp18
 70
     1
102
RTVSPropertyOp19
 70
     1
102
RTVSPropertyOp20
 70
     1
102
RTVSPropertyOp21
 70
     1
102
RTVSPropertyOp22
 70
     1
102
RTVSPropertyOp23
 70
     1
102
RTVSPropertyOp24
 70
     1
102
RTVSPropertyOp25
 70
     1
102
RTVSPropertyOp26
 70
     1
102
RTVSPropertyOp27
 70
     1
102
RTVSPropertyOp28
 70
     1
102
RTVSPropertyOp29
 70
     1
102
RTVSPropertyOp30
 70
     1
102
RTVSPropertyOp31
 70
     1
102
RTVSPropertyOp32
 70
     1
102
RTVSPropertyOp33
 70
     1
102
RTVSPropertyOp34
 70
     1
102
RTVSPropertyOp35
 70
     1
102
RTVSPropertyOp36
 70
     1
102
RTVSPropertyOp37
 70
     1
102
RTVSPropertyOp38
 70
     1
102
RTVSPropertyOp39
 70
     1
102
RTVSPropertyOp40
 70
     1
102
RTVSPropertyOp41
 70
     1
102
RTVSPropertyOp42
 70
     1
102
RTVSPropertyOp43
 70
     1
102
RTVSPropertyOp44
 70
     1
102
RTVSPropertyOp45
 70
     1
102
RTVSPropertyOp46
 70
     1
102
RTVSPropertyOp47
 70
     1
102
RTVSPropertyOp48
 70
     1
102
RTVSPropertyOp49
 70
     1
102
RTVSPropertyOp50
 70
     1
102
RTVSPropertyOp51
 70
     0
102
RTVSPropertyOp52
 70
     0
102
RTVSPropertyOp53
 70
     1
102
RTVSPropertyOp54
 70
     1
102
RTVSPropertyOp55
 70
     1
102
RTVSPropertyOp56
 70
     1
102
RTVSPropertyOp57
 70
     1
102
RTVSPost2010Prop28
280
     0
102
RTVSPost2010PropOp28
 70
     1
102
RTVSPost2010Prop29
280
     1
102
RTVSPost2010PropOp29
 70
     1
102
RTVSPost2010Prop30
280
     1
102
RTVSPost2010PropOp30
 70
     1
102
RTVSPost2010Prop31
280
     0
102
RTVSPost2010PropOp31
 70
     1
102
RTVSPost2010Prop32
280
     0
102
RTVSPost2010PropOp32
 70
     1
102
RTVSPost2010Prop33
280
     0
102
RTVSPost2010PropOp33
 70
     1
102
RTVSPost2010Prop34
280
     0
102
RTVSPost2010PropOp34
 70
     1
102
RTVSPost2010Prop35
280
     0
102
RTVSPost2010PropOp35
 70
     1
102
RTVSPost2010Prop36
280
     0
102
RTVSPost2010PropOp36
 70
     1
102
RTVSPost2010Prop37
 90
       50
102
RTVSPost2010PropOp37
 70
     1
102
RTVSPost2010Prop38
140
0.0
102
RTVSPost2010PropOp38
 70
     1
102
RTVSPost2010Prop39
140
1.0
102
RTVSPost2010PropOp39
 70
     1
102
RTVSPost2010Prop40
 90
        0
102
RTVSPost2010PropOp40
 70
     1
102
RTVSPost2010Prop41ColorIndex
 90
       18
102
RTVSPost2010Prop41ColorRGB
 90
        0
102
RTVSPost2010PropOp41
 70
     1
102
RTVSPost2010Prop42
 90
       50
102
RTVSPost2010PropOp42
 70
     1
102
RTVSPost2010Prop43
 90
        3
102
RTVSPost2010PropOp43
 70
     1
102
RTVSPost2010Prop44ColorIndex
 90
        5
102
RTVSPost2010Prop44ColorRGB
 90
      255
102
RTVSPost2010PropOp44
 70
     1
102
RTVSPost2010Prop45
280
     0
102
RTVSPost2010PropOp45
 70
     1
102
RTVSPost2010Prop46
 90
       50
102
RTVSPost2010PropOp46
 70
     1
102
RTVSPost2010Prop47
 90
       50
102
RTVSPost2010PropOp47
 70
     1
102
RTVSPost2010Prop48
 90
       50
102
RTVSPost2010PropOp48
 70
     1
102
RTVSPost2010Prop49
280
     0
102
RTVSPost2010PropOp49
 70
     1
102
RTVSPost2010Prop50
 90
       50
102
RTVSPost2010PropOp50
 70
     1
102
RTVSPost2010Prop51ColorIndex
 90
      256
102
RTVSPost2010Prop51ColorRGB
 90
-16777216
102
RTVSPost2010PropOp51
 70
     0
102
RTVSPost2010Prop52
140
1.0
102
RTVSPost2010PropOp52
 70
     0
102
RTVSPost2010Prop53
 90
        2
102
RTVSPost2010PropOp53
 70
     1
102
RTVSPost2010Prop54
  1
strokes_ogs.tif
102
RTVSPost2010PropOp54
 70
     1
102
RTVSPost2010Prop55
280
     0
102
RTVSPost2010PropOp55
 70
     1
102
RTVSPost2010Prop56
140
1.0
102
RTVSPost2010PropOp56
 70
     1
102
RTVSPost2010Prop57
140
1.0
102
RTVSPost2010PropOp57
 70
     1
  0
XRECORD
  5
20C
102
{ACAD_REACTORS
330
20B
102
}
330
20B
100
AcDbXrecord
280
     1
102
RTVSPropertyOp0
 70
     0
102
RTVSPropertyOp1
 70
     0
102
RTVSPropertyOp2
 70
     0
102
RTVSPropertyOp3
 70
     0
102
RTVSPropertyOp4
 70
     0
102
RTVSPropertyOp5
 70
     0
102
RTVSPropertyOp6
 70
     0
102
RTVSPropertyOp7
 70
     0
102
RTVSPropertyOp8
 70
     0
102
RTVSPropertyOp9
 70
     0
102
RTVSPropertyOp10
 70
     0
102
RTVSPropertyOp11
 70
     0
102
RTVSPropertyOp12
 70
     0
102
RTVSPropertyOp13
 70
     0
102
RTVSPropertyOp14
 70
     2
102
RTVSPropertyOp15
 70
     0
102
RTVSPropertyOp16
 70
     0
102
RTVSPropertyOp17
 70
     0
102
RTVSPropertyOp18
 70
     0
102
RTVSPropertyOp19
 70
     0
102
RTVSPropertyOp20
 70
     0
102
RTVSPropertyOp21
 70
     0
102
RTVSPropertyOp22
 70
     0
102
RTVSPropertyOp23
 70
     0
102
RTVSPropertyOp24
 70
     0
102
RTVSPropertyOp25
 70
     0
102
RTVSPropertyOp26
 70
     0
102
RTVSPropertyOp27
 70
     0
102
RTVSPropertyOp28
 70
     0
102
RTVSPropertyOp29
 70
     0
102
RTVSPropertyOp30
 70
     0
102
RTVSPropertyOp31
 70
     0
102
RTVSPropertyOp32
 70
     0
102
RTVSPropertyOp33
 70
     0
102
RTVSPropertyOp34
 70
     0
102
RTVSPropertyOp35
 70
     0
102
RTVSPropertyOp36
 70
     0
102
RTVSPropertyOp37
 70
     0
102
RTVSPropertyOp38
 70
     0
102
RTVSPropertyOp39
 70
     0
102
RTVSPropertyOp40
 70
     0
102
RTVSPropertyOp41
 70
     0
102
RTVSPropertyOp42
 70
     0
102
RTVSPropertyOp43
 70
     0
102
RTVSPropertyOp44
 70
     0
102
RTVSPropertyOp45
 70
     0
102
RTVSPropertyOp46
 70
     0
102
RTVSPropertyOp47
 70
     0
102
RTVSPropertyOp48
 70
     0
102
RTVSPropertyOp49
 70
     0
102
RTVSPropertyOp50
 70
     0
102
RTVSPropertyOp51
 70
     0
102
RTVSPropertyOp52
 70
     0
102
RTVSPropertyOp53
 70
     0
102
RTVSPropertyOp54
 70
     0
102
RTVSPropertyOp55
 70
     0
102
RTVSPropertyOp56
 70
     0
102
RTVSPropertyOp57
 70
     0
102
RTVSPost2010Prop28
280
     0
102
RTVSPost2010PropOp28
 70
     0
102
RTVSPost2010Prop29
280
     1
102
RTVSPost2010PropOp29
 70
     0
102
RTVSPost2010Prop30
280
     1
102
RTVSPost2010PropOp30
 70
     0
102
RTVSPost2010Prop31
280
     0
102
RTVSPost2010PropOp31
 70
     0
102
RTVSPost2010Prop32
280
     0
102
RTVSPost2010PropOp32
 70
     0
102
RTVSPost2010Prop33
280
     0
102
RTVSPost2010PropOp33
 70
     0
102
RTVSPost2010Prop34
280
     0
102
RTVSPost2010PropOp34
 70
     0
102
RTVSPost2010Prop35
280
     0
102
RTVSPost2010PropOp35
 70
     0
102
RTVSPost2010Prop36
280
     0
102
RTVSPost2010PropOp36
 70
     0
102
RTVSPost2010Prop37
 90
       50
102
RTVSPost2010PropOp37
 70
     0
102
RTVSPost2010Prop38
140
0.0
102
RTVSPost2010PropOp38
 70
     0
102
RTVSPost2010Prop39
140
1.0
102
RTVSPost2010PropOp39
 70
     0
102
RTVSPost2010Prop40
 90
        0
102
RTVSPost2010PropOp40
 70
     0
102
RTVSPost2010Prop41ColorIndex
 90
       18
102
RTVSPost2010Prop41ColorRGB
 90
        0
102
RTVSPost2010PropOp41
 70
     0
102
RTVSPost2010Prop42
 90
       50
102
RTVSPost2010PropOp42
 70
     0
102
RTVSPost2010Prop43
 90
        3
102
RTVSPost2010PropOp43
 70
     0
102
RTVSPost2010Prop44ColorIndex
 90
        5
102
RTVSPost2010Prop44ColorRGB
 90
      255
102
RTVSPost2010PropOp44
 70
     0
102
RTVSPost2010Prop45
280
     0
102
RTVSPost2010PropOp45
 70
     0
102
RTVSPost2010Prop46
 90
       50
102
RTVSPost2010PropOp46
 70
     0
102
RTVSPost2010Prop47
 90
       50
102
RTVSPost2010PropOp47
 70
     0
102
RTVSPost2010Prop48
 90
       50
102
RTVSPost2010PropOp48
 70
     0
102
RTVSPost2010Prop49
280
     0
102
RTVSPost2010PropOp49
 70
     0
102
RTVSPost2010Prop50
 90
       50
102
RTVSPost2010PropOp50
 70
     0
102
RTVSPost2010Prop51ColorIndex
 90
      256
102
RTVSPost2010Prop51ColorRGB
 90
-16777216
102
RTVSPost2010PropOp51
 70
     0
102
RTVSPost2010Prop52
140
1.0
102
RTVSPost2010PropOp52
 70
     0
102
RTVSPost2010Prop53
 90
        2
102
RTVSPost2010PropOp53
 70
     0
102
RTVSPost2010Prop54
  1
strokes_ogs.tif
102
RTVSPost2010PropOp54
 70
     0
102
RTVSPost2010Prop55
280
     0
102
RTVSPost2010PropOp55
 70
     0
102
RTVSPost2010Prop56
140
1.0
102
RTVSPost2010PropOp56
 70
     0
102
RTVSPost2010Prop57
140
1.0
102
RTVSPost2010PropOp57
 70
     0
  0
XRECORD
  5
204
102
{ACAD_REACTORS
330
203
102
}
330
203
100
AcDbXrecord
280
     1
102
RTVSPropertyOp0
 70
     1
102
RTVSPropertyOp1
 70
     1
102
RTVSPropertyOp2
 70
     1
102
RTVSPropertyOp3
 70
     1
102
RTVSPropertyOp4
 70
     1
102
RTVSPropertyOp5
 70
     1
102
RTVSPropertyOp6
 70
     1
102
RTVSPropertyOp7
 70
     1
102
RTVSPropertyOp8
 70
     1
102
RTVSPropertyOp9
 70
     1
102
RTVSPropertyOp10
 70
     1
102
RTVSPropertyOp11
 70
     1
102
RTVSPropertyOp12
 70
     1
102
RTVSPropertyOp13
 70
     1
102
RTVSPropertyOp14
 70
     1
102
RTVSPropertyOp15
 70
     1
102
RTVSPropertyOp16
 70
     1
102
RTVSPropertyOp17
 70
     1
102
RTVSPropertyOp18
 70
     1
102
RTVSPropertyOp19
 70
     1
102
RTVSPropertyOp20
 70
     1
102
RTVSPropertyOp21
 70
     1
102
RTVSPropertyOp22
 70
     1
102
RTVSPropertyOp23
 70
     1
102
RTVSPropertyOp24
 70
     1
102
RTVSPropertyOp25
 70
     1
102
RTVSPropertyOp26
 70
     1
102
RTVSPropertyOp27
 70
     1
102
RTVSPropertyOp28
 70
     1
102
RTVSPropertyOp29
 70
     1
102
RTVSPropertyOp30
 70
     1
102
RTVSPropertyOp31
 70
     1
102
RTVSPropertyOp32
 70
     1
102
RTVSPropertyOp33
 70
     1
102
RTVSPropertyOp34
 70
     1
102
RTVSPropertyOp35
 70
     1
102
RTVSPropertyOp36
 70
     1
102
RTVSPropertyOp37
 70
     1
102
RTVSPropertyOp38
 70
     1
102
RTVSPropertyOp39
 70
     1
102
RTVSPropertyOp40
 70
     1
102
RTVSPropertyOp41
 70
     1
102
RTVSPropertyOp42
 70
     1
102
RTVSPropertyOp43
 70
     1
102
RTVSPropertyOp44
 70
     1
102
RTVSPropertyOp45
 70
     1
102
RTVSPropertyOp46
 70
     1
102
RTVSPropertyOp47
 70
     1
102
RTVSPropertyOp48
 70
     1
102
RTVSPropertyOp49
 70
     1
102
RTVSPropertyOp50
 70
     1
102
RTVSPropertyOp51
 70
     0
102
RTVSPropertyOp52
 70
     0
102
RTVSPropertyOp53
 70
     1
102
RTVSPropertyOp54
 70
     1
102
RTVSPropertyOp55
 70
     1
102
RTVSPropertyOp56
 70
     1
102
RTVSPropertyOp57
 70
     1
102
RTVSPost2010Prop28
280
     0
102
RTVSPost2010PropOp28
 70
     1
102
RTVSPost2010Prop29
280
     1
102
RTVSPost2010PropOp29
 70
     1
102
RTVSPost2010Prop30
280
     1
102
RTVSPost2010PropOp30
 70
     1
102
RTVSPost2010Prop31
280
     0
102
RTVSPost2010PropOp31
 70
     1
102
RTVSPost2010Prop32
280
     0
102
RTVSPost2010PropOp32
 70
     1
102
RTVSPost2010Prop33
280
     0
102
RTVSPost2010PropOp33
 70
     1
102
RTVSPost2010Prop34
280
     0
102
RTVSPost2010PropOp34
 70
     1
102
RTVSPost2010Prop35
280
     0
102
RTVSPost2010PropOp35
 70
     1
102
RTVSPost2010Prop36
280
     0
102
RTVSPost2010PropOp36
 70
     1
102
RTVSPost2010Prop37
 90
       50
102
RTVSPost2010PropOp37
 70
     1
102
RTVSPost2010Prop38
140
0.0
102
RTVSPost2010PropOp38
 70
     1
102
RTVSPost2010Prop39
140
1.0
102
RTVSPost2010PropOp39
 70
     1
102
RTVSPost2010Prop40
 90
        0
102
RTVSPost2010PropOp40
 70
     1
102
RTVSPost2010Prop41ColorIndex
 90
       18
102
RTVSPost2010Prop41ColorRGB
 90
        0
102
RTVSPost2010PropOp41
 70
     1
102
RTVSPost2010Prop42
 90
       50
102
RTVSPost2010PropOp42
 70
     1
102
RTVSPost2010Prop43
 90
        3
102
RTVSPost2010PropOp43
 70
     1
102
RTVSPost2010Prop44ColorIndex
 90
        5
102
RTVSPost2010Prop44ColorRGB
 90
      255
102
RTVSPost2010PropOp44
 70
     1
102
RTVSPost2010Prop45
280
     0
102
RTVSPost2010PropOp45
 70
     1
102
RTVSPost2010Prop46
 90
       50
102
RTVSPost2010PropOp46
 70
     1
102
RTVSPost2010Prop47
 90
       50
102
RTVSPost2010PropOp47
 70
     1
102
RTVSPost2010Prop48
 90
       50
102
RTVSPost2010PropOp48
 70
     1
102
RTVSPost2010Prop49
280
     0
102
RTVSPost2010PropOp49
 70
     1
102
RTVSPost2010Prop50
 90
       50
102
RTVSPost2010PropOp50
 70
     1
102
RTVSPost2010Prop51ColorIndex
 90
      256
102
RTVSPost2010Prop51ColorRGB
 90
-16777216
102
RTVSPost2010PropOp51
 70
     0
102
RTVSPost2010Prop52
140
1.0
102
RTVSPost2010PropOp52
 70
     0
102
RTVSPost2010Prop53
 90
        2
102
RTVSPost2010PropOp53
 70
     1
102
RTVSPost2010Prop54
  1
strokes_ogs.tif
102
RTVSPost2010PropOp54
 70
     1
102
RTVSPost2010Prop55
280
     0
102
RTVSPost2010PropOp55
 70
     1
102
RTVSPost2010Prop56
140
1.0
102
RTVSPost2010PropOp56
 70
     1
102
RTVSPost2010Prop57
140
1.0
102
RTVSPost2010PropOp57
 70
     1
  0
XRECORD
  5
1E8
102
{ACAD_REACTORS
330
1E7
102
}
330
1E7
100
AcDbXrecord
280
     1
102
RTVSPropertyOp0
 70
     1
102
RTVSPropertyOp1
 70
     1
102
RTVSPropertyOp2
 70
     1
102
RTVSPropertyOp3
 70
     1
102
RTVSPropertyOp4
 70
     1
102
RTVSPropertyOp5
 70
     1
102
RTVSPropertyOp6
 70
     1
102
RTVSPropertyOp7
 70
     1
102
RTVSPropertyOp8
 70
     1
102
RTVSPropertyOp9
 70
     1
102
RTVSPropertyOp10
 70
     1
102
RTVSPropertyOp11
 70
     1
102
RTVSPropertyOp12
 70
     1
102
RTVSPropertyOp13
 70
     1
102
RTVSPropertyOp14
 70
     1
102
RTVSPropertyOp15
 70
     1
102
RTVSPropertyOp16
 70
     1
102
RTVSPropertyOp17
 70
     1
102
RTVSPropertyOp18
 70
     1
102
RTVSPropertyOp19
 70
     1
102
RTVSPropertyOp20
 70
     1
102
RTVSPropertyOp21
 70
     1
102
RTVSPropertyOp22
 70
     1
102
RTVSPropertyOp23
 70
     1
102
RTVSPropertyOp24
 70
     1
102
RTVSPropertyOp25
 70
     1
102
RTVSPropertyOp26
 70
     1
102
RTVSPropertyOp27
 70
     1
102
RTVSPropertyOp28
 70
     1
102
RTVSPropertyOp29
 70
     1
102
RTVSPropertyOp30
 70
     1
102
RTVSPropertyOp31
 70
     1
102
RTVSPropertyOp32
 70
     1
102
RTVSPropertyOp33
 70
     1
102
RTVSPropertyOp34
 70
     1
102
RTVSPropertyOp35
 70
     1
102
RTVSPropertyOp36
 70
     1
102
RTVSPropertyOp37
 70
     1
102
RTVSPropertyOp38
 70
     1
102
RTVSPropertyOp39
 70
     1
102
RTVSPropertyOp40
 70
     1
102
RTVSPropertyOp41
 70
     1
102
RTVSPropertyOp42
 70
     1
102
RTVSPropertyOp43
 70
     1
102
RTVSPropertyOp44
 70
     1
102
RTVSPropertyOp45
 70
     1
102
RTVSPropertyOp46
 70
     1
102
RTVSPropertyOp47
 70
     1
102
RTVSPropertyOp48
 70
     1
102
RTVSPropertyOp49
 70
     1
102
RTVSPropertyOp50
 70
     1
102
RTVSPropertyOp51
 70
     0
102
RTVSPropertyOp52
 70
     0
102
RTVSPropertyOp53
 70
     1
102
RTVSPropertyOp54
 70
     1
102
RTVSPropertyOp55
 70
     1
102
RTVSPropertyOp56
 70
     1
102
RTVSPropertyOp57
 70
     1
102
RTVSPost2010Prop28
280
     0
102
RTVSPost2010PropOp28
 70
     1
102
RTVSPost2010Prop29
280
     1
102
RTVSPost2010PropOp29
 70
     1
102
RTVSPost2010Prop30
280
     1
102
RTVSPost2010PropOp30
 70
     1
102
RTVSPost2010Prop31
280
     0
102
RTVSPost2010PropOp31
 70
     1
102
RTVSPost2010Prop32
280
     0
102
RTVSPost2010PropOp32
 70
     1
102
RTVSPost2010Prop33
280
     0
102
RTVSPost2010PropOp33
 70
     1
102
RTVSPost2010Prop34
280
     0
102
RTVSPost2010PropOp34
 70
     1
102
RTVSPost2010Prop35
280
     0
102
RTVSPost2010PropOp35
 70
     1
102
RTVSPost2010Prop36
280
     0
102
RTVSPost2010PropOp36
 70
     1
102
RTVSPost2010Prop37
 90
       50
102
RTVSPost2010PropOp37
 70
     1
102
RTVSPost2010Prop38
140
0.0
102
RTVSPost2010PropOp38
 70
     1
102
RTVSPost2010Prop39
140
1.0
102
RTVSPost2010PropOp39
 70
     1
102
RTVSPost2010Prop40
 90
        0
102
RTVSPost2010PropOp40
 70
     1
102
RTVSPost2010Prop41ColorIndex
 90
       18
102
RTVSPost2010Prop41ColorRGB
 90
        0
102
RTVSPost2010PropOp41
 70
     1
102
RTVSPost2010Prop42
 90
       50
102
RTVSPost2010PropOp42
 70
     1
102
RTVSPost2010Prop43
 90
        3
102
RTVSPost2010PropOp43
 70
     1
102
RTVSPost2010Prop44ColorIndex
 90
        5
102
RTVSPost2010Prop44ColorRGB
 90
      255
102
RTVSPost2010PropOp44
 70
     1
102
RTVSPost2010Prop45
280
     0
102
RTVSPost2010PropOp45
 70
     1
102
RTVSPost2010Prop46
 90
       50
102
RTVSPost2010PropOp46
 70
     1
102
RTVSPost2010Prop47
 90
       50
102
RTVSPost2010PropOp47
 70
     1
102
RTVSPost2010Prop48
 90
       50
102
RTVSPost2010PropOp48
 70
     1
102
RTVSPost2010Prop49
280
     0
102
RTVSPost2010PropOp49
 70
     1
102
RTVSPost2010Prop50
 90
       50
102
RTVSPost2010PropOp50
 70
     1
102
RTVSPost2010Prop51ColorIndex
 90
      256
102
RTVSPost2010Prop51ColorRGB
 90
-16777216
102
RTVSPost2010PropOp51
 70
     0
102
RTVSPost2010Prop52
140
1.0
102
RTVSPost2010PropOp52
 70
     0
102
RTVSPost2010Prop53
 90
        2
102
RTVSPost2010PropOp53
 70
     1
102
RTVSPost2010Prop54
  1
strokes_ogs.tif
102
RTVSPost2010PropOp54
 70
     1
102
RTVSPost2010Prop55
280
     0
102
RTVSPost2010PropOp55
 70
     1
102
RTVSPost2010Prop56
140
1.0
102
RTVSPost2010PropOp56
 70
     1
102
RTVSPost2010Prop57
140
1.0
102
RTVSPost2010PropOp57
 70
     1
  0
XRECORD
  5
1EA
102
{ACAD_REACTORS
330
1E9
102
}
330
1E9
100
AcDbXrecord
280
     1
102
RTVSPropertyOp0
 70
     1
102
RTVSPropertyOp1
 70
     1
102
RTVSPropertyOp2
 70
     1
102
RTVSPropertyOp3
 70
     1
102
RTVSPropertyOp4
 70
     1
102
RTVSPropertyOp5
 70
     1
102
RTVSPropertyOp6
 70
     1
102
RTVSPropertyOp7
 70
     1
102
RTVSPropertyOp8
 70
     1
102
RTVSPropertyOp9
 70
     1
102
RTVSPropertyOp10
 70
     1
102
RTVSPropertyOp11
 70
     1
102
RTVSPropertyOp12
 70
     1
102
RTVSPropertyOp13
 70
     1
102
RTVSPropertyOp14
 70
     1
102
RTVSPropertyOp15
 70
     1
102
RTVSPropertyOp16
 70
     1
102
RTVSPropertyOp17
 70
     1
102
RTVSPropertyOp18
 70
     1
102
RTVSPropertyOp19
 70
     1
102
RTVSPropertyOp20
 70
     1
102
RTVSPropertyOp21
 70
     1
102
RTVSPropertyOp22
 70
     1
102
RTVSPropertyOp23
 70
     1
102
RTVSPropertyOp24
 70
     1
102
RTVSPropertyOp25
 70
     1
102
RTVSPropertyOp26
 70
     1
102
RTVSPropertyOp27
 70
     1
102
RTVSPropertyOp28
 70
     1
102
RTVSPropertyOp29
 70
     1
102
RTVSPropertyOp30
 70
     1
102
RTVSPropertyOp31
 70
     1
102
RTVSPropertyOp32
 70
     1
102
RTVSPropertyOp33
 70
     1
102
RTVSPropertyOp34
 70
     1
102
RTVSPropertyOp35
 70
     1
102
RTVSPropertyOp36
 70
     1
102
RTVSPropertyOp37
 70
     1
102
RTVSPropertyOp38
 70
     1
102
RTVSPropertyOp39
 70
     1
102
RTVSPropertyOp40
 70
     1
102
RTVSPropertyOp41
 70
     1
102
RTVSPropertyOp42
 70
     1
102
RTVSPropertyOp43
 70
     1
102
RTVSPropertyOp44
 70
     1
102
RTVSPropertyOp45
 70
     1
102
RTVSPropertyOp46
 70
     1
102
RTVSPropertyOp47
 70
     1
102
RTVSPropertyOp48
 70
     1
102
RTVSPropertyOp49
 70
     1
102
RTVSPropertyOp50
 70
     1
102
RTVSPropertyOp51
 70
     0
102
RTVSPropertyOp52
 70
     0
102
RTVSPropertyOp53
 70
     1
102
RTVSPropertyOp54
 70
     1
102
RTVSPropertyOp55
 70
     1
102
RTVSPropertyOp56
 70
     1
102
RTVSPropertyOp57
 70
     1
102
RTVSPost2010Prop28
280
     0
102
RTVSPost2010PropOp28
 70
     1
102
RTVSPost2010Prop29
280
     1
102
RTVSPost2010PropOp29
 70
     1
102
RTVSPost2010Prop30
280
     1
102
RTVSPost2010PropOp30
 70
     1
102
RTVSPost2010Prop31
280
     0
102
RTVSPost2010PropOp31
 70
     1
102
RTVSPost2010Prop32
280
     0
102
RTVSPost2010PropOp32
 70
     1
102
RTVSPost2010Prop33
280
     0
102
RTVSPost2010PropOp33
 70
     1
102
RTVSPost2010Prop34
280
     0
102
RTVSPost2010PropOp34
 70
     1
102
RTVSPost2010Prop35
280
     0
102
RTVSPost2010PropOp35
 70
     1
102
RTVSPost2010Prop36
280
     0
102
RTVSPost2010PropOp36
 70
     1
102
RTVSPost2010Prop37
 90
       50
102
RTVSPost2010PropOp37
 70
     1
102
RTVSPost2010Prop38
140
0.0
102
RTVSPost2010PropOp38
 70
     1
102
RTVSPost2010Prop39
140
1.0
102
RTVSPost2010PropOp39
 70
     1
102
RTVSPost2010Prop40
 90
        0
102
RTVSPost2010PropOp40
 70
     1
102
RTVSPost2010Prop41ColorIndex
 90
       18
102
RTVSPost2010Prop41ColorRGB
 90
        0
102
RTVSPost2010PropOp41
 70
     1
102
RTVSPost2010Prop42
 90
       50
102
RTVSPost2010PropOp42
 70
     1
102
RTVSPost2010Prop43
 90
        3
102
RTVSPost2010PropOp43
 70
     1
102
RTVSPost2010Prop44ColorIndex
 90
        5
102
RTVSPost2010Prop44ColorRGB
 90
      255
102
RTVSPost2010PropOp44
 70
     1
102
RTVSPost2010Prop45
280
     0
102
RTVSPost2010PropOp45
 70
     1
102
RTVSPost2010Prop46
 90
       50
102
RTVSPost2010PropOp46
 70
     1
102
RTVSPost2010Prop47
 90
       50
102
RTVSPost2010PropOp47
 70
     1
102
RTVSPost2010Prop48
 90
       50
102
RTVSPost2010PropOp48
 70
     1
102
RTVSPost2010Prop49
280
     0
102
RTVSPost2010PropOp49
 70
     1
102
RTVSPost2010Prop50
 90
       50
102
RTVSPost2010PropOp50
 70
     1
102
RTVSPost2010Prop51ColorIndex
 90
      256
102
RTVSPost2010Prop51ColorRGB
 90
-16777216
102
RTVSPost2010PropOp51
 70
     0
102
RTVSPost2010Prop52
140
1.0
102
RTVSPost2010PropOp52
 70
     0
102
RTVSPost2010Prop53
 90
        2
102
RTVSPost2010PropOp53
 70
     1
102
RTVSPost2010Prop54
  1
strokes_ogs.tif
102
RTVSPost2010PropOp54
 70
     1
102
RTVSPost2010Prop55
280
     0
102
RTVSPost2010PropOp55
 70
     1
102
RTVSPost2010Prop56
140
1.0
102
RTVSPost2010PropOp56
 70
     1
102
RTVSPost2010Prop57
140
1.0
102
RTVSPost2010PropOp57
 70
     1
  0
XRECORD
  5
1EC
102
{ACAD_REACTORS
330
1EB
102
}
330
1EB
100
AcDbXrecord
280
     1
102
RTVSPropertyOp0
 70
     1
102
RTVSPropertyOp1
 70
     1
102
RTVSPropertyOp2
 70
     1
102
RTVSPropertyOp3
 70
     1
102
RTVSPropertyOp4
 70
     1
102
RTVSPropertyOp5
 70
     1
102
RTVSPropertyOp6
 70
     1
102
RTVSPropertyOp7
 70
     1
102
RTVSPropertyOp8
 70
     1
102
RTVSPropertyOp9
 70
     1
102
RTVSPropertyOp10
 70
     1
102
RTVSPropertyOp11
 70
     1
102
RTVSPropertyOp12
 70
     1
102
RTVSPropertyOp13
 70
     1
102
RTVSPropertyOp14
 70
     1
102
RTVSPropertyOp15
 70
     1
102
RTVSPropertyOp16
 70
     1
102
RTVSPropertyOp17
 70
     1
102
RTVSPropertyOp18
 70
     1
102
RTVSPropertyOp19
 70
     1
102
RTVSPropertyOp20
 70
     1
102
RTVSPropertyOp21
 70
     1
102
RTVSPropertyOp22
 70
     1
102
RTVSPropertyOp23
 70
     1
102
RTVSPropertyOp24
 70
     1
102
RTVSPropertyOp25
 70
     1
102
RTVSPropertyOp26
 70
     1
102
RTVSPropertyOp27
 70
     1
102
RTVSPropertyOp28
 70
     1
102
RTVSPropertyOp29
 70
     1
102
RTVSPropertyOp30
 70
     1
102
RTVSPropertyOp31
 70
     1
102
RTVSPropertyOp32
 70
     1
102
RTVSPropertyOp33
 70
     1
102
RTVSPropertyOp34
 70
     1
102
RTVSPropertyOp35
 70
     1
102
RTVSPropertyOp36
 70
     1
102
RTVSPropertyOp37
 70
     1
102
RTVSPropertyOp38
 70
     1
102
RTVSPropertyOp39
 70
     1
102
RTVSPropertyOp40
 70
     1
102
RTVSPropertyOp41
 70
     1
102
RTVSPropertyOp42
 70
     1
102
RTVSPropertyOp43
 70
     1
102
RTVSPropertyOp44
 70
     1
102
RTVSPropertyOp45
 70
     1
102
RTVSPropertyOp46
 70
     1
102
RTVSPropertyOp47
 70
     1
102
RTVSPropertyOp48
 70
     1
102
RTVSPropertyOp49
 70
     1
102
RTVSPropertyOp50
 70
     1
102
RTVSPropertyOp51
 70
     0
102
RTVSPropertyOp52
 70
     0
102
RTVSPropertyOp53
 70
     1
102
RTVSPropertyOp54
 70
     1
102
RTVSPropertyOp55
 70
     1
102
RTVSPropertyOp56
 70
     1
102
RTVSPropertyOp57
 70
     1
102
RTVSPost2010Prop28
280
     0
102
RTVSPost2010PropOp28
 70
     1
102
RTVSPost2010Prop29
280
     1
102
RTVSPost2010PropOp29
 70
     1
102
RTVSPost2010Prop30
280
     1
102
RTVSPost2010PropOp30
 70
     1
102
RTVSPost2010Prop31
280
     0
102
RTVSPost2010PropOp31
 70
     1
102
RTVSPost2010Prop32
280
     0
102
RTVSPost2010PropOp32
 70
     1
102
RTVSPost2010Prop33
280
     0
102
RTVSPost2010PropOp33
 70
     1
102
RTVSPost2010Prop34
280
     0
102
RTVSPost2010PropOp34
 70
     1
102
RTVSPost2010Prop35
280
     0
102
RTVSPost2010PropOp35
 70
     1
102
RTVSPost2010Prop36
280
     0
102
RTVSPost2010PropOp36
 70
     1
102
RTVSPost2010Prop37
 90
       50
102
RTVSPost2010PropOp37
 70
     1
102
RTVSPost2010Prop38
140
0.0
102
RTVSPost2010PropOp38
 70
     1
102
RTVSPost2010Prop39
140
1.0
102
RTVSPost2010PropOp39
 70
     1
102
RTVSPost2010Prop40
 90
        0
102
RTVSPost2010PropOp40
 70
     1
102
RTVSPost2010Prop41ColorIndex
 90
       18
102
RTVSPost2010Prop41ColorRGB
 90
        0
102
RTVSPost2010PropOp41
 70
     1
102
RTVSPost2010Prop42
 90
       50
102
RTVSPost2010PropOp42
 70
     1
102
RTVSPost2010Prop43
 90
        3
102
RTVSPost2010PropOp43
 70
     1
102
RTVSPost2010Prop44ColorIndex
 90
        5
102
RTVSPost2010Prop44ColorRGB
 90
      255
102
RTVSPost2010PropOp44
 70
     1
102
RTVSPost2010Prop45
280
     0
102
RTVSPost2010PropOp45
 70
     1
102
RTVSPost2010Prop46
 90
       50
102
RTVSPost2010PropOp46
 70
     1
102
RTVSPost2010Prop47
 90
       50
102
RTVSPost2010PropOp47
 70
     1
102
RTVSPost2010Prop48
 90
       50
102
RTVSPost2010PropOp48
 70
     1
102
RTVSPost2010Prop49
280
     0
102
RTVSPost2010PropOp49
 70
     1
102
RTVSPost2010Prop50
 90
       50
102
RTVSPost2010PropOp50
 70
     1
102
RTVSPost2010Prop51ColorIndex
 90
      256
102
RTVSPost2010Prop51ColorRGB
 90
-16777216
102
RTVSPost2010PropOp51
 70
     0
102
RTVSPost2010Prop52
140
1.0
102
RTVSPost2010PropOp52
 70
     0
102
RTVSPost2010Prop53
 90
        2
102
RTVSPost2010PropOp53
 70
     1
102
RTVSPost2010Prop54
  1
strokes_ogs.tif
102
RTVSPost2010PropOp54
 70
     1
102
RTVSPost2010Prop55
280
     0
102
RTVSPost2010PropOp55
 70
     1
102
RTVSPost2010Prop56
140
1.0
102
RTVSPost2010PropOp56
 70
     1
102
RTVSPost2010Prop57
140
1.0
102
RTVSPost2010PropOp57
 70
     1
  0
XRECORD
  5
1EE
102
{ACAD_REACTORS
330
1ED
102
}
330
1ED
100
AcDbXrecord
280
     1
102
RTVSPropertyOp0
 70
     1
102
RTVSPropertyOp1
 70
     1
102
RTVSPropertyOp2
 70
     1
102
RTVSPropertyOp3
 70
     1
102
RTVSPropertyOp4
 70
     1
102
RTVSPropertyOp5
 70
     1
102
RTVSPropertyOp6
 70
     1
102
RTVSPropertyOp7
 70
     1
102
RTVSPropertyOp8
 70
     1
102
RTVSPropertyOp9
 70
     1
102
RTVSPropertyOp10
 70
     1
102
RTVSPropertyOp11
 70
     1
102
RTVSPropertyOp12
 70
     1
102
RTVSPropertyOp13
 70
     1
102
RTVSPropertyOp14
 70
     1
102
RTVSPropertyOp15
 70
     1
102
RTVSPropertyOp16
 70
     1
102
RTVSPropertyOp17
 70
     1
102
RTVSPropertyOp18
 70
     1
102
RTVSPropertyOp19
 70
     1
102
RTVSPropertyOp20
 70
     1
102
RTVSPropertyOp21
 70
     1
102
RTVSPropertyOp22
 70
     1
102
RTVSPropertyOp23
 70
     1
102
RTVSPropertyOp24
 70
     1
102
RTVSPropertyOp25
 70
     1
102
RTVSPropertyOp26
 70
     1
102
RTVSPropertyOp27
 70
     1
102
RTVSPropertyOp28
 70
     1
102
RTVSPropertyOp29
 70
     1
102
RTVSPropertyOp30
 70
     1
102
RTVSPropertyOp31
 70
     1
102
RTVSPropertyOp32
 70
     1
102
RTVSPropertyOp33
 70
     1
102
RTVSPropertyOp34
 70
     1
102
RTVSPropertyOp35
 70
     1
102
RTVSPropertyOp36
 70
     1
102
RTVSPropertyOp37
 70
     1
102
RTVSPropertyOp38
 70
     1
102
RTVSPropertyOp39
 70
     1
102
RTVSPropertyOp40
 70
     1
102
RTVSPropertyOp41
 70
     1
102
RTVSPropertyOp42
 70
     1
102
RTVSPropertyOp43
 70
     1
102
RTVSPropertyOp44
 70
     1
102
RTVSPropertyOp45
 70
     1
102
RTVSPropertyOp46
 70
     1
102
RTVSPropertyOp47
 70
     1
102
RTVSPropertyOp48
 70
     1
102
RTVSPropertyOp49
 70
     1
102
RTVSPropertyOp50
 70
     1
102
RTVSPropertyOp51
 70
     0
102
RTVSPropertyOp52
 70
     0
102
RTVSPropertyOp53
 70
     1
102
RTVSPropertyOp54
 70
     1
102
RTVSPropertyOp55
 70
     1
102
RTVSPropertyOp56
 70
     1
102
RTVSPropertyOp57
 70
     1
102
RTVSPost2010Prop28
280
     0
102
RTVSPost2010PropOp28
 70
     1
102
RTVSPost2010Prop29
280
     1
102
RTVSPost2010PropOp29
 70
     1
102
RTVSPost2010Prop30
280
     1
102
RTVSPost2010PropOp30
 70
     1
102
RTVSPost2010Prop31
280
     0
102
RTVSPost2010PropOp31
 70
     1
102
RTVSPost2010Prop32
280
     0
102
RTVSPost2010PropOp32
 70
     1
102
RTVSPost2010Prop33
280
     0
102
RTVSPost2010PropOp33
 70
     1
102
RTVSPost2010Prop34
280
     0
102
RTVSPost2010PropOp34
 70
     1
102
RTVSPost2010Prop35
280
     0
102
RTVSPost2010PropOp35
 70
     1
102
RTVSPost2010Prop36
280
     0
102
RTVSPost2010PropOp36
 70
     1
102
RTVSPost2010Prop37
 90
       50
102
RTVSPost2010PropOp37
 70
     1
102
RTVSPost2010Prop38
140
0.0
102
RTVSPost2010PropOp38
 70
     1
102
RTVSPost2010Prop39
140
1.0
102
RTVSPost2010PropOp39
 70
     1
102
RTVSPost2010Prop40
 90
        0
102
RTVSPost2010PropOp40
 70
     1
102
RTVSPost2010Prop41ColorIndex
 90
       18
102
RTVSPost2010Prop41ColorRGB
 90
        0
102
RTVSPost2010PropOp41
 70
     1
102
RTVSPost2010Prop42
 90
       50
102
RTVSPost2010PropOp42
 70
     1
102
RTVSPost2010Prop43
 90
        3
102
RTVSPost2010PropOp43
 70
     1
102
RTVSPost2010Prop44ColorIndex
 90
        5
102
RTVSPost2010Prop44ColorRGB
 90
      255
102
RTVSPost2010PropOp44
 70
     1
102
RTVSPost2010Prop45
280
     0
102
RTVSPost2010PropOp45
 70
     1
102
RTVSPost2010Prop46
 90
       50
102
RTVSPost2010PropOp46
 70
     1
102
RTVSPost2010Prop47
 90
       50
102
RTVSPost2010PropOp47
 70
     1
102
RTVSPost2010Prop48
 90
       50
102
RTVSPost2010PropOp48
 70
     1
102
RTVSPost2010Prop49
280
     0
102
RTVSPost2010PropOp49
 70
     1
102
RTVSPost2010Prop50
 90
       50
102
RTVSPost2010PropOp50
 70
     1
102
RTVSPost2010Prop51ColorIndex
 90
      256
102
RTVSPost2010Prop51ColorRGB
 90
-16777216
102
RTVSPost2010PropOp51
 70
     0
102
RTVSPost2010Prop52
140
1.0
102
RTVSPost2010PropOp52
 70
     0
102
RTVSPost2010Prop53
 90
        2
102
RTVSPost2010PropOp53
 70
     1
102
RTVSPost2010Prop54
  1
strokes_ogs.tif
102
RTVSPost2010PropOp54
 70
     1
102
RTVSPost2010Prop55
280
     0
102
RTVSPost2010PropOp55
 70
     1
102
RTVSPost2010Prop56
140
1.0
102
RTVSPost2010PropOp56
 70
     1
102
RTVSPost2010Prop57
140
1.0
102
RTVSPost2010PropOp57
 70
     1
  0
XRECORD
  5
1F4
102
{ACAD_REACTORS
330
1F3
102
}
330
1F3
100
AcDbXrecord
280
     1
102
RTVSPropertyOp0
 70
     1
102
RTVSPropertyOp1
 70
     1
102
RTVSPropertyOp2
 70
     1
102
RTVSPropertyOp3
 70
     1
102
RTVSPropertyOp4
 70
     1
102
RTVSPropertyOp5
 70
     1
102
RTVSPropertyOp6
 70
     1
102
RTVSPropertyOp7
 70
     1
102
RTVSPropertyOp8
 70
     1
102
RTVSPropertyOp9
 70
     1
102
RTVSPropertyOp10
 70
     1
102
RTVSPropertyOp11
 70
     1
102
RTVSPropertyOp12
 70
     1
102
RTVSPropertyOp13
 70
     1
102
RTVSPropertyOp14
 70
     1
102
RTVSPropertyOp15
 70
     1
102
RTVSPropertyOp16
 70
     1
102
RTVSPropertyOp17
 70
     1
102
RTVSPropertyOp18
 70
     1
102
RTVSPropertyOp19
 70
     1
102
RTVSPropertyOp20
 70
     1
102
RTVSPropertyOp21
 70
     1
102
RTVSPropertyOp22
 70
     1
102
RTVSPropertyOp23
 70
     1
102
RTVSPropertyOp24
 70
     1
102
RTVSPropertyOp25
 70
     1
102
RTVSPropertyOp26
 70
     1
102
RTVSPropertyOp27
 70
     1
102
RTVSPropertyOp28
 70
     1
102
RTVSPropertyOp29
 70
     1
102
RTVSPropertyOp30
 70
     1
102
RTVSPropertyOp31
 70
     1
102
RTVSPropertyOp32
 70
     1
102
RTVSPropertyOp33
 70
     1
102
RTVSPropertyOp34
 70
     1
102
RTVSPropertyOp35
 70
     1
102
RTVSPropertyOp36
 70
     1
102
RTVSPropertyOp37
 70
     1
102
RTVSPropertyOp38
 70
     1
102
RTVSPropertyOp39
 70
     1
102
RTVSPropertyOp40
 70
     1
102
RTVSPropertyOp41
 70
     1
102
RTVSPropertyOp42
 70
     1
102
RTVSPropertyOp43
 70
     1
102
RTVSPropertyOp44
 70
     1
102
RTVSPropertyOp45
 70
     1
102
RTVSPropertyOp46
 70
     1
102
RTVSPropertyOp47
 70
     1
102
RTVSPropertyOp48
 70
     1
102
RTVSPropertyOp49
 70
     1
102
RTVSPropertyOp50
 70
     1
102
RTVSPropertyOp51
 70
     0
102
RTVSPropertyOp52
 70
     0
102
RTVSPropertyOp53
 70
     1
102
RTVSPropertyOp54
 70
     1
102
RTVSPropertyOp55
 70
     1
102
RTVSPropertyOp56
 70
     1
102
RTVSPropertyOp57
 70
     1
102
RTVSPost2010Prop28
280
     0
102
RTVSPost2010PropOp28
 70
     1
102
RTVSPost2010Prop29
280
     1
102
RTVSPost2010PropOp29
 70
     1
102
RTVSPost2010Prop30
280
     1
102
RTVSPost2010PropOp30
 70
     1
102
RTVSPost2010Prop31
280
     0
102
RTVSPost2010PropOp31
 70
     1
102
RTVSPost2010Prop32
280
     0
102
RTVSPost2010PropOp32
 70
     1
102
RTVSPost2010Prop33
280
     0
102
RTVSPost2010PropOp33
 70
     1
102
RTVSPost2010Prop34
280
     0
102
RTVSPost2010PropOp34
 70
     1
102
RTVSPost2010Prop35
280
     0
102
RTVSPost2010PropOp35
 70
     1
102
RTVSPost2010Prop36
280
     0
102
RTVSPost2010PropOp36
 70
     1
102
RTVSPost2010Prop37
 90
       50
102
RTVSPost2010PropOp37
 70
     1
102
RTVSPost2010Prop38
140
0.0
102
RTVSPost2010PropOp38
 70
     1
102
RTVSPost2010Prop39
140
1.0
102
RTVSPost2010PropOp39
 70
     1
102
RTVSPost2010Prop40
 90
        0
102
RTVSPost2010PropOp40
 70
     1
102
RTVSPost2010Prop41ColorIndex
 90
       18
102
RTVSPost2010Prop41ColorRGB
 90
        0
102
RTVSPost2010PropOp41
 70
     1
102
RTVSPost2010Prop42
 90
       50
102
RTVSPost2010PropOp42
 70
     1
102
RTVSPost2010Prop43
 90
        3
102
RTVSPost2010PropOp43
 70
     1
102
RTVSPost2010Prop44ColorIndex
 90
        5
102
RTVSPost2010Prop44ColorRGB
 90
      255
102
RTVSPost2010PropOp44
 70
     1
102
RTVSPost2010Prop45
280
     0
102
RTVSPost2010PropOp45
 70
     1
102
RTVSPost2010Prop46
 90
       50
102
RTVSPost2010PropOp46
 70
     1
102
RTVSPost2010Prop47
 90
       50
102
RTVSPost2010PropOp47
 70
     1
102
RTVSPost2010Prop48
 90
       50
102
RTVSPost2010PropOp48
 70
     1
102
RTVSPost2010Prop49
280
     0
102
RTVSPost2010PropOp49
 70
     1
102
RTVSPost2010Prop50
 90
       50
102
RTVSPost2010PropOp50
 70
     1
102
RTVSPost2010Prop51ColorIndex
 90
      256
102
RTVSPost2010Prop51ColorRGB
 90
-16777216
102
RTVSPost2010PropOp51
 70
     0
102
RTVSPost2010Prop52
140
1.0
102
RTVSPost2010PropOp52
 70
     0
102
RTVSPost2010Prop53
 90
        2
102
RTVSPost2010PropOp53
 70
     1
102
RTVSPost2010Prop54
  1
strokes_ogs.tif
102
RTVSPost2010PropOp54
 70
     1
102
RTVSPost2010Prop55
280
     0
102
RTVSPost2010PropOp55
 70
     1
102
RTVSPost2010Prop56
140
1.0
102
RTVSPost2010PropOp56
 70
     1
102
RTVSPost2010Prop57
140
1.0
102
RTVSPost2010PropOp57
 70
     1
  0
XRECORD
  5
208
102
{ACAD_REACTORS
330
207
102
}
330
207
100
AcDbXrecord
280
     1
102
RTVSPropertyOp0
 70
     0
102
RTVSPropertyOp1
 70
     0
102
RTVSPropertyOp2
 70
     0
102
RTVSPropertyOp3
 70
     0
102
RTVSPropertyOp4
 70
     0
102
RTVSPropertyOp5
 70
     0
102
RTVSPropertyOp6
 70
     0
102
RTVSPropertyOp7
 70
     0
102
RTVSPropertyOp8
 70
     0
102
RTVSPropertyOp9
 70
     0
102
RTVSPropertyOp10
 70
     0
102
RTVSPropertyOp11
 70
     0
102
RTVSPropertyOp12
 70
     0
102
RTVSPropertyOp13
 70
     0
102
RTVSPropertyOp14
 70
     2
102
RTVSPropertyOp15
 70
     0
102
RTVSPropertyOp16
 70
     0
102
RTVSPropertyOp17
 70
     0
102
RTVSPropertyOp18
 70
     0
102
RTVSPropertyOp19
 70
     0
102
RTVSPropertyOp20
 70
     0
102
RTVSPropertyOp21
 70
     0
102
RTVSPropertyOp22
 70
     0
102
RTVSPropertyOp23
 70
     0
102
RTVSPropertyOp24
 70
     0
102
RTVSPropertyOp25
 70
     0
102
RTVSPropertyOp26
 70
     0
102
RTVSPropertyOp27
 70
     0
102
RTVSPropertyOp28
 70
     0
102
RTVSPropertyOp29
 70
     0
102
RTVSPropertyOp30
 70
     0
102
RTVSPropertyOp31
 70
     0
102
RTVSPropertyOp32
 70
     0
102
RTVSPropertyOp33
 70
     0
102
RTVSPropertyOp34
 70
     0
102
RTVSPropertyOp35
 70
     0
102
RTVSPropertyOp36
 70
     0
102
RTVSPropertyOp37
 70
     0
102
RTVSPropertyOp38
 70
     0
102
RTVSPropertyOp39
 70
     0
102
RTVSPropertyOp40
 70
     0
102
RTVSPropertyOp41
 70
     0
102
RTVSPropertyOp42
 70
     0
102
RTVSPropertyOp43
 70
     0
102
RTVSPropertyOp44
 70
     0
102
RTVSPropertyOp45
 70
     0
102
RTVSPropertyOp46
 70
     0
102
RTVSPropertyOp47
 70
     0
102
RTVSPropertyOp48
 70
     0
102
RTVSPropertyOp49
 70
     0
102
RTVSPropertyOp50
 70
     0
102
RTVSPropertyOp51
 70
     0
102
RTVSPropertyOp52
 70
     0
102
RTVSPropertyOp53
 70
     0
102
RTVSPropertyOp54
 70
     0
102
RTVSPropertyOp55
 70
     0
102
RTVSPropertyOp56
 70
     0
102
RTVSPropertyOp57
 70
     0
102
RTVSPost2010Prop28
280
     0
102
RTVSPost2010PropOp28
 70
     0
102
RTVSPost2010Prop29
280
     1
102
RTVSPost2010PropOp29
 70
     0
102
RTVSPost2010Prop30
280
     1
102
RTVSPost2010PropOp30
 70
     0
102
RTVSPost2010Prop31
280
     0
102
RTVSPost2010PropOp31
 70
     0
102
RTVSPost2010Prop32
280
     0
102
RTVSPost2010PropOp32
 70
     0
102
RTVSPost2010Prop33
280
     0
102
RTVSPost2010PropOp33
 70
     0
102
RTVSPost2010Prop34
280
     0
102
RTVSPost2010PropOp34
 70
     0
102
RTVSPost2010Prop35
280
     0
102
RTVSPost2010PropOp35
 70
     0
102
RTVSPost2010Prop36
280
     0
102
RTVSPost2010PropOp36
 70
     0
102
RTVSPost2010Prop37
 90
       50
102
RTVSPost2010PropOp37
 70
     0
102
RTVSPost2010Prop38
140
0.0
102
RTVSPost2010PropOp38
 70
     0
102
RTVSPost2010Prop39
140
1.0
102
RTVSPost2010PropOp39
 70
     0
102
RTVSPost2010Prop40
 90
        0
102
RTVSPost2010PropOp40
 70
     0
102
RTVSPost2010Prop41ColorIndex
 90
       18
102
RTVSPost2010Prop41ColorRGB
 90
        0
102
RTVSPost2010PropOp41
 70
     0
102
RTVSPost2010Prop42
 90
       50
102
RTVSPost2010PropOp42
 70
     0
102
RTVSPost2010Prop43
 90
        3
102
RTVSPost2010PropOp43
 70
     0
102
RTVSPost2010Prop44ColorIndex
 90
        5
102
RTVSPost2010Prop44ColorRGB
 90
      255
102
RTVSPost2010PropOp44
 70
     0
102
RTVSPost2010Prop45
280
     0
102
RTVSPost2010PropOp45
 70
     0
102
RTVSPost2010Prop46
 90
       50
102
RTVSPost2010PropOp46
 70
     0
102
RTVSPost2010Prop47
 90
       50
102
RTVSPost2010PropOp47
 70
     0
102
RTVSPost2010Prop48
 90
       50
102
RTVSPost2010PropOp48
 70
     0
102
RTVSPost2010Prop49
280
     0
102
RTVSPost2010PropOp49
 70
     0
102
RTVSPost2010Prop50
 90
       50
102
RTVSPost2010PropOp50
 70
     0
102
RTVSPost2010Prop51ColorIndex
 90
      256
102
RTVSPost2010Prop51ColorRGB
 90
-16777216
102
RTVSPost2010PropOp51
 70
     0
102
RTVSPost2010Prop52
140
1.0
102
RTVSPost2010PropOp52
 70
     0
102
RTVSPost2010Prop53
 90
        2
102
RTVSPost2010PropOp53
 70
     0
102
RTVSPost2010Prop54
  1
strokes_ogs.tif
102
RTVSPost2010PropOp54
 70
     0
102
RTVSPost2010Prop55
280
     0
102
RTVSPost2010PropOp55
 70
     0
102
RTVSPost2010Prop56
140
1.0
102
RTVSPost2010PropOp56
 70
     0
102
RTVSPost2010Prop57
140
1.0
102
RTVSPost2010PropOp57
 70
     0
  0
XRECORD
  5
202
102
{ACAD_REACTORS
330
201
102
}
330
201
100
AcDbXrecord
280
     1
102
RTVSPropertyOp0
 70
     1
102
RTVSPropertyOp1
 70
     1
102
RTVSPropertyOp2
 70
     1
102
RTVSPropertyOp3
 70
     1
102
RTVSPropertyOp4
 70
     1
102
RTVSPropertyOp5
 70
     1
102
RTVSPropertyOp6
 70
     1
102
RTVSPropertyOp7
 70
     1
102
RTVSPropertyOp8
 70
     1
102
RTVSPropertyOp9
 70
     1
102
RTVSPropertyOp10
 70
     1
102
RTVSPropertyOp11
 70
     1
102
RTVSPropertyOp12
 70
     1
102
RTVSPropertyOp13
 70
     1
102
RTVSPropertyOp14
 70
     1
102
RTVSPropertyOp15
 70
     1
102
RTVSPropertyOp16
 70
     1
102
RTVSPropertyOp17
 70
     1
102
RTVSPropertyOp18
 70
     1
102
RTVSPropertyOp19
 70
     1
102
RTVSPropertyOp20
 70
     1
102
RTVSPropertyOp21
 70
     1
102
RTVSPropertyOp22
 70
     1
102
RTVSPropertyOp23
 70
     1
102
RTVSPropertyOp24
 70
     1
102
RTVSPropertyOp25
 70
     1
102
RTVSPropertyOp26
 70
     1
102
RTVSPropertyOp27
 70
     1
102
RTVSPropertyOp28
 70
     1
102
RTVSPropertyOp29
 70
     1
102
RTVSPropertyOp30
 70
     1
102
RTVSPropertyOp31
 70
     1
102
RTVSPropertyOp32
 70
     1
102
RTVSPropertyOp33
 70
     1
102
RTVSPropertyOp34
 70
     1
102
RTVSPropertyOp35
 70
     1
102
RTVSPropertyOp36
 70
     1
102
RTVSPropertyOp37
 70
     1
102
RTVSPropertyOp38
 70
     1
102
RTVSPropertyOp39
 70
     1
102
RTVSPropertyOp40
 70
     1
102
RTVSPropertyOp41
 70
     1
102
RTVSPropertyOp42
 70
     1
102
RTVSPropertyOp43
 70
     1
102
RTVSPropertyOp44
 70
     1
102
RTVSPropertyOp45
 70
     1
102
RTVSPropertyOp46
 70
     1
102
RTVSPropertyOp47
 70
     1
102
RTVSPropertyOp48
 70
     1
102
RTVSPropertyOp49
 70
     1
102
RTVSPropertyOp50
 70
     1
102
RTVSPropertyOp51
 70
     0
102
RTVSPropertyOp52
 70
     0
102
RTVSPropertyOp53
 70
     1
102
RTVSPropertyOp54
 70
     1
102
RTVSPropertyOp55
 70
     1
102
RTVSPropertyOp56
 70
     1
102
RTVSPropertyOp57
 70
     1
102
RTVSPost2010Prop28
280
     0
102
RTVSPost2010PropOp28
 70
     1
102
RTVSPost2010Prop29
280
     1
102
RTVSPost2010PropOp29
 70
     1
102
RTVSPost2010Prop30
280
     1
102
RTVSPost2010PropOp30
 70
     1
102
RTVSPost2010Prop31
280
     0
102
RTVSPost2010PropOp31
 70
     1
102
RTVSPost2010Prop32
280
     0
102
RTVSPost2010PropOp32
 70
     1
102
RTVSPost2010Prop33
280
     0
102
RTVSPost2010PropOp33
 70
     1
102
RTVSPost2010Prop34
280
     0
102
RTVSPost2010PropOp34
 70
     1
102
RTVSPost2010Prop35
280
     0
102
RTVSPost2010PropOp35
 70
     1
102
RTVSPost2010Prop36
280
     0
102
RTVSPost2010PropOp36
 70
     1
102
RTVSPost2010Prop37
 90
       50
102
RTVSPost2010PropOp37
 70
     1
102
RTVSPost2010Prop38
140
0.0
102
RTVSPost2010PropOp38
 70
     1
102
RTVSPost2010Prop39
140
1.0
102
RTVSPost2010PropOp39
 70
     1
102
RTVSPost2010Prop40
 90
        0
102
RTVSPost2010PropOp40
 70
     1
102
RTVSPost2010Prop41ColorIndex
 90
       18
102
RTVSPost2010Prop41ColorRGB
 90
        0
102
RTVSPost2010PropOp41
 70
     1
102
RTVSPost2010Prop42
 90
       50
102
RTVSPost2010PropOp42
 70
     1
102
RTVSPost2010Prop43
 90
        3
102
RTVSPost2010PropOp43
 70
     1
102
RTVSPost2010Prop44ColorIndex
 90
        5
102
RTVSPost2010Prop44ColorRGB
 90
      255
102
RTVSPost2010PropOp44
 70
     1
102
RTVSPost2010Prop45
280
     0
102
RTVSPost2010PropOp45
 70
     1
102
RTVSPost2010Prop46
 90
       50
102
RTVSPost2010PropOp46
 70
     1
102
RTVSPost2010Prop47
 90
       50
102
RTVSPost2010PropOp47
 70
     1
102
RTVSPost2010Prop48
 90
       50
102
RTVSPost2010PropOp48
 70
     1
102
RTVSPost2010Prop49
280
     0
102
RTVSPost2010PropOp49
 70
     1
102
RTVSPost2010Prop50
 90
       50
102
RTVSPost2010PropOp50
 70
     1
102
RTVSPost2010Prop51ColorIndex
 90
      256
102
RTVSPost2010Prop51ColorRGB
 90
-16777216
102
RTVSPost2010PropOp51
 70
     0
102
RTVSPost2010Prop52
140
1.0
102
RTVSPost2010PropOp52
 70
     0
102
RTVSPost2010Prop53
 90
        2
102
RTVSPost2010PropOp53
 70
     1
102
RTVSPost2010Prop54
  1
strokes_ogs.tif
102
RTVSPost2010PropOp54
 70
     1
102
RTVSPost2010Prop55
280
     0
102
RTVSPost2010PropOp55
 70
     1
102
RTVSPost2010Prop56
140
1.0
102
RTVSPost2010PropOp56
 70
     1
102
RTVSPost2010Prop57
140
1.0
102
RTVSPost2010PropOp57
 70
     1
  0
XRECORD
  5
20A
102
{ACAD_REACTORS
330
209
102
}
330
209
100
AcDbXrecord
280
     1
102
RTVSPropertyOp0
 70
     0
102
RTVSPropertyOp1
 70
     0
102
RTVSPropertyOp2
 70
     0
102
RTVSPropertyOp3
 70
     0
102
RTVSPropertyOp4
 70
     0
102
RTVSPropertyOp5
 70
     0
102
RTVSPropertyOp6
 70
     0
102
RTVSPropertyOp7
 70
     0
102
RTVSPropertyOp8
 70
     0
102
RTVSPropertyOp9
 70
     0
102
RTVSPropertyOp10
 70
     0
102
RTVSPropertyOp11
 70
     0
102
RTVSPropertyOp12
 70
     0
102
RTVSPropertyOp13
 70
     0
102
RTVSPropertyOp14
 70
     2
102
RTVSPropertyOp15
 70
     0
102
RTVSPropertyOp16
 70
     0
102
RTVSPropertyOp17
 70
     0
102
RTVSPropertyOp18
 70
     0
102
RTVSPropertyOp19
 70
     0
102
RTVSPropertyOp20
 70
     0
102
RTVSPropertyOp21
 70
     0
102
RTVSPropertyOp22
 70
     0
102
RTVSPropertyOp23
 70
     0
102
RTVSPropertyOp24
 70
     0
102
RTVSPropertyOp25
 70
     0
102
RTVSPropertyOp26
 70
     0
102
RTVSPropertyOp27
 70
     0
102
RTVSPropertyOp28
 70
     0
102
RTVSPropertyOp29
 70
     0
102
RTVSPropertyOp30
 70
     0
102
RTVSPropertyOp31
 70
     0
102
RTVSPropertyOp32
 70
     0
102
RTVSPropertyOp33
 70
     0
102
RTVSPropertyOp34
 70
     0
102
RTVSPropertyOp35
 70
     0
102
RTVSPropertyOp36
 70
     0
102
RTVSPropertyOp37
 70
     0
102
RTVSPropertyOp38
 70
     0
102
RTVSPropertyOp39
 70
     0
102
RTVSPropertyOp40
 70
     0
102
RTVSPropertyOp41
 70
     0
102
RTVSPropertyOp42
 70
     0
102
RTVSPropertyOp43
 70
     0
102
RTVSPropertyOp44
 70
     0
102
RTVSPropertyOp45
 70
     0
102
RTVSPropertyOp46
 70
     0
102
RTVSPropertyOp47
 70
     0
102
RTVSPropertyOp48
 70
     0
102
RTVSPropertyOp49
 70
     0
102
RTVSPropertyOp50
 70
     0
102
RTVSPropertyOp51
 70
     0
102
RTVSPropertyOp52
 70
     0
102
RTVSPropertyOp53
 70
     0
102
RTVSPropertyOp54
 70
     0
102
RTVSPropertyOp55
 70
     0
102
RTVSPropertyOp56
 70
     0
102
RTVSPropertyOp57
 70
     0
102
RTVSPost2010Prop28
280
     0
102
RTVSPost2010PropOp28
 70
     0
102
RTVSPost2010Prop29
280
     1
102
RTVSPost2010PropOp29
 70
     0
102
RTVSPost2010Prop30
280
     1
102
RTVSPost2010PropOp30
 70
     0
102
RTVSPost2010Prop31
280
     0
102
RTVSPost2010PropOp31
 70
     0
102
RTVSPost2010Prop32
280
     0
102
RTVSPost2010PropOp32
 70
     0
102
RTVSPost2010Prop33
280
     0
102
RTVSPost2010PropOp33
 70
     0
102
RTVSPost2010Prop34
280
     0
102
RTVSPost2010PropOp34
 70
     0
102
RTVSPost2010Prop35
280
     0
102
RTVSPost2010PropOp35
 70
     0
102
RTVSPost2010Prop36
280
     0
102
RTVSPost2010PropOp36
 70
     0
102
RTVSPost2010Prop37
 90
       50
102
RTVSPost2010PropOp37
 70
     0
102
RTVSPost2010Prop38
140
0.0
102
RTVSPost2010PropOp38
 70
     0
102
RTVSPost2010Prop39
140
1.0
102
RTVSPost2010PropOp39
 70
     0
102
RTVSPost2010Prop40
 90
        0
102
RTVSPost2010PropOp40
 70
     0
102
RTVSPost2010Prop41ColorIndex
 90
       18
102
RTVSPost2010Prop41ColorRGB
 90
        0
102
RTVSPost2010PropOp41
 70
     0
102
RTVSPost2010Prop42
 90
       50
102
RTVSPost2010PropOp42
 70
     0
102
RTVSPost2010Prop43
 90
        3
102
RTVSPost2010PropOp43
 70
     0
102
RTVSPost2010Prop44ColorIndex
 90
        5
102
RTVSPost2010Prop44ColorRGB
 90
      255
102
RTVSPost2010PropOp44
 70
     0
102
RTVSPost2010Prop45
280
     0
102
RTVSPost2010PropOp45
 70
     0
102
RTVSPost2010Prop46
 90
       50
102
RTVSPost2010PropOp46
 70
     0
102
RTVSPost2010Prop47
 90
       50
102
RTVSPost2010PropOp47
 70
     0
102
RTVSPost2010Prop48
 90
       50
102
RTVSPost2010PropOp48
 70
     0
102
RTVSPost2010Prop49
280
     0
102
RTVSPost2010PropOp49
 70
     0
102
RTVSPost2010Prop50
 90
       50
102
RTVSPost2010PropOp50
 70
     0
102
RTVSPost2010Prop51ColorIndex
 90
      256
102
RTVSPost2010Prop51ColorRGB
 90
-16777216
102
RTVSPost2010PropOp51
 70
     0
102
RTVSPost2010Prop52
140
1.0
102
RTVSPost2010PropOp52
 70
     0
102
RTVSPost2010Prop53
 90
        2
102
RTVSPost2010PropOp53
 70
     0
102
RTVSPost2010Prop54
  1
strokes_ogs.tif
102
RTVSPost2010PropOp54
 70
     0
102
RTVSPost2010Prop55
280
     0
102
RTVSPost2010PropOp55
 70
     0
102
RTVSPost2010Prop56
140
1.0
102
RTVSPost2010PropOp56
 70
     0
102
RTVSPost2010Prop57
140
1.0
102
RTVSPost2010PropOp57
 70
     0
  0
XRECORD
  5
1F8
102
{ACAD_REACTORS
330
1F7
102
}
330
1F7
100
AcDbXrecord
280
     1
102
RTVSPropertyOp0
 70
     1
102
RTVSPropertyOp1
 70
     1
102
RTVSPropertyOp2
 70
     1
102
RTVSPropertyOp3
 70
     1
102
RTVSPropertyOp4
 70
     1
102
RTVSPropertyOp5
 70
     1
102
RTVSPropertyOp6
 70
     1
102
RTVSPropertyOp7
 70
     1
102
RTVSPropertyOp8
 70
     1
102
RTVSPropertyOp9
 70
     1
102
RTVSPropertyOp10
 70
     1
102
RTVSPropertyOp11
 70
     1
102
RTVSPropertyOp12
 70
     1
102
RTVSPropertyOp13
 70
     1
102
RTVSPropertyOp14
 70
     1
102
RTVSPropertyOp15
 70
     1
102
RTVSPropertyOp16
 70
     1
102
RTVSPropertyOp17
 70
     1
102
RTVSPropertyOp18
 70
     1
102
RTVSPropertyOp19
 70
     1
102
RTVSPropertyOp20
 70
     1
102
RTVSPropertyOp21
 70
     1
102
RTVSPropertyOp22
 70
     1
102
RTVSPropertyOp23
 70
     1
102
RTVSPropertyOp24
 70
     1
102
RTVSPropertyOp25
 70
     1
102
RTVSPropertyOp26
 70
     1
102
RTVSPropertyOp27
 70
     1
102
RTVSPropertyOp28
 70
     1
102
RTVSPropertyOp29
 70
     1
102
RTVSPropertyOp30
 70
     1
102
RTVSPropertyOp31
 70
     1
102
RTVSPropertyOp32
 70
     1
102
RTVSPropertyOp33
 70
     1
102
RTVSPropertyOp34
 70
     1
102
RTVSPropertyOp35
 70
     1
102
RTVSPropertyOp36
 70
     1
102
RTVSPropertyOp37
 70
     1
102
RTVSPropertyOp38
 70
     1
102
RTVSPropertyOp39
 70
     1
102
RTVSPropertyOp40
 70
     1
102
RTVSPropertyOp41
 70
     1
102
RTVSPropertyOp42
 70
     1
102
RTVSPropertyOp43
 70
     1
102
RTVSPropertyOp44
 70
     1
102
RTVSPropertyOp45
 70
     1
102
RTVSPropertyOp46
 70
     1
102
RTVSPropertyOp47
 70
     1
102
RTVSPropertyOp48
 70
     1
102
RTVSPropertyOp49
 70
     1
102
RTVSPropertyOp50
 70
     1
102
RTVSPropertyOp51
 70
     0
102
RTVSPropertyOp52
 70
     0
102
RTVSPropertyOp53
 70
     1
102
RTVSPropertyOp54
 70
     1
102
RTVSPropertyOp55
 70
     1
102
RTVSPropertyOp56
 70
     1
102
RTVSPropertyOp57
 70
     1
102
RTVSPost2010Prop28
280
     0
102
RTVSPost2010PropOp28
 70
     1
102
RTVSPost2010Prop29
280
     1
102
RTVSPost2010PropOp29
 70
     1
102
RTVSPost2010Prop30
280
     1
102
RTVSPost2010PropOp30
 70
     1
102
RTVSPost2010Prop31
280
     0
102
RTVSPost2010PropOp31
 70
     1
102
RTVSPost2010Prop32
280
     0
102
RTVSPost2010PropOp32
 70
     1
102
RTVSPost2010Prop33
280
     0
102
RTVSPost2010PropOp33
 70
     1
102
RTVSPost2010Prop34
280
     0
102
RTVSPost2010PropOp34
 70
     1
102
RTVSPost2010Prop35
280
     0
102
RTVSPost2010PropOp35
 70
     1
102
RTVSPost2010Prop36
280
     0
102
RTVSPost2010PropOp36
 70
     1
102
RTVSPost2010Prop37
 90
       50
102
RTVSPost2010PropOp37
 70
     1
102
RTVSPost2010Prop38
140
0.0
102
RTVSPost2010PropOp38
 70
     1
102
RTVSPost2010Prop39
140
1.0
102
RTVSPost2010PropOp39
 70
     1
102
RTVSPost2010Prop40
 90
        0
102
RTVSPost2010PropOp40
 70
     1
102
RTVSPost2010Prop41ColorIndex
 90
       18
102
RTVSPost2010Prop41ColorRGB
 90
        0
102
RTVSPost2010PropOp41
 70
     1
102
RTVSPost2010Prop42
 90
       50
102
RTVSPost2010PropOp42
 70
     1
102
RTVSPost2010Prop43
 90
        3
102
RTVSPost2010PropOp43
 70
     1
102
RTVSPost2010Prop44ColorIndex
 90
        5
102
RTVSPost2010Prop44ColorRGB
 90
      255
102
RTVSPost2010PropOp44
 70
     1
102
RTVSPost2010Prop45
280
     0
102
RTVSPost2010PropOp45
 70
     1
102
RTVSPost2010Prop46
 90
       50
102
RTVSPost2010PropOp46
 70
     1
102
RTVSPost2010Prop47
 90
       50
102
RTVSPost2010PropOp47
 70
     1
102
RTVSPost2010Prop48
 90
       50
102
RTVSPost2010PropOp48
 70
     1
102
RTVSPost2010Prop49
280
     0
102
RTVSPost2010PropOp49
 70
     1
102
RTVSPost2010Prop50
 90
       50
102
RTVSPost2010PropOp50
 70
     1
102
RTVSPost2010Prop51ColorIndex
 90
      256
102
RTVSPost2010Prop51ColorRGB
 90
-16777216
102
RTVSPost2010PropOp51
 70
     0
102
RTVSPost2010Prop52
140
1.0
102
RTVSPost2010PropOp52
 70
     0
102
RTVSPost2010Prop53
 90
        2
102
RTVSPost2010PropOp53
 70
     1
102
RTVSPost2010Prop54
  1
strokes_ogs.tif
102
RTVSPost2010PropOp54
 70
     1
102
RTVSPost2010Prop55
280
     0
102
RTVSPost2010PropOp55
 70
     1
102
RTVSPost2010Prop56
140
1.0
102
RTVSPost2010PropOp56
 70
     1
102
RTVSPost2010Prop57
140
1.0
102
RTVSPost2010PropOp57
 70
     1
  0
XRECORD
  5
216
102
{ACAD_REACTORS
330
215
102
}
330
215
100
AcDbXrecord
280
     1
102
RTVSPropertyOp0
 70
     1
102
RTVSPropertyOp1
 70
     1
102
RTVSPropertyOp2
 70
     1
102
RTVSPropertyOp3
 70
     1
102
RTVSPropertyOp4
 70
     1
102
RTVSPropertyOp5
 70
     1
102
RTVSPropertyOp6
 70
     1
102
RTVSPropertyOp7
 70
     1
102
RTVSPropertyOp8
 70
     1
102
RTVSPropertyOp9
 70
     1
102
RTVSPropertyOp10
 70
     1
102
RTVSPropertyOp11
 70
     1
102
RTVSPropertyOp12
 70
     1
102
RTVSPropertyOp13
 70
     1
102
RTVSPropertyOp14
 70
     1
102
RTVSPropertyOp15
 70
     1
102
RTVSPropertyOp16
 70
     1
102
RTVSPropertyOp17
 70
     1
102
RTVSPropertyOp18
 70
     1
102
RTVSPropertyOp19
 70
     1
102
RTVSPropertyOp20
 70
     1
102
RTVSPropertyOp21
 70
     1
102
RTVSPropertyOp22
 70
     1
102
RTVSPropertyOp23
 70
     1
102
RTVSPropertyOp24
 70
     1
102
RTVSPropertyOp25
 70
     1
102
RTVSPropertyOp26
 70
     1
102
RTVSPropertyOp27
 70
     1
102
RTVSPropertyOp28
 70
     1
102
RTVSPropertyOp29
 70
     1
102
RTVSPropertyOp30
 70
     1
102
RTVSPropertyOp31
 70
     1
102
RTVSPropertyOp32
 70
     1
102
RTVSPropertyOp33
 70
     1
102
RTVSPropertyOp34
 70
     1
102
RTVSPropertyOp35
 70
     1
102
RTVSPropertyOp36
 70
     1
102
RTVSPropertyOp37
 70
     1
102
RTVSPropertyOp38
 70
     1
102
RTVSPropertyOp39
 70
     1
102
RTVSPropertyOp40
 70
     1
102
RTVSPropertyOp41
 70
     1
102
RTVSPropertyOp42
 70
     1
102
RTVSPropertyOp43
 70
     1
102
RTVSPropertyOp44
 70
     1
102
RTVSPropertyOp45
 70
     1
102
RTVSPropertyOp46
 70
     1
102
RTVSPropertyOp47
 70
     1
102
RTVSPropertyOp48
 70
     1
102
RTVSPropertyOp49
 70
     1
102
RTVSPropertyOp50
 70
     1
102
RTVSPropertyOp51
 70
     0
102
RTVSPropertyOp52
 70
     0
102
RTVSPropertyOp53
 70
     1
102
RTVSPropertyOp54
 70
     1
102
RTVSPropertyOp55
 70
     1
102
RTVSPropertyOp56
 70
     1
102
RTVSPropertyOp57
 70
     1
102
RTVSPost2010Prop28
280
     0
102
RTVSPost2010PropOp28
 70
     1
102
RTVSPost2010Prop29
280
     1
102
RTVSPost2010PropOp29
 70
     1
102
RTVSPost2010Prop30
280
     1
102
RTVSPost2010PropOp30
 70
     1
102
RTVSPost2010Prop31
280
     0
102
RTVSPost2010PropOp31
 70
     1
102
RTVSPost2010Prop32
280
     0
102
RTVSPost2010PropOp32
 70
     1
102
RTVSPost2010Prop33
280
     0
102
RTVSPost2010PropOp33
 70
     1
102
RTVSPost2010Prop34
280
     0
102
RTVSPost2010PropOp34
 70
     1
102
RTVSPost2010Prop35
280
     0
102
RTVSPost2010PropOp35
 70
     1
102
RTVSPost2010Prop36
280
     0
102
RTVSPost2010PropOp36
 70
     1
102
RTVSPost2010Prop37
 90
       50
102
RTVSPost2010PropOp37
 70
     1
102
RTVSPost2010Prop38
140
0.0
102
RTVSPost2010PropOp38
 70
     1
102
RTVSPost2010Prop39
140
1.0
102
RTVSPost2010PropOp39
 70
     1
102
RTVSPost2010Prop40
 90
        0
102
RTVSPost2010PropOp40
 70
     1
102
RTVSPost2010Prop41ColorIndex
 90
       18
102
RTVSPost2010Prop41ColorRGB
 90
        0
102
RTVSPost2010PropOp41
 70
     1
102
RTVSPost2010Prop42
 90
       50
102
RTVSPost2010PropOp42
 70
     1
102
RTVSPost2010Prop43
 90
        3
102
RTVSPost2010PropOp43
 70
     1
102
RTVSPost2010Prop44ColorIndex
 90
        5
102
RTVSPost2010Prop44ColorRGB
 90
      255
102
RTVSPost2010PropOp44
 70
     1
102
RTVSPost2010Prop45
280
     0
102
RTVSPost2010PropOp45
 70
     1
102
RTVSPost2010Prop46
 90
       50
102
RTVSPost2010PropOp46
 70
     1
102
RTVSPost2010Prop47
 90
       50
102
RTVSPost2010PropOp47
 70
     1
102
RTVSPost2010Prop48
 90
       50
102
RTVSPost2010PropOp48
 70
     1
102
RTVSPost2010Prop49
280
     0
102
RTVSPost2010PropOp49
 70
     1
102
RTVSPost2010Prop50
 90
       50
102
RTVSPost2010PropOp50
 70
     1
102
RTVSPost2010Prop51ColorIndex
 90
      256
102
RTVSPost2010Prop51ColorRGB
 90
-16777216
102
RTVSPost2010PropOp51
 70
     0
102
RTVSPost2010Prop52
140
1.0
102
RTVSPost2010PropOp52
 70
     0
102
RTVSPost2010Prop53
 90
        2
102
RTVSPost2010PropOp53
 70
     1
102
RTVSPost2010Prop54
  1
strokes_ogs.tif
102
RTVSPost2010PropOp54
 70
     1
102
RTVSPost2010Prop55
280
     0
102
RTVSPost2010PropOp55
 70
     1
102
RTVSPost2010Prop56
140
1.0
102
RTVSPost2010PropOp56
 70
     1
102
RTVSPost2010Prop57
140
1.0
102
RTVSPost2010PropOp57
 70
     1
  0
XRECORD
  5
214
102
{ACAD_REACTORS
330
213
102
}
330
213
100
AcDbXrecord
280
     1
102
RTVSPropertyOp0
 70
     1
102
RTVSPropertyOp1
 70
     1
102
RTVSPropertyOp2
 70
     1
102
RTVSPropertyOp3
 70
     1
102
RTVSPropertyOp4
 70
     1
102
RTVSPropertyOp5
 70
     1
102
RTVSPropertyOp6
 70
     1
102
RTVSPropertyOp7
 70
     1
102
RTVSPropertyOp8
 70
     1
102
RTVSPropertyOp9
 70
     1
102
RTVSPropertyOp10
 70
     1
102
RTVSPropertyOp11
 70
     1
102
RTVSPropertyOp12
 70
     1
102
RTVSPropertyOp13
 70
     1
102
RTVSPropertyOp14
 70
     1
102
RTVSPropertyOp15
 70
     1
102
RTVSPropertyOp16
 70
     1
102
RTVSPropertyOp17
 70
     1
102
RTVSPropertyOp18
 70
     1
102
RTVSPropertyOp19
 70
     1
102
RTVSPropertyOp20
 70
     1
102
RTVSPropertyOp21
 70
     1
102
RTVSPropertyOp22
 70
     1
102
RTVSPropertyOp23
 70
     1
102
RTVSPropertyOp24
 70
     1
102
RTVSPropertyOp25
 70
     1
102
RTVSPropertyOp26
 70
     1
102
RTVSPropertyOp27
 70
     1
102
RTVSPropertyOp28
 70
     1
102
RTVSPropertyOp29
 70
     1
102
RTVSPropertyOp30
 70
     1
102
RTVSPropertyOp31
 70
     1
102
RTVSPropertyOp32
 70
     1
102
RTVSPropertyOp33
 70
     1
102
RTVSPropertyOp34
 70
     1
102
RTVSPropertyOp35
 70
     1
102
RTVSPropertyOp36
 70
     1
102
RTVSPropertyOp37
 70
     1
102
RTVSPropertyOp38
 70
     1
102
RTVSPropertyOp39
 70
     1
102
RTVSPropertyOp40
 70
     1
102
RTVSPropertyOp41
 70
     1
102
RTVSPropertyOp42
 70
     1
102
RTVSPropertyOp43
 70
     1
102
RTVSPropertyOp44
 70
     1
102
RTVSPropertyOp45
 70
     1
102
RTVSPropertyOp46
 70
     1
102
RTVSPropertyOp47
 70
     1
102
RTVSPropertyOp48
 70
     1
102
RTVSPropertyOp49
 70
     1
102
RTVSPropertyOp50
 70
     1
102
RTVSPropertyOp51
 70
     0
102
RTVSPropertyOp52
 70
     0
102
RTVSPropertyOp53
 70
     1
102
RTVSPropertyOp54
 70
     1
102
RTVSPropertyOp55
 70
     1
102
RTVSPropertyOp56
 70
     1
102
RTVSPropertyOp57
 70
     1
102
RTVSPost2010Prop28
280
     0
102
RTVSPost2010PropOp28
 70
     1
102
RTVSPost2010Prop29
280
     1
102
RTVSPost2010PropOp29
 70
     1
102
RTVSPost2010Prop30
280
     1
102
RTVSPost2010PropOp30
 70
     1
102
RTVSPost2010Prop31
280
     0
102
RTVSPost2010PropOp31
 70
     1
102
RTVSPost2010Prop32
280
     0
102
RTVSPost2010PropOp32
 70
     1
102
RTVSPost2010Prop33
280
     0
102
RTVSPost2010PropOp33
 70
     1
102
RTVSPost2010Prop34
280
     0
102
RTVSPost2010PropOp34
 70
     1
102
RTVSPost2010Prop35
280
     0
102
RTVSPost2010PropOp35
 70
     1
102
RTVSPost2010Prop36
280
     0
102
RTVSPost2010PropOp36
 70
     1
102
RTVSPost2010Prop37
 90
       50
102
RTVSPost2010PropOp37
 70
     1
102
RTVSPost2010Prop38
140
0.0
102
RTVSPost2010PropOp38
 70
     1
102
RTVSPost2010Prop39
140
1.0
102
RTVSPost2010PropOp39
 70
     1
102
RTVSPost2010Prop40
 90
        0
102
RTVSPost2010PropOp40
 70
     1
102
RTVSPost2010Prop41ColorIndex
 90
       18
102
RTVSPost2010Prop41ColorRGB
 90
        0
102
RTVSPost2010PropOp41
 70
     1
102
RTVSPost2010Prop42
 90
       50
102
RTVSPost2010PropOp42
 70
     1
102
RTVSPost2010Prop43
 90
        3
102
RTVSPost2010PropOp43
 70
     1
102
RTVSPost2010Prop44ColorIndex
 90
        5
102
RTVSPost2010Prop44ColorRGB
 90
      255
102
RTVSPost2010PropOp44
 70
     1
102
RTVSPost2010Prop45
280
     0
102
RTVSPost2010PropOp45
 70
     1
102
RTVSPost2010Prop46
 90
       50
102
RTVSPost2010PropOp46
 70
     1
102
RTVSPost2010Prop47
 90
       50
102
RTVSPost2010PropOp47
 70
     1
102
RTVSPost2010Prop48
 90
       50
102
RTVSPost2010PropOp48
 70
     1
102
RTVSPost2010Prop49
280
     0
102
RTVSPost2010PropOp49
 70
     1
102
RTVSPost2010Prop50
 90
       50
102
RTVSPost2010PropOp50
 70
     1
102
RTVSPost2010Prop51ColorIndex
 90
      256
102
RTVSPost2010Prop51ColorRGB
 90
-16777216
102
RTVSPost2010PropOp51
 70
     0
102
RTVSPost2010Prop52
140
1.0
102
RTVSPost2010PropOp52
 70
     0
102
RTVSPost2010Prop53
 90
        2
102
RTVSPost2010PropOp53
 70
     1
102
RTVSPost2010Prop54
  1
strokes_ogs.tif
102
RTVSPost2010PropOp54
 70
     1
102
RTVSPost2010Prop55
280
     0
102
RTVSPost2010PropOp55
 70
     1
102
RTVSPost2010Prop56
140
1.0
102
RTVSPost2010PropOp56
 70
     1
102
RTVSPost2010Prop57
140
1.0
102
RTVSPost2010PropOp57
 70
     1
  0
XRECORD
  5
20E
102
{ACAD_REACTORS
330
20D
102
}
330
20D
100
AcDbXrecord
280
     1
102
RTVSPropertyOp0
 70
     1
102
RTVSPropertyOp1
 70
     1
102
RTVSPropertyOp2
 70
     1
102
RTVSPropertyOp3
 70
     1
102
RTVSPropertyOp4
 70
     1
102
RTVSPropertyOp5
 70
     1
102
RTVSPropertyOp6
 70
     1
102
RTVSPropertyOp7
 70
     1
102
RTVSPropertyOp8
 70
     1
102
RTVSPropertyOp9
 70
     1
102
RTVSPropertyOp10
 70
     1
102
RTVSPropertyOp11
 70
     1
102
RTVSPropertyOp12
 70
     1
102
RTVSPropertyOp13
 70
     1
102
RTVSPropertyOp14
 70
     1
102
RTVSPropertyOp15
 70
     1
102
RTVSPropertyOp16
 70
     1
102
RTVSPropertyOp17
 70
     1
102
RTVSPropertyOp18
 70
     1
102
RTVSPropertyOp19
 70
     1
102
RTVSPropertyOp20
 70
     1
102
RTVSPropertyOp21
 70
     1
102
RTVSPropertyOp22
 70
     1
102
RTVSPropertyOp23
 70
     1
102
RTVSPropertyOp24
 70
     1
102
RTVSPropertyOp25
 70
     1
102
RTVSPropertyOp26
 70
     1
102
RTVSPropertyOp27
 70
     1
102
RTVSPropertyOp28
 70
     1
102
RTVSPropertyOp29
 70
     1
102
RTVSPropertyOp30
 70
     1
102
RTVSPropertyOp31
 70
     1
102
RTVSPropertyOp32
 70
     1
102
RTVSPropertyOp33
 70
     1
102
RTVSPropertyOp34
 70
     1
102
RTVSPropertyOp35
 70
     1
102
RTVSPropertyOp36
 70
     1
102
RTVSPropertyOp37
 70
     1
102
RTVSPropertyOp38
 70
     1
102
RTVSPropertyOp39
 70
     1
102
RTVSPropertyOp40
 70
     1
102
RTVSPropertyOp41
 70
     1
102
RTVSPropertyOp42
 70
     1
102
RTVSPropertyOp43
 70
     1
102
RTVSPropertyOp44
 70
     1
102
RTVSPropertyOp45
 70
     1
102
RTVSPropertyOp46
 70
     1
102
RTVSPropertyOp47
 70
     1
102
RTVSPropertyOp48
 70
     1
102
RTVSPropertyOp49
 70
     1
102
RTVSPropertyOp50
 70
     1
102
RTVSPropertyOp51
 70
     0
102
RTVSPropertyOp52
 70
     0
102
RTVSPropertyOp53
 70
     1
102
RTVSPropertyOp54
 70
     1
102
RTVSPropertyOp55
 70
     1
102
RTVSPropertyOp56
 70
     1
102
RTVSPropertyOp57
 70
     1
102
RTVSPost2010Prop28
280
     0
102
RTVSPost2010PropOp28
 70
     1
102
RTVSPost2010Prop29
280
     1
102
RTVSPost2010PropOp29
 70
     1
102
RTVSPost2010Prop30
280
     1
102
RTVSPost2010PropOp30
 70
     1
102
RTVSPost2010Prop31
280
     0
102
RTVSPost2010PropOp31
 70
     1
102
RTVSPost2010Prop32
280
     0
102
RTVSPost2010PropOp32
 70
     1
102
RTVSPost2010Prop33
280
     0
102
RTVSPost2010PropOp33
 70
     1
102
RTVSPost2010Prop34
280
     0
102
RTVSPost2010PropOp34
 70
     1
102
RTVSPost2010Prop35
280
     0
102
RTVSPost2010PropOp35
 70
     1
102
RTVSPost2010Prop36
280
     0
102
RTVSPost2010PropOp36
 70
     1
102
RTVSPost2010Prop37
 90
       50
102
RTVSPost2010PropOp37
 70
     1
102
RTVSPost2010Prop38
140
0.0
102
RTVSPost2010PropOp38
 70
     1
102
RTVSPost2010Prop39
140
1.0
102
RTVSPost2010PropOp39
 70
     1
102
RTVSPost2010Prop40
 90
        0
102
RTVSPost2010PropOp40
 70
     1
102
RTVSPost2010Prop41ColorIndex
 90
       18
102
RTVSPost2010Prop41ColorRGB
 90
        0
102
RTVSPost2010PropOp41
 70
     1
102
RTVSPost2010Prop42
 90
       50
102
RTVSPost2010PropOp42
 70
     1
102
RTVSPost2010Prop43
 90
        3
102
RTVSPost2010PropOp43
 70
     1
102
RTVSPost2010Prop44ColorIndex
 90
        5
102
RTVSPost2010Prop44ColorRGB
 90
      255
102
RTVSPost2010PropOp44
 70
     1
102
RTVSPost2010Prop45
280
     0
102
RTVSPost2010PropOp45
 70
     1
102
RTVSPost2010Prop46
 90
       50
102
RTVSPost2010PropOp46
 70
     1
102
RTVSPost2010Prop47
 90
       50
102
RTVSPost2010PropOp47
 70
     1
102
RTVSPost2010Prop48
 90
       50
102
RTVSPost2010PropOp48
 70
     1
102
RTVSPost2010Prop49
280
     0
102
RTVSPost2010PropOp49
 70
     1
102
RTVSPost2010Prop50
 90
       50
102
RTVSPost2010PropOp50
 70
     1
102
RTVSPost2010Prop51ColorIndex
 90
      256
102
RTVSPost2010Prop51ColorRGB
 90
-16777216
102
RTVSPost2010PropOp51
 70
     0
102
RTVSPost2010Prop52
140
1.0
102
RTVSPost2010PropOp52
 70
     0
102
RTVSPost2010Prop53
 90
        2
102
RTVSPost2010PropOp53
 70
     1
102
RTVSPost2010Prop54
  1
strokes_ogs.tif
102
RTVSPost2010PropOp54
 70
     1
102
RTVSPost2010Prop55
280
     0
102
RTVSPost2010PropOp55
 70
     1
102
RTVSPost2010Prop56
140
1.0
102
RTVSPost2010PropOp56
 70
     1
102
RTVSPost2010Prop57
140
1.0
102
RTVSPost2010PropOp57
 70
     1
  0
XRECORD
  5
210
102
{ACAD_REACTORS
330
20F
102
}
330
20F
100
AcDbXrecord
280
     1
102
RTVSPropertyOp0
 70
     1
102
RTVSPropertyOp1
 70
     1
102
RTVSPropertyOp2
 70
     1
102
RTVSPropertyOp3
 70
     1
102
RTVSPropertyOp4
 70
     1
102
RTVSPropertyOp5
 70
     1
102
RTVSPropertyOp6
 70
     1
102
RTVSPropertyOp7
 70
     1
102
RTVSPropertyOp8
 70
     1
102
RTVSPropertyOp9
 70
     1
102
RTVSPropertyOp10
 70
     1
102
RTVSPropertyOp11
 70
     1
102
RTVSPropertyOp12
 70
     1
102
RTVSPropertyOp13
 70
     1
102
RTVSPropertyOp14
 70
     1
102
RTVSPropertyOp15
 70
     1
102
RTVSPropertyOp16
 70
     1
102
RTVSPropertyOp17
 70
     1
102
RTVSPropertyOp18
 70
     1
102
RTVSPropertyOp19
 70
     1
102
RTVSPropertyOp20
 70
     1
102
RTVSPropertyOp21
 70
     1
102
RTVSPropertyOp22
 70
     1
102
RTVSPropertyOp23
 70
     1
102
RTVSPropertyOp24
 70
     1
102
RTVSPropertyOp25
 70
     1
102
RTVSPropertyOp26
 70
     1
102
RTVSPropertyOp27
 70
     1
102
RTVSPropertyOp28
 70
     1
102
RTVSPropertyOp29
 70
     1
102
RTVSPropertyOp30
 70
     1
102
RTVSPropertyOp31
 70
     1
102
RTVSPropertyOp32
 70
     1
102
RTVSPropertyOp33
 70
     1
102
RTVSPropertyOp34
 70
     1
102
RTVSPropertyOp35
 70
     1
102
RTVSPropertyOp36
 70
     1
102
RTVSPropertyOp37
 70
     1
102
RTVSPropertyOp38
 70
     1
102
RTVSPropertyOp39
 70
     1
102
RTVSPropertyOp40
 70
     1
102
RTVSPropertyOp41
 70
     1
102
RTVSPropertyOp42
 70
     1
102
RTVSPropertyOp43
 70
     1
102
RTVSPropertyOp44
 70
     1
102
RTVSPropertyOp45
 70
     1
102
RTVSPropertyOp46
 70
     1
102
RTVSPropertyOp47
 70
     1
102
RTVSPropertyOp48
 70
     1
102
RTVSPropertyOp49
 70
     1
102
RTVSPropertyOp50
 70
     1
102
RTVSPropertyOp51
 70
     0
102
RTVSPropertyOp52
 70
     0
102
RTVSPropertyOp53
 70
     1
102
RTVSPropertyOp54
 70
     1
102
RTVSPropertyOp55
 70
     1
102
RTVSPropertyOp56
 70
     1
102
RTVSPropertyOp57
 70
     1
102
RTVSPost2010Prop28
280
     0
102
RTVSPost2010PropOp28
 70
     1
102
RTVSPost2010Prop29
280
     1
102
RTVSPost2010PropOp29
 70
     1
102
RTVSPost2010Prop30
280
     1
102
RTVSPost2010PropOp30
 70
     1
102
RTVSPost2010Prop31
280
     0
102
RTVSPost2010PropOp31
 70
     1
102
RTVSPost2010Prop32
280
     0
102
RTVSPost2010PropOp32
 70
     1
102
RTVSPost2010Prop33
280
     0
102
RTVSPost2010PropOp33
 70
     1
102
RTVSPost2010Prop34
280
     0
102
RTVSPost2010PropOp34
 70
     1
102
RTVSPost2010Prop35
280
     0
102
RTVSPost2010PropOp35
 70
     1
102
RTVSPost2010Prop36
280
     0
102
RTVSPost2010PropOp36
 70
     1
102
RTVSPost2010Prop37
 90
       50
102
RTVSPost2010PropOp37
 70
     1
102
RTVSPost2010Prop38
140
0.0
102
RTVSPost2010PropOp38
 70
     1
102
RTVSPost2010Prop39
140
1.0
102
RTVSPost2010PropOp39
 70
     1
102
RTVSPost2010Prop40
 90
        0
102
RTVSPost2010PropOp40
 70
     1
102
RTVSPost2010Prop41ColorIndex
 90
       18
102
RTVSPost2010Prop41ColorRGB
 90
        0
102
RTVSPost2010PropOp41
 70
     1
102
RTVSPost2010Prop42
 90
       50
102
RTVSPost2010PropOp42
 70
     1
102
RTVSPost2010Prop43
 90
        3
102
RTVSPost2010PropOp43
 70
     1
102
RTVSPost2010Prop44ColorIndex
 90
        5
102
RTVSPost2010Prop44ColorRGB
 90
      255
102
RTVSPost2010PropOp44
 70
     1
102
RTVSPost2010Prop45
280
     0
102
RTVSPost2010PropOp45
 70
     1
102
RTVSPost2010Prop46
 90
       50
102
RTVSPost2010PropOp46
 70
     1
102
RTVSPost2010Prop47
 90
       50
102
RTVSPost2010PropOp47
 70
     1
102
RTVSPost2010Prop48
 90
       50
102
RTVSPost2010PropOp48
 70
     1
102
RTVSPost2010Prop49
280
     0
102
RTVSPost2010PropOp49
 70
     1
102
RTVSPost2010Prop50
 90
       50
102
RTVSPost2010PropOp50
 70
     1
102
RTVSPost2010Prop51ColorIndex
 90
      256
102
RTVSPost2010Prop51ColorRGB
 90
-16777216
102
RTVSPost2010PropOp51
 70
     0
102
RTVSPost2010Prop52
140
1.0
102
RTVSPost2010PropOp52
 70
     0
102
RTVSPost2010Prop53
 90
        2
102
RTVSPost2010PropOp53
 70
     1
102
RTVSPost2010Prop54
  1
strokes_ogs.tif
102
RTVSPost2010PropOp54
 70
     1
102
RTVSPost2010Prop55
280
     0
102
RTVSPost2010PropOp55
 70
     1
102
RTVSPost2010Prop56
140
1.0
102
RTVSPost2010PropOp56
 70
     1
102
RTVSPost2010Prop57
140
1.0
102
RTVSPost2010PropOp57
 70
     1
  0
XRECORD
  5
200
102
{ACAD_REACTORS
330
1FF
102
}
330
1FF
100
AcDbXrecord
280
     1
102
RTVSPropertyOp0
 70
     1
102
RTVSPropertyOp1
 70
     1
102
RTVSPropertyOp2
 70
     1
102
RTVSPropertyOp3
 70
     1
102
RTVSPropertyOp4
 70
     1
102
RTVSPropertyOp5
 70
     1
102
RTVSPropertyOp6
 70
     1
102
RTVSPropertyOp7
 70
     1
102
RTVSPropertyOp8
 70
     1
102
RTVSPropertyOp9
 70
     1
102
RTVSPropertyOp10
 70
     1
102
RTVSPropertyOp11
 70
     1
102
RTVSPropertyOp12
 70
     1
102
RTVSPropertyOp13
 70
     1
102
RTVSPropertyOp14
 70
     1
102
RTVSPropertyOp15
 70
     1
102
RTVSPropertyOp16
 70
     1
102
RTVSPropertyOp17
 70
     1
102
RTVSPropertyOp18
 70
     1
102
RTVSPropertyOp19
 70
     1
102
RTVSPropertyOp20
 70
     1
102
RTVSPropertyOp21
 70
     1
102
RTVSPropertyOp22
 70
     1
102
RTVSPropertyOp23
 70
     1
102
RTVSPropertyOp24
 70
     1
102
RTVSPropertyOp25
 70
     1
102
RTVSPropertyOp26
 70
     1
102
RTVSPropertyOp27
 70
     1
102
RTVSPropertyOp28
 70
     1
102
RTVSPropertyOp29
 70
     1
102
RTVSPropertyOp30
 70
     1
102
RTVSPropertyOp31
 70
     1
102
RTVSPropertyOp32
 70
     1
102
RTVSPropertyOp33
 70
     1
102
RTVSPropertyOp34
 70
     1
102
RTVSPropertyOp35
 70
     1
102
RTVSPropertyOp36
 70
     1
102
RTVSPropertyOp37
 70
     1
102
RTVSPropertyOp38
 70
     1
102
RTVSPropertyOp39
 70
     1
102
RTVSPropertyOp40
 70
     1
102
RTVSPropertyOp41
 70
     1
102
RTVSPropertyOp42
 70
     1
102
RTVSPropertyOp43
 70
     1
102
RTVSPropertyOp44
 70
     1
102
RTVSPropertyOp45
 70
     1
102
RTVSPropertyOp46
 70
     1
102
RTVSPropertyOp47
 70
     1
102
RTVSPropertyOp48
 70
     1
102
RTVSPropertyOp49
 70
     1
102
RTVSPropertyOp50
 70
     1
102
RTVSPropertyOp51
 70
     0
102
RTVSPropertyOp52
 70
     0
102
RTVSPropertyOp53
 70
     1
102
RTVSPropertyOp54
 70
     1
102
RTVSPropertyOp55
 70
     1
102
RTVSPropertyOp56
 70
     1
102
RTVSPropertyOp57
 70
     1
102
RTVSPost2010Prop28
280
     0
102
RTVSPost2010PropOp28
 70
     1
102
RTVSPost2010Prop29
280
     1
102
RTVSPost2010PropOp29
 70
     1
102
RTVSPost2010Prop30
280
     1
102
RTVSPost2010PropOp30
 70
     1
102
RTVSPost2010Prop31
280
     0
102
RTVSPost2010PropOp31
 70
     1
102
RTVSPost2010Prop32
280
     0
102
RTVSPost2010PropOp32
 70
     1
102
RTVSPost2010Prop33
280
     0
102
RTVSPost2010PropOp33
 70
     1
102
RTVSPost2010Prop34
280
     0
102
RTVSPost2010PropOp34
 70
     1
102
RTVSPost2010Prop35
280
     0
102
RTVSPost2010PropOp35
 70
     1
102
RTVSPost2010Prop36
280
     0
102
RTVSPost2010PropOp36
 70
     1
102
RTVSPost2010Prop37
 90
       50
102
RTVSPost2010PropOp37
 70
     1
102
RTVSPost2010Prop38
140
0.0
102
RTVSPost2010PropOp38
 70
     1
102
RTVSPost2010Prop39
140
1.0
102
RTVSPost2010PropOp39
 70
     1
102
RTVSPost2010Prop40
 90
        0
102
RTVSPost2010PropOp40
 70
     1
102
RTVSPost2010Prop41ColorIndex
 90
       18
102
RTVSPost2010Prop41ColorRGB
 90
        0
102
RTVSPost2010PropOp41
 70
     1
102
RTVSPost2010Prop42
 90
       50
102
RTVSPost2010PropOp42
 70
     1
102
RTVSPost2010Prop43
 90
        3
102
RTVSPost2010PropOp43
 70
     1
102
RTVSPost2010Prop44ColorIndex
 90
        5
102
RTVSPost2010Prop44ColorRGB
 90
      255
102
RTVSPost2010PropOp44
 70
     1
102
RTVSPost2010Prop45
280
     0
102
RTVSPost2010PropOp45
 70
     1
102
RTVSPost2010Prop46
 90
       50
102
RTVSPost2010PropOp46
 70
     1
102
RTVSPost2010Prop47
 90
       50
102
RTVSPost2010PropOp47
 70
     1
102
RTVSPost2010Prop48
 90
       50
102
RTVSPost2010PropOp48
 70
     1
102
RTVSPost2010Prop49
280
     0
102
RTVSPost2010PropOp49
 70
     1
102
RTVSPost2010Prop50
 90
       50
102
RTVSPost2010PropOp50
 70
     1
102
RTVSPost2010Prop51ColorIndex
 90
      256
102
RTVSPost2010Prop51ColorRGB
 90
-16777216
102
RTVSPost2010PropOp51
 70
     0
102
RTVSPost2010Prop52
140
1.0
102
RTVSPost2010PropOp52
 70
     0
102
RTVSPost2010Prop53
 90
        2
102
RTVSPost2010PropOp53
 70
     1
102
RTVSPost2010Prop54
  1
strokes_ogs.tif
102
RTVSPost2010PropOp54
 70
     1
102
RTVSPost2010Prop55
280
     0
102
RTVSPost2010PropOp55
 70
     1
102
RTVSPost2010Prop56
140
1.0
102
RTVSPost2010PropOp56
 70
     1
102
RTVSPost2010Prop57
140
1.0
102
RTVSPost2010PropOp57
 70
     1
  0
XRECORD
  5
1F2
102
{ACAD_REACTORS
330
1F1
102
}
330
1F1
100
AcDbXrecord
280
     1
102
RTVSPropertyOp0
 70
     1
102
RTVSPropertyOp1
 70
     1
102
RTVSPropertyOp2
 70
     1
102
RTVSPropertyOp3
 70
     1
102
RTVSPropertyOp4
 70
     1
102
RTVSPropertyOp5
 70
     1
102
RTVSPropertyOp6
 70
     1
102
RTVSPropertyOp7
 70
     1
102
RTVSPropertyOp8
 70
     1
102
RTVSPropertyOp9
 70
     1
102
RTVSPropertyOp10
 70
     1
102
RTVSPropertyOp11
 70
     1
102
RTVSPropertyOp12
 70
     1
102
RTVSPropertyOp13
 70
     1
102
RTVSPropertyOp14
 70
     1
102
RTVSPropertyOp15
 70
     1
102
RTVSPropertyOp16
 70
     1
102
RTVSPropertyOp17
 70
     1
102
RTVSPropertyOp18
 70
     1
102
RTVSPropertyOp19
 70
     1
102
RTVSPropertyOp20
 70
     1
102
RTVSPropertyOp21
 70
     1
102
RTVSPropertyOp22
 70
     1
102
RTVSPropertyOp23
 70
     1
102
RTVSPropertyOp24
 70
     1
102
RTVSPropertyOp25
 70
     1
102
RTVSPropertyOp26
 70
     1
102
RTVSPropertyOp27
 70
     1
102
RTVSPropertyOp28
 70
     1
102
RTVSPropertyOp29
 70
     1
102
RTVSPropertyOp30
 70
     1
102
RTVSPropertyOp31
 70
     1
102
RTVSPropertyOp32
 70
     1
102
RTVSPropertyOp33
 70
     1
102
RTVSPropertyOp34
 70
     1
102
RTVSPropertyOp35
 70
     1
102
RTVSPropertyOp36
 70
     1
102
RTVSPropertyOp37
 70
     1
102
RTVSPropertyOp38
 70
     1
102
RTVSPropertyOp39
 70
     1
102
RTVSPropertyOp40
 70
     1
102
RTVSPropertyOp41
 70
     1
102
RTVSPropertyOp42
 70
     1
102
RTVSPropertyOp43
 70
     1
102
RTVSPropertyOp44
 70
     1
102
RTVSPropertyOp45
 70
     1
102
RTVSPropertyOp46
 70
     1
102
RTVSPropertyOp47
 70
     1
102
RTVSPropertyOp48
 70
     1
102
RTVSPropertyOp49
 70
     1
102
RTVSPropertyOp50
 70
     1
102
RTVSPropertyOp51
 70
     0
102
RTVSPropertyOp52
 70
     0
102
RTVSPropertyOp53
 70
     1
102
RTVSPropertyOp54
 70
     1
102
RTVSPropertyOp55
 70
     1
102
RTVSPropertyOp56
 70
     1
102
RTVSPropertyOp57
 70
     1
102
RTVSPost2010Prop28
280
     0
102
RTVSPost2010PropOp28
 70
     1
102
RTVSPost2010Prop29
280
     1
102
RTVSPost2010PropOp29
 70
     1
102
RTVSPost2010Prop30
280
     1
102
RTVSPost2010PropOp30
 70
     1
102
RTVSPost2010Prop31
280
     0
102
RTVSPost2010PropOp31
 70
     1
102
RTVSPost2010Prop32
280
     0
102
RTVSPost2010PropOp32
 70
     1
102
RTVSPost2010Prop33
280
     0
102
RTVSPost2010PropOp33
 70
     1
102
RTVSPost2010Prop34
280
     0
102
RTVSPost2010PropOp34
 70
     1
102
RTVSPost2010Prop35
280
     0
102
RTVSPost2010PropOp35
 70
     1
102
RTVSPost2010Prop36
280
     0
102
RTVSPost2010PropOp36
 70
     1
102
RTVSPost2010Prop37
 90
       50
102
RTVSPost2010PropOp37
 70
     1
102
RTVSPost2010Prop38
140
0.0
102
RTVSPost2010PropOp38
 70
     1
102
RTVSPost2010Prop39
140
1.0
102
RTVSPost2010PropOp39
 70
     1
102
RTVSPost2010Prop40
 90
        0
102
RTVSPost2010PropOp40
 70
     1
102
RTVSPost2010Prop41ColorIndex
 90
       18
102
RTVSPost2010Prop41ColorRGB
 90
        0
102
RTVSPost2010PropOp41
 70
     1
102
RTVSPost2010Prop42
 90
       50
102
RTVSPost2010PropOp42
 70
     1
102
RTVSPost2010Prop43
 90
        3
102
RTVSPost2010PropOp43
 70
     1
102
RTVSPost2010Prop44ColorIndex
 90
        5
102
RTVSPost2010Prop44ColorRGB
 90
      255
102
RTVSPost2010PropOp44
 70
     1
102
RTVSPost2010Prop45
280
     0
102
RTVSPost2010PropOp45
 70
     1
102
RTVSPost2010Prop46
 90
       50
102
RTVSPost2010PropOp46
 70
     1
102
RTVSPost2010Prop47
 90
       50
102
RTVSPost2010PropOp47
 70
     1
102
RTVSPost2010Prop48
 90
       50
102
RTVSPost2010PropOp48
 70
     1
102
RTVSPost2010Prop49
280
     0
102
RTVSPost2010PropOp49
 70
     1
102
RTVSPost2010Prop50
 90
       50
102
RTVSPost2010PropOp50
 70
     1
102
RTVSPost2010Prop51ColorIndex
 90
      256
102
RTVSPost2010Prop51ColorRGB
 90
-16777216
102
RTVSPost2010PropOp51
 70
     0
102
RTVSPost2010Prop52
140
1.0
102
RTVSPost2010PropOp52
 70
     0
102
RTVSPost2010Prop53
 90
        2
102
RTVSPost2010PropOp53
 70
     1
102
RTVSPost2010Prop54
  1
strokes_ogs.tif
102
RTVSPost2010PropOp54
 70
     1
102
RTVSPost2010Prop55
280
     0
102
RTVSPost2010PropOp55
 70
     1
102
RTVSPost2010Prop56
140
1.0
102
RTVSPost2010PropOp56
 70
     1
102
RTVSPost2010Prop57
140
1.0
102
RTVSPost2010PropOp57
 70
     1
  0
XRECORD
  5
212
102
{ACAD_REACTORS
330
211
102
}
330
211
100
AcDbXrecord
280
     1
102
RTVSPropertyOp0
 70
     1
102
RTVSPropertyOp1
 70
     1
102
RTVSPropertyOp2
 70
     1
102
RTVSPropertyOp3
 70
     1
102
RTVSPropertyOp4
 70
     1
102
RTVSPropertyOp5
 70
     1
102
RTVSPropertyOp6
 70
     1
102
RTVSPropertyOp7
 70
     1
102
RTVSPropertyOp8
 70
     1
102
RTVSPropertyOp9
 70
     1
102
RTVSPropertyOp10
 70
     1
102
RTVSPropertyOp11
 70
     1
102
RTVSPropertyOp12
 70
     1
102
RTVSPropertyOp13
 70
     1
102
RTVSPropertyOp14
 70
     1
102
RTVSPropertyOp15
 70
     1
102
RTVSPropertyOp16
 70
     1
102
RTVSPropertyOp17
 70
     1
102
RTVSPropertyOp18
 70
     1
102
RTVSPropertyOp19
 70
     1
102
RTVSPropertyOp20
 70
     1
102
RTVSPropertyOp21
 70
     1
102
RTVSPropertyOp22
 70
     1
102
RTVSPropertyOp23
 70
     1
102
RTVSPropertyOp24
 70
     1
102
RTVSPropertyOp25
 70
     1
102
RTVSPropertyOp26
 70
     1
102
RTVSPropertyOp27
 70
     1
102
RTVSPropertyOp28
 70
     1
102
RTVSPropertyOp29
 70
     1
102
RTVSPropertyOp30
 70
     1
102
RTVSPropertyOp31
 70
     1
102
RTVSPropertyOp32
 70
     1
102
RTVSPropertyOp33
 70
     1
102
RTVSPropertyOp34
 70
     1
102
RTVSPropertyOp35
 70
     1
102
RTVSPropertyOp36
 70
     1
102
RTVSPropertyOp37
 70
     1
102
RTVSPropertyOp38
 70
     1
102
RTVSPropertyOp39
 70
     1
102
RTVSPropertyOp40
 70
     1
102
RTVSPropertyOp41
 70
     1
102
RTVSPropertyOp42
 70
     1
102
RTVSPropertyOp43
 70
     1
102
RTVSPropertyOp44
 70
     1
102
RTVSPropertyOp45
 70
     1
102
RTVSPropertyOp46
 70
     1
102
RTVSPropertyOp47
 70
     1
102
RTVSPropertyOp48
 70
     1
102
RTVSPropertyOp49
 70
     1
102
RTVSPropertyOp50
 70
     1
102
RTVSPropertyOp51
 70
     0
102
RTVSPropertyOp52
 70
     0
102
RTVSPropertyOp53
 70
     1
102
RTVSPropertyOp54
 70
     1
102
RTVSPropertyOp55
 70
     1
102
RTVSPropertyOp56
 70
     1
102
RTVSPropertyOp57
 70
     1
102
RTVSPost2010Prop28
280
     0
102
RTVSPost2010PropOp28
 70
     1
102
RTVSPost2010Prop29
280
     1
102
RTVSPost2010PropOp29
 70
     1
102
RTVSPost2010Prop30
280
     1
102
RTVSPost2010PropOp30
 70
     1
102
RTVSPost2010Prop31
280
     0
102
RTVSPost2010PropOp31
 70
     1
102
RTVSPost2010Prop32
280
     0
102
RTVSPost2010PropOp32
 70
     1
102
RTVSPost2010Prop33
280
     0
102
RTVSPost2010PropOp33
 70
     1
102
RTVSPost2010Prop34
280
     0
102
RTVSPost2010PropOp34
 70
     1
102
RTVSPost2010Prop35
280
     0
102
RTVSPost2010PropOp35
 70
     1
102
RTVSPost2010Prop36
280
     0
102
RTVSPost2010PropOp36
 70
     1
102
RTVSPost2010Prop37
 90
       50
102
RTVSPost2010PropOp37
 70
     1
102
RTVSPost2010Prop38
140
0.0
102
RTVSPost2010PropOp38
 70
     1
102
RTVSPost2010Prop39
140
1.0
102
RTVSPost2010PropOp39
 70
     1
102
RTVSPost2010Prop40
 90
        0
102
RTVSPost2010PropOp40
 70
     1
102
RTVSPost2010Prop41ColorIndex
 90
       18
102
RTVSPost2010Prop41ColorRGB
 90
        0
102
RTVSPost2010PropOp41
 70
     1
102
RTVSPost2010Prop42
 90
       50
102
RTVSPost2010PropOp42
 70
     1
102
RTVSPost2010Prop43
 90
        3
102
RTVSPost2010PropOp43
 70
     1
102
RTVSPost2010Prop44ColorIndex
 90
        5
102
RTVSPost2010Prop44ColorRGB
 90
      255
102
RTVSPost2010PropOp44
 70
     1
102
RTVSPost2010Prop45
280
     0
102
RTVSPost2010PropOp45
 70
     1
102
RTVSPost2010Prop46
 90
       50
102
RTVSPost2010PropOp46
 70
     1
102
RTVSPost2010Prop47
 90
       50
102
RTVSPost2010PropOp47
 70
     1
102
RTVSPost2010Prop48
 90
       50
102
RTVSPost2010PropOp48
 70
     1
102
RTVSPost2010Prop49
280
     0
102
RTVSPost2010PropOp49
 70
     1
102
RTVSPost2010Prop50
 90
       50
102
RTVSPost2010PropOp50
 70
     1
102
RTVSPost2010Prop51ColorIndex
 90
      256
102
RTVSPost2010Prop51ColorRGB
 90
-16777216
102
RTVSPost2010PropOp51
 70
     0
102
RTVSPost2010Prop52
140
1.0
102
RTVSPost2010PropOp52
 70
     0
102
RTVSPost2010Prop53
 90
        2
102
RTVSPost2010PropOp53
 70
     1
102
RTVSPost2010Prop54
  1
strokes_ogs.tif
102
RTVSPost2010PropOp54
 70
     1
102
RTVSPost2010Prop55
280
     0
102
RTVSPost2010PropOp55
 70
     1
102
RTVSPost2010Prop56
140
1.0
102
RTVSPost2010PropOp56
 70
     1
102
RTVSPost2010Prop57
140
1.0
102
RTVSPost2010PropOp57
 70
     1
  0
ENDSEC
  0
EOF
