  0
SECTION
  2
HEADER
  9
$ACADVER
  1
AC1021
  9
$ACADMAINTVER
 70
    25
  9
$DWGCODEPAGE
  3
ANSI_1252
  9
$INSBASE
 10
0.0
 20
0.0
 30
0.0
  9
$EXTMIN
 10
0.0
 20
0.0
 30
0.0
  9
$EXTMAX
 10
594.0
 20
420.0
 30
0.0
  9
$LIMMIN
 10
0.0
 20
0.0
  9
$LIMMAX
 10
594.0
 20
420.0
  9
$ORTHOMODE
 70
     0
  9
$REGENMODE
 70
     1
  9
$FILLMODE
 70
     1
  9
$QTEXTMODE
 70
     0
  9
$MIRRTEXT
 70
     1
  9
$LTSCALE
 40
1.0
  9
$ATTMODE
 70
     1
  9
$TEXTSIZE
 40
4.57
  9
$TRACEWID
 40
1.0
  9
$TEXTSTYLE
  7
Standard
  9
$CLAYER
  8
0
  9
$CELTYPE
  6
ByLayer
  9
$CECOLOR
 62
   256
  9
$CELTSCALE
 40
1.0
  9
$DISPSILH
 70
     0
  9
$DIMSCALE
 40
1.0
  9
$DIMASZ
 40
2.5
  9
$DIMEXO
 40
0.625
  9
$DIMDLI
 40
3.75
  9
$DIMRND
 40
0.0
  9
$DIMDLE
 40
0.0
  9
$DIMEXE
 40
1.25
  9
$DIMTP
 40
0.0
  9
$DIMTM
 40
0.0
  9
$DIMTXT
 40
2.5
  9
$DIMCEN
 40
2.5
  9
$DIMTSZ
 40
0.0
  9
$DIMTOL
 70
     0
  9
$DIMLIM
 70
     0
  9
$DIMTIH
 70
     0
  9
$DIMTOH
 70
     0
  9
$DIMSE1
 70
     0
  9
$DIMSE2
 70
     0
  9
$DIMTAD
 70
     1
  9
$DIMZIN
 70
     8
  9
$DIMBLK
  1

  9
$DIMASO
 70
     1
  9
$DIMSHO
 70
     1
  9
$DIMPOST
  1

  9
$DIMAPOST
  1

  9
$DIMALT
 70
     0
  9
$DIMALTD
 70
     3
  9
$DIMALTF
 40
0.0393700787
  9
$DIMLFAC
 40
1.0
  9
$DIMTOFL
 70
     1
  9
$DIMTVP
 40
0.0
  9
$DIMTIX
 70
     0
  9
$DIMSOXD
 70
     0
  9
$DIMSAH
 70
     0
  9
$DIMBLK1
  1

  9
$DIMBLK2
  1

  9
$DIMSTYLE
  2
ISO-25
  9
$DIMCLRD
 70
     0
  9
$DIMCLRE
 70
     0
  9
$DIMCLRT
 70
     0
  9
$DIMTFAC
 40
1.0
  9
$DIMGAP
 40
0.625
  9
$DIMJUST
 70
     0
  9
$DIMSD1
 70
     0
  9
$DIMSD2
 70
     0
  9
$DIMTOLJ
 70
     0
  9
$DIMTZIN
 70
     8
  9
$DIMALTZ
 70
     0
  9
$DIMALTTZ
 70
     0
  9
$DIMUPT
 70
     0
  9
$DIMDEC
 70
     2
  9
$DIMTDEC
 70
     2
  9
$DIMALTU
 70
     2
  9
$DIMALTTD
 70
     3
  9
$DIMTXSTY
  7
Standard
  9
$DIMAUNIT
 70
     0
  9
$DIMADEC
 70
     0
  9
$DIMALTRND
 40
0.0
  9
$DIMAZIN
 70
     0
  9
$DIMDSEP
 70
    44
  9
$DIMATFIT
 70
     3
  9
$DIMFRAC
 70
     0
  9
$DIMLDRBLK
  1

  9
$DIMLUNIT
 70
     2
  9
$DIMLWD
 70
    -2
  9
$DIMLWE
 70
    -2
  9
$DIMTMOVE
 70
     0
  9
$DIMFXL
 40
1.0
  9
$DIMFXLON
 70
     0
  9
$DIMJOGANG
 40
0.7853981634
  9
$DIMTFILL
 70
     0
  9
$DIMTFILLCLR
 70
     0
  9
$DIMARCSYM
 70
     0
  9
$DIMLTYPE
  6

  9
$DIMLTEX1
  6

  9
$DIMLTEX2
  6

  9
$LUNITS
 70
     2
  9
$LUPREC
 70
     4
  9
$SKETCHINC
 40
1.0
  9
$FILLETRAD
 40
10.0
  9
$AUNITS
 70
     0
  9
$AUPREC
 70
     0
  9
$MENU
  1
.
  9
$ELEVATION
 40
0.0
  9
$PELEVATION
 40
0.0
  9
$THICKNESS
 40
0.0
  9
$LIMCHECK
 70
     0
  9
$CHAMFERA
 40
0.0
  9
$CHAMFERB
 40
0.0
  9
$CHAMFERC
 40
0.0
  9
$CHAMFERD
 40
0.0
  9
$SKPOLY
 70
     0
  9
$TDCREATE
 40
2460686.377205092
  9
$TDUCREATE
 40
2460686.335538426
  9
$TDUPDATE
 40
2460686.377207442
  9
$TDUUPDATE
 40
2460686.335540776
  9
$TDINDWG
 40
0.0000000116
  9
$TDUSRTIMER
 40
0.0000000116
  9
$USRTIMER
 70
     1
  9
$ANGBASE
 50
0.0
  9
$ANGDIR
 70
     0
  9
$PDMODE
 70
     0
  9
$PDSIZE
 40
0.0
  9
$PLINEWID
 40
0.0
  9
$SPLFRAME
 70
     0
  9
$SPLINETYPE
 70
     6
  9
$SPLINESEGS
 70
     8
  9
$HANDSEED
  5
211
  9
$SURFTAB1
 70
     6
  9
$SURFTAB2
 70
     6
  9
$SURFTYPE
 70
     6
  9
$SURFU
 70
     6
  9
$SURFV
 70
     6
  9
$UCSBASE
  2

  9
$UCSNAME
  2

  9
$UCSORG
 10
0.0
 20
0.0
 30
0.0
  9
$UCSXDIR
 10
1.0
 20
0.0
 30
0.0
  9
$UCSYDIR
 10
0.0
 20
1.0
 30
0.0
  9
$UCSORTHOREF
  2

  9
$UCSORTHOVIEW
 70
     0
  9
$UCSORGTOP
 10
0.0
 20
0.0
 30
0.0
  9
$UCSORGBOTTOM
 10
0.0
 20
0.0
 30
0.0
  9
$UCSORGLEFT
 10
0.0
 20
0.0
 30
0.0
  9
$UCSORGRIGHT
 10
0.0
 20
0.0
 30
0.0
  9
$UCSORGFRONT
 10
0.0
 20
0.0
 30
0.0
  9
$UCSORGBACK
 10
0.0
 20
0.0
 30
0.0
  9
$PUCSBASE
  2

  9
$PUCSNAME
  2

  9
$PUCSORG
 10
0.0
 20
0.0
 30
0.0
  9
$PUCSXDIR
 10
1.0
 20
0.0
 30
0.0
  9
$PUCSYDIR
 10
0.0
 20
1.0
 30
0.0
  9
$PUCSORTHOREF
  2

  9
$PUCSORTHOVIEW
 70
     0
  9
$PUCSORGTOP
 10
0.0
 20
0.0
 30
0.0
  9
$PUCSORGBOTTOM
 10
0.0
 20
0.0
 30
0.0
  9
$PUCSORGLEFT
 10
0.0
 20
0.0
 30
0.0
  9
$PUCSORGRIGHT
 10
0.0
 20
0.0
 30
0.0
  9
$PUCSORGFRONT
 10
0.0
 20
0.0
 30
0.0
  9
$PUCSORGBACK
 10
0.0
 20
0.0
 30
0.0
  9
$USERI1
 70
     0
  9
$USERI2
 70
     0
  9
$USERI3
 70
     0
  9
$USERI4
 70
     0
  9
$USERI5
 70
     0
  9
$USERR1
 40
0.0
  9
$USERR2
 40
0.0
  9
$USERR3
 40
0.0
  9
$USERR4
 40
0.0
  9
$USERR5
 40
0.0
  9
$WORLDVIEW
 70
     1
  9
$SHADEDGE
 70
     3
  9
$SHADEDIF
 70
    70
  9
$TILEMODE
 70
     1
  9
$MAXACTVP
 70
    64
  9
$PINSBASE
 10
0.0
 20
0.0
 30
0.0
  9
$PLIMCHECK
 70
     0
  9
$PEXTMIN
 10
0.0
 20
0.0
 30
0.0
  9
$PEXTMAX
 10
594.0
 20
420.0
 30
0.0
  9
$PLIMMIN
 10
0.0
 20
0.0
  9
$PLIMMAX
 10
594.0
 20
420.0
  9
$UNITMODE
 70
     0
  9
$VISRETAIN
 70
     1
  9
$PLINEGEN
 70
     0
  9
$PSLTSCALE
 70
     1
  9
$TREEDEPTH
 70
  3020
  9
$CMLSTYLE
  2
Standard
  9
$CMLJUST
 70
     0
  9
$CMLSCALE
 40
20.0
  9
$PROXYGRAPHICS
 70
     1
  9
$MEASUREMENT
 70
     1
  9
$CELWEIGHT
370
    -1
  9
$ENDCAPS
280
     0
  9
$JOINSTYLE
280
     0
  9
$LWDISPLAY
290
     0
  9
$INSUNITS
 70
     4
  9
$HYPERLINKBASE
  1

  9
$STYLESHEET
  1

  9
$XEDIT
290
     1
  9
$CEPSNTYPE
380
     0
  9
$PSTYLEMODE
290
     1
  9
$FINGERPRINTGUID
  2
{9fc7bcd6-716d-4dcf-a6ec-fd1bcc96fc66}
  9
$VERSIONGUID
  2
{FAEB1C32-E019-11D5-929B-00C0DF256EC4}
  9
$EXTNAMES
290
     1
  9
$PSVPSCALE
 40
0.0
  9
$OLESTARTUP
290
     0
  9
$SORTENTS
280
   127
  9
$INDEXCTL
280
     0
  9
$HIDETEXT
280
     1
  9
$XCLIPFRAME
290
     0
  9
$HALOGAP
280
     0
  9
$OBSCOLOR
 70
   257
  9
$OBSLTYPE
280
     0
  9
$INTERSECTIONDISPLAY
280
     0
  9
$INTERSECTIONCOLOR
 70
   257
  9
$DIMASSOC
280
     2
  9
$PROJECTNAME
  1

  9
$CAMERADISPLAY
290
     0
  9
$LENSLENGTH
 40
50.0
  9
$CAMERAHEIGHT
 40
0.0
  9
$STEPSPERSEC
 40
2.0
  9
$STEPSIZE
 40
6.0
  9
$3DDWFPREC
 40
2.0
  9
$PSOLWIDTH
 40
5.0
  9
$PSOLHEIGHT
 40
80.0
  9
$LOFTANG1
 40
1.5707963268
  9
$LOFTANG2
 40
1.5707963268
  9
$LOFTMAG1
 40
0.0
  9
$LOFTMAG2
 40
0.0
  9
$LOFTPARAM
 70
     7
  9
$LOFTNORMALS
280
     1
  9
$LATITUDE
 40
37.795
  9
$LONGITUDE
 40
-122.394
  9
$NORTHDIRECTION
 40
0.0
  9
$TIMEZONE
 70
 -8000
  9
$LIGHTGLYPHDISPLAY
280
     1
  9
$TILEMODELIGHTSYNCH
280
     1
  9
$CMATERIAL
347
44
  9
$SOLIDHIST
280
     0
  9
$SHOWHIST
280
     1
  9
$DWFFRAME
280
     2
  9
$DGNFRAME
280
     2
  9
$REALWORLDSCALE
290
     1
  9
$INTERFERECOLOR
 62
   256
  9
$CSHADOW
280
     0
  9
$SHADOWPLANELOCATION
 40
0.0
  0
ENDSEC
  0
SECTION
  2
CLASSES
  0
CLASS
  1
ACDBDICTIONARYWDFLT
  2
AcDbDictionaryWithDefault
  3
ObjectDBX Classes
 90
        0
 91
        3
280
     0
281
     0
  0
CLASS
  1
VISUALSTYLE
  2
AcDbVisualStyle
  3
ObjectDBX Classes
 90
     4095
 91
        3
280
     0
281
     0
  0
CLASS
  1
MATERIAL
  2
AcDbMaterial
  3
ObjectDBX Classes
 90
     1153
 91
        3
280
     0
281
     0
  0
CLASS
  1
SCALE
  2
AcDbScale
  3
ObjectDBX Classes
 90
     1153
 91
        3
280
     0
281
     0
  0
CLASS
  1
TABLESTYLE
  2
AcDbTableStyle
  3
ObjectDBX Classes
 90
     4095
 91
        3
280
     0
281
     0
  0
CLASS
  1
MLEADERSTYLE
  2
AcDbMLeaderStyle
  3
ACDB_MLEADERSTYLE_CLASS
 90
     4095
 91
        3
280
     0
281
     0
  0
CLASS
  1
SUN
  2
AcDbSun
  3
SCENEOE
 90
     1153
 91
        3
280
     0
281
     0
  0
CLASS
  1
DICTIONARYVAR
  2
AcDbDictionaryVar
  3
ObjectDBX Classes
 90
        0
 91
        3
280
     0
281
     0
  0
CLASS
  1
CELLSTYLEMAP
  2
AcDbCellStyleMap
  3
ObjectDBX Classes
 90
     1152
 91
        3
280
     0
281
     0
  0
ENDSEC
  0
SECTION
  2
TABLES
  0
TABLE
  2
VPORT
  5
8
330
0
100
AcDbSymbolTable
 70
     1
  0
VPORT
  5
29
330
8
100
AcDbSymbolTableRecord
100
AcDbViewportTableRecord
  2
*Active
 70
     0
 10
0.0
 20
0.0
 11
1.0
 21
1.0
 12
344.1869158879
 22
148.5
 13
0.0
 23
0.0
 14
10.0
 24
10.0
 15
10.0
 25
10.0
 16
0.0
 26
0.0
 36
1.0
 17
0.0
 27
0.0
 37
0.0
 40
297.0
 41
1.9729729729
 42
50.0
 43
0.0
 44
0.0
 50
0.0
 51
0.0
 71
     0
 72
   100
 73
     1
 74
     3
 75
     0
 76
     0
 77
     0
 78
     0
281
     0
 65
     1
110
0.0
120
0.0
130
0.0
111
1.0
121
0.0
131
0.0
112
0.0
122
1.0
132
0.0
 79
     0
146
0.0
348
2F
 60
     3
 61
     5
292
     1
282
     1
141
0.0
142
0.0
 63
   250
361
6D
  0
ENDTAB
  0
TABLE
  2
LTYPE
  5
5
330
0
100
AcDbSymbolTable
 70
     3
  0
LTYPE
  5
14
330
5
100
AcDbSymbolTableRecord
100
AcDbLinetypeTableRecord
  2
ByBlock
 70
     0
  3

 72
    65
 73
     0
 40
0.0
  0
LTYPE
  5
15
330
5
100
AcDbSymbolTableRecord
100
AcDbLinetypeTableRecord
  2
ByLayer
 70
     0
  3

 72
    65
 73
     0
 40
0.0
  0
LTYPE
  5
16
330
5
100
AcDbSymbolTableRecord
100
AcDbLinetypeTableRecord
  2
Continuous
 70
     0
  3
Solid line
 72
    65
 73
     0
 40
0.0
  0
LTYPE
  5
6F
330
5
100
AcDbSymbolTableRecord
100
AcDbLinetypeTableRecord
  2
HIDDEN2
 70
     0
  3
Hidden (.5x) _ _ _ _ _ _ _ _ _ _ _ _ _ _ _ _ _ 
 72
    65
 73
     2
 40
4.7625
 49
3.175
 74
     4
 75
     0
340
0
 46
0.0
 50
0.0
 44
0.0
 45
0.0
 49
-1.5875
 74
     4
 75
     0
340
0
 46
0.0
 50
0.0
 44
0.0
 45
0.0
  0
LTYPE
  5
167
330
5
100
AcDbSymbolTableRecord
100
AcDbLinetypeTableRecord
  2
CENTER2
 70
     0
  3
Center (.5x) ___ _ ___ _ ___ _ ___ _ ___ _ ___
 72
    65
 73
     4
 40
28.575
 49
19.05
 74
     4
 75
     0
340
0
 46
0.0
 50
0.0
 44
0.0
 45
0.0
 49
-3.175
 74
     4
 75
     0
340
0
 46
0.0
 50
0.0
 44
0.0
 45
0.0
 49
3.175
 74
     4
 75
     0
340
0
 46
0.0
 50
0.0
 44
0.0
 45
0.0
 49
-3.175
 74
     4
 75
     0
340
0
 46
0.0
 50
0.0
 44
0.0
 45
0.0
  0
ENDTAB
  0
TABLE
  2
LAYER
  5
2
330
0
100
AcDbSymbolTable
 70
     9
  0
LAYER
  5
10
330
2
100
AcDbSymbolTableRecord
100
AcDbLayerTableRecord
  2
0
 70
     0
 62
     7
  6
Continuous
370
    -3
390
F
347
46
  0
LAYER
  5
6E
330
2
100
AcDbSymbolTableRecord
100
AcDbLayerTableRecord
  2
Verdeckt_(ISO)
 70
     0
 62
     7
  6
Continuous
370
    -3
390
F
347
46
  0
LAYER
  5
81
330
2
100
AcDbSymbolTableRecord
100
AcDbLayerTableRecord
  2
Sichtbar_(ISO)
 70
     0
 62
     7
  6
Continuous
370
    -3
390
F
347
46
  0
LAYER
  5
164
330
2
100
AcDbSymbolTableRecord
100
AcDbLayerTableRecord
  2
Skizziergeometrie_(ISO)
 70
     0
 62
     7
  6
Continuous
370
    -3
390
F
347
46
  0
LAYER
  5
166
330
2
100
AcDbSymbolTableRecord
100
AcDbLayerTableRecord
  2
Mittellinie_(ISO)
 70
     0
 62
     7
  6
Continuous
370
    -3
390
F
347
46
  0
LAYER
  5
16C
330
2
100
AcDbSymbolTableRecord
100
AcDbLayerTableRecord
  2
Mittelpunktmarkierung_(ISO)
 70
     0
 62
     7
  6
Continuous
370
    -3
390
F
347
46
  0
LAYER
  5
16F
330
2
100
AcDbSymbolTableRecord
100
AcDbLayerTableRecord
  2
_Konvertierung
 70
     1
 62
    -7
  6
Continuous
370
    -3
390
F
347
46
  0
LAYER
  5
17E
330
2
100
AcDbSymbolTableRecord
100
AcDbLayerTableRecord
  2
6
 70
     0
 62
     7
  6
Continuous
370
    -3
390
F
347
46
  0
LAYER
  5
181
330
2
100
AcDbSymbolTableRecord
100
AcDbLayerTableRecord
  2
Bemaßung_(ISO)
 70
     0
 62
     7
  6
Continuous
370
    -3
390
F
347
46
  0
ENDTAB
  0
TABLE
  2
STYLE
  5
3
330
0
100
AcDbSymbolTable
 70
     2
  0
STYLE
  5
11
330
3
100
AcDbSymbolTableRecord
100
AcDbTextStyleTableRecord
  2
Standard
 70
     0
 40
0.0
 41
1.0
 50
0.0
 71
     0
 42
4.57
  3
txt
  4

  0
STYLE
  5
191
330
3
100
AcDbSymbolTableRecord
100
AcDbTextStyleTableRecord
  2
SEACAD_Arial
 70
     0
 40
0.0
 41
1.0
 50
0.0
 71
     0
 42
4.57
  3
arial.ttf
  4

1001
ACAD
1000
Arial
1071
        0
  0
ENDTAB
  0
TABLE
  2
VIEW
  5
6
330
0
100
AcDbSymbolTable
 70
     0
  0
ENDTAB
  0
TABLE
  2
UCS
  5
7
330
0
100
AcDbSymbolTable
 70
     0
  0
ENDTAB
  0
TABLE
  2
APPID
  5
9
330
0
100
AcDbSymbolTable
 70
     2
  0
APPID
  5
12
330
9
100
AcDbSymbolTableRecord
100
AcDbRegAppTableRecord
  2
ACAD
 70
     0
  0
APPID
  5
207
330
9
100
AcDbSymbolTableRecord
100
AcDbRegAppTableRecord
  2
ACAD_MLEADERVER
 70
     0
  0
ENDTAB
  0
TABLE
  2
DIMSTYLE
  5
A
330
0
100
AcDbSymbolTable
 70
     3
100
AcDbDimStyleTable
  0
DIMSTYLE
105
27
330
A
100
AcDbSymbolTableRecord
100
AcDbDimStyleTableRecord
  2
ISO-25
 70
     0
 41
2.5
 42
0.625
 43
3.75
 44
1.25
 73
     0
 74
     0
 77
     1
 78
     8
140
2.5
141
2.5
143
0.0393700787
147
0.625
171
     3
172
     1
178
     0
271
     2
272
     2
274
     3
278
    44
283
     0
284
     8
340
11
  0
DIMSTYLE
105
182
330
A
100
AcDbSymbolTableRecord
100
AcDbDimStyleTableRecord
  2
Standard
 70
     0
178
     0
340
11
  0
DIMSTYLE
105
192
102
{ACAD_REACTORS
330
193
330
19D
330
1A8
330
1B2
330
1BC
330
1C7
102
}
330
A
100
AcDbSymbolTableRecord
100
AcDbDimStyleTableRecord
  2
Standard_(DIN)
 70
     0
 41
2.5
 42
1.75
 44
1.75
 73
     0
 74
     0
 77
     1
140
3.5
141
1.75
143
1.0
147
0.875
173
     1
178
     0
271
     1
272
     2
278
    44
340
191
343
18C
344
18C
  0
ENDTAB
  0
TABLE
  2
BLOCK_RECORD
  5
1
330
0
100
AcDbSymbolTable
 70
     9
  0
BLOCK_RECORD
  5
1F
330
1
100
AcDbSymbolTableRecord
100
AcDbBlockTableRecord
  2
*Model_Space
340
22
 70
     0
280
     1
281
     0
  0
BLOCK_RECORD
  5
1B
330
1
100
AcDbSymbolTableRecord
100
AcDbBlockTableRecord
  2
*Paper_Space
340
1E
 70
     0
280
     1
281
     0
  0
BLOCK_RECORD
  5
183
330
1
100
AcDbSymbolTableRecord
100
AcDbBlockTableRecord
  2
_Oblique
340
0
 70
     0
280
     1
281
     0
  0
BLOCK_RECORD
  5
187
330
1
100
AcDbSymbolTableRecord
100
AcDbBlockTableRecord
  2
_Dot
340
0
 70
     0
280
     1
281
     0
  0
BLOCK_RECORD
  5
18C
330
1
100
AcDbSymbolTableRecord
100
AcDbBlockTableRecord
  2
_SE_FILLED
340
0
 70
     0
280
     1
281
     0
  0
BLOCK_RECORD
  5
194
330
1
100
AcDbSymbolTableRecord
100
AcDbBlockTableRecord
  2
DMBLK103
340
0
 70
     0
280
     1
281
     0
  0
BLOCK_RECORD
  5
19E
330
1
100
AcDbSymbolTableRecord
100
AcDbBlockTableRecord
  2
DMBLK104
340
0
 70
     0
280
     1
281
     0
  0
BLOCK_RECORD
  5
1A9
330
1
100
AcDbSymbolTableRecord
100
AcDbBlockTableRecord
  2
DMBLK105
340
0
 70
     0
280
     1
281
     0
  0
BLOCK_RECORD
  5
1B3
330
1
100
AcDbSymbolTableRecord
100
AcDbBlockTableRecord
  2
DMBLK106
340
0
 70
     0
280
     1
281
     0
  0
BLOCK_RECORD
  5
1BD
330
1
100
AcDbSymbolTableRecord
100
AcDbBlockTableRecord
  2
DMBLK107
340
0
 70
     0
280
     1
281
     0
  0
BLOCK_RECORD
  5
1C8
330
1
100
AcDbSymbolTableRecord
100
AcDbBlockTableRecord
  2
DMBLK108
340
0
 70
     0
280
     1
281
     0
  0
ENDTAB
  0
ENDSEC
  0
SECTION
  2
BLOCKS
  0
BLOCK
  5
20
330
1F
100
AcDbEntity
  8
0
100
AcDbBlockBegin
  2
*Model_Space
 70
     0
 10
0.0
 20
0.0
 30
0.0
  3
*Model_Space
  1

  0
ENDBLK
  5
21
330
1F
100
AcDbEntity
  8
0
100
AcDbBlockEnd
  0
BLOCK
  5
1C
330
1B
100
AcDbEntity
 67
     1
  8
0
100
AcDbBlockBegin
  2
*Paper_Space
 70
     0
 10
0.0
 20
0.0
 30
0.0
  3
*Paper_Space
  1

  0
ENDBLK
  5
1D
330
1B
100
AcDbEntity
 67
     1
  8
0
100
AcDbBlockEnd
  0
BLOCK
  5
184
330
183
100
AcDbEntity
  8
0
100
AcDbBlockBegin
  2
_Oblique
 70
     0
 10
0.0
 20
0.0
 30
0.0
  3
_Oblique
  1

  0
LINE
  5
186
330
183
100
AcDbEntity
  8
0
  6
ByBlock
 62
     0
370
    -2
100
AcDbLine
 10
-0.5
 20
-0.5
 30
0.0
 11
0.5
 21
0.5
 31
0.0
  0
ENDBLK
  5
185
330
183
100
AcDbEntity
  8
0
100
AcDbBlockEnd
  0
BLOCK
  5
188
330
187
100
AcDbEntity
  8
0
100
AcDbBlockBegin
  2
_Dot
 70
     0
 10
0.0
 20
0.0
 30
0.0
  3
_Dot
  1

  0
LWPOLYLINE
  5
18A
330
187
100
AcDbEntity
  8
0
  6
ByBlock
 62
     0
100
AcDbPolyline
 90
        2
 70
     1
 43
0.5
 10
-0.25
 20
0.0
 42
1.0
 10
0.25
 20
0.0
 42
1.0
  0
LINE
  5
18B
330
187
100
AcDbEntity
  8
0
  6
ByBlock
 62
     0
370
    -2
100
AcDbLine
 10
-0.5
 20
0.0
 30
0.0
 11
-1.0
 21
0.0
 31
0.0
  0
ENDBLK
  5
189
330
187
100
AcDbEntity
  8
0
100
AcDbBlockEnd
  0
BLOCK
  5
18F
330
18C
100
AcDbEntity
  8
0
100
AcDbBlockBegin
  2
_SE_FILLED
 70
     0
 10
0.0
 20
0.0
 30
0.0
  3
_SE_FILLED
  1

  0
SOLID
  5
18D
330
18C
100
AcDbEntity
  8
0
 62
     0
100
AcDbTrace
 10
0.0
 20
0.0
 30
0.0
 11
-1.0
 21
-0.1665
 31
0.0
 12
-1.0
 22
0.1665
 32
0.0
 13
0.0
 23
0.0
 33
0.0
  0
LINE
  5
18E
330
18C
100
AcDbEntity
  8
0
 62
     0
100
AcDbLine
 10
0.0
 20
0.0
 30
0.0
 11
-1.0
 21
0.0
 31
0.0
  0
ENDBLK
  5
190
330
18C
100
AcDbEntity
  8
0
100
AcDbBlockEnd
  0
BLOCK
  5
19B
330
194
100
AcDbEntity
  8
0
100
AcDbBlockBegin
  2
DMBLK103
 70
     0
 10
0.0
 20
0.0
 30
0.0
  3
DMBLK103
  1

  0
HATCH
  5
195
330
194
100
AcDbEntity
  8
Bemaßung_(ISO)
  6
Continuous
 62
     7
100
AcDbHatch
 10
0.0
 20
0.0
 30
0.0
210
0.0
220
0.0
230
1.0
  2
SOLID
 70
     1
 71
     0
 91
        1
 92
        1
 93
        3
 72
     1
 10
-2.500037352052417
 20
63.3917011768829
 11
-2.500037352052417
 21
62.55836786217601
 72
     1
 10
-2.500037352052417
 20
62.55836786217601
 11
-0.0000374079317718
 21
62.97503451952946
 72
     1
 10
-0.0000374079317717
 20
62.97503451952946
 11
-2.500037352052417
 21
63.3917011768829
 97
        0
 75
     0
 76
     1
 98
        0
  0
HATCH
  5
196
330
194
100
AcDbEntity
  8
Bemaßung_(ISO)
  6
Continuous
 62
     7
100
AcDbHatch
 10
0.0
 20
0.0
 30
0.0
210
0.0
220
0.0
230
1.0
  2
SOLID
 70
     1
 71
     0
 91
        1
 92
        1
 93
        3
 72
     1
 10
-99.30003962149927
 20
63.3917011768829
 11
-101.8000395656199
 21
62.97503451952946
 72
     1
 10
-101.8000395656199
 20
62.97503451952946
 11
-99.30003962149927
 21
62.55836786217601
 72
     1
 10
-99.30003962149927
 20
62.55836786217601
 11
-99.30003962149927
 21
63.3917011768829
 97
        0
 75
     0
 76
     1
 98
        0
  0
LINE
  5
197
330
194
100
AcDbEntity
  8
Bemaßung_(ISO)
  6
Continuous
 62
     7
100
AcDbLine
 10
-0.0000374079
 20
36.7250337093
 30
0.0
 11
-0.0000374079
 21
64.7250345735
 31
0.0
  0
LINE
  5
198
330
194
100
AcDbEntity
  8
Bemaßung_(ISO)
  6
Continuous
 62
     7
100
AcDbLine
 10
-101.8000374079
 20
20.2725223946
 30
0.0
 11
-101.8000374079
 21
64.7250345735
 31
0.0
  0
LINE
  5
199
330
194
100
AcDbEntity
  8
Bemaßung_(ISO)
  6
Continuous
 62
     7
100
AcDbLine
 10
-0.0000374079
 20
62.9750345195
 30
0.0
 11
-101.8000395656
 21
62.9750345195
 31
0.0
  0
TEXT
  5
19A
330
194
100
AcDbEntity
  8
Bemaßung_(ISO)
  6
Continuous
 62
     7
100
AcDbText
 10
-57.063081965
 20
63.8500345195
 30
0.0
 40
3.5
  1
101,8
  7
SEACAD_Arial
 11
-57.063081965
 21
67.3500345195
 31
0.0
100
AcDbText
 73
     3
  0
ENDBLK
  5
19C
330
194
100
AcDbEntity
  8
0
100
AcDbBlockEnd
  0
BLOCK
  5
1A6
330
19E
100
AcDbEntity
  8
0
100
AcDbBlockBegin
  2
DMBLK104
 70
     0
 10
0.0
 20
0.0
 30
0.0
  3
DMBLK104
  1

  0
HATCH
  5
19F
330
19E
100
AcDbEntity
  8
Bemaßung_(ISO)
  6
Continuous
 62
     7
100
AcDbHatch
 10
0.0
 20
0.0
 30
0.0
210
0.0
220
0.0
230
1.0
  2
SOLID
 70
     1
 71
     0
 91
        1
 92
        1
 93
        3
 72
     1
 10
-118.8607112712483
 20
47.50003371114143
 11
-118.0273779565415
 21
47.50003371114143
 72
     1
 10
-118.0273779565415
 20
47.50003371114143
 11
-118.4440446138949
 21
50.00003365526207
 72
     1
 10
-118.4440446138949
 20
50.00003365526207
 11
-118.8607112712483
 21
47.50003371114143
 97
        0
 75
     0
 76
     1
 98
        0
  0
HATCH
  5
1A0
330
19E
100
AcDbEntity
  8
Bemaßung_(ISO)
  6
Continuous
 62
     7
100
AcDbHatch
 10
0.0
 20
0.0
 30
0.0
210
0.0
220
0.0
230
1.0
  2
SOLID
 70
     1
 71
     0
 91
        1
 92
        1
 93
        3
 72
     1
 10
-118.8607112712483
 20
-47.4999678907334
 11
-118.4440446138949
 21
-49.99996783485405
 72
     1
 10
-118.4440446138949
 20
-49.99996783485405
 11
-118.0273779565415
 21
-47.4999678907334
 72
     1
 10
-118.0273779565415
 20
-47.4999678907334
 11
-118.8607112712483
 21
-47.4999678907334
 97
        0
 75
     0
 76
     1
 98
        0
  0
LINE
  5
1A1
330
19E
100
AcDbEntity
  8
Bemaßung_(ISO)
  6
Continuous
 62
     7
100
AcDbLine
 10
2.4499625381
 20
50.0000336553
 30
0.0
 11
-120.1940446679
 21
50.0000336553
 31
0.0
  0
LINE
  5
1A2
330
19E
100
AcDbEntity
  8
Bemaßung_(ISO)
  6
Continuous
 62
     7
100
AcDbLine
 10
2.4499625381
 20
-49.9999663447
 30
0.0
 11
-120.1940446679
 21
-49.9999663447
 31
0.0
  0
LINE
  5
1A3
330
19E
100
AcDbEntity
  8
Bemaßung_(ISO)
  6
Continuous
 62
     7
100
AcDbLine
 10
-118.4440446139
 20
50.0000336553
 30
0.0
 11
-118.4440446139
 21
-49.9999678349
 31
0.0
  0
TEXT
  5
1A4
330
19E
100
AcDbEntity
  8
Bemaßung_(ISO)
  6
Continuous
 62
     7
100
AcDbText
 10
-119.3190446139
 20
-1.5140975246
 30
0.0
 40
3.5
  1
100
 50
90.0
  7
SEACAD_Arial
 11
-122.8190446139
 21
-1.5140975246
 31
0.0
100
AcDbText
 73
     3
  0
TEXT
  5
1A5
330
19E
100
AcDbEntity
  8
Bemaßung_(ISO)
  6
Continuous
 62
     7
100
AcDbText
 10
-119.3190446139
 20
-6.7032279594
 30
0.0
 40
3.5
  1
n
 50
90.0
  7
SEACAD_Arial
 11
-122.8190446139
 21
-6.7032279594
 31
0.0
100
AcDbText
 73
     3
  0
ENDBLK
  5
1A7
330
19E
100
AcDbEntity
  8
0
100
AcDbBlockEnd
  0
BLOCK
  5
1B0
330
1A9
100
AcDbEntity
  8
0
100
AcDbBlockBegin
  2
DMBLK105
 70
     0
 10
0.0
 20
0.0
 30
0.0
  3
DMBLK105
  1

  0
HATCH
  5
1AA
330
1A9
100
AcDbEntity
  8
Bemaßung_(ISO)
  6
Continuous
 62
     7
100
AcDbHatch
 10
0.0
 20
0.0
 30
0.0
210
0.0
220
0.0
230
1.0
  2
SOLID
 70
     1
 71
     0
 91
        1
 92
        1
 93
        3
 72
     1
 10
2.499962536188874
 20
63.3917011768829
 11
-0.0000374079317718
 21
62.97503451952946
 72
     1
 10
-0.0000374079317717
 20
62.97503451952946
 11
2.499962536188874
 21
62.55836786217601
 72
     1
 10
2.499962536188874
 20
62.55836786217601
 11
2.499962536188874
 21
63.3917011768829
 97
        0
 75
     0
 76
     1
 98
        0
  0
HATCH
  5
1AB
330
1A9
100
AcDbEntity
  8
Bemaßung_(ISO)
  6
Continuous
 62
     7
100
AcDbHatch
 10
0.0
 20
0.0
 30
0.0
210
0.0
220
0.0
230
1.0
  2
SOLID
 70
     1
 71
     0
 91
        1
 92
        1
 93
        3
 72
     1
 10
35.49996142605237
 20
63.3917011768829
 11
35.49996142605237
 21
62.55836786217601
 72
     1
 10
35.49996142605237
 20
62.55836786217601
 11
37.99996137017301
 21
62.97503451952946
 72
     1
 10
37.99996137017301
 20
62.97503451952946
 11
35.49996142605237
 21
63.3917011768829
 97
        0
 75
     0
 76
     1
 98
        0
  0
LINE
  5
1AC
330
1A9
100
AcDbEntity
  8
Bemaßung_(ISO)
  6
Continuous
 62
     7
100
AcDbLine
 10
-0.0000374079
 20
36.7250337093
 30
0.0
 11
-0.0000374079
 21
64.7250345735
 31
0.0
  0
LINE
  5
1AD
330
1A9
100
AcDbEntity
  8
Bemaßung_(ISO)
  6
Continuous
 62
     7
100
AcDbLine
 10
37.9999625921
 20
50.5500337093
 30
0.0
 11
37.9999625921
 21
64.7250345735
 31
0.0
  0
LINE
  5
1AE
330
1A9
100
AcDbEntity
  8
Bemaßung_(ISO)
  6
Continuous
 62
     7
100
AcDbLine
 10
-0.0000374079
 20
62.9750345195
 30
0.0
 11
37.9999613702
 21
62.9750345195
 31
0.0
  0
TEXT
  5
1AF
330
1A9
100
AcDbEntity
  8
Bemaßung_(ISO)
  6
Continuous
 62
     7
100
AcDbText
 10
16.2608315463
 20
63.8500345195
 30
0.0
 40
3.5
  1
38
  7
SEACAD_Arial
 11
16.2608315463
 21
67.3500345195
 31
0.0
100
AcDbText
 73
     3
  0
ENDBLK
  5
1B1
330
1A9
100
AcDbEntity
  8
0
100
AcDbBlockEnd
  0
BLOCK
  5
1BA
330
1B3
100
AcDbEntity
  8
0
100
AcDbBlockBegin
  2
DMBLK106
 70
     0
 10
0.0
 20
0.0
 30
0.0
  3
DMBLK106
  1

  0
HATCH
  5
1B4
330
1B3
100
AcDbEntity
  8
Bemaßung_(ISO)
  6
Continuous
 62
     7
100
AcDbHatch
 10
0.0
 20
0.0
 30
0.0
210
0.0
220
0.0
230
1.0
  2
SOLID
 70
     1
 71
     0
 91
        1
 92
        1
 93
        3
 72
     1
 10
2.499962536188874
 20
76.10159446311108
 11
-0.0000374079317718
 21
75.68492780575764
 72
     1
 10
-0.0000374079317717
 20
75.68492780575764
 11
2.499962536188874
 21
75.26826114840419
 72
     1
 10
2.499962536188874
 20
75.26826114840419
 11
2.499962536188874
 21
76.10159446311108
 97
        0
 75
     0
 76
     1
 98
        0
  0
HATCH
  5
1B5
330
1B3
100
AcDbEntity
  8
Bemaßung_(ISO)
  6
Continuous
 62
     7
100
AcDbHatch
 10
0.0
 20
0.0
 30
0.0
210
0.0
220
0.0
230
1.0
  2
SOLID
 70
     1
 71
     0
 91
        1
 92
        1
 93
        3
 72
     1
 10
97.4999641380637
 20
76.10159446311108
 11
97.4999641380637
 21
75.26826114840419
 72
     1
 10
97.4999641380637
 20
75.26826114840419
 11
99.99996408218435
 21
75.68492780575764
 72
     1
 10
99.99996408218435
 20
75.68492780575764
 11
97.4999641380637
 21
76.10159446311108
 97
        0
 75
     0
 76
     1
 98
        0
  0
LINE
  5
1B6
330
1B3
100
AcDbEntity
  8
Bemaßung_(ISO)
  6
Continuous
 62
     7
100
AcDbLine
 10
-0.0000374079
 20
36.7250337093
 30
0.0
 11
-0.0000374079
 21
77.4349278598
 31
0.0
  0
LINE
  5
1B7
330
1B3
100
AcDbEntity
  8
Bemaßung_(ISO)
  6
Continuous
 62
     7
100
AcDbLine
 10
99.9999625921
 20
23.1716065845
 30
0.0
 11
99.9999625921
 21
77.4349278598
 31
0.0
  0
LINE
  5
1B8
330
1B3
100
AcDbEntity
  8
Bemaßung_(ISO)
  6
Continuous
 62
     7
100
AcDbLine
 10
-0.0000374079
 20
75.6849278058
 30
0.0
 11
99.9999640822
 21
75.6849278058
 31
0.0
  0
TEXT
  5
1B9
330
1B3
100
AcDbEntity
  8
Bemaßung_(ISO)
  6
Continuous
 62
     7
100
AcDbText
 10
35.8912660458
 20
76.5599278058
 30
0.0
 40
3.5
  1
100
  7
SEACAD_Arial
 11
35.8912660458
 21
80.0599278058
 31
0.0
100
AcDbText
 73
     3
  0
ENDBLK
  5
1BB
330
1B3
100
AcDbEntity
  8
0
100
AcDbBlockEnd
  0
BLOCK
  5
1C5
330
1BD
100
AcDbEntity
  8
0
100
AcDbBlockBegin
  2
DMBLK107
 70
     0
 10
0.0
 20
0.0
 30
0.0
  3
DMBLK107
  1

  0
HATCH
  5
1BE
330
1BD
100
AcDbEntity
  8
Bemaßung_(ISO)
  6
Continuous
 62
     7
100
AcDbHatch
 10
0.0
 20
0.0
 30
0.0
210
0.0
220
0.0
230
1.0
  2
SOLID
 70
     1
 71
     0
 91
        1
 92
        1
 93
        3
 72
     1
 10
115.4166300093809
 20
10.00003371114144
 11
114.9999633520274
 21
12.50003365526209
 72
     1
 10
114.9999633520274
 20
12.50003365526209
 11
114.583296694674
 21
10.00003371114144
 72
     1
 10
114.583296694674
 20
10.00003371114144
 11
115.4166300093809
 21
10.00003371114144
 97
        0
 75
     0
 76
     1
 98
        0
  0
HATCH
  5
1BF
330
1BD
100
AcDbEntity
  8
Bemaßung_(ISO)
  6
Continuous
 62
     7
100
AcDbHatch
 10
0.0
 20
0.0
 30
0.0
210
0.0
220
0.0
230
1.0
  2
SOLID
 70
     1
 71
     0
 91
        1
 92
        1
 93
        3
 72
     1
 10
115.4166300093809
 20
-9.999966773146294
 11
114.583296694674
 21
-9.999966773146294
 72
     1
 10
114.583296694674
 20
-9.999966773146294
 11
114.9999633520274
 21
-12.49996671726694
 72
     1
 10
114.9999633520274
 20
-12.49996671726694
 11
115.4166300093809
 21
-9.999966773146294
 97
        0
 75
     0
 76
     1
 98
        0
  0
LINE
  5
1C0
330
1BD
100
AcDbEntity
  8
Bemaßung_(ISO)
  6
Continuous
 62
     7
100
AcDbLine
 10
100.7499626461
 20
12.5000336553
 30
0.0
 11
116.749963406
 21
12.5000336553
 31
0.0
  0
LINE
  5
1C1
330
1BD
100
AcDbEntity
  8
Bemaßung_(ISO)
  6
Continuous
 62
     7
100
AcDbLine
 10
100.7499626461
 20
-12.4999663447
 30
0.0
 11
116.749963406
 21
-12.4999663447
 31
0.0
  0
LINE
  5
1C2
330
1BD
100
AcDbEntity
  8
Bemaßung_(ISO)
  6
Continuous
 62
     7
100
AcDbLine
 10
114.999963352
 20
12.5000336553
 30
0.0
 11
114.999963352
 21
-12.4999667173
 31
0.0
  0
TEXT
  5
1C3
330
1BD
100
AcDbEntity
  8
Bemaßung_(ISO)
  6
Continuous
 62
     7
100
AcDbText
 10
114.124963352
 20
-0.1445317484
 30
0.0
 40
3.5
  1
25
 50
90.0
  7
SEACAD_Arial
 11
110.624963352
 21
-0.1445317484
 31
0.0
100
AcDbText
 73
     3
  0
TEXT
  5
1C4
330
1BD
100
AcDbEntity
  8
Bemaßung_(ISO)
  6
Continuous
 62
     7
100
AcDbText
 10
114.124963352
 20
-5.3336621832
 30
0.0
 40
3.5
  1
n
 50
90.0
  7
SEACAD_Arial
 11
110.624963352
 21
-5.3336621832
 31
0.0
100
AcDbText
 73
     3
  0
ENDBLK
  5
1C6
330
1BD
100
AcDbEntity
  8
0
100
AcDbBlockEnd
  0
BLOCK
  5
1D0
330
1C8
100
AcDbEntity
  8
0
100
AcDbBlockBegin
  2
DMBLK108
 70
     0
 10
0.0
 20
0.0
 30
0.0
  3
DMBLK108
  1

  0
HATCH
  5
1C9
330
1C8
100
AcDbEntity
  8
Bemaßung_(ISO)
  6
Continuous
 62
     7
100
AcDbHatch
 10
0.0
 20
0.0
 30
0.0
210
0.0
220
0.0
230
1.0
  2
SOLID
 70
     1
 71
     0
 91
        1
 92
        1
 93
        3
 72
     1
 10
131.5332237242066
 20
29.75003371114144
 11
131.1165570668532
 21
32.25003365526209
 72
     1
 10
131.1165570668532
 20
32.25003365526209
 11
130.6998904094998
 21
29.75003371114144
 72
     1
 10
130.6998904094998
 20
29.75003371114144
 11
131.5332237242066
 21
29.75003371114144
 97
        0
 75
     0
 76
     1
 98
        0
  0
HATCH
  5
1CA
330
1C8
100
AcDbEntity
  8
Bemaßung_(ISO)
  6
Continuous
 62
     7
100
AcDbHatch
 10
0.0
 20
0.0
 30
0.0
210
0.0
220
0.0
230
1.0
  2
SOLID
 70
     1
 71
     0
 91
        1
 92
        1
 93
        3
 72
     1
 10
131.5332237242066
 20
-29.74996300315252
 11
130.6998904094998
 21
-29.74996300315252
 72
     1
 10
130.6998904094998
 20
-29.74996300315252
 11
131.1165570668532
 21
-32.24996294727316
 72
     1
 10
131.1165570668532
 20
-32.24996294727316
 11
131.5332237242066
 21
-29.74996300315252
 97
        0
 75
     0
 76
     1
 98
        0
  0
LINE
  5
1CB
330
1C8
100
AcDbEntity
  8
Bemaßung_(ISO)
  6
Continuous
 62
     7
100
AcDbLine
 10
90.9215355213
 20
32.2500336553
 30
0.0
 11
132.8665571209
 21
32.2500336553
 31
0.0
  0
LINE
  5
1CC
330
1C8
100
AcDbEntity
  8
Bemaßung_(ISO)
  6
Continuous
 62
     7
100
AcDbLine
 10
90.9215355213
 20
-32.2499663447
 30
0.0
 11
132.8665571209
 21
-32.2499663447
 31
0.0
  0
LINE
  5
1CD
330
1C8
100
AcDbEntity
  8
Bemaßung_(ISO)
  6
Continuous
 62
     7
100
AcDbLine
 10
131.1165570669
 20
32.2500336553
 30
0.0
 11
131.1165570669
 21
-32.2499629473
 31
0.0
  0
TEXT
  5
1CE
330
1C8
100
AcDbEntity
  8
Bemaßung_(ISO)
  6
Continuous
 62
     7
100
AcDbText
 10
130.2415570669
 20
4.301120582
 30
0.0
 40
3.5
  1
64,5
 50
90.0
  7
SEACAD_Arial
 11
126.7415570669
 21
4.301120582
 31
0.0
100
AcDbText
 73
     3
  0
TEXT
  5
1CF
330
1C8
100
AcDbEntity
  8
Bemaßung_(ISO)
  6
Continuous
 62
     7
100
AcDbText
 10
130.2415570669
 20
-0.8880098528
 30
0.0
 40
3.5
  1
n
 50
90.0
  7
SEACAD_Arial
 11
126.7415570669
 21
-0.8880098528
 31
0.0
100
AcDbText
 73
     3
  0
ENDBLK
  5
1D1
330
1C8
100
AcDbEntity
  8
0
100
AcDbBlockEnd
  0
ENDSEC
  0
SECTION
  2
ENTITIES
  0
SPLINE
  5
70
330
1F
100
AcDbEntity
  8
Verdeckt_(ISO)
  6
HIDDEN2
 62
     7
100
AcDbSpline
210
0.0
220
0.0
230
1.0
 70
    15
 71
     3
 72
    24
 73
    20
 74
     0
 42
0.000000001
 43
0.0000000001
 40
0.0
 40
0.0
 40
0.0
 40
0.0
 40
0.047564793144972
 40
0.047564793144972
 40
0.1236684621769267
 40
0.1236684621769267
 40
0.2226032319184682
 40
0.2226032319184682
 40
0.3392143765679961
 40
0.3392143765679961
 40
0.4606088719548478
 40
0.4606088719548478
 40
0.5905305512506563
 40
0.5905305512506563
 40
0.7393157986289416
 40
0.7393157986289416
 40
0.8853173261011915
 40
0.8853173261011915
 40
1.0
 40
1.0
 40
1.0
 40
1.0
 10
99.700343122259
 20
-13.26923948654175
 30
0.0
 41
1.0
 10
99.700343122259
 20
-13.22183696525899
 30
0.0
 41
1.0
 10
99.70033151965299
 20
-13.19399254377381
 30
0.0
 41
1.0
 10
99.7002762818877
 20
-13.17562388595257
 30
0.0
 41
1.0
 10
99.7002171998867
 20
-13.21810853418762
 30
0.0
 41
1.0
 10
99.7000780323728
 20
-13.42942653833881
 30
0.0
 41
1.0
 10
99.7000011382581
 20
-13.63300058414489
 30
0.0
 41
1.0
 10
99.6999423027916
 20
-14.18081164203548
 30
0.0
 41
1.0
 10
99.69998555145222
 20
-14.54233293694309
 30
0.0
 41
1.0
 10
99.70015607942779
 20
-15.22978994158618
 30
0.0
 41
1.0
 10
99.70027379848449
 20
-15.54972733703246
 30
0.0
 41
1.0
 10
99.700369663479
 20
-15.96781376507657
 30
0.0
 41
1.0
 10
99.7003264374962
 20
-16.04483776756697
 30
0.0
 41
1.0
 10
99.7001238256319
 20
-15.86148437068648
 30
0.0
 41
1.0
 10
99.6999792641588
 20
-15.55004052027684
 30
0.0
 41
1.0
 10
99.6999493124266
 20
-14.75388865615644
 30
0.0
 41
1.0
 10
99.700062975058
 20
-14.28225945915138
 30
0.0
 41
1.0
 10
99.70026844983352
 20
-13.61472227835715
 30
0.0
 41
1.0
 10
99.700343122259
 20
-13.38353090947896
 30
0.0
 41
1.0
 10
99.700343122259
 20
-13.26923948654175
 30
0.0
 41
1.0
  0
SPLINE
  5
71
330
1F
100
AcDbEntity
  8
Verdeckt_(ISO)
  6
HIDDEN2
 62
     7
100
AcDbSpline
210
0.0
220
0.0
230
1.0
 70
    11
 71
     3
 72
    38
 73
    34
 74
     0
 42
0.000000001
 43
0.0000000001
 40
0.0
 40
0.0
 40
0.0
 40
0.0
 40
0.0618455030084738
 40
0.0618455030084738
 40
0.1236910060169477
 40
0.1236910060169477
 40
0.1854597499825292
 40
0.1854597499825292
 40
0.2472284939481109
 40
0.2472284939481109
 40
0.308513331647692
 40
0.308513331647692
 40
0.3697981693472729
 40
0.3697981693472729
 40
0.4321314867557061
 40
0.4321314867557061
 40
0.4944648041641393
 40
0.4944648041641393
 40
0.5576456345312968
 40
0.5576456345312968
 40
0.6208264648984544
 40
0.6208264648984544
 40
0.6840294334902621
 40
0.6840294334902621
 40
0.7472324020820694
 40
0.7472324020820694
 40
0.8104353706738769
 40
0.8104353706738769
 40
0.8736383392656846
 40
0.8736383392656846
 40
0.9368191696328423
 40
0.9368191696328423
 40
1.0
 40
1.0
 40
1.0
 40
1.0
 10
25.27119410978903
 20
-21.18766542340463
 30
0.0
 10
25.27119410978903
 20
-21.35581082313238
 30
0.0
 10
25.29685598434767
 20
-21.51938894997206
 30
0.0
 10
25.38355776533621
 20
-21.7878181755357
 30
0.0
 10
25.4426063048957
 20
-21.89322538854453
 30
0.0
 10
25.54854920663028
 20
-22.03223167043772
 30
0.0
 10
25.60301917188105
 20
-22.07574195271232
 30
0.0
 10
25.67908070704976
 20
-22.0873597952137
 30
0.0
 10
25.69996259206824
 20
-22.05530600894642
 30
0.0
 10
25.69996259206824
 20
-21.93353693840025
 30
0.0
 10
25.6794088353474
 20
-21.83744196501096
 30
0.0
 10
25.60435277799198
 20
-21.59294426582257
 30
0.0
 10
25.55054421418834
 20
-21.44456907298084
 30
0.0
 10
25.44471915430337
 20
-21.13835141035114
 30
0.0
 10
25.38504876066997
 20
-20.95840439867156
 30
0.0
 10
25.29726740649421
 20
-20.58921795300584
 30
0.0
 10
25.27119410978903
 20
-20.39948069039759
 30
0.0
 10
25.27119410978903
 20
-20.05823313766409
 30
0.0
 10
25.29754725636421
 20
-19.89144596824788
 30
0.0
 10
25.38350621509901
 20
-19.61191794424397
 30
0.0
 10
25.44136342474435
 20
-19.49874770938764
 30
0.0
 10
25.54606974066674
 20
-19.34287459179845
 30
0.0
 10
25.60077568201385
 20
-19.28904287024461
 30
0.0
 10
25.67813349568982
 20
-19.26262821480633
 30
0.0
 10
25.69996259206824
 20
-19.29044896714514
 30
0.0
 10
25.69996259206824
 20
-19.41553539920245
 30
0.0
 10
25.67813349568982
 20
-19.5185304137978
 30
0.0
 10
25.60077568201385
 20
-19.78106770266292
 30
0.0
 10
25.54606974066675
 20
-19.94042707710543
 30
0.0
 10
25.44136342474435
 20
-20.26151911216631
 30
0.0
 10
25.38350621509901
 20
-20.4466317186793
 30
0.0
 10
25.29754725636421
 20
-20.82361508501777
 30
0.0
 10
25.27119410978903
 20
-21.01588953897596
 30
0.0
 10
25.27119410978903
 20
-21.18766542340463
 30
0.0
  0
SPLINE
  5
72
330
1F
100
AcDbEntity
  8
Verdeckt_(ISO)
  6
HIDDEN2
 62
     7
100
AcDbSpline
210
0.0
220
0.0
230
1.0
 70
     8
 71
     3
 72
     8
 73
     4
 74
     0
 42
0.000000001
 43
0.0000000001
 40
0.0
 40
0.0
 40
0.0
 40
0.0
 40
1.0
 40
1.0
 40
1.0
 40
1.0
 10
99.70029852831041
 20
-13.18511485237727
 30
0.0
 10
99.7335204453968
 20
-13.1490510405954
 30
0.0
 10
99.76674175659049
 20
-13.11298643279096
 30
0.0
 10
99.79996259206823
 20
-13.07692120373795
 30
0.0
  0
LINE
  5
73
330
1F
100
AcDbEntity
  8
Verdeckt_(ISO)
  6
HIDDEN2
 62
     7
100
AcDbLine
 10
99.7999625921
 20
-16.0863677107
 30
0.0
 11
99.7002990493
 21
-15.9945612737
 31
0.0
  0
LINE
  5
74
330
1F
100
AcDbEntity
  8
Verdeckt_(ISO)
  6
HIDDEN2
 62
     7
100
AcDbLine
 10
25.6539925031
 20
-19.2726431749
 30
0.0
 11
99.7002985714
 21
-13.1851148272
 31
0.0
  0
LINE
  5
75
330
1F
100
AcDbEntity
  8
Verdeckt_(ISO)
  6
HIDDEN2
 62
     7
100
AcDbLine
 10
25.6539925031
 20
-22.0820896819
 30
0.0
 11
99.7002990915
 21
-15.9945612914
 31
0.0
  0
LINE
  5
76
330
1F
100
AcDbEntity
  8
Verdeckt_(ISO)
  6
HIDDEN2
 62
     7
100
AcDbLine
 10
99.7999625921
 20
17.0500336553
 30
0.0
 11
99.7999625921
 21
-17.0499663447
 31
0.0
  0
LINE
  5
77
330
1F
100
AcDbEntity
  8
Verdeckt_(ISO)
  6
HIDDEN2
 62
     7
100
AcDbLine
 10
99.7999625921
 20
17.0500336553
 30
0.0
 11
99.9999625921
 21
17.2500336553
 31
0.0
  0
LINE
  5
78
330
1F
100
AcDbEntity
  8
Verdeckt_(ISO)
  6
HIDDEN2
 62
     7
100
AcDbLine
 10
99.7999625921
 20
-17.0499663447
 30
0.0
 11
99.9999625921
 21
-17.2499663447
 31
0.0
  0
LINE
  5
79
330
1F
100
AcDbEntity
  8
Verdeckt_(ISO)
  6
HIDDEN2
 62
     7
100
AcDbLine
 10
99.9999625921
 20
-13.7499663447
 30
0.0
 11
99.7999625921
 21
-13.9499663447
 31
0.0
  0
LINE
  5
7A
330
1F
100
AcDbEntity
  8
Verdeckt_(ISO)
  6
HIDDEN2
 62
     7
100
AcDbLine
 10
99.9999625921
 20
13.7500336553
 30
0.0
 11
99.7999625921
 21
13.9500336553
 31
0.0
  0
SPLINE
  5
7B
330
1F
100
AcDbEntity
  8
Verdeckt_(ISO)
  6
HIDDEN2
 62
     7
100
AcDbSpline
210
0.0
220
0.0
230
1.0
 70
    15
 71
     3
 72
    24
 73
    20
 74
     0
 42
0.000000001
 43
0.0000000001
 40
0.0
 40
0.0
 40
0.0
 40
0.0
 40
0.047564793144972
 40
0.047564793144972
 40
0.1236684621769267
 40
0.1236684621769267
 40
0.2226032319184682
 40
0.2226032319184682
 40
0.3392143765680012
 40
0.3392143765680012
 40
0.4606088719548689
 40
0.4606088719548689
 40
0.5905305512506586
 40
0.5905305512506586
 40
0.73931579862903
 40
0.73931579862903
 40
0.8853173261012628
 40
0.8853173261012628
 40
1.0
 40
1.0
 40
1.0
 40
1.0
 10
99.700343122259
 20
13.26930679706594
 30
0.0
 41
1.0
 10
99.700343122259
 20
13.22190427578318
 30
0.0
 41
1.0
 10
99.70033151965299
 20
13.19405985429799
 30
0.0
 41
1.0
 10
99.7002762818877
 20
13.17569119647675
 30
0.0
 41
1.0
 10
99.7002171998867
 20
13.2181758447118
 30
0.0
 41
1.0
 10
99.7000780323728
 20
13.429493848863
 30
0.0
 41
1.0
 10
99.7000011382581
 20
13.63306789466907
 30
0.0
 41
1.0
 10
99.6999423027916
 20
14.18087895255968
 30
0.0
 41
1.0
 10
99.69998555145222
 20
14.5424002474673
 30
0.0
 41
1.0
 10
99.70015607942779
 20
15.22985725211045
 30
0.0
 41
1.0
 10
99.70027379848449
 20
15.54979464755675
 30
0.0
 41
1.0
 10
99.700369663479
 20
15.96788107560078
 30
0.0
 41
1.0
 10
99.7003264374962
 20
16.04490507809113
 30
0.0
 41
1.0
 10
99.7001238256319
 20
15.86155168121059
 30
0.0
 41
1.0
 10
99.6999792641588
 20
15.55010783080064
 30
0.0
 41
1.0
 10
99.6999493124266
 20
14.75395596667986
 30
0.0
 41
1.0
 10
99.700062975058
 20
14.28232676967488
 30
0.0
 41
1.0
 10
99.70026844983352
 20
13.61478958888104
 30
0.0
 41
1.0
 10
99.700343122259
 20
13.38359822000307
 30
0.0
 41
1.0
 10
99.700343122259
 20
13.26930679706594
 30
0.0
 41
1.0
  0
LINE
  5
7C
330
1F
100
AcDbEntity
  8
Verdeckt_(ISO)
  6
HIDDEN2
 62
     7
100
AcDbLine
 10
99.7002990493
 20
15.9946285842
 30
0.0
 11
99.7999625921
 21
16.0864350212
 31
0.0
  0
SPLINE
  5
7D
330
1F
100
AcDbEntity
  8
Verdeckt_(ISO)
  6
HIDDEN2
 62
     7
100
AcDbSpline
210
0.0
220
0.0
230
1.0
 70
     8
 71
     3
 72
     8
 73
     4
 74
     0
 42
0.000000001
 43
0.0000000001
 40
0.0
 40
0.0
 40
0.0
 40
0.0
 40
1.0
 40
1.0
 40
1.0
 40
1.0
 10
99.79996259206823
 20
13.07698851426213
 30
0.0
 10
99.76674175659049
 20
13.11305374331514
 30
0.0
 10
99.7335204453968
 20
13.14911835111958
 30
0.0
 10
99.70029852831041
 20
13.18518216290145
 30
0.0
  0
SPLINE
  5
7E
330
1F
100
AcDbEntity
  8
Verdeckt_(ISO)
  6
HIDDEN2
 62
     7
100
AcDbSpline
210
0.0
220
0.0
230
1.0
 70
    11
 71
     3
 72
    38
 73
    34
 74
     0
 42
0.000000001
 43
0.0000000001
 40
0.0
 40
0.0
 40
0.0
 40
0.0
 40
0.0631813242093153
 40
0.0631813242093153
 40
0.1263626484186306
 40
0.1263626484186306
 40
0.1895661110256352
 40
0.1895661110256352
 40
0.25276957363264
 40
0.25276957363264
 40
0.3159730362396444
 40
0.3159730362396444
 40
0.3791764988466488
 40
0.3791764988466488
 40
0.4423578230559641
 40
0.4423578230559641
 40
0.5055391472652796
 40
0.5055391472652796
 40
0.5673851336785526
 40
0.5673851336785526
 40
0.6292311200918256
 40
0.6292311200918256
 40
0.6910003468622329
 40
0.6910003468622329
 40
0.7527695736326397
 40
0.7527695736326397
 40
0.8145388004030469
 40
0.8145388004030469
 40
0.8763080271734539
 40
0.8763080271734539
 40
0.938154013586727
 40
0.938154013586727
 40
1.0
 40
1.0
 40
1.0
 40
1.0
 10
25.27119410978905
 20
20.23007633261694
 30
0.0
 10
25.27119410978905
 20
20.05830044818827
 30
0.0
 10
25.29754725636421
 20
19.89151327877207
 30
0.0
 10
25.38350621509902
 20
19.61198525476816
 30
0.0
 10
25.44136342474436
 20
19.49881501991181
 30
0.0
 10
25.54606974066675
 20
19.34294190232264
 30
0.0
 10
25.60077568201386
 20
19.28911018076879
 30
0.0
 10
25.67813349568982
 20
19.26269552533052
 30
0.0
 10
25.69996259206825
 20
19.29051627766933
 30
0.0
 10
25.69996259206825
 20
19.41560270972662
 30
0.0
 10
25.67813349568982
 20
19.51859772432197
 30
0.0
 10
25.60077568201386
 20
19.78113501318711
 30
0.0
 10
25.54606974066675
 20
19.94049438762963
 30
0.0
 10
25.44136342474436
 20
20.26158642269049
 30
0.0
 10
25.38350621509902
 20
20.44669902920349
 30
0.0
 10
25.29754725636421
 20
20.82368239554195
 30
0.0
 10
25.27119410978905
 20
21.01595684950015
 30
0.0
 10
25.27119410978905
 20
21.35587813365657
 30
0.0
 10
25.29685598434769
 20
21.51945626049625
 30
0.0
 10
25.38355776533623
 20
21.7878854860599
 30
0.0
 10
25.44260630489571
 20
21.89329269906872
 30
0.0
 10
25.5485492066303
 20
22.03229898096191
 30
0.0
 10
25.60301917188106
 20
22.07580926323649
 30
0.0
 10
25.67908070704978
 20
22.08742710573788
 30
0.0
 10
25.69996259206825
 20
22.05537331947061
 30
0.0
 10
25.69996259206825
 20
21.93312539397811
 30
0.0
 10
25.67908070704977
 20
21.83606907487024
 30
0.0
 10
25.60301917188106
 20
21.58904685658761
 30
0.0
 10
25.5485492066303
 20
21.43910788065161
 30
0.0
 10
25.44260630489571
 20
21.13204877509421
 30
0.0
 10
25.38355776533621
 20
20.95320284052535
 30
0.0
 10
25.29685598434768
 20
20.58653093899938
 30
0.0
 10
25.27119410978905
 20
20.39822173234469
 30
0.0
 10
25.27119410978905
 20
20.23007633261694
 30
0.0
  0
LINE
  5
7F
330
1F
100
AcDbEntity
  8
Verdeckt_(ISO)
  6
HIDDEN2
 62
     7
100
AcDbLine
 10
25.6539925031
 20
22.0821569924
 30
0.0
 11
99.7002990915
 21
15.9946286019
 31
0.0
  0
LINE
  5
80
330
1F
100
AcDbEntity
  8
Verdeckt_(ISO)
  6
HIDDEN2
 62
     7
100
AcDbLine
 10
25.6539925031
 20
19.2727104854
 30
0.0
 11
99.7002985714
 21
13.1851821377
 31
0.0
  0
LINE
  5
82
330
1F
100
AcDbEntity
  8
Sichtbar_(ISO)
  6
Continuous
 62
     7
100
AcDbLine
 10
65.4999625921
 20
1.0660918095
 30
0.0
 11
65.4999625921
 21
-1.0660244989
 31
0.0
  0
SPLINE
  5
83
330
1F
100
AcDbEntity
  8
Sichtbar_(ISO)
  6
Continuous
 62
     7
100
AcDbSpline
210
0.0
220
0.0
230
1.0
 70
     8
 71
     3
 72
    24
 73
    20
 74
     0
 42
0.000000001
 43
0.0000000001
 40
0.0
 40
0.0
 40
0.0
 40
0.0
 40
0.1264544622946593
 40
0.1264544622946593
 40
0.2826744556882645
 40
0.2826744556882645
 40
0.3850212977723447
 40
0.3850212977723447
 40
0.4658939026390291
 40
0.4658939026390291
 40
0.5716581952892104
 40
0.5716581952892104
 40
0.7055872496599874
 40
0.7055872496599874
 40
0.8501721999016385
 40
0.8501721999016385
 40
0.972131813743163
 40
0.972131813743163
 40
0.9999999999999999
 40
0.9999999999999999
 40
0.9999999999999999
 40
0.9999999999999999
 10
40.99996259206824
 20
5.626777469225304
 30
0.0
 10
41.68837137171293
 20
6.782589570734973
 30
0.0
 10
42.57534245988098
 20
7.796127153509553
 30
0.0
 10
44.89838596786322
 20
9.694016460089422
 30
0.0
 10
46.38759440772986
 20
10.47123386692413
 30
0.0
 10
49.03596499456437
 20
11.304266559459
 30
0.0
 10
50.12457016755115
 20
11.5140091969967
 30
0.0
 10
52.09615008439714
 20
11.67747801811008
 30
0.0
 10
52.97309479718625
 20
11.67552444158339
 30
0.0
 10
54.98056270818793
 20
11.4999634067533
 30
0.0
 10
56.10380250647818
 20
11.27402449391475
 30
0.0
 10
58.54790272750681
 20
10.4714377457058
 30
0.0
 10
59.83081715684521
 20
9.821030610900225
 30
0.0
 10
62.20138924389499
 20
8.049496857574264
 30
0.0
 10
63.24219831702944
 20
6.911539370388862
 30
0.0
 10
64.6833398615235
 20
4.468507671231151
 30
0.0
 10
65.14301551212829
 20
3.242883804258431
 30
0.0
 10
65.42968936763621
 20
1.659912005430432
 30
0.0
 10
65.47090666241102
 20
1.363599996946368
 30
0.0
 10
65.49996259207786
 20
1.066091809469665
 30
0.0
  0
SPLINE
  5
84
330
1F
100
AcDbEntity
  8
Sichtbar_(ISO)
  6
Continuous
 62
     7
100
AcDbSpline
210
0.0
220
0.0
230
1.0
 70
     8
 71
     3
 72
    18
 73
    14
 74
     0
 42
0.000000001
 43
0.0000000001
 40
0.0
 40
0.0
 40
0.0
 40
0.0
 40
0.2692770821906858
 40
0.2692770821906858
 40
0.4198616074916656
 40
0.4198616074916656
 40
0.4935018729670255
 40
0.4935018729670255
 40
0.5599031601928611
 40
0.5599031601928611
 40
0.6627293339696453
 40
0.6627293339696453
 40
1.0
 40
1.0
 40
1.0
 40
1.0
 10
40.99996259206825
 20
-5.626710158700442
 30
0.0
 10
40.41685290766259
 20
-4.647691224497597
 30
0.0
 10
39.94655599726246
 20
-3.686924712656738
 30
0.0
 10
39.45347316650201
 20
-2.158778149588428
 30
0.0
 10
39.32061016739493
 20
-1.591710521149025
 30
0.0
 10
39.21272731795804
 20
-0.7204405067365914
 30
0.0
 10
39.19208153278909
 20
-0.4337065967202105
 30
0.0
 10
39.18229243358046
 20
0.11863968422659
 30
0.0
 10
39.1903427839024
 20
0.3783529525514169
 30
0.0
 10
39.2426361487739
 20
1.041811083500247
 30
0.0
 10
39.30355629755281
 20
1.435868509076139
 30
0.0
 10
39.67163544058325
 20
3.096420659068912
 30
0.0
 10
40.23367907349316
 20
4.34021664933833
 30
0.0
 10
40.99996259206825
 20
5.626777469224622
 30
0.0
  0
SPLINE
  5
85
330
1F
100
AcDbEntity
  8
Sichtbar_(ISO)
  6
Continuous
 62
     7
100
AcDbSpline
210
0.0
220
0.0
230
1.0
 70
     8
 71
     3
 72
    24
 73
    20
 74
     0
 42
0.000000001
 43
0.0000000001
 40
0.0
 40
0.0
 40
0.0
 40
0.0
 40
0.0553504187663839
 40
0.0553504187663839
 40
0.1920909464753375
 40
0.1920909464753375
 40
0.326810799364463
 40
0.326810799364463
 40
0.4806885135130032
 40
0.4806885135130032
 40
0.5686966929564585
 40
0.5686966929564585
 40
0.6528516609151208
 40
0.6528516609151208
 40
0.8044682750040768
 40
0.8044682750040768
 40
0.9004071031180775
 40
0.9004071031180775
 40
1.0
 40
1.0
 40
1.0
 40
1.0
 10
65.49996259207778
 20
-1.066024498940071
 30
0.0
 10
65.44228377933472
 20
-1.656606842435584
 30
0.0
 10
65.33684100759848
 20
-2.241039282770531
 30
0.0
 10
64.80879306494059
 20
-4.230018553605758
 30
0.0
 10
64.15798775121809
 20
-5.541546893560566
 30
0.0
 10
62.40941068157315
 20
-7.831328002331865
 30
0.0
 10
61.33884789909259
 20
-8.788048251674933
 30
0.0
 10
58.73678490046374
 20
-10.41766940559331
 30
0.0
 10
57.18561284148178
 20
-11.01688042747271
 30
0.0
 10
54.63346742401957
 20
-11.53970971881455
 30
0.0
 10
53.68509776490461
 20
-11.64170950936967
 30
0.0
 10
51.82568645969385
 20
-11.66994521155826
 30
0.0
 10
50.91585456816625
 20
-11.60365421433295
 30
0.0
 10
48.40753801951519
 20
-11.19239819602497
 30
0.0
 10
46.8515368717741
 20
-10.66898411743873
 30
0.0
 10
44.54749324412936
 20
-9.384943989859858
 30
0.0
 10
43.71954483956947
 20
-8.785449385008818
 30
0.0
 10
42.20976326680065
 20
-7.36207871197064
 30
0.0
 10
41.54265123573556
 20
-6.537863706199903
 30
0.0
 10
40.99996259206823
 20
-5.626710158701122
 30
0.0
  0
CIRCLE
  5
86
330
1F
100
AcDbEntity
  8
Sichtbar_(ISO)
  6
Continuous
 62
     7
100
AcDbCircle
 10
52.4999625921
 20
0.0000336553
 30
0.0
 40
2.000000000000021
  0
SPLINE
  5
87
330
1F
100
AcDbEntity
  8
Sichtbar_(ISO)
  6
Continuous
 62
     7
100
AcDbSpline
210
0.0
220
0.0
230
1.0
 70
     8
 71
     3
 72
    22
 73
    18
 74
     0
 42
0.000000001
 43
0.0000000001
 40
0.0
 40
0.0
 40
0.0
 40
0.0
 40
0.1423750636672582
 40
0.1423750636672582
 40
0.3047124380669596
 40
0.3047124380669596
 40
0.3950233636275313
 40
0.3950233636275313
 40
0.4846345554161005
 40
0.4846345554161005
 40
0.6600539530058646
 40
0.6600539530058646
 40
0.81593408502816
 40
0.81593408502816
 40
0.9563098445733199
 40
0.9563098445733199
 40
1.0
 40
1.0
 40
1.0
 40
1.0
 10
89.17153546732207
 20
-6.83115814160681
 30
0.0
 10
88.27878017737768
 20
-7.964117151087953
 30
0.0
 10
87.18273558928323
 20
-8.912091531510454
 30
0.0
 10
84.53143298566535
 20
-10.51187839948758
 30
0.0
 10
82.95764348277922
 20
-11.09005928638513
 30
0.0
 10
80.40285723264546
 20
-11.5688760100641
 30
0.0
 10
79.4722177961715
 20
-11.65541037893715
 30
0.0
 10
77.61656098197872
 20
-11.66031186820257
 30
0.0
 10
76.69260567547273
 20
-11.57997198951117
 30
0.0
 10
74.00875910116649
 20
-11.09604098807427
 30
0.0
 10
72.31021605695408
 20
-10.46032331144554
 30
0.0
 10
69.47115168441104
 20
-8.656816473434539
 30
0.0
 10
68.31469135609981
 20
-7.570775149850164
 30
0.0
 10
66.60514063431468
 20
-5.10295430236775
 30
0.0
 10
66.02409019923427
 20
-3.790231238601989
 30
0.0
 10
65.61394486665625
 20
-1.952291161557153
 30
0.0
 10
65.54339170631043
 20
-1.510701960475411
 30
0.0
 10
65.49996259211918
 20
-1.066024498943465
 30
0.0
  0
SPLINE
  5
88
330
1F
100
AcDbEntity
  8
Sichtbar_(ISO)
  6
Continuous
 62
     7
100
AcDbSpline
210
0.0
220
0.0
230
1.0
 70
     8
 71
     3
 72
    10
 73
     6
 74
     0
 42
0.000000001
 43
0.0000000001
 40
0.0
 40
0.0
 40
0.0
 40
0.0
 40
0.4642990787280177
 40
0.4642990787280177
 40
1.0
 40
1.0
 40
1.0
 40
1.0
 10
90.58574902969521
 20
-3.672602223724813
 30
0.0
 10
90.44640379137311
 20
-4.27248321593358
 30
0.0
 10
90.26399905531105
 20
-4.836261587247334
 30
0.0
 10
89.76667193932943
 20
-5.97022469473748
 30
0.0
 10
89.46835794045718
 20
-6.454472952571907
 30
0.0
 10
89.17153546732207
 20
-6.831158141607117
 30
0.0
  0
SPLINE
  5
89
330
1F
100
AcDbEntity
  8
Sichtbar_(ISO)
  6
Continuous
 62
     7
100
AcDbSpline
210
0.0
220
0.0
230
1.0
 70
     8
 71
     3
 72
    10
 73
     6
 74
     0
 42
0.000000001
 43
0.0000000001
 40
0.0
 40
0.0
 40
0.0
 40
0.0
 40
0.5400955808024538
 40
0.5400955808024538
 40
1.0
 40
1.0
 40
1.0
 40
1.0
 10
90.58574902969521
 20
3.672669534248996
 30
0.0
 10
90.88584532613405
 20
2.380755535366926
 30
0.0
 10
91.02855986956968
 20
1.044340014942385
 30
0.0
 10
90.9832190813781
 20
-1.43779912252874
 30
0.0
 10
90.84150221990475
 20
-2.571585214813456
 30
0.0
 10
90.58574902969521
 20
-3.672602223724813
 30
0.0
  0
SPLINE
  5
8A
330
1F
100
AcDbEntity
  8
Sichtbar_(ISO)
  6
Continuous
 62
     7
100
AcDbSpline
210
0.0
220
0.0
230
1.0
 70
     8
 71
     3
 72
    10
 73
     6
 74
     0
 42
0.000000001
 43
0.0000000001
 40
0.0
 40
0.0
 40
0.0
 40
0.0
 40
0.6797989589593618
 40
0.6797989589593618
 40
1.0
 40
1.0
 40
1.0
 40
1.0
 10
89.17153546732207
 20
6.831225452131292
 30
0.0
 10
89.54499820525815
 20
6.357279256106522
 30
0.0
 10
89.91628514332052
 20
5.720931650489063
 30
0.0
 10
90.36829104414595
 20
4.499632554271455
 30
0.0
 10
90.48801720407936
 20
4.093404862034404
 30
0.0
 10
90.58574902969521
 20
3.672669534248996
 30
0.0
  0
SPLINE
  5
8B
330
1F
100
AcDbEntity
  8
Sichtbar_(ISO)
  6
Continuous
 62
     7
100
AcDbSpline
210
0.0
220
0.0
230
1.0
 70
     8
 71
     3
 72
    24
 73
    20
 74
     0
 42
0.000000001
 43
0.0000000001
 40
0.0
 40
0.0
 40
0.0
 40
0.0
 40
0.0423712746713646
 40
0.0423712746713646
 40
0.1842885700571131
 40
0.1842885700571131
 40
0.3218752044889126
 40
0.3218752044889126
 40
0.4936777828250131
 40
0.4936777828250131
 40
0.5887062039670977
 40
0.5887062039670977
 40
0.6755603124302267
 40
0.6755603124302267
 40
0.8174727460903507
 40
0.8174727460903507
 40
0.9090381078575099
 40
0.9090381078575099
 40
1.0
 40
1.0
 40
1.0
 40
1.0
 10
65.4999625921197
 20
1.066091809473097
 30
0.0
 10
65.54206446286882
 20
1.497179418764927
 30
0.0
 10
65.6096617492902
 20
1.92540013119036
 30
0.0
 10
66.01331860900079
 20
3.766515506942491
 30
0.0
 10
66.59845666547032
 20
5.094293516228532
 30
0.0
 10
68.21158779420033
 20
7.421112336871603
 30
0.0
 10
69.20680452380458
 20
8.402413064232253
 30
0.0
 10
71.77694838575351
 20
10.19774393619521
 30
0.0
 10
73.40542578268936
 20
10.89087205159645
 30
0.0
 10
76.07704941976056
 20
11.49844215925674
 30
0.0
 10
77.05175872044882
 20
11.62109899609322
 30
0.0
 10
78.92495012558962
 20
11.6780545736928
 30
0.0
 10
79.82174846234057
 20
11.62759493323836
 30
0.0
 10
82.15098797119956
 20
11.28934353090992
 30
0.0
 10
83.55630947372455
 20
10.8727320124969
 30
0.0
 10
85.69955516510765
 20
9.841348107220075
 30
0.0
 10
86.49268513241682
 20
9.351302704340123
 30
0.0
 10
87.9454056906936
 20
8.205908609360202
 30
0.0
 10
88.60073717571784
 20
7.555602080702664
 30
0.0
 10
89.17153546732207
 20
6.831225452130993
 30
0.0
  0
CIRCLE
  5
8C
330
1F
100
AcDbEntity
  8
Sichtbar_(ISO)
  6
Continuous
 62
     7
100
AcDbCircle
 10
78.4999625921
 20
0.0000336553
 30
0.0
 40
2.000000000000014
  0
SPLINE
  5
8D
330
1F
100
AcDbEntity
  8
Verdeckt_(ISO)
  6
HIDDEN2
 62
     7
100
AcDbSpline
210
0.0
220
0.0
230
1.0
 70
     8
 71
     3
 72
    23
 73
    19
 74
     0
 42
0.000000001
 43
0.0000000001
 40
0.0
 40
0.0
 40
0.0
 40
0.0
 40
0.1269922857487586
 40
0.1269922857487586
 40
0.253984571497517
 40
0.253984571497517
 40
0.3769922857487587
 40
0.3769922857487587
 40
0.5000000000000002
 40
0.5000000000000002
 40
0.5000000000000002
 40
0.6230077142512414
 40
0.6230077142512414
 40
0.7460154285024828
 40
0.7460154285024828
 40
0.8730077142512415
 40
0.8730077142512415
 40
1.0
 40
1.0
 40
1.0
 40
1.0
 10
66.4999625920682
 20
0.0000336552620936
 30
0.0
 10
66.4999625920682
 20
-1.204928481517815
 30
0.0
 10
66.80258007346384
 20
-2.460004162605269
 30
0.0
 10
67.95103324977842
 20
-4.700989017623457
 30
0.0
 10
68.79497595131764
 20
-5.688354418706732
 30
0.0
 10
70.6215731214363
 20
-7.171290033260897
 30
0.0
 10
71.7217905120202
 20
-7.784259482846694
 30
0.0
 10
74.07728034544694
 20
-8.589337124791513
 30
0.0
 10
75.3328079312109
 20
-8.781388047294094
 30
0.0
 10
76.4999625920682
 20
-8.781388047294094
 30
0.0
 10
77.66711725292552
 20
-8.781388047294094
 30
0.0
 10
78.92264483868945
 20
-8.58933712479151
 30
0.0
 10
81.27813467211614
 20
-7.78425948284669
 30
0.0
 10
82.37835206270009
 20
-7.171290033260897
 30
0.0
 10
84.20494923281875
 20
-5.688354418706732
 30
0.0
 10
85.04889193435793
 20
-4.700989017623453
 30
0.0
 10
86.19734511067254
 20
-2.460004162605268
 30
0.0
 10
86.49996259206819
 20
-1.204928481517817
 30
0.0
 10
86.49996259206819
 20
0.0000336552620901
 30
0.0
  0
SPLINE
  5
8E
330
1F
100
AcDbEntity
  8
Verdeckt_(ISO)
  6
HIDDEN2
 62
     7
100
AcDbSpline
210
0.0
220
0.0
230
1.0
 70
     8
 71
     3
 72
    22
 73
    18
 74
     0
 42
0.000000001
 43
0.0000000001
 40
0.0
 40
0.0
 40
0.0
 40
0.0
 40
0.1269922857487588
 40
0.1269922857487588
 40
0.2539845714975174
 40
0.2539845714975174
 40
0.3769922857487587
 40
0.3769922857487587
 40
0.4999999999999999
 40
0.4999999999999999
 40
0.6230077142512412
 40
0.6230077142512412
 40
0.7460154285024824
 40
0.7460154285024824
 40
0.8730077142512416
 40
0.8730077142512416
 40
1.0
 40
1.0
 40
1.0
 40
1.0
 10
86.49996259206819
 20
0.0000336552620901
 30
0.0
 10
86.49996259206819
 20
1.204995792041997
 30
0.0
 10
86.19734511067254
 20
2.460071473129452
 30
0.0
 10
85.04889193435793
 20
4.70105632814764
 30
0.0
 10
84.20494923281875
 20
5.68842172923092
 30
0.0
 10
82.37835206270009
 20
7.171357343785084
 30
0.0
 10
81.27813467211617
 20
7.784326793370874
 30
0.0
 10
78.92264483868948
 20
8.589404435315693
 30
0.0
 10
77.66711725292552
 20
8.781455357818272
 30
0.0
 10
75.3328079312109
 20
8.781455357818272
 30
0.0
 10
74.07728034544694
 20
8.589404435315693
 30
0.0
 10
71.7217905120202
 20
7.784326793370874
 30
0.0
 10
70.6215731214363
 20
7.171357343785075
 30
0.0
 10
68.79497595131764
 20
5.688421729230916
 30
0.0
 10
67.95103324977842
 20
4.701056328147645
 30
0.0
 10
66.80258007346384
 20
2.460071473129461
 30
0.0
 10
66.4999625920682
 20
1.204995792042001
 30
0.0
 10
66.4999625920682
 20
0.0000336552620936
 30
0.0
  0
SPLINE
  5
8F
330
1F
100
AcDbEntity
  8
Verdeckt_(ISO)
  6
HIDDEN2
 62
     7
100
AcDbSpline
210
0.0
220
0.0
230
1.0
 70
    11
 71
     3
 72
    38
 73
    34
 74
     0
 42
0.000000001
 43
0.0000000001
 40
0.0
 40
0.0
 40
0.0
 40
0.0
 40
0.0627796861939203
 40
0.0627796861939203
 40
0.1255593723878406
 40
0.1255593723878406
 40
0.1877796861939203
 40
0.1877796861939203
 40
0.2499999999999999
 40
0.2499999999999999
 40
0.3122203138060793
 40
0.3122203138060793
 40
0.3744406276121592
 40
0.3744406276121592
 40
0.4372203138060794
 40
0.4372203138060794
 40
0.5
 40
0.5
 40
0.5627796861939202
 40
0.5627796861939202
 40
0.6255593723878404
 40
0.6255593723878404
 40
0.6877796861939202
 40
0.6877796861939202
 40
0.7499999999999998
 40
0.7499999999999998
 40
0.8122203138060793
 40
0.8122203138060793
 40
0.8744406276121591
 40
0.8744406276121591
 40
0.9372203138060797
 40
0.9372203138060797
 40
1.0
 40
1.0
 40
1.0
 40
1.0
 10
76.49996259206821
 20
8.000033655262092
 30
0.0
 10
77.54661817843083
 20
8.000033655262092
 30
0.0
 10
78.62782090410106
 20
7.784428817276314
 30
0.0
 10
80.58248415917153
 20
6.961186355473305
 30
0.0
 10
81.46021348674398
 20
6.353491259571084
 30
0.0
 10
82.84721340074657
 20
4.966491345568512
 30
0.0
 10
83.45910622826885
 20
4.087253917694731
 30
0.0
 10
84.28621317623445
 20
2.123558057197405
 30
0.0
 10
84.49996259206821
 20
1.037363450591255
 30
0.0
 10
84.49996259206821
 20
-1.037296140067072
 30
0.0
 10
84.28621317623445
 20
-2.123490746673221
 30
0.0
 10
83.45910622826885
 20
-4.087186607170549
 30
0.0
 10
82.84721340074657
 20
-4.966424035044328
 30
0.0
 10
81.460213486744
 20
-6.353423949046901
 30
0.0
 10
80.58248415917153
 20
-6.961119044949124
 30
0.0
 10
78.62782090410106
 20
-7.784361506752129
 30
0.0
 10
77.54661817843083
 20
-7.999966344737916
 30
0.0
 10
75.45330700570562
 20
-7.999966344737916
 30
0.0
 10
74.37210428003539
 20
-7.78436150675213
 30
0.0
 10
72.4174410249649
 20
-6.961119044949124
 30
0.0
 10
71.53971169739245
 20
-6.353423949046899
 30
0.0
 10
70.15271178338988
 20
-4.966424035044324
 30
0.0
 10
69.54081895586756
 20
-4.087186607170544
 30
0.0
 10
68.71371200790195
 20
-2.123490746673213
 30
0.0
 10
68.49996259206821
 20
-1.037296140067074
 30
0.0
 10
68.4999625920682
 20
1.037363450591251
 30
0.0
 10
68.71371200790195
 20
2.123558057197387
 30
0.0
 10
69.54081895586756
 20
4.087253917694724
 30
0.0
 10
70.15271178338988
 20
4.966491345568504
 30
0.0
 10
71.53971169739245
 20
6.353491259571084
 30
0.0
 10
72.4174410249649
 20
6.961186355473305
 30
0.0
 10
74.37210428003539
 20
7.784428817276314
 30
0.0
 10
75.4533070057056
 20
8.000033655262092
 30
0.0
 10
76.49996259206821
 20
8.000033655262092
 30
0.0
  0
SPLINE
  5
90
330
1F
100
AcDbEntity
  8
Verdeckt_(ISO)
  6
HIDDEN2
 62
     7
100
AcDbSpline
210
0.0
220
0.0
230
1.0
 70
     8
 71
     3
 72
    23
 73
    19
 74
     0
 42
0.000000001
 43
0.0000000001
 40
0.0
 40
0.0
 40
0.0
 40
0.0
 40
0.1269922857487591
 40
0.1269922857487591
 40
0.2539845714975176
 40
0.2539845714975176
 40
0.3769922857487589
 40
0.3769922857487589
 40
0.5000000000000002
 40
0.5000000000000002
 40
0.5000000000000002
 40
0.6230077142512418
 40
0.6230077142512418
 40
0.7460154285024828
 40
0.7460154285024828
 40
0.8730077142512419
 40
0.8730077142512419
 40
1.0
 40
1.0
 40
1.0
 40
1.0
 10
41.4999625920682
 20
0.0000336552620923
 30
0.0
 10
41.4999625920682
 20
-1.204928481517815
 30
0.0
 10
41.80258007346386
 20
-2.460004162605271
 30
0.0
 10
42.95103324977842
 20
-4.700989017623458
 30
0.0
 10
43.79497595131765
 20
-5.688354418706732
 30
0.0
 10
45.6215731214363
 20
-7.1712900332609
 30
0.0
 10
46.72179051202024
 20
-7.784259482846703
 30
0.0
 10
49.07728034544693
 20
-8.589337124791516
 30
0.0
 10
50.33280793121089
 20
-8.781388047294094
 30
0.0
 10
51.4999625920682
 20
-8.781388047294094
 30
0.0
 10
52.66711725292551
 20
-8.781388047294094
 30
0.0
 10
53.92264483868948
 20
-8.589337124791513
 30
0.0
 10
56.27813467211618
 20
-7.784259482846689
 30
0.0
 10
57.37835206270012
 20
-7.1712900332609
 30
0.0
 10
59.20494923281879
 20
-5.688354418706733
 30
0.0
 10
60.04889193435796
 20
-4.700989017623456
 30
0.0
 10
61.19734511067254
 20
-2.460004162605271
 30
0.0
 10
61.49996259206821
 20
-1.204928481517817
 30
0.0
 10
61.49996259206821
 20
0.0000336552620901
 30
0.0
  0
SPLINE
  5
91
330
1F
100
AcDbEntity
  8
Verdeckt_(ISO)
  6
HIDDEN2
 62
     7
100
AcDbSpline
210
0.0
220
0.0
230
1.0
 70
     8
 71
     3
 72
    22
 73
    18
 74
     0
 42
0.000000001
 43
0.0000000001
 40
0.0
 40
0.0
 40
0.0
 40
0.0
 40
0.1269922857487592
 40
0.1269922857487592
 40
0.2539845714975172
 40
0.2539845714975172
 40
0.376992285748759
 40
0.376992285748759
 40
0.5000000000000003
 40
0.5000000000000003
 40
0.6230077142512415
 40
0.6230077142512415
 40
0.746015428502483
 40
0.746015428502483
 40
0.8730077142512412
 40
0.8730077142512412
 40
1.0
 40
1.0
 40
1.0
 40
1.0
 10
61.49996259206821
 20
0.0000336552620901
 30
0.0
 10
61.49996259206821
 20
1.204995792041997
 30
0.0
 10
61.19734511067254
 20
2.460071473129452
 30
0.0
 10
60.04889193435796
 20
4.701056328147641
 30
0.0
 10
59.20494923281877
 20
5.68842172923092
 30
0.0
 10
57.37835206270012
 20
7.171357343785084
 30
0.0
 10
56.27813467211618
 20
7.784326793370874
 30
0.0
 10
53.92264483868948
 20
8.589404435315693
 30
0.0
 10
52.66711725292551
 20
8.781455357818272
 30
0.0
 10
50.33280793121089
 20
8.781455357818272
 30
0.0
 10
49.07728034544692
 20
8.589404435315693
 30
0.0
 10
46.72179051202022
 20
7.784326793370874
 30
0.0
 10
45.6215731214363
 20
7.171357343785084
 30
0.0
 10
43.79497595131765
 20
5.688421729230924
 30
0.0
 10
42.95103324977842
 20
4.70105632814764
 30
0.0
 10
41.80258007346387
 20
2.460071473129452
 30
0.0
 10
41.4999625920682
 20
1.204995792042003
 30
0.0
 10
41.4999625920682
 20
0.0000336552620923
 30
0.0
  0
SPLINE
  5
92
330
1F
100
AcDbEntity
  8
Verdeckt_(ISO)
  6
HIDDEN2
 62
     7
100
AcDbSpline
210
0.0
220
0.0
230
1.0
 70
     8
 71
     3
 72
    14
 73
    10
 74
     0
 42
0.000000001
 43
0.0000000001
 40
0.0
 40
0.0
 40
0.0
 40
0.0
 40
0.1812299207053533
 40
0.1812299207053533
 40
0.5000000000000011
 40
0.5000000000000011
 40
0.8187700792946466
 40
0.8187700792946466
 40
0.9999999999999999
 40
0.9999999999999999
 40
0.9999999999999999
 40
0.9999999999999999
 10
44.99996259206821
 20
-4.663655871282331
 30
0.0
 10
44.65801375122564
 20
-4.187065941179604
 30
0.0
 10
44.3605130118069
 20
-3.659906520217739
 30
0.0
 10
43.71260894312333
 20
-2.119461462916
 30
0.0
 10
43.49996259206821
 20
-1.034542899710369
 30
0.0
 10
43.49996259206821
 20
1.034610210234545
 30
0.0
 10
43.71260894312333
 20
2.119528773440177
 30
0.0
 10
44.36051301180689
 20
3.659973830741913
 30
0.0
 10
44.65801375122564
 20
4.187133251703786
 30
0.0
 10
44.99996259206821
 20
4.663723181806513
 30
0.0
  0
SPLINE
  5
93
330
1F
100
AcDbEntity
  8
Verdeckt_(ISO)
  6
HIDDEN2
 62
     7
100
AcDbSpline
210
0.0
220
0.0
230
1.0
 70
     8
 71
     3
 72
    35
 73
    31
 74
     0
 42
0.000000001
 43
0.0000000001
 40
0.0
 40
0.0
 40
0.0
 40
0.0
 40
0.0334207616153468
 40
0.0334207616153468
 40
0.1114156149371616
 40
0.1114156149371616
 40
0.1894104682589764
 40
0.1894104682589764
 40
0.1894104682589764
 40
0.2674053215807912
 40
0.2674053215807912
 40
0.345400174902606
 40
0.345400174902606
 40
0.4227000873926503
 40
0.4227000873926503
 40
0.4999999998826944
 40
0.4999999998826944
 40
0.5772999123727384
 40
0.5772999123727384
 40
0.6545998248627828
 40
0.6545998248627828
 40
0.7325946781845974
 40
0.7325946781845974
 40
0.8105895315064127
 40
0.8105895315064127
 40
0.8885843848282274
 40
0.8885843848282274
 40
0.9665792381500418
 40
0.9665792381500418
 40
1.0
 40
1.0
 40
1.0
 40
1.0
 10
44.99996259206821
 20
4.663723181806517
 30
0.0
 10
45.25963296796081
 20
5.025637806203164
 30
0.0
 10
45.54461410006836
 20
5.358393662247003
 30
0.0
 10
46.53971169739245
 20
6.353491259571084
 30
0.0
 10
47.41744102496489
 20
6.961186355473305
 30
0.0
 10
49.37210428003539
 20
7.784428817276314
 30
0.0
 10
50.45330700570561
 20
8.000033655262092
 30
0.0
 10
51.49996259206822
 20
8.000033655262092
 30
0.0
 10
52.54661817843085
 20
8.000033655262092
 30
0.0
 10
53.62782090410107
 20
7.784428817276306
 30
0.0
 10
55.58248415917154
 20
6.961186355473293
 30
0.0
 10
56.460213486744
 20
6.353491259571084
 30
0.0
 10
57.84721340074657
 20
4.966491345568512
 30
0.0
 10
58.45910622826886
 20
4.08725391769473
 30
0.0
 10
59.28621317623446
 20
2.123558057197395
 30
0.0
 10
59.4999625920682
 20
1.037363450591255
 30
0.0
 10
59.49996259206822
 20
-1.037296140067072
 30
0.0
 10
59.28621317623446
 20
-2.123490746673206
 30
0.0
 10
58.45910622826886
 20
-4.08718660717054
 30
0.0
 10
57.84721340074659
 20
-4.966424035044324
 30
0.0
 10
56.460213486744
 20
-6.353423949046901
 30
0.0
 10
55.58248415917154
 20
-6.961119044949116
 30
0.0
 10
53.62782090410107
 20
-7.784361506752124
 30
0.0
 10
52.54661817843085
 20
-7.999966344737916
 30
0.0
 10
50.45330700570561
 20
-7.999966344737916
 30
0.0
 10
49.37210428003539
 20
-7.78436150675213
 30
0.0
 10
47.41744102496489
 20
-6.961119044949125
 30
0.0
 10
46.53971169739245
 20
-6.353423949046907
 30
0.0
 10
45.54461409797296
 20
-5.358326349627423
 30
0.0
 10
45.25963296755581
 20
-5.025570495114509
 30
0.0
 10
44.99996259206821
 20
-4.663655871282337
 30
0.0
  0
SPLINE
  5
94
330
1F
100
AcDbEntity
  8
Verdeckt_(ISO)
  6
HIDDEN2
 62
     7
100
AcDbSpline
210
0.0
220
0.0
230
1.0
 70
     8
 71
     3
 72
    10
 73
     6
 74
     0
 42
0.000000001
 43
0.0000000001
 40
0.0
 40
0.0
 40
0.0
 40
0.0
 40
0.6327341886610893
 40
0.6327341886610893
 40
1.0
 40
1.0
 40
1.0
 40
1.0
 10
44.99996259206821
 20
6.343722450515532
 30
0.0
 10
44.25297632832712
 20
5.578330125792723
 30
0.0
 10
43.58970415664962
 20
4.613820836364411
 30
0.0
 10
42.87015494107249
 20
2.911959962139488
 30
0.0
 10
42.67387978690221
 20
2.24904789756531
 30
0.0
 10
42.55541466153728
 20
1.577198785950424
 30
0.0
  0
SPLINE
  5
95
330
1F
100
AcDbEntity
  8
Verdeckt_(ISO)
  6
HIDDEN2
 62
     7
100
AcDbSpline
210
0.0
220
0.0
230
1.0
 70
     8
 71
     3
 72
    37
 73
    33
 74
     0
 42
0.000000001
 43
0.0000000001
 40
0.0
 40
0.0
 40
0.0
 40
0.0
 40
0.0417892700635277
 40
0.0417892700635277
 40
0.0898789080515279
 40
0.0898789080515279
 40
0.1379685460395277
 40
0.1379685460395277
 40
0.2341478220155274
 40
0.2341478220155274
 40
0.3286397336376256
 40
0.3286397336376256
 40
0.4231316452597233
 40
0.4231316452597233
 40
0.5176235568818219
 40
0.5176235568818219
 40
0.6121154685039193
 40
0.6121154685039193
 40
0.708294744479919
 40
0.708294744479919
 40
0.756384382467919
 40
0.756384382467919
 40
0.804474020455919
 40
0.804474020455919
 40
0.804474020455919
 40
0.8525636584439189
 40
0.8525636584439189
 40
0.9006532964319189
 40
0.9006532964319189
 40
0.996832572407919
 40
0.996832572407919
 40
1.0
 40
1.0
 40
1.0
 40
1.0
 10
49.92279746166712
 20
-8.944514275319474
 30
0.0
 10
50.44352897364977
 20
-9.036333290587102
 30
0.0
 10
50.97356997173193
 20
-9.082498344737918
 30
0.0
 10
52.10571690443225
 20
-9.082498344737914
 30
0.0
 10
52.71619504251441
 20
-9.021211250902365
 30
0.0
 10
53.90779678762946
 20
-8.778600400785328
 30
0.0
 10
54.48915484258342
 20
-8.59742649396587
 30
0.0
 10
56.14490225618726
 20
-7.896408533441105
 30
0.0
 10
57.13343207458609
 20
-7.21113679730768
 30
0.0
 10
58.69729349162116
 20
-5.647275380272609
 30
0.0
 10
59.39112421339395
 20
-4.656668542433907
 30
0.0
 10
60.33476435569304
 20
-2.429285525036563
 30
0.0
 10
60.58249459206821
 20
-1.190220323420169
 30
0.0
 10
60.58249459206821
 20
1.19028763394435
 30
0.0
 10
60.33476435569304
 20
2.429352835560741
 30
0.0
 10
59.39112421339395
 20
4.656735852958089
 30
0.0
 10
58.69729349162116
 20
5.647342690796792
 30
0.0
 10
57.13343207458609
 20
7.211204107831862
 30
0.0
 10
56.14490225618726
 20
7.896475843965285
 30
0.0
 10
54.48915484258345
 20
8.597493804490043
 30
0.0
 10
53.90779678762949
 20
8.778667711309502
 30
0.0
 10
52.71619504251441
 20
9.021278561426543
 30
0.0
 10
52.10571690443225
 20
9.082565655262092
 30
0.0
 10
51.49996259206822
 20
9.082565655262092
 30
0.0
 10
50.89420827970419
 20
9.082565655262092
 30
0.0
 10
50.28373014162204
 20
9.021278561426556
 30
0.0
 10
49.09212839650697
 20
8.778667711309513
 30
0.0
 10
48.51077034155303
 20
8.597493804490055
 30
0.0
 10
46.85502292794919
 20
7.896475843965285
 30
0.0
 10
45.86649310955034
 20
7.211204107831862
 30
0.0
 10
45.05166377651433
 20
6.396374774795852
 30
0.0
 10
45.02576813059592
 20
6.370163848548103
 30
0.0
 10
44.99996259206821
 20
6.343722450515532
 30
0.0
  0
CIRCLE
  5
96
330
1F
100
AcDbEntity
  8
Verdeckt_(ISO)
  6
HIDDEN2
 62
     7
100
AcDbCircle
 10
20.4999625921
 20
0.0000336553
 30
0.0
 40
1.750000000000014
  0
CIRCLE
  5
97
330
1F
100
AcDbEntity
  8
Verdeckt_(ISO)
  6
HIDDEN2
 62
     7
100
AcDbCircle
 10
20.4999625921
 20
0.0000336553
 30
0.0
 40
5.025000000000013
  0
CIRCLE
  5
98
330
1F
100
AcDbEntity
  8
Verdeckt_(ISO)
  6
HIDDEN2
 62
     7
100
AcDbCircle
 10
20.4999625921
 20
0.0000336553
 30
0.0
 40
5.500000000000018
  0
CIRCLE
  5
99
330
1F
100
AcDbEntity
  8
Sichtbar_(ISO)
  6
Continuous
 62
     7
100
AcDbCircle
 10
20.4999625921
 20
0.0000336553
 30
0.0
 40
5.249999999999996
  0
CIRCLE
  5
9A
330
1F
100
AcDbEntity
  8
Sichtbar_(ISO)
  6
Continuous
 62
     7
100
AcDbCircle
 10
20.4999625921
 20
0.0000336553
 30
0.0
 40
4.900000000000002
  0
ELLIPSE
  5
9B
330
1F
100
AcDbEntity
  8
Verdeckt_(ISO)
  6
HIDDEN2
 62
     7
100
AcDbEllipse
 10
23.1999625921
 20
39.6550622524
 30
0.0
 11
-2.5
 21
8.830000000000000E-14
 31
0.0
210
0.0
220
0.0
230
1.0
 40
0.3420201433
 41
0.880995872120435
 42
2.260596781470582
  0
SPLINE
  5
9C
330
1F
100
AcDbEntity
  8
Verdeckt_(ISO)
  6
HIDDEN2
 62
     7
100
AcDbSpline
210
0.0
220
0.0
230
1.0
 70
    11
 71
     3
 72
    38
 73
    34
 74
     0
 42
0.000000001
 43
0.0000000001
 40
0.0
 40
0.0
 40
0.0
 40
0.0
 40
0.0625035745410861
 40
0.0625035745410861
 40
0.1250071490821722
 40
0.1250071490821722
 40
0.1875035745410861
 40
0.1875035745410861
 40
0.2500000000000001
 40
0.2500000000000001
 40
0.3124964254589143
 40
0.3124964254589143
 40
0.3749928509178282
 40
0.3749928509178282
 40
0.4374964254589143
 40
0.4374964254589143
 40
0.5000000000000003
 40
0.5000000000000003
 40
0.5625035745410859
 40
0.5625035745410859
 40
0.6250071490821717
 40
0.6250071490821717
 40
0.6875035745410847
 40
0.6875035745410847
 40
0.7499999999999994
 40
0.7499999999999994
 40
0.8124964254589135
 40
0.8124964254589135
 40
0.8749928509178276
 40
0.8749928509178276
 40
0.9374964254589131
 40
0.9374964254589131
 40
0.9999999999999999
 40
0.9999999999999999
 40
0.9999999999999999
 40
0.9999999999999999
 10
23.19996259206824
 20
8.728005317280903
 30
0.0
 10
23.51519382336511
 20
8.728005317280903
 30
0.0
 10
23.85056901550654
 20
8.764800977845363
 30
0.0
 10
24.46613470230591
 20
8.906309556016874
 30
0.0
 10
24.74643543326163
 20
9.010149901101332
 30
0.0
 10
25.18899834545861
 20
9.232545104648224
 30
0.0
 10
25.38120871266808
 20
9.366047464460593
 30
0.0
 10
25.63672367217807
 20
9.629617864884564
 30
0.0
 10
25.69996259206824
 20
9.759003074401964
 30
0.0
 10
25.69996259206824
 20
9.974609272626292
 30
0.0
 10
25.63672367217807
 20
10.07464336894327
 30
0.0
 10
25.38120871266808
 20
10.23217026414195
 30
0.0
 10
25.18899834545861
 20
10.29041214421907
 30
0.0
 10
24.74643543326162
 20
10.37074780199266
 30
0.0
 10
24.4661347023059
 20
10.39837357448628
 30
0.0
 10
23.85056901550654
 20
10.43163767329038
 30
0.0
 10
23.51519382336511
 20
10.43810603390924
 30
0.0
 10
22.88473136077139
 20
10.43810603390924
 30
0.0
 10
22.54935616862995
 20
10.43163767329038
 30
0.0
 10
21.93379048183057
 20
10.39837357448628
 30
0.0
 10
21.65348975087487
 20
10.37074780199266
 30
0.0
 10
21.21092683867789
 20
10.29041214421907
 30
0.0
 10
21.01871647146839
 20
10.23217026414195
 30
0.0
 10
20.76320151195842
 20
10.07464336894327
 30
0.0
 10
20.69996259206824
 20
9.974609272626292
 30
0.0
 10
20.69996259206824
 20
9.759003074401964
 30
0.0
 10
20.76320151195842
 20
9.629617864884564
 30
0.0
 10
21.01871647146839
 20
9.366047464460593
 30
0.0
 10
21.21092683867788
 20
9.232545104648224
 30
0.0
 10
21.65348975087487
 20
9.010149901101332
 30
0.0
 10
21.93379048183057
 20
8.906309556016874
 30
0.0
 10
22.54935616862997
 20
8.764800977845363
 30
0.0
 10
22.88473136077139
 20
8.728005317280903
 30
0.0
 10
23.19996259206824
 20
8.728005317280903
 30
0.0
  0
ELLIPSE
  5
9D
330
1F
100
AcDbEntity
  8
Verdeckt_(ISO)
  6
HIDDEN2
 62
     7
100
AcDbEllipse
 10
23.1999625921
 20
28.5079816194
 30
0.0
 11
2.470919569097041
 21
1.470590467671639
 31
0.0
210
0.0
220
0.0
230
1.0
 40
0.2585395808
 41
2.100209181304303
 42
3.877626571236433
  0
SPLINE
  5
9E
330
1F
100
AcDbEntity
  8
Verdeckt_(ISO)
  6
HIDDEN2
 62
     7
100
AcDbSpline
210
0.0
220
0.0
230
1.0
 70
     8
 71
     3
 72
    10
 73
     6
 74
     0
 42
0.000000001
 43
0.0000000001
 40
0.0
 40
0.0
 40
0.0
 40
0.0
 40
0.6714658318371778
 40
0.6714658318371778
 40
1.0
 40
1.0
 40
1.0
 40
1.0
 10
22.67461681024176
 20
28.52707346809717
 30
0.0
 10
22.48437529751057
 20
28.13685732672479
 30
0.0
 10
22.24868172882323
 20
27.74999234868511
 30
0.0
 10
21.87357286457101
 20
27.2636708919277
 30
0.0
 10
21.74727708485426
 20
27.1176307845637
 30
0.0
 10
21.62392524658869
 20
26.98919129195322
 30
0.0
  0
ELLIPSE
  5
9F
330
1F
100
AcDbEntity
  8
Verdeckt_(ISO)
  6
HIDDEN2
 62
     7
100
AcDbEllipse
 10
23.1999625921
 20
28.5079816194
 30
0.0
 11
2.47091956909704
 21
-4.151695289180923
 31
0.0
210
0.0
220
0.0
230
1.0
 40
0.0915784557
 41
1.935187533276516
 42
4.653347328541822
  0
SPLINE
  5
A0
330
1F
100
AcDbEntity
  8
Verdeckt_(ISO)
  6
HIDDEN2
 62
     7
100
AcDbSpline
210
0.0
220
0.0
230
1.0
 70
     8
 71
     3
 72
    10
 73
     6
 74
     0
 42
0.000000001
 43
0.0000000001
 40
0.0
 40
0.0
 40
0.0
 40
0.0
 40
0.3285341681627473
 40
0.3285341681627473
 40
1.0
 40
1.0
 40
1.0
 40
1.0
 10
21.6239252465888
 20
28.31667123028264
 30
0.0
 10
21.74727708485432
 20
28.5136354830855
 30
0.0
 10
21.87357286457103
 20
28.71642427359061
 30
0.0
 10
22.24868172882323
 20
29.34361917719149
 30
0.0
 10
22.48437529751057
 20
29.78080391350642
 30
0.0
 10
22.67461681024175
 20
30.19899048739528
 30
0.0
  0
ELLIPSE
  5
A1
330
1F
100
AcDbEntity
  8
Verdeckt_(ISO)
  6
HIDDEN2
 62
     7
100
AcDbEllipse
 10
23.1999625921
 20
-28.5079143089
 30
0.0
 11
2.47091956909704
 21
4.151695289180922
 31
0.0
210
0.0
220
0.0
230
1.0
 40
0.0915784557
 41
1.629837978637754
 42
4.347997773903081
  0
SPLINE
  5
A2
330
1F
100
AcDbEntity
  8
Verdeckt_(ISO)
  6
HIDDEN2
 62
     7
100
AcDbSpline
210
0.0
220
0.0
230
1.0
 70
     8
 71
     3
 72
    12
 73
     8
 74
     0
 42
0.000000001
 43
0.0000000001
 40
0.0
 40
0.0
 40
0.0
 40
0.0
 40
0.3106310035768922
 40
0.3106310035768922
 40
0.7504793025988116
 40
0.7504793025988116
 40
1.0
 40
1.0
 40
1.0
 40
1.0
 10
21.62392524658874
 20
-28.3166039197583
 30
0.0
 10
21.74051468283822
 20
-28.50277018625652
 30
0.0
 10
21.86307600905914
 20
-28.69945859313121
 30
0.0
 10
22.15133554500055
 20
-29.17995185800595
 30
0.0
 10
22.31284794134544
 20
-29.46670348305197
 30
0.0
 10
22.52529102665707
 20
-29.88118361223071
 30
0.0
 10
22.60137121096814
 20
-30.03791559354756
 30
0.0
 10
22.67461681024173
 20
-30.19892317687105
 30
0.0
  0
ELLIPSE
  5
A3
330
1F
100
AcDbEntity
  8
Verdeckt_(ISO)
  6
HIDDEN2
 62
     7
100
AcDbEllipse
 10
23.1999625921
 20
-28.5079143089
 30
0.0
 11
2.47091956909704
 21
-1.470590467671633
 31
0.0
210
0.0
220
0.0
230
1.0
 40
0.2585395808
 41
2.405558735943113
 42
4.18297612587522
  0
SPLINE
  5
A4
330
1F
100
AcDbEntity
  8
Verdeckt_(ISO)
  6
HIDDEN2
 62
     7
100
AcDbSpline
210
0.0
220
0.0
230
1.0
 70
     8
 71
     3
 72
    12
 73
     8
 74
     0
 42
0.000000001
 43
0.0000000001
 40
0.0
 40
0.0
 40
0.0
 40
0.0
 40
0.2514756818461015
 40
0.2514756818461015
 40
0.7455791285732353
 40
0.7455791285732353
 40
1.0
 40
1.0
 40
1.0
 40
1.0
 10
22.67461681024172
 20
-28.52700615757291
 30
0.0
 10
22.60193519150901
 20
-28.37792439091011
 30
0.0
 10
22.52619115485579
 20
-28.23517128741974
 30
0.0
 10
22.29554326640592
 20
-27.83490432679132
 30
0.0
 10
22.11156376076832
 20
-27.56340061962701
 30
0.0
 10
21.82152575803224
 20
-27.20399666648327
 30
0.0
 10
21.72130124651314
 20
-27.09051626060861
 30
0.0
 10
21.62392524658874
 20
-26.98912398142907
 30
0.0
  0
SPLINE
  5
A5
330
1F
100
AcDbEntity
  8
Verdeckt_(ISO)
  6
HIDDEN2
 62
     7
100
AcDbSpline
210
0.0
220
0.0
230
1.0
 70
    11
 71
     3
 72
    38
 73
    34
 74
     0
 42
0.000000001
 43
0.0000000001
 40
0.0
 40
0.0
 40
0.0
 40
0.0
 40
0.062503574541086
 40
0.062503574541086
 40
0.1250071490821721
 40
0.1250071490821721
 40
0.1875035745410861
 40
0.1875035745410861
 40
0.2500000000000001
 40
0.2500000000000001
 40
0.3124964254589144
 40
0.3124964254589144
 40
0.3749928509178285
 40
0.3749928509178285
 40
0.4374964254589143
 40
0.4374964254589143
 40
0.5
 40
0.5
 40
0.5625035745410859
 40
0.5625035745410859
 40
0.625007149082172
 40
0.625007149082172
 40
0.6875035745410852
 40
0.6875035745410852
 40
0.7499999999999994
 40
0.7499999999999994
 40
0.8124964254589135
 40
0.8124964254589135
 40
0.8749928509178276
 40
0.8749928509178276
 40
0.9374964254589131
 40
0.9374964254589131
 40
0.9999999999999999
 40
0.9999999999999999
 40
0.9999999999999999
 40
0.9999999999999999
 10
23.19996259206824
 20
-10.43803872338506
 30
0.0
 10
22.88473136077139
 20
-10.43803872338506
 30
0.0
 10
22.54935616862995
 20
-10.4315703627662
 30
0.0
 10
21.93379048183057
 20
-10.39830626396209
 30
0.0
 10
21.65348975087487
 20
-10.37068049146848
 30
0.0
 10
21.21092683867788
 20
-10.29034483369489
 30
0.0
 10
21.01871647146839
 20
-10.23210295361777
 30
0.0
 10
20.7632015119584
 20
-10.07457605841909
 30
0.0
 10
20.69996259206824
 20
-9.974541962102112
 30
0.0
 10
20.69996259206824
 20
-9.758935763877778
 30
0.0
 10
20.7632015119584
 20
-9.62955055436038
 30
0.0
 10
21.01871647146839
 20
-9.365980153936414
 30
0.0
 10
21.21092683867789
 20
-9.232477794124037
 30
0.0
 10
21.65348975087487
 20
-9.010082590577158
 30
0.0
 10
21.93379048183057
 20
-8.906242245492688
 30
0.0
 10
22.54935616862995
 20
-8.764733667321183
 30
0.0
 10
22.88473136077139
 20
-8.72793800675672
 30
0.0
 10
23.5151938233651
 20
-8.727938006756718
 30
0.0
 10
23.85056901550653
 20
-8.764733667321185
 30
0.0
 10
24.4661347023059
 20
-8.906242245492692
 30
0.0
 10
24.74643543326162
 20
-9.010082590577158
 30
0.0
 10
25.18899834545861
 20
-9.232477794124037
 30
0.0
 10
25.38120871266808
 20
-9.365980153936414
 30
0.0
 10
25.63672367217807
 20
-9.629550554360382
 30
0.0
 10
25.69996259206824
 20
-9.758935763877778
 30
0.0
 10
25.69996259206824
 20
-9.974541962102112
 30
0.0
 10
25.63672367217807
 20
-10.07457605841909
 30
0.0
 10
25.38120871266808
 20
-10.23210295361778
 30
0.0
 10
25.18899834545861
 20
-10.29034483369489
 30
0.0
 10
24.74643543326163
 20
-10.37068049146848
 30
0.0
 10
24.4661347023059
 20
-10.39830626396209
 30
0.0
 10
23.85056901550654
 20
-10.4315703627662
 30
0.0
 10
23.51519382336511
 20
-10.43803872338506
 30
0.0
 10
23.19996259206824
 20
-10.43803872338506
 30
0.0
  0
ELLIPSE
  5
A6
330
1F
100
AcDbEntity
  8
Verdeckt_(ISO)
  6
HIDDEN2
 62
     7
100
AcDbEllipse
 10
23.1999625921
 20
-39.6549949419
 30
0.0
 11
2.5
 21
0.0
 31
0.0
210
0.0
220
0.0
230
1.0
 40
0.3420201433
 41
0.0
 42
6.283185307179586
  0
ELLIPSE
  5
A7
330
1F
100
AcDbEntity
  8
Verdeckt_(ISO)
  6
HIDDEN2
 62
     7
100
AcDbEllipse
 10
23.1999625921
 20
-39.6549949419
 30
0.0
 11
2.999999999999998
 21
0.0
 31
0.0
210
0.0
220
0.0
230
1.0
 40
0.3420201433
 41
0.0
 42
6.283185307179586
  0
SPLINE
  5
A8
330
1F
100
AcDbEntity
  8
Verdeckt_(ISO)
  6
HIDDEN2
 62
     7
100
AcDbSpline
210
0.0
220
0.0
230
1.0
 70
    11
 71
     3
 72
    38
 73
    34
 74
     0
 42
0.000000001
 43
0.0000000001
 40
0.0
 40
0.0
 40
0.0
 40
0.0
 40
0.0625000262841699
 40
0.0625000262841699
 40
0.1250000525683399
 40
0.1250000525683399
 40
0.1875000262841699
 40
0.1875000262841699
 40
0.2499999999999999
 40
0.2499999999999999
 40
0.3124999737158302
 40
0.3124999737158302
 40
0.3749999474316604
 40
0.3749999474316604
 40
0.4374999737158302
 40
0.4374999737158302
 40
0.4999999999999999
 40
0.4999999999999999
 40
0.5625000262841697
 40
0.5625000262841697
 40
0.6250000525683391
 40
0.6250000525683391
 40
0.6875000262841696
 40
0.6875000262841696
 40
0.7499999999999996
 40
0.7499999999999996
 40
0.8124999737158295
 40
0.8124999737158295
 40
0.87499994743166
 40
0.87499994743166
 40
0.9374999737158294
 40
0.9374999737158294
 40
0.9999999999999999
 40
0.9999999999999999
 40
0.9999999999999999
 40
0.9999999999999999
 10
23.19996259206824
 20
-40.86334204190871
 30
0.0
 10
23.57678389527467
 20
-40.86334204190871
 30
0.0
 10
23.97863639540876
 20
-40.84278358123803
 30
0.0
 10
24.71773724636462
 20
-40.75686114530932
 30
0.0
 10
25.05499625248729
 20
-40.69122766484293
 30
0.0
 10
25.58756939479659
 20
-40.53408751999596
 30
0.0
 10
25.81842912306518
 20
-40.43204875151197
 30
0.0
 10
26.12462918599789
 20
-40.19803220118586
 30
0.0
 10
26.19996259206823
 20
-40.06578309586937
 30
0.0
 10
26.19996259206823
 20
-39.80802236040867
 30
0.0
 10
26.12462918599789
 20
-39.66538808802289
 30
0.0
 10
25.81842912306517
 20
-39.39382965693642
 30
0.0
 10
25.58756939479657
 20
-39.26516960996922
 30
0.0
 10
25.05499625248728
 20
-39.05800826988815
 30
0.0
 10
24.7177372463646
 20
-38.96572451353944
 30
0.0
 10
23.97863639540875
 20
-38.84219386345241
 30
0.0
 10
23.57678389527467
 20
-38.81122118195469
 30
0.0
 10
22.82314128886181
 20
-38.81122118195469
 30
0.0
 10
22.42128878872772
 20
-38.84219386345241
 30
0.0
 10
21.68218793777185
 20
-38.96572451353944
 30
0.0
 10
21.34492893164919
 20
-39.05800826988815
 30
0.0
 10
20.81235578933989
 20
-39.26516960996922
 30
0.0
 10
20.5814960610713
 20
-39.39382965693642
 30
0.0
 10
20.27529599813858
 20
-39.66538808802289
 30
0.0
 10
20.19996259206823
 20
-39.80802236040867
 30
0.0
 10
20.19996259206823
 20
-40.06578309586936
 30
0.0
 10
20.27529599813858
 20
-40.19803220118586
 30
0.0
 10
20.5814960610713
 20
-40.43204875151197
 30
0.0
 10
20.81235578933989
 20
-40.53408751999595
 30
0.0
 10
21.34492893164919
 20
-40.69122766484289
 30
0.0
 10
21.68218793777185
 20
-40.75686114530932
 30
0.0
 10
22.42128878872772
 20
-40.84278358123803
 30
0.0
 10
22.82314128886181
 20
-40.86334204190871
 30
0.0
 10
23.19996259206824
 20
-40.86334204190871
 30
0.0
  0
ELLIPSE
  5
A9
330
1F
100
AcDbEntity
  8
Verdeckt_(ISO)
  6
HIDDEN2
 62
     7
100
AcDbEllipse
 10
23.1999625921
 20
39.6550622524
 30
0.0
 11
-2.999999999999998
 21
1.100000000000000E-15
 31
0.0
210
0.0
220
0.0
230
1.0
 40
0.3420201433
 41
6.146287251757568
 42
9.561676016191399
  0
LINE
  5
AA
330
1F
100
AcDbEntity
  8
Verdeckt_(ISO)
  6
HIDDEN2
 62
     7
100
AcDbLine
 10
25.6999625921
 20
39.6550622524
 30
0.0
 11
25.6999625921
 21
21.9942493567
 31
0.0
  0
LINE
  5
AB
330
1F
100
AcDbEntity
  8
Verdeckt_(ISO)
  6
HIDDEN2
 62
     7
100
AcDbLine
 10
25.6999625921
 20
19.3530594937
 30
0.0
 11
25.6999625921
 21
9.8668061735
 31
0.0
  0
LINE
  5
AC
330
1F
100
AcDbEntity
  8
Verdeckt_(ISO)
  6
HIDDEN2
 62
     7
100
AcDbLine
 10
20.6999625921
 20
39.6550622524
 30
0.0
 11
20.6999625921
 21
32.5769700262
 31
0.0
  0
LINE
  5
AD
330
1F
100
AcDbEntity
  8
Verdeckt_(ISO)
  6
HIDDEN2
 62
     7
100
AcDbLine
 10
20.6999625921
 20
27.1516521505
 30
0.0
 11
20.6999625921
 21
9.8668061735
 31
0.0
  0
LINE
  5
AE
330
1F
100
AcDbEntity
  8
Verdeckt_(ISO)
  6
HIDDEN2
 62
     7
100
AcDbLine
 10
25.6999625921
 20
-9.866738863
 30
0.0
 11
25.6999625921
 21
-19.3529921832
 31
0.0
  0
LINE
  5
AF
330
1F
100
AcDbEntity
  8
Verdeckt_(ISO)
  6
HIDDEN2
 62
     7
100
AcDbLine
 10
25.6999625921
 20
-21.9941820462
 30
0.0
 11
25.6999625921
 21
-39.6549949419
 31
0.0
  0
LINE
  5
B0
330
1F
100
AcDbEntity
  8
Verdeckt_(ISO)
  6
HIDDEN2
 62
     7
100
AcDbLine
 10
20.6999625921
 20
-9.866738863
 30
0.0
 11
20.6999625921
 21
-27.15158484
 31
0.0
  0
LINE
  5
B1
330
1F
100
AcDbEntity
  8
Verdeckt_(ISO)
  6
HIDDEN2
 62
     7
100
AcDbLine
 10
20.6999625921
 20
-32.5769027157
 30
0.0
 11
20.6999625921
 21
-39.6549949419
 31
0.0
  0
LINE
  5
B2
330
1F
100
AcDbEntity
  8
Verdeckt_(ISO)
  6
HIDDEN2
 62
     7
100
AcDbLine
 10
26.1999625921
 20
-39.6549949419
 30
0.0
 11
26.1999625921
 21
-39.9369027281
 31
0.0
  0
LINE
  5
B3
330
1F
100
AcDbEntity
  8
Verdeckt_(ISO)
  6
HIDDEN2
 62
     7
100
AcDbLine
 10
20.1999625921
 20
-39.6549949419
 30
0.0
 11
20.1999625921
 21
-39.9369027281
 31
0.0
  0
LINE
  5
B4
330
1F
100
AcDbEntity
  8
Verdeckt_(ISO)
  6
HIDDEN2
 62
     7
100
AcDbLine
 10
26.1999625921
 20
39.9369700387
 30
0.0
 11
26.1999625921
 21
39.6550622524
 31
0.0
  0
LINE
  5
B5
330
1F
100
AcDbEntity
  8
Verdeckt_(ISO)
  6
HIDDEN2
 62
     7
100
AcDbLine
 10
20.1999625921
 20
39.9369700387
 30
0.0
 11
20.1999625921
 21
39.6550622524
 31
0.0
  0
ELLIPSE
  5
B6
330
1F
100
AcDbEntity
  8
Sichtbar_(ISO)
  6
Continuous
 62
     7
100
AcDbEllipse
 10
23.1999625921
 20
39.6550622524
 30
0.0
 11
2.5
 21
-7.000000000000000E-16
 31
0.0
210
0.0
220
0.0
230
1.0
 40
0.3420201433
 41
5.402189435059752
 42
10.30577383288919
  0
SPLINE
  5
B7
330
1F
100
AcDbEntity
  8
Sichtbar_(ISO)
  6
Continuous
 62
     7
100
AcDbSpline
210
0.0
220
0.0
230
1.0
 70
    11
 71
     3
 72
    38
 73
    34
 74
     0
 42
0.000000001
 43
0.0000000001
 40
0.0
 40
0.0
 40
0.0
 40
0.0
 40
0.0625000262841699
 40
0.0625000262841699
 40
0.1250000525683397
 40
0.1250000525683397
 40
0.1875000262841699
 40
0.1875000262841699
 40
0.2500000000000003
 40
0.2500000000000003
 40
0.3124999737158303
 40
0.3124999737158303
 40
0.3749999474316603
 40
0.3749999474316603
 40
0.4374999737158302
 40
0.4374999737158302
 40
0.4999999999999999
 40
0.4999999999999999
 40
0.5625000262841697
 40
0.5625000262841697
 40
0.6250000525683387
 40
0.6250000525683387
 40
0.6875000262841696
 40
0.6875000262841696
 40
0.7499999999999996
 40
0.7499999999999996
 40
0.8124999737158295
 40
0.8124999737158295
 40
0.87499994743166
 40
0.87499994743166
 40
0.9374999737158294
 40
0.9374999737158294
 40
0.9999999999999999
 40
0.9999999999999999
 40
0.9999999999999999
 40
0.9999999999999999
 10
23.19996259206824
 20
38.81128849247887
 30
0.0
 10
22.82314128886182
 20
38.81128849247887
 30
0.0
 10
22.42128878872773
 20
38.84226117397658
 30
0.0
 10
21.68218793777187
 20
38.96579182406361
 30
0.0
 10
21.3449289316492
 20
39.0580755804123
 30
0.0
 10
20.81235578933991
 20
39.26523692049341
 30
0.0
 10
20.58149606107132
 20
39.39389696746058
 30
0.0
 10
20.27529599813858
 20
39.66545539854706
 30
0.0
 10
20.19996259206826
 20
39.80808967093285
 30
0.0
 10
20.19996259206826
 20
40.06585040639354
 30
0.0
 10
20.27529599813858
 20
40.19809951171004
 30
0.0
 10
20.58149606107132
 20
40.43211606203615
 30
0.0
 10
20.81235578933991
 20
40.53415483052011
 30
0.0
 10
21.3449289316492
 20
40.69129497536709
 30
0.0
 10
21.68218793777187
 20
40.75692845583351
 30
0.0
 10
22.42128878872773
 20
40.84285089176222
 30
0.0
 10
22.82314128886182
 20
40.86340935243288
 30
0.0
 10
23.57678389527468
 20
40.86340935243288
 30
0.0
 10
23.97863639540876
 20
40.84285089176222
 30
0.0
 10
24.71773724636462
 20
40.75692845583351
 30
0.0
 10
25.0549962524873
 20
40.69129497536709
 30
0.0
 10
25.5875693947966
 20
40.53415483052011
 30
0.0
 10
25.81842912306519
 20
40.43211606203615
 30
0.0
 10
26.12462918599791
 20
40.19809951171004
 30
0.0
 10
26.19996259206824
 20
40.06585040639354
 30
0.0
 10
26.19996259206824
 20
39.80808967093285
 30
0.0
 10
26.12462918599791
 20
39.66545539854706
 30
0.0
 10
25.81842912306519
 20
39.39389696746061
 30
0.0
 10
25.5875693947966
 20
39.26523692049341
 30
0.0
 10
25.0549962524873
 20
39.0580755804123
 30
0.0
 10
24.71773724636462
 20
38.96579182406361
 30
0.0
 10
23.97863639540876
 20
38.84226117397658
 30
0.0
 10
23.57678389527469
 20
38.81128849247887
 30
0.0
 10
23.19996259206824
 20
38.81128849247887
 30
0.0
  0
ELLIPSE
  5
B8
330
1F
100
AcDbEntity
  8
Sichtbar_(ISO)
  6
Continuous
 62
     7
100
AcDbEllipse
 10
23.1999625921
 20
39.6550622524
 30
0.0
 11
-2.999999999999998
 21
7.000000000000000E-16
 31
0.0
210
0.0
220
0.0
230
1.0
 40
0.3420201433
 41
3.278490709011812
 42
6.146287251757568
  0
ELLIPSE
  5
B9
330
1F
100
AcDbEntity
  8
Verdeckt_(ISO)
  6
HIDDEN2
 62
     7
100
AcDbEllipse
 10
22.4119439193
 20
-28.9354394881
 30
0.0
 11
1.192177406778681
 21
-2.197433282438041
 31
0.0
210
0.0
220
0.0
230
1.0
 40
0.1710100717
 41
4.335650903194594
 42
5.229454964185668
  0
ELLIPSE
  5
BA
330
1F
100
AcDbEntity
  8
Verdeckt_(ISO)
  6
HIDDEN2
 62
     7
100
AcDbEllipse
 10
4.5499625921
 20
-38.626132147
 30
0.0
 11
-1.192177406778687
 21
2.197433282438051
 31
0.0
210
0.0
220
0.0
230
1.0
 40
0.1710100717
 41
0.0
 42
6.283185307179586
  0
ELLIPSE
  5
BB
330
1F
100
AcDbEntity
  8
Verdeckt_(ISO)
  6
HIDDEN2
 62
     7
100
AcDbEllipse
 10
22.4119439193
 20
-28.9354394881
 30
0.0
 11
-1.192177406778681
 21
2.197433282438041
 31
0.0
210
0.0
220
0.0
230
1.0
 40
0.1710100717
 41
4.806022105861218
 42
5.699826166852278
  0
ELLIPSE
  5
BC
330
1F
100
AcDbEntity
  8
Verdeckt_(ISO)
  6
HIDDEN2
 62
     7
100
AcDbEllipse
 10
4.5499625921
 20
-38.626132147
 30
0.0
 11
-1.43061288813442
 21
2.636919938925654
 31
0.0
210
0.0
220
0.0
230
1.0
 40
0.1710100717
 41
0.0
 42
6.283185307179586
  0
LINE
  5
BD
330
1F
100
AcDbEntity
  8
Verdeckt_(ISO)
  6
HIDDEN2
 62
     7
100
AcDbLine
 10
3.3577851853
 20
-36.4286988646
 30
0.0
 11
20.8156077785
 21
-26.9572751661
 31
0.0
  0
LINE
  5
BE
330
1F
100
AcDbEntity
  8
Verdeckt_(ISO)
  6
HIDDEN2
 62
     7
100
AcDbLine
 10
5.7421399988
 20
-40.8235654295
 30
0.0
 11
20.8156077785
 21
-32.6457300101
 31
0.0
  0
LINE
  5
BF
330
1F
100
AcDbEntity
  8
Verdeckt_(ISO)
  6
HIDDEN2
 62
     7
100
AcDbLine
 10
2.9999625921
 20
-36.0539835113
 30
0.0
 11
3.1193497039
 21
-35.9892122081
 31
0.0
  0
LINE
  5
C0
330
1F
100
AcDbEntity
  8
Verdeckt_(ISO)
  6
HIDDEN2
 62
     7
100
AcDbLine
 10
2.9999625921
 20
-42.8801293242
 30
0.0
 11
5.9805754802
 21
-41.2630520859
 31
0.0
  0
ELLIPSE
  5
C1
330
1F
100
AcDbEntity
  8
Verdeckt_(ISO)
  6
HIDDEN2
 62
     7
100
AcDbEllipse
 10
22.4119439193
 20
28.9355067986
 30
0.0
 11
-1.192177406778687
 21
-2.197433282438054
 31
0.0
210
0.0
220
0.0
230
1.0
 40
0.1710100717
 41
0.5833591403272695
 42
1.477163201318397
  0
ELLIPSE
  5
C2
330
1F
100
AcDbEntity
  8
Verdeckt_(ISO)
  6
HIDDEN2
 62
     7
100
AcDbEllipse
 10
4.5499625921
 20
38.6261994575
 30
0.0
 11
1.192177406778681
 21
2.197433282438043
 31
0.0
210
0.0
220
0.0
230
1.0
 40
0.1710100717
 41
0.0
 42
6.283185307179586
  0
ELLIPSE
  5
C3
330
1F
100
AcDbEntity
  8
Verdeckt_(ISO)
  6
HIDDEN2
 62
     7
100
AcDbEllipse
 10
22.4119439193
 20
28.9355067986
 30
0.0
 11
1.192177406778687
 21
2.197433282438054
 31
0.0
210
0.0
220
0.0
230
1.0
 40
0.1710100717
 41
1.053730342993898
 42
1.947534403984912
  0
ELLIPSE
  5
C4
330
1F
100
AcDbEntity
  8
Verdeckt_(ISO)
  6
HIDDEN2
 62
     7
100
AcDbEllipse
 10
4.5499625921
 20
38.6261994575
 30
0.0
 11
1.43061288813442
 21
2.636919938925656
 31
0.0
210
0.0
220
0.0
230
1.0
 40
0.1710100717
 41
0.0
 42
6.283185307179586
  0
LINE
  5
C5
330
1F
100
AcDbEntity
  8
Verdeckt_(ISO)
  6
HIDDEN2
 62
     7
100
AcDbLine
 10
5.7421399988
 20
40.82363274
 30
0.0
 11
20.8156077785
 21
32.6457973207
 31
0.0
  0
LINE
  5
C6
330
1F
100
AcDbEntity
  8
Verdeckt_(ISO)
  6
HIDDEN2
 62
     7
100
AcDbLine
 10
3.3577851853
 20
36.4287661751
 30
0.0
 11
20.8156077785
 21
26.9573424766
 31
0.0
  0
LINE
  5
C7
330
1F
100
AcDbEntity
  8
Verdeckt_(ISO)
  6
HIDDEN2
 62
     7
100
AcDbLine
 10
2.9999625921
 20
42.8801966347
 30
0.0
 11
5.9805754802
 21
41.2631193965
 31
0.0
  0
LINE
  5
C8
330
1F
100
AcDbEntity
  8
Verdeckt_(ISO)
  6
HIDDEN2
 62
     7
100
AcDbLine
 10
2.9999625921
 20
36.0540508218
 30
0.0
 11
3.1193497039
 21
35.9892795186
 31
0.0
  0
SPLINE
  5
C9
330
1F
100
AcDbEntity
  8
Sichtbar_(ISO)
  6
Continuous
 62
     7
100
AcDbSpline
210
0.0
220
0.0
230
1.0
 70
     8
 71
     3
 72
    10
 73
     6
 74
     0
 42
0.000000001
 43
0.0000000001
 40
0.0
 40
0.0
 40
0.0
 40
0.0
 40
0.9903969275165008
 40
0.9903969275165008
 40
1.0
 40
1.0
 40
1.0
 40
1.0
 10
3.069942439353764
 20
13.48252512974493
 30
0.0
 10
3.02303722568766
 20
13.60122385670872
 30
0.0
 10
3.000399357024675
 20
13.72483917832631
 30
0.0
 10
2.999964678976295
 20
13.84767457097982
 30
0.0
 10
2.999962592068254
 20
13.84885413330999
 30
0.0
 10
2.999962592068254
 20
13.85003365526208
 30
0.0
  0
SPLINE
  5
CA
330
1F
100
AcDbEntity
  8
Sichtbar_(ISO)
  6
Continuous
 62
     7
100
AcDbSpline
210
0.0
220
0.0
230
1.0
 70
     8
 71
     3
 72
    10
 73
     6
 74
     0
 42
0.000000001
 43
0.0000000001
 40
0.0
 40
0.0
 40
0.0
 40
0.0
 40
0.0096030724782834
 40
0.0096030724782834
 40
1.0
 40
1.0
 40
1.0
 40
1.0
 10
2.999962592068254
 20
-13.84996634473788
 30
0.0
 10
2.999962592068254
 20
-13.84878682278691
 30
0.0
 10
2.999964678976298
 20
-13.8476072604542
 30
0.0
 10
3.000399357024516
 20
-13.72477186785579
 30
0.0
 10
3.023037225684357
 20
-13.6011565461929
 30
0.0
 10
3.069942439353764
 20
-13.48245781922075
 30
0.0
  0
SPLINE
  5
CB
330
1F
100
AcDbEntity
  8
Sichtbar_(ISO)
  6
Continuous
 62
     7
100
AcDbSpline
210
0.0
220
0.0
230
1.0
 70
     8
 71
     3
 72
    12
 73
     8
 74
     0
 42
0.000000001
 43
0.0000000001
 40
0.0
 40
0.0
 40
0.0
 40
0.0
 40
0.2360797235676329
 40
0.2360797235676329
 40
0.4834125611142194
 40
0.4834125611142194
 40
0.9999999999999999
 40
0.9999999999999999
 40
0.9999999999999999
 40
0.9999999999999999
 10
3.300172128404143
 20
13.85003365526209
 30
0.0
 10
3.273366131259157
 20
13.83342056299285
 30
0.0
 10
3.248068670505459
 20
13.80856614517347
 30
0.0
 10
3.203788073763322
 20
13.75582288247024
 30
0.0
 10
3.182862686723345
 20
13.72518627851476
 30
0.0
 10
3.125717509426609
 20
13.62895078039
 30
0.0
 10
3.094219625730389
 20
13.55619526314302
 30
0.0
 10
3.069942439000214
 20
13.48252513170473
 30
0.0
  0
LINE
  5
CC
330
1F
100
AcDbEntity
  8
Sichtbar_(ISO)
  6
Continuous
 62
     7
100
AcDbLine
 10
3.4430563668
 20
13.8500336553
 30
0.0
 11
3.3001721284
 21
13.8500336553
 31
0.0
  0
SPLINE
  5
CD
330
1F
100
AcDbEntity
  8
Sichtbar_(ISO)
  6
Continuous
 62
     7
100
AcDbSpline
210
0.0
220
0.0
230
1.0
 70
     8
 71
     3
 72
    14
 73
    10
 74
     0
 42
0.000000001
 43
0.0000000001
 40
0.0
 40
0.0
 40
0.0
 40
0.0
 40
0.1510591371500505
 40
0.1510591371500505
 40
0.3347120792986624
 40
0.3347120792986624
 40
0.718448023751539
 40
0.718448023751539
 40
1.0
 40
1.0
 40
1.0
 40
1.0
 10
3.999962592068258
 20
13.62096168034889
 30
0.0
 10
3.964345877593455
 20
13.61608559378228
 30
0.0
 10
3.928960733579607
 20
13.61635393732851
 30
0.0
 10
3.852533003392312
 20
13.62558857578978
 30
0.0
 10
3.81250383019122
 20
13.63633788177122
 30
0.0
 10
3.696564971209584
 20
13.67965662402606
 30
0.0
 10
3.627630973721863
 20
13.72386334527511
 30
0.0
 10
3.519752806524106
 20
13.80002061916387
 30
0.0
 10
3.479500750405327
 20
13.83072001582618
 30
0.0
 10
3.443056366789686
 20
13.85003365526209
 30
0.0
  0
SPLINE
  5
CE
330
1F
100
AcDbEntity
  8
Sichtbar_(ISO)
  6
Continuous
 62
     7
100
AcDbSpline
210
0.0
220
0.0
230
1.0
 70
     8
 71
     3
 72
     8
 73
     4
 74
     0
 42
0.000000001
 43
0.0000000001
 40
0.0
 40
0.0
 40
0.0
 40
0.0
 40
1.0
 40
1.0
 40
1.0
 40
1.0
 10
4.199962592068255
 20
13.63455499680547
 30
0.0
 10
4.136452445241996
 20
13.63455499680547
 30
0.0
 10
4.067797151790983
 20
13.63024853317329
 30
0.0
 10
3.999962592068254
 20
13.6209616803489
 30
0.0
  0
SPLINE
  5
CF
330
1F
100
AcDbEntity
  8
Sichtbar_(ISO)
  6
Continuous
 62
     7
100
AcDbSpline
210
0.0
220
0.0
230
1.0
 70
     8
 71
     3
 72
    11
 73
     7
 74
     0
 42
0.000000001
 43
0.0000000001
 40
0.0
 40
0.0
 40
0.0
 40
0.0
 40
0.6693722398094302
 40
0.6693722398094302
 40
0.6693722398094302
 40
1.0
 40
1.0
 40
1.0
 40
1.0
 10
3.999962592068258
 20
12.85003365526209
 30
0.0
 10
3.740901296919547
 20
12.85003365526209
 30
0.0
 10
3.4582606082687
 20
12.97126247241801
 30
0.0
 10
3.280314801633615
 20
13.15569435944012
 30
0.0
 10
3.192420771998009
 20
13.24679210459191
 30
0.0
 10
3.118320022608513
 20
13.36010041344266
 30
0.0
 10
3.069942439717808
 20
13.48252512988879
 30
0.0
  0
LINE
  5
D0
330
1F
100
AcDbEntity
  8
Sichtbar_(ISO)
  6
Continuous
 62
     7
100
AcDbLine
 10
4.1999625921
 20
13.6345549968
 30
0.0
 11
15.6678781791
 21
13.6345549968
 31
0.0
  0
LINE
  5
D1
330
1F
100
AcDbEntity
  8
Sichtbar_(ISO)
  6
Continuous
 62
     7
100
AcDbLine
 10
15.6678781791
 20
12.8500336553
 30
0.0
 11
3.9999625921
 21
12.8500336553
 31
0.0
  0
LINE
  5
D2
330
1F
100
AcDbEntity
  8
Sichtbar_(ISO)
  6
Continuous
 62
     7
100
AcDbLine
 10
2.9999625921
 20
48.8000336553
 30
0.0
 11
2.9999625921
 21
13.8500336553
 31
0.0
  0
LINE
  5
D3
330
1F
100
AcDbEntity
  8
Sichtbar_(ISO)
  6
Continuous
 62
     7
100
AcDbLine
 10
2.9999625921
 20
-13.8499663447
 30
0.0
 11
2.9999625921
 21
-48.7999663447
 31
0.0
  0
LINE
  5
D4
330
1F
100
AcDbEntity
  8
Sichtbar_(ISO)
  6
Continuous
 62
     7
100
AcDbLine
 10
37.9999625921
 20
-48.7999663447
 30
0.0
 11
37.9999625921
 21
48.8000336553
 31
0.0
  0
ARC
  5
D5
330
1F
100
AcDbEntity
  8
Sichtbar_(ISO)
  6
Continuous
 62
     7
100
AcDbCircle
 10
4.1999625921
 20
48.8000336553
 30
0.0
 40
1.199999999999999
100
AcDbArc
 50
90.0
 51
180.0
  0
ARC
  5
D6
330
1F
100
AcDbEntity
  8
Sichtbar_(ISO)
  6
Continuous
 62
     7
100
AcDbCircle
 10
4.1999625921
 20
-48.7999663447
 30
0.0
 40
1.199999999999999
100
AcDbArc
 50
180.0
 51
270.0
  0
ARC
  5
D7
330
1F
100
AcDbEntity
  8
Sichtbar_(ISO)
  6
Continuous
 62
     7
100
AcDbCircle
 10
36.7999625921
 20
48.8000336553
 30
0.0
 40
1.199999999999999
100
AcDbArc
 50
0.0
 51
90.0
  0
ARC
  5
D8
330
1F
100
AcDbEntity
  8
Sichtbar_(ISO)
  6
Continuous
 62
     7
100
AcDbCircle
 10
36.7999625921
 20
-48.7999663447
 30
0.0
 40
1.199999999999999
100
AcDbArc
 50
270.0
 51
0.0
  0
SPLINE
  5
D9
330
1F
100
AcDbEntity
  8
Sichtbar_(ISO)
  6
Continuous
 62
     7
100
AcDbSpline
210
0.0
220
0.0
230
1.0
 70
     8
 71
     3
 72
     8
 73
     4
 74
     0
 42
0.000000001
 43
0.0000000001
 40
0.0
 40
0.0
 40
0.0
 40
0.0
 40
1.0
 40
1.0
 40
1.0
 40
1.0
 10
3.999962592068254
 20
-13.62089436982472
 30
0.0
 10
4.067797151790983
 20
-13.63018122264911
 30
0.0
 10
4.136452445241996
 20
-13.63448768628129
 30
0.0
 10
4.199962592068255
 20
-13.63448768628129
 30
0.0
  0
SPLINE
  5
DA
330
1F
100
AcDbEntity
  8
Sichtbar_(ISO)
  6
Continuous
 62
     7
100
AcDbSpline
210
0.0
220
0.0
230
1.0
 70
     8
 71
     3
 72
    14
 73
    10
 74
     0
 42
0.000000001
 43
0.0000000001
 40
0.0
 40
0.0
 40
0.0
 40
0.0
 40
0.1880742105918983
 40
0.1880742105918983
 40
0.4346134094325051
 40
0.4346134094325051
 40
0.8171446392721984
 40
0.8171446392721984
 40
1.0
 40
1.0
 40
1.0
 40
1.0
 10
3.443056366789686
 20
-13.84996634473791
 30
0.0
 10
3.467989381187937
 20
-13.83675313594237
 30
0.0
 10
3.493919384851368
 20
-13.81866254195402
 30
0.0
 10
3.55067449841242
 20
-13.77830502936434
 30
0.0
 10
3.586205791183073
 20
-13.75231436713472
 30
0.0
 10
3.681292269380959
 20
-13.69117941352205
 30
0.0
 10
3.76233498478528
 20
-13.6455941612147
 30
0.0
 10
3.903663708172841
 20
-13.61714400672891
 30
0.0
 10
3.951488336666273
 20
-13.61425802873943
 30
0.0
 10
3.999962592068258
 20
-13.62089436982471
 30
0.0
  0
LINE
  5
DB
330
1F
100
AcDbEntity
  8
Sichtbar_(ISO)
  6
Continuous
 62
     7
100
AcDbLine
 10
3.3001721284
 20
-13.8499663447
 30
0.0
 11
3.4430563668
 21
-13.8499663447
 31
0.0
  0
SPLINE
  5
DC
330
1F
100
AcDbEntity
  8
Sichtbar_(ISO)
  6
Continuous
 62
     7
100
AcDbSpline
210
0.0
220
0.0
230
1.0
 70
     8
 71
     3
 72
    10
 73
     6
 74
     0
 42
0.000000001
 43
0.0000000001
 40
0.0
 40
0.0
 40
0.0
 40
0.0
 40
0.7202228974312557
 40
0.7202228974312557
 40
1.0
 40
1.0
 40
1.0
 40
1.0
 10
3.069942439000214
 20
-13.48245782118055
 30
0.0
 10
3.113844473035234
 20
-13.61568036684513
 30
0.0
 10
3.172344905451914
 20
-13.71869155293018
 30
0.0
 10
3.24878908215812
 20
-13.80920131835528
 30
0.0
 10
3.273740493366095
 20
-13.8335852644394
 30
0.0
 10
3.300172128404143
 20
-13.84996634473791
 30
0.0
  0
LINE
  5
DD
330
1F
100
AcDbEntity
  8
Sichtbar_(ISO)
  6
Continuous
 62
     7
100
AcDbLine
 10
15.6678781791
 20
-13.6344876863
 30
0.0
 11
4.1999625921
 21
-13.6344876863
 31
0.0
  0
LINE
  5
DE
330
1F
100
AcDbEntity
  8
Sichtbar_(ISO)
  6
Continuous
 62
     7
100
AcDbLine
 10
3.9999625921
 20
-12.8499663447
 30
0.0
 11
15.6678781791
 21
-12.8499663447
 31
0.0
  0
SPLINE
  5
DF
330
1F
100
AcDbEntity
  8
Sichtbar_(ISO)
  6
Continuous
 62
     7
100
AcDbSpline
210
0.0
220
0.0
230
1.0
 70
     8
 71
     3
 72
    11
 73
     7
 74
     0
 42
0.000000001
 43
0.0000000001
 40
0.0
 40
0.0
 40
0.0
 40
0.0
 40
0.3306277601905699
 40
0.3306277601905699
 40
0.3306277601905699
 40
1.0
 40
1.0
 40
1.0
 40
1.0
 10
3.069942439717808
 20
-13.48245781936461
 30
0.0
 10
3.118320022608513
 20
-13.36003310291848
 30
0.0
 10
3.192420771998009
 20
-13.24672479406773
 30
0.0
 10
3.280314801633615
 20
-13.15562704891594
 30
0.0
 10
3.4582606082687
 20
-12.97119516189383
 30
0.0
 10
3.740901296919547
 20
-12.84996634473791
 30
0.0
 10
3.999962592068258
 20
-12.84996634473791
 30
0.0
  0
LINE
  5
E0
330
1F
100
AcDbEntity
  8
Sichtbar_(ISO)
  6
Continuous
 62
     7
100
AcDbLine
 10
15.6678781791
 20
-13.6344876863
 30
0.0
 11
15.6678781791
 21
-12.8499663447
 31
0.0
  0
ELLIPSE
  5
E1
330
1F
100
AcDbEntity
  8
Sichtbar_(ISO)
  6
Continuous
 62
     7
100
AcDbEllipse
 10
102.9258467588
 20
115.2700599837
 30
0.0
 11
-90.95184521242409
 21
-131.6725947205389
 31
0.0
210
0.0
220
0.0
230
1.0
 40
0.1693028055
 41
0.389676423553782
 42
0.4501180327120373
  0
SPLINE
  5
E2
330
1F
100
AcDbEntity
  8
Sichtbar_(ISO)
  6
Continuous
 62
     7
100
AcDbSpline
210
0.0
220
0.0
230
1.0
 70
    12
 71
     2
 72
     6
 73
     3
 74
     0
 42
0.000000001
 43
0.0000000001
 40
0.0
 40
0.0
 40
0.0
 40
1.0
 40
1.0
 40
1.0
 10
19.49069576950644
 20
-13.61333860064213
 30
0.0
 41
1.000174584177873
 10
17.69370904652834
 20
-13.64070578986299
 30
0.0
 41
1.00158339951392
 10
15.6678781791222
 20
-13.63448768628128
 30
0.0
 41
1.0
  0
SPLINE
  5
E3
330
1F
100
AcDbEntity
  8
Sichtbar_(ISO)
  6
Continuous
 62
     7
100
AcDbSpline
210
0.0
220
0.0
230
1.0
 70
     8
 71
     3
 72
    10
 73
     6
 74
     0
 42
0.000000001
 43
0.0000000001
 40
0.0
 40
0.0
 40
0.0
 40
0.0
 40
0.5442842172644913
 40
0.5442842172644913
 40
1.0
 40
1.0
 40
1.0
 40
1.0
 10
31.2779542454599
 20
-7.908587313940646
 30
0.0
 10
31.16718234244044
 20
-8.289764671322335
 30
0.0
 10
31.06336466230353
 20
-8.669530156277897
 30
0.0
 10
30.88388912245797
 20
-9.36130090651674
 30
0.0
 10
30.80611859132168
 20
-9.675356510120363
 30
0.0
 10
30.73204700501431
 20
-9.986796397780829
 30
0.0
  0
ARC
  5
E4
330
1F
100
AcDbEntity
  8
Sichtbar_(ISO)
  6
Continuous
 62
     7
100
AcDbCircle
 10
21.1499625921
 20
0.0000336553
 30
0.0
 40
12.85000000000002
100
AcDbArc
 50
302.4478513759
 51
322.0148742697
  0
LINE
  5
E5
330
1F
100
AcDbEntity
  8
Sichtbar_(ISO)
  6
Continuous
 62
     7
100
AcDbLine
 10
19.053563792
 20
-12.856203806
 30
0.0
 11
19.0466841971
 21
-12.8499663447
 31
0.0
  0
LINE
  5
E6
330
1F
100
AcDbEntity
  8
Sichtbar_(ISO)
  6
Continuous
 62
     7
100
AcDbLine
 10
15.6678781791
 20
-12.8499663447
 30
0.0
 11
19.0466841971
 21
-12.8499663447
 31
0.0
  0
LINE
  5
E7
330
1F
100
AcDbEntity
  8
Sichtbar_(ISO)
  6
Continuous
 62
     7
100
AcDbLine
 10
19.0466841971
 20
-12.8499663447
 30
0.0
 11
19.0499625921
 21
-12.8499663447
 31
0.0
  0
LINE
  5
E8
330
1F
100
AcDbEntity
  8
Sichtbar_(ISO)
  6
Continuous
 62
     7
100
AcDbLine
 10
2.9999625921
 20
-13.8499663447
 30
0.0
 11
2.9999625921
 21
-12.1324218768
 31
0.0
  0
LINE
  5
E9
330
1F
100
AcDbEntity
  8
Sichtbar_(ISO)
  6
Continuous
 62
     7
100
AcDbLine
 10
2.9999625921
 20
12.1324891873
 30
0.0
 11
2.9999625921
 21
13.8500336553
 31
0.0
  0
SPLINE
  5
EA
330
1F
100
AcDbEntity
  8
Sichtbar_(ISO)
  6
Continuous
 62
     7
100
AcDbSpline
210
0.0
220
0.0
230
1.0
 70
     8
 71
     3
 72
     8
 73
     4
 74
     0
 42
0.000000001
 43
0.0000000001
 40
0.0
 40
0.0
 40
0.0
 40
0.0
 40
1.0
 40
1.0
 40
1.0
 40
1.0
 10
26.49996259206825
 20
11.68335510081001
 30
0.0
 10
26.51247020492597
 20
11.67762764316018
 30
0.0
 10
26.52482698763983
 20
11.6719446217362
 30
0.0
 10
26.53688467185721
 20
11.66637714867433
 30
0.0
  0
LINE
  5
EB
330
1F
100
AcDbEntity
  8
Sichtbar_(ISO)
  6
Continuous
 62
     7
100
AcDbLine
 10
19.8919580293
 20
12.8500336553
 30
0.0
 11
19.8999625921
 21
12.8500336553
 31
0.0
  0
SPLINE
  5
EC
330
1F
100
AcDbEntity
  8
Sichtbar_(ISO)
  6
Continuous
 62
     7
100
AcDbSpline
210
0.0
220
0.0
230
1.0
 70
     8
 71
     3
 72
     8
 73
     4
 74
     0
 42
0.000000001
 43
0.0000000001
 40
0.0
 40
0.0
 40
0.0
 40
0.0
 40
1.0
 40
1.0
 40
1.0
 40
1.0
 10
26.53688467186014
 20
-11.6663098381488
 30
0.0
 10
26.52482819911273
 20
-11.6718769020094
 30
0.0
 10
26.51247416771535
 20
-11.67755851800451
 30
0.0
 10
26.49996259206825
 20
-11.68328779028585
 30
0.0
  0
LINE
  5
ED
330
1F
100
AcDbEntity
  8
Sichtbar_(ISO)
  6
Continuous
 62
     7
100
AcDbLine
 10
19.8999625921
 20
-12.8499663447
 30
0.0
 11
19.8919580293
 21
-12.8499663447
 31
0.0
  0
SPLINE
  5
EE
330
1F
100
AcDbEntity
  8
Sichtbar_(ISO)
  6
Continuous
 62
     7
100
AcDbSpline
210
0.0
220
0.0
230
1.0
 70
     8
 71
     3
 72
    10
 73
     6
 74
     0
 42
0.000000001
 43
0.0000000001
 40
0.0
 40
0.0
 40
0.0
 40
0.0
 40
0.1083304694511567
 40
0.1083304694511567
 40
1.0
 40
1.0
 40
1.0
 40
1.0
 10
26.49996259206825
 20
-11.68328779028584
 30
0.0
 10
26.36166015635986
 20
-11.74661892728215
 30
0.0
 10
26.22214360724921
 20
-11.80753426988347
 30
0.0
 10
24.92435755576085
 20
-12.3469027841337
 30
0.0
 10
23.69049743387371
 20
-12.65550288252912
 30
0.0
 10
22.47454377471546
 20
-12.78151494772718
 30
0.0
  0
SPLINE
  5
EF
330
1F
100
AcDbEntity
  8
Sichtbar_(ISO)
  6
Continuous
 62
     7
100
AcDbSpline
210
0.0
220
0.0
230
1.0
 70
     8
 71
     3
 72
     8
 73
     4
 74
     0
 42
0.000000001
 43
0.0000000001
 40
0.0
 40
0.0
 40
0.0
 40
0.0
 40
1.0
 40
1.0
 40
1.0
 40
1.0
 10
22.47454377471546
 20
-12.78151494772718
 30
0.0
 10
22.06862331356437
 20
-12.82358141566413
 30
0.0
 10
21.66475850021471
 20
-12.84582059430715
 30
0.0
 10
21.26667163199584
 20
-12.84943633380746
 30
0.0
  0
SPLINE
  5
F0
330
1F
100
AcDbEntity
  8
Sichtbar_(ISO)
  6
Continuous
 62
     7
100
AcDbSpline
210
0.0
220
0.0
230
1.0
 70
     8
 71
     3
 72
     8
 73
     4
 74
     0
 42
0.000000001
 43
0.0000000001
 40
0.0
 40
0.0
 40
0.0
 40
0.0
 40
1.0
 40
1.0
 40
1.0
 40
1.0
 10
21.26667163199584
 20
-12.84943633380746
 30
0.0
 10
21.22771210630872
 20
-12.84979019500507
 30
0.0
 10
21.18880792838975
 20
-12.84996634473791
 30
0.0
 10
21.14996259206826
 20
-12.84996634473791
 30
0.0
  0
LINE
  5
F1
330
1F
100
AcDbEntity
  8
Sichtbar_(ISO)
  6
Continuous
 62
     7
100
AcDbLine
 10
21.1499625921
 20
-12.8499663447
 30
0.0
 11
19.8999625921
 21
-12.8499663447
 31
0.0
  0
LINE
  5
F2
330
1F
100
AcDbEntity
  8
Sichtbar_(ISO)
  6
Continuous
 62
     7
100
AcDbLine
 10
19.8999625921
 20
12.8500336553
 30
0.0
 11
21.1499625921
 21
12.8500336553
 31
0.0
  0
SPLINE
  5
F3
330
1F
100
AcDbEntity
  8
Sichtbar_(ISO)
  6
Continuous
 62
     7
100
AcDbSpline
210
0.0
220
0.0
230
1.0
 70
     8
 71
     3
 72
    10
 73
     6
 74
     0
 42
0.000000001
 43
0.0000000001
 40
0.0
 40
0.0
 40
0.0
 40
0.0
 40
0.9183518641134325
 40
0.9183518641134325
 40
1.0
 40
1.0
 40
1.0
 40
1.0
 10
21.14996259206826
 20
12.85003365526209
 30
0.0
 10
22.77472062979802
 20
12.85003365526209
 30
0.0
 10
24.50024548087663
 20
12.52323389364349
 30
0.0
 10
26.22214360724921
 20
11.80760158040764
 30
0.0
 10
26.36166015635987
 20
11.74668623780632
 30
0.0
 10
26.49996259206825
 20
11.68335510081002
 30
0.0
  0
LINE
  5
F4
330
1F
100
AcDbEntity
  8
Sichtbar_(ISO)
  6
Continuous
 62
     7
100
AcDbLine
 10
2.9999625921
 20
-12.1324218768
 30
0.0
 11
2.9999625921
 21
-11.4999663447
 31
0.0
  0
ARC
  5
F5
330
1F
100
AcDbEntity
  8
Sichtbar_(ISO)
  6
Continuous
 62
     7
100
AcDbCircle
 10
2.5999625921
 20
-11.4999663447
 30
0.0
 40
0.7483314773547907
100
AcDbArc
 50
302.3115332374
 51
0.0
  0
LINE
  5
F6
330
1F
100
AcDbEntity
  8
Sichtbar_(ISO)
  6
Continuous
 62
     7
100
AcDbLine
 10
2.9999625921
 20
-11.4999663447
 30
0.0
 11
2.9999625921
 21
-2.6552006491
 31
0.0
  0
LINE
  5
F7
330
1F
100
AcDbEntity
  8
Sichtbar_(ISO)
  6
Continuous
 62
     7
100
AcDbLine
 10
2.9999625921
 20
2.6552679596
 30
0.0
 11
2.9999625921
 21
11.5000336553
 31
0.0
  0
SPLINE
  5
F8
330
1F
100
AcDbEntity
  8
Sichtbar_(ISO)
  6
Continuous
 62
     7
100
AcDbSpline
210
0.0
220
0.0
230
1.0
 70
     8
 71
     3
 72
    16
 73
    12
 74
     0
 42
0.000000001
 43
0.0000000001
 40
0.0
 40
0.0
 40
0.0
 40
0.0
 40
0.3042818183926498
 40
0.3042818183926498
 40
0.4874787472224026
 40
0.4874787472224026
 40
0.6645340447591436
 40
0.6645340447591436
 40
0.9451358162456521
 40
0.9451358162456521
 40
1.0
 40
1.0
 40
1.0
 40
1.0
 10
2.999962592068251
 20
-2.655200649111158
 30
0.0
 10
2.999962592068243
 20
-2.142715709558022
 30
0.0
 10
2.995799794772425
 20
-1.651832344700592
 30
0.0
 10
2.990658635352148
 20
-0.724504134488615
 30
0.0
 10
2.989457382636091
 20
-0.4115715090172279
 30
0.0
 10
2.989157220666164
 20
0.2581277104149216
 30
0.0
 10
2.9900257201488
 20
0.5654648442814257
 30
0.0
 10
2.994284810622678
 20
1.426687733469659
 30
0.0
 10
2.998254184902179
 20
1.898987078829258
 30
0.0
 10
2.999809454579202
 20
2.465828601288421
 30
0.0
 10
2.99996259206825
 20
2.55998234909636
 30
0.0
 10
2.999962592068251
 20
2.655267959635338
 30
0.0
  0
LINE
  5
F9
330
1F
100
AcDbEntity
  8
Sichtbar_(ISO)
  6
Continuous
 62
     7
100
AcDbLine
 10
3.3482940694
 20
11.5000336553
 30
0.0
 11
3.3482940694
 21
-11.4999663447
 31
0.0
  0
LINE
  5
FA
330
1F
100
AcDbEntity
  8
Sichtbar_(ISO)
  6
Continuous
 62
     7
100
AcDbLine
 10
2.9999625921
 20
11.5000336553
 30
0.0
 11
2.9999625921
 21
12.1324891873
 31
0.0
  0
ARC
  5
FB
330
1F
100
AcDbEntity
  8
Sichtbar_(ISO)
  6
Continuous
 62
     7
100
AcDbCircle
 10
2.5999625921
 20
11.5000336553
 30
0.0
 40
0.7483314773547909
100
AcDbArc
 50
0.0
 51
57.6884667626
  0
SPLINE
  5
FC
330
1F
100
AcDbEntity
  8
Sichtbar_(ISO)
  6
Continuous
 62
     7
100
AcDbSpline
210
0.0
220
0.0
230
1.0
 70
     8
 71
     3
 72
    12
 73
     8
 74
     0
 42
0.000000001
 43
0.0000000001
 40
0.0
 40
0.0
 40
0.0
 40
0.0
 40
0.0155617874241636
 40
0.0155617874241636
 40
0.1697865438608197
 40
0.1697865438608197
 40
1.0
 40
1.0
 40
1.0
 40
1.0
 10
26.53688467186014
 20
11.66637714867298
 30
0.0
 10
26.54011401758227
 20
11.66858713529587
 30
0.0
 10
26.5431599184435
 20
11.67097809599963
 30
0.0
 10
26.57287899619508
 20
11.69650686544182
 30
0.0
 10
26.59289127377843
 20
11.73423244996545
 30
0.0
 10
26.68368345279459
 20
11.94245894331432
 30
0.0
 10
26.69996259206826
 20
12.1717684382601
 30
0.0
 10
26.69996259206826
 20
12.36334061578035
 30
0.0
  0
SPLINE
  5
FD
330
1F
100
AcDbEntity
  8
Sichtbar_(ISO)
  6
Continuous
 62
     7
100
AcDbSpline
210
0.0
220
0.0
230
1.0
 70
    12
 71
     2
 72
     6
 73
     3
 74
     0
 42
0.000000001
 43
0.0000000001
 40
0.0
 40
0.0
 40
0.0
 40
1.0
 40
1.0
 40
1.0
 10
26.72394311842804
 20
13.43542743135569
 30
0.0
 41
1.000115109475715
 10
26.71189263450654
 20
13.36825319097304
 30
0.0
 41
1.000061982343531
 10
26.69996259206824
 20
13.30114413081131
 30
0.0
 41
1.000006420138203
  0
LINE
  5
FE
330
1F
100
AcDbEntity
  8
Sichtbar_(ISO)
  6
Continuous
 62
     7
100
AcDbLine
 10
27.2611698259
 20
12.3810606514
 30
0.0
 11
26.7239431184
 21
13.4354274314
 31
0.0
  0
SPLINE
  5
FF
330
1F
100
AcDbEntity
  8
Sichtbar_(ISO)
  6
Continuous
 62
     7
100
AcDbSpline
210
0.0
220
0.0
230
1.0
 70
     8
 71
     3
 72
    12
 73
     8
 74
     0
 42
0.000000001
 43
0.0000000001
 40
0.0
 40
0.0
 40
0.0
 40
0.0
 40
0.830213456139179
 40
0.830213456139179
 40
0.9844382125758347
 40
0.9844382125758347
 40
1.0
 40
1.0
 40
1.0
 40
1.0
 10
26.69996259206826
 20
-12.36327330525617
 30
0.0
 10
26.69996259206826
 20
-12.17170112773592
 30
0.0
 10
26.68368345279459
 20
-11.94239163279014
 30
0.0
 10
26.59289127377843
 20
-11.73416513944127
 30
0.0
 10
26.57287899619508
 20
-11.69643955491765
 30
0.0
 10
26.5431599184435
 20
-11.67091078547546
 30
0.0
 10
26.54011401758227
 20
-11.66851982477169
 30
0.0
 10
26.53688467186014
 20
-11.6663098381488
 30
0.0
  0
LINE
  5
100
330
1F
100
AcDbEntity
  8
Sichtbar_(ISO)
  6
Continuous
 62
     7
100
AcDbLine
 10
26.6999625921
 20
-13.3010768203
 30
0.0
 11
26.6999625921
 21
-12.3632733053
 31
0.0
  0
LINE
  5
101
330
1F
100
AcDbEntity
  8
Sichtbar_(ISO)
  6
Continuous
 62
     7
100
AcDbLine
 10
26.7239431184
 20
-13.4353601208
 30
0.0
 11
27.2611698259
 21
-12.3809933408
 31
0.0
  0
SPLINE
  5
102
330
1F
100
AcDbEntity
  8
Sichtbar_(ISO)
  6
Continuous
 62
     7
100
AcDbSpline
210
0.0
220
0.0
230
1.0
 70
    12
 71
     2
 72
     6
 73
     3
 74
     0
 42
0.000000001
 43
0.0000000001
 40
0.0
 40
0.0
 40
0.0
 40
1.0
 40
1.0
 40
1.0
 10
26.72394311842804
 20
-13.43536012083151
 30
0.0
 41
1.000115109475715
 10
26.71189263450654
 20
-13.36818588044886
 30
0.0
 41
1.000061982343531
 10
26.69996259206824
 20
-13.30107682028713
 30
0.0
 41
1.000006420138203
  0
LINE
  5
103
330
1F
100
AcDbEntity
  8
Sichtbar_(ISO)
  6
Continuous
 62
     7
100
AcDbLine
 10
26.6999625921
 20
12.3633406158
 30
0.0
 11
26.6999625921
 21
13.3011441308
 31
0.0
  0
LINE
  5
104
330
1F
100
AcDbEntity
  8
Sichtbar_(ISO)
  6
Continuous
 62
     7
100
AcDbLine
 10
27.2611698259
 20
12.3810606514
 30
0.0
 11
28.0443957128
 21
10.8438932977
 31
0.0
  0
ARC
  5
105
330
1F
100
AcDbEntity
  8
Sichtbar_(ISO)
  6
Continuous
 62
     7
100
AcDbCircle
 10
21.1499625921
 20
0.0000336553
 30
0.0
 40
12.85
100
AcDbArc
 50
57.5521486241
 51
65.2149171022
  0
LINE
  5
106
330
1F
100
AcDbEntity
  8
Sichtbar_(ISO)
  6
Continuous
 62
     7
100
AcDbLine
 10
28.0443957128
 20
-10.8438259871
 30
0.0
 11
27.2611698259
 21
-12.3809933408
 31
0.0
  0
ARC
  5
107
330
1F
100
AcDbEntity
  8
Sichtbar_(ISO)
  6
Continuous
 62
     7
100
AcDbCircle
 10
21.1499625921
 20
0.0000336553
 30
0.0
 40
12.85
100
AcDbArc
 50
294.7850828978
 51
302.4478513759
  0
LINE
  5
108
330
1F
100
AcDbEntity
  8
Sichtbar_(ISO)
  6
Continuous
 62
     7
100
AcDbLine
 10
26.6999625921
 20
42.9809384955
 30
0.0
 11
26.6999625921
 21
13.3011441308
 31
0.0
  0
LINE
  5
109
330
1F
100
AcDbEntity
  8
Sichtbar_(ISO)
  6
Continuous
 62
     7
100
AcDbLine
 10
30.732047005
 20
50.0000336553
 30
0.0
 11
30.732047005
 21
9.9868637083
 31
0.0
  0
LINE
  5
10A
330
1F
100
AcDbEntity
  8
Sichtbar_(ISO)
  6
Continuous
 62
     7
100
AcDbLine
 10
19.6999625921
 20
42.9809384955
 30
0.0
 11
19.6999625921
 21
13.9758666802
 31
0.0
  0
LINE
  5
10B
330
1F
100
AcDbEntity
  8
Sichtbar_(ISO)
  6
Continuous
 62
     7
100
AcDbLine
 10
15.6678781791
 20
50.0000336553
 30
0.0
 11
15.6678781791
 21
13.6345549968
 31
0.0
  0
LINE
  5
10C
330
1F
100
AcDbEntity
  8
Sichtbar_(ISO)
  6
Continuous
 62
     7
100
AcDbLine
 10
26.6999625921
 20
-13.3010768203
 30
0.0
 11
26.6999625921
 21
-42.9808711849
 31
0.0
  0
LINE
  5
10D
330
1F
100
AcDbEntity
  8
Sichtbar_(ISO)
  6
Continuous
 62
     7
100
AcDbLine
 10
30.732047005
 20
-9.9867963978
 30
0.0
 11
30.732047005
 21
-49.9999663447
 31
0.0
  0
LINE
  5
10E
330
1F
100
AcDbEntity
  8
Sichtbar_(ISO)
  6
Continuous
 62
     7
100
AcDbLine
 10
19.6999625921
 20
-13.9757993697
 30
0.0
 11
19.6999625921
 21
-42.9808711849
 31
0.0
  0
LINE
  5
10F
330
1F
100
AcDbEntity
  8
Sichtbar_(ISO)
  6
Continuous
 62
     7
100
AcDbLine
 10
15.6678781791
 20
-13.6344876863
 30
0.0
 11
15.6678781791
 21
-49.9999663447
 31
0.0
  0
LINE
  5
110
330
1F
100
AcDbEntity
  8
Sichtbar_(ISO)
  6
Continuous
 62
     7
100
AcDbLine
 10
-101.8000374079
 20
18.5225223405
 30
0.0
 11
-101.8000374079
 21
-18.52245503
 31
0.0
  0
LINE
  5
111
330
1F
100
AcDbEntity
  8
Sichtbar_(ISO)
  6
Continuous
 62
     7
100
AcDbLine
 10
99.9999625921
 20
21.4216065305
 30
0.0
 11
99.9999625921
 21
-21.42153922
 31
0.0
  0
LINE
  5
112
330
1F
100
AcDbEntity
  8
Sichtbar_(ISO)
  6
Continuous
 62
     7
100
AcDbLine
 10
0.1999625921
 20
34.9542005973
 30
0.0
 11
0.1999625921
 21
-34.9541332868
 31
0.0
  0
ARC
  5
113
330
1F
100
AcDbEntity
  8
Sichtbar_(ISO)
  6
Continuous
 62
     7
100
AcDbCircle
 10
40.9999625921
 20
35.2500336553
 30
0.0
 40
3.0
100
AcDbArc
 50
180.0
 51
270.0
  0
ARC
  5
114
330
1F
100
AcDbEntity
  8
Sichtbar_(ISO)
  6
Continuous
 62
     7
100
AcDbCircle
 10
40.9999625921
 20
-35.2499663447
 30
0.0
 40
3.0
100
AcDbArc
 50
90.0
 51
180.0
  0
LINE
  5
115
330
1F
100
AcDbEntity
  8
Sichtbar_(ISO)
  6
Continuous
 62
     7
100
AcDbLine
 10
89.1715354673
 20
-32.2499663447
 30
0.0
 11
40.9999625921
 21
-32.2499663447
 31
0.0
  0
LINE
  5
116
330
1F
100
AcDbEntity
  8
Sichtbar_(ISO)
  6
Continuous
 62
     7
100
AcDbLine
 10
89.1715354673
 20
32.2500336553
 30
0.0
 11
40.9999625921
 21
32.2500336553
 31
0.0
  0
ARC
  5
117
330
1F
100
AcDbEntity
  8
Sichtbar_(ISO)
  6
Continuous
 62
     7
100
AcDbCircle
 10
2.4999625921
 20
35.3542005973
 30
0.0
 40
0.5
100
AcDbArc
 50
270.0
 51
0.0
  0
ARC
  5
118
330
1F
100
AcDbEntity
  8
Sichtbar_(ISO)
  6
Continuous
 62
     7
100
AcDbCircle
 10
2.4999625921
 20
-35.3541332868
 30
0.0
 40
0.5
100
AcDbArc
 50
0.0
 51
90.0
  0
ARC
  5
119
330
1F
100
AcDbEntity
  8
Sichtbar_(ISO)
  6
Continuous
 62
     7
100
AcDbCircle
 10
26.4999625921
 20
42.7000336553
 30
0.0
 40
0.2
100
AcDbArc
 50
270.0
 51
0.0
  0
LINE
  5
11A
330
1F
100
AcDbEntity
  8
Sichtbar_(ISO)
  6
Continuous
 62
     7
100
AcDbLine
 10
26.6999625921
 20
42.9809384955
 30
0.0
 11
30.732047005
 21
50.0000336553
 31
0.0
  0
ARC
  5
11B
330
1F
100
AcDbEntity
  8
Sichtbar_(ISO)
  6
Continuous
 62
     7
100
AcDbCircle
 10
19.8999625921
 20
42.7000336553
 30
0.0
 40
0.2
100
AcDbArc
 50
180.0
 51
270.0
  0
LINE
  5
11C
330
1F
100
AcDbEntity
  8
Sichtbar_(ISO)
  6
Continuous
 62
     7
100
AcDbLine
 10
19.6999625921
 20
42.9809384955
 30
0.0
 11
15.6678781791
 21
50.0000336553
 31
0.0
  0
ARC
  5
11D
330
1F
100
AcDbEntity
  8
Sichtbar_(ISO)
  6
Continuous
 62
     7
100
AcDbCircle
 10
26.4999625921
 20
-42.6999663447
 30
0.0
 40
0.2
100
AcDbArc
 50
0.0
 51
90.0
  0
LINE
  5
11E
330
1F
100
AcDbEntity
  8
Sichtbar_(ISO)
  6
Continuous
 62
     7
100
AcDbLine
 10
26.6999625921
 20
-42.9808711849
 30
0.0
 11
30.732047005
 21
-49.9999663447
 31
0.0
  0
ARC
  5
11F
330
1F
100
AcDbEntity
  8
Sichtbar_(ISO)
  6
Continuous
 62
     7
100
AcDbCircle
 10
19.8999625921
 20
-42.6999663447
 30
0.0
 40
0.2
100
AcDbArc
 50
90.0
 51
180.0
  0
LINE
  5
120
330
1F
100
AcDbEntity
  8
Sichtbar_(ISO)
  6
Continuous
 62
     7
100
AcDbLine
 10
19.6999625921
 20
-42.9808711849
 30
0.0
 11
15.6678781791
 21
-49.9999663447
 31
0.0
  0
LINE
  5
121
330
1F
100
AcDbEntity
  8
Sichtbar_(ISO)
  6
Continuous
 62
     7
100
AcDbLine
 10
15.6678781791
 20
50.0000336553
 30
0.0
 11
4.1999625921
 21
50.0000336553
 31
0.0
  0
LINE
  5
122
330
1F
100
AcDbEntity
  8
Sichtbar_(ISO)
  6
Continuous
 62
     7
100
AcDbLine
 10
26.4999625921
 20
-42.4999663447
 30
0.0
 11
19.8999625921
 21
-42.4999663447
 31
0.0
  0
LINE
  5
123
330
1F
100
AcDbEntity
  8
Sichtbar_(ISO)
  6
Continuous
 62
     7
100
AcDbLine
 10
26.4999625921
 20
42.5000336553
 30
0.0
 11
19.8999625921
 21
42.5000336553
 31
0.0
  0
LINE
  5
124
330
1F
100
AcDbEntity
  8
Sichtbar_(ISO)
  6
Continuous
 62
     7
100
AcDbLine
 10
15.6678781791
 20
-49.9999663447
 30
0.0
 11
4.1999625921
 21
-49.9999663447
 31
0.0
  0
LINE
  5
125
330
1F
100
AcDbEntity
  8
Sichtbar_(ISO)
  6
Continuous
 62
     7
100
AcDbLine
 10
36.7999625921
 20
-49.9999663447
 30
0.0
 11
30.732047005
 21
-49.9999663447
 31
0.0
  0
LINE
  5
126
330
1F
100
AcDbEntity
  8
Sichtbar_(ISO)
  6
Continuous
 62
     7
100
AcDbLine
 10
36.7999625921
 20
50.0000336553
 30
0.0
 11
30.732047005
 21
50.0000336553
 31
0.0
  0
ARC
  5
127
330
1F
100
AcDbEntity
  8
Sichtbar_(ISO)
  6
Continuous
 62
     7
100
AcDbCircle
 10
-100.0000374079
 20
18.5225223405
 30
0.0
 40
1.799999999999999
100
AcDbArc
 50
98.2972222222
 51
180.0
  0
ARC
  5
128
330
1F
100
AcDbEntity
  8
Sichtbar_(ISO)
  6
Continuous
 62
     7
100
AcDbCircle
 10
-100.0000374079
 20
-18.52245503
 30
0.0
 40
1.799999999999999
100
AcDbArc
 50
180.0
 51
261.7027777778
  0
ARC
  5
129
330
1F
100
AcDbEntity
  8
Sichtbar_(ISO)
  6
Continuous
 62
     7
100
AcDbCircle
 10
97.9999625921
 20
21.4216065305
 30
0.0
 40
2.0
100
AcDbArc
 50
0.0
 51
45.0
  0
ARC
  5
12A
330
1F
100
AcDbEntity
  8
Sichtbar_(ISO)
  6
Continuous
 62
     7
100
AcDbCircle
 10
97.9999625921
 20
-21.42153922
 30
0.0
 40
2.0
100
AcDbArc
 50
315.0
 51
0.0
  0
LINE
  5
12B
330
1F
100
AcDbEntity
  8
Sichtbar_(ISO)
  6
Continuous
 62
     7
100
AcDbLine
 10
99.4141761544
 20
-22.8357527824
 30
0.0
 11
90.5857490297
 21
-31.6641799071
 31
0.0
  0
LINE
  5
12C
330
1F
100
AcDbEntity
  8
Sichtbar_(ISO)
  6
Continuous
 62
     7
100
AcDbLine
 10
99.4141761544
 20
22.8358200929
 30
0.0
 11
90.5857490297
 21
31.6642472176
 31
0.0
  0
ARC
  5
12D
330
1F
100
AcDbEntity
  8
Sichtbar_(ISO)
  6
Continuous
 62
     7
100
AcDbCircle
 10
89.1715354673
 20
30.2500336553
 30
0.0
 40
1.999999999999969
100
AcDbArc
 50
45.0
 51
90.0
  0
ARC
  5
12E
330
1F
100
AcDbEntity
  8
Sichtbar_(ISO)
  6
Continuous
 62
     7
100
AcDbCircle
 10
89.1715354673
 20
-30.2499663447
 30
0.0
 40
1.999999999999969
100
AcDbArc
 50
270.0
 51
315.0
  0
LINE
  5
12F
330
1F
100
AcDbEntity
  8
Sichtbar_(ISO)
  6
Continuous
 62
     7
100
AcDbLine
 10
2.4999625921
 20
-34.8541332868
 30
0.0
 11
0.6389939216
 21
-34.8541332868
 31
0.0
  0
LINE
  5
130
330
1F
100
AcDbEntity
  8
Sichtbar_(ISO)
  6
Continuous
 62
     7
100
AcDbLine
 10
2.4999625921
 20
34.8542005973
 30
0.0
 11
0.6389939216
 21
34.8542005973
 31
0.0
  0
ARC
  5
131
330
1F
100
AcDbEntity
  8
Sichtbar_(ISO)
  6
Continuous
 62
     7
100
AcDbCircle
 10
0.6389939216
 20
35.3542005973
 30
0.0
 40
0.5
100
AcDbArc
 50
255.0
 51
270.0
  0
ARC
  5
132
330
1F
100
AcDbEntity
  8
Sichtbar_(ISO)
  6
Continuous
 62
     7
100
AcDbCircle
 10
0.6389939216
 20
-35.3541332868
 30
0.0
 40
0.5
100
AcDbArc
 50
90.0
 51
105.0
  0
LINE
  5
133
330
1F
100
AcDbEntity
  8
Sichtbar_(ISO)
  6
Continuous
 62
     7
100
AcDbLine
 10
0.5095843991
 20
-34.8711703737
 30
0.0
 11
0.1999625921
 21
-34.9541332868
 31
0.0
  0
LINE
  5
134
330
1F
100
AcDbEntity
  8
Sichtbar_(ISO)
  6
Continuous
 62
     7
100
AcDbLine
 10
0.5095843991
 20
34.8712376842
 30
0.0
 11
0.1999625921
 21
34.9542005973
 31
0.0
  0
LINE
  5
135
330
1F
100
AcDbEntity
  8
Sichtbar_(ISO)
  6
Continuous
 62
     7
100
AcDbLine
 10
-100.259792217
 20
20.3036813562
 30
0.0
 11
0.1999625921
 21
34.9542005973
 31
0.0
  0
LINE
  5
136
330
1F
100
AcDbEntity
  8
Sichtbar_(ISO)
  6
Continuous
 62
     7
100
AcDbLine
 10
-100.259792217
 20
-20.3036140457
 30
0.0
 11
0.1999625921
 21
-34.9541332868
 31
0.0
  0
LINE
  5
137
330
1F
100
AcDbEntity
  8
Verdeckt_(ISO)
  6
HIDDEN2
 62
     7
100
AcDbLine
 10
-90.2000374079
 20
12.6750336553
 30
0.0
 11
-90.2000374079
 21
-12.6749663447
 31
0.0
  0
LINE
  5
138
330
1F
100
AcDbEntity
  8
Verdeckt_(ISO)
  6
HIDDEN2
 62
     7
100
AcDbLine
 10
-88.2000374079
 20
12.6750336553
 30
0.0
 11
-88.2000374079
 21
-12.6749663447
 31
0.0
  0
LINE
  5
139
330
1F
100
AcDbEntity
  8
Verdeckt_(ISO)
  6
HIDDEN2
 62
     7
100
AcDbLine
 10
39.9999625921
 20
13.0000336553
 30
0.0
 11
39.9999625921
 21
-12.9999663447
 31
0.0
  0
LINE
  5
13A
330
1F
100
AcDbEntity
  8
Verdeckt_(ISO)
  6
HIDDEN2
 62
     7
100
AcDbLine
 10
44.9999625921
 20
13.0000336553
 30
0.0
 11
44.9999625921
 21
-12.9999663447
 31
0.0
  0
LINE
  5
13B
330
1F
100
AcDbEntity
  8
Verdeckt_(ISO)
  6
HIDDEN2
 62
     7
100
AcDbLine
 10
98.9999625921
 20
-12.4999663447
 30
0.0
 11
44.9999625921
 21
-12.4999663447
 31
0.0
  0
LINE
  5
13C
330
1F
100
AcDbEntity
  8
Verdeckt_(ISO)
  6
HIDDEN2
 62
     7
100
AcDbLine
 10
98.9999625921
 20
12.5000336553
 30
0.0
 11
44.9999625921
 21
12.5000336553
 31
0.0
  0
ARC
  5
13D
330
1F
100
AcDbEntity
  8
Verdeckt_(ISO)
  6
HIDDEN2
 62
     7
100
AcDbCircle
 10
-100.3000374079
 20
14.0000336553
 30
0.0
 40
1.5
100
AcDbArc
 50
180.0
 51
270.0
  0
ARC
  5
13E
330
1F
100
AcDbEntity
  8
Verdeckt_(ISO)
  6
HIDDEN2
 62
     7
100
AcDbCircle
 10
-100.3000374079
 20
-13.9999663447
 30
0.0
 40
1.5
100
AcDbArc
 50
90.0
 51
180.0
  0
LINE
  5
13F
330
1F
100
AcDbEntity
  8
Verdeckt_(ISO)
  6
HIDDEN2
 62
     7
100
AcDbLine
 10
-90.2000374079
 20
-12.4999663447
 30
0.0
 11
-100.3000374079
 21
-12.4999663447
 31
0.0
  0
LINE
  5
140
330
1F
100
AcDbEntity
  8
Verdeckt_(ISO)
  6
HIDDEN2
 62
     7
100
AcDbLine
 10
-90.2000374079
 20
12.5000336553
 30
0.0
 11
-100.3000374079
 21
12.5000336553
 31
0.0
  0
LINE
  5
141
330
1F
100
AcDbEntity
  8
Verdeckt_(ISO)
  6
HIDDEN2
 62
     7
100
AcDbLine
 10
-88.2000374079
 20
-12.6749663447
 30
0.0
 11
-90.2000374079
 21
-12.6749663447
 31
0.0
  0
LINE
  5
142
330
1F
100
AcDbEntity
  8
Verdeckt_(ISO)
  6
HIDDEN2
 62
     7
100
AcDbLine
 10
-88.2000374079
 20
12.6750336553
 30
0.0
 11
-90.2000374079
 21
12.6750336553
 31
0.0
  0
LINE
  5
143
330
1F
100
AcDbEntity
  8
Verdeckt_(ISO)
  6
HIDDEN2
 62
     7
100
AcDbLine
 10
39.9999625921
 20
-10.4999663447
 30
0.0
 11
-88.2000374079
 21
-10.4999663447
 31
0.0
  0
LINE
  5
144
330
1F
100
AcDbEntity
  8
Verdeckt_(ISO)
  6
HIDDEN2
 62
     7
100
AcDbLine
 10
39.9999625921
 20
10.5000336553
 30
0.0
 11
-88.2000374079
 21
10.5000336553
 31
0.0
  0
LINE
  5
145
330
1F
100
AcDbEntity
  8
Verdeckt_(ISO)
  6
HIDDEN2
 62
     7
100
AcDbLine
 10
44.9999625921
 20
-12.9999663447
 30
0.0
 11
39.9999625921
 21
-12.9999663447
 31
0.0
  0
LINE
  5
146
330
1F
100
AcDbEntity
  8
Verdeckt_(ISO)
  6
HIDDEN2
 62
     7
100
AcDbLine
 10
44.9999625921
 20
13.0000336553
 30
0.0
 11
39.9999625921
 21
13.0000336553
 31
0.0
  0
ARC
  5
147
330
1F
100
AcDbEntity
  8
Verdeckt_(ISO)
  6
HIDDEN2
 62
     7
100
AcDbCircle
 10
98.9999625921
 20
13.5000336553
 30
0.0
 40
0.9999999999999943
100
AcDbArc
 50
270.0
 51
0.0
  0
ARC
  5
148
330
1F
100
AcDbEntity
  8
Verdeckt_(ISO)
  6
HIDDEN2
 62
     7
100
AcDbCircle
 10
98.9999625921
 20
-13.4999663447
 30
0.0
 40
0.9999999999999943
100
AcDbArc
 50
0.0
 51
90.0
  0
SPLINE
  5
149
330
1F
100
AcDbEntity
  8
Sichtbar_(ISO)
  6
Continuous
 62
     7
100
AcDbSpline
210
0.0
220
0.0
230
1.0
 70
    12
 71
     2
 72
     6
 73
     3
 74
     0
 42
0.000000001
 43
0.0000000001
 40
0.0
 40
0.0
 40
0.0
 40
1.0
 40
1.0
 40
1.0
 10
27.26116982594241
 20
12.38106065135007
 30
0.0
 41
0.9998528767154494
 10
28.92904793027714
 20
11.29952255535643
 30
0.0
 41
0.9994698554797579
 10
30.73204700501431
 20
9.986863708305014
 30
0.0
 41
0.9999999999979287
  0
SPLINE
  5
14A
330
1F
100
AcDbEntity
  8
Sichtbar_(ISO)
  6
Continuous
 62
     7
100
AcDbSpline
210
0.0
220
0.0
230
1.0
 70
     8
 71
     3
 72
    14
 73
    10
 74
     0
 42
0.000000001
 43
0.0000000001
 40
0.0
 40
0.0
 40
0.0
 40
0.0
 40
0.7834140557610821
 40
0.7834140557610821
 40
0.9373179618328978
 40
0.9373179618328978
 40
0.9786307351111951
 40
0.9786307351111951
 40
1.0
 40
1.0
 40
1.0
 40
1.0
 10
19.69996259206824
 20
13.49628791338866
 30
0.0
 10
19.69996259206824
 20
13.32232188030447
 30
0.0
 10
19.71707514379193
 20
13.11426520356937
 30
0.0
 10
19.80511479828067
 20
12.92565933218115
 30
0.0
 10
19.82567625720822
 20
12.89017473485384
 30
0.0
 10
19.85932509395939
 20
12.86284368563474
 30
0.0
 10
19.8686703174414
 20
12.8570247717885
 30
0.0
 10
19.88169082226876
 20
12.85210417124648
 30
0.0
 10
19.88686337164484
 20
12.8507085843957
 30
0.0
 10
19.89195802928082
 20
12.85003365526209
 30
0.0
  0
LINE
  5
14B
330
1F
100
AcDbEntity
  8
Sichtbar_(ISO)
  6
Continuous
 62
     7
100
AcDbLine
 10
19.6999625921
 20
13.9758666802
 30
0.0
 11
19.6999625921
 21
13.4962879134
 31
0.0
  0
SPLINE
  5
14C
330
1F
100
AcDbEntity
  8
Sichtbar_(ISO)
  6
Continuous
 62
     7
100
AcDbSpline
210
0.0
220
0.0
230
1.0
 70
    12
 71
     2
 72
     6
 73
     3
 74
     0
 42
0.000000001
 43
0.0000000001
 40
0.0
 40
0.0
 40
0.0
 40
0.9999999999999999
 40
0.9999999999999999
 40
0.9999999999999999
 10
15.6678781791222
 20
13.63455499680546
 30
0.0
 41
1.0
 10
17.69370904652811
 20
13.64077310038718
 30
0.0
 41
1.00158339951392
 10
19.49069576950644
 20
13.61340591116631
 30
0.0
 41
1.000174584177873
  0
SPLINE
  5
14D
330
1F
100
AcDbEntity
  8
Sichtbar_(ISO)
  6
Continuous
 62
     7
100
AcDbSpline
210
0.0
220
0.0
230
1.0
 70
    28
 71
     2
 72
     6
 73
     3
 74
     0
 42
0.000000001
 43
0.0000000001
 40
0.0
 40
0.0
 40
0.0
 40
1.0
 40
1.0
 40
1.0
 10
19.49069576950644
 20
13.61340591116631
 30
0.0
 41
1.00000041153467
 10
19.59597736470445
 20
13.79575898315115
 30
0.0
 41
1.000000305325055
 10
19.69996259206826
 20
13.97586668018187
 30
0.0
 41
1.0
  0
LINE
  5
14E
330
1F
100
AcDbEntity
  8
Sichtbar_(ISO)
  6
Continuous
 62
     7
100
AcDbLine
 10
19.0466841971
 20
12.8500336553
 30
0.0
 11
15.6678781791
 21
12.8500336553
 31
0.0
  0
LINE
  5
14F
330
1F
100
AcDbEntity
  8
Sichtbar_(ISO)
  6
Continuous
 62
     7
100
AcDbLine
 10
19.053563792
 20
12.8562711165
 30
0.0
 11
19.0466841971
 21
12.8500336553
 31
0.0
  0
LINE
  5
150
330
1F
100
AcDbEntity
  8
Sichtbar_(ISO)
  6
Continuous
 62
     7
100
AcDbLine
 10
19.053563792
 20
12.8562711165
 30
0.0
 11
19.4906957695
 21
13.6134059112
 31
0.0
  0
LINE
  5
151
330
1F
100
AcDbEntity
  8
Sichtbar_(ISO)
  6
Continuous
 62
     7
100
AcDbLine
 10
15.6678781791
 20
12.8500336553
 30
0.0
 11
15.6678781791
 21
13.6345549968
 31
0.0
  0
ARC
  5
152
330
1F
100
AcDbEntity
  8
Sichtbar_(ISO)
  6
Continuous
 62
     7
100
AcDbCircle
 10
21.1499625921
 20
0.0000336553
 30
0.0
 40
12.85000000000002
100
AcDbArc
 50
37.9851257303
 51
57.5521486241
  0
SPLINE
  5
153
330
1F
100
AcDbEntity
  8
Sichtbar_(ISO)
  6
Continuous
 62
     7
100
AcDbSpline
210
0.0
220
0.0
230
1.0
 70
     8
 71
     3
 72
    10
 73
     6
 74
     0
 42
0.000000001
 43
0.0000000001
 40
0.0
 40
0.0
 40
0.0
 40
0.0
 40
0.4635961688833114
 40
0.4635961688833114
 40
0.9999999999999999
 40
0.9999999999999999
 40
0.9999999999999999
 40
0.9999999999999999
 10
30.73204700501431
 20
9.986863708305002
 30
0.0
 10
30.80739922919531
 20
9.670039276646165
 30
0.0
 10
30.88658227586728
 20
9.350495839864434
 30
0.0
 10
31.06637695751357
 20
8.658583810623513
 30
0.0
 10
31.1687869634832
 20
8.284310318030967
 30
0.0
 10
31.2779542454599
 20
7.908654624464831
 30
0.0
  0
LINE
  5
154
330
1F
100
AcDbEntity
  8
Sichtbar_(ISO)
  6
Continuous
 62
     7
100
AcDbLine
 10
19.8919580293
 20
12.8500336553
 30
0.0
 11
19.0499625921
 21
12.8500336553
 31
0.0
  0
LINE
  5
155
330
1F
100
AcDbEntity
  8
Sichtbar_(ISO)
  6
Continuous
 62
     7
100
AcDbLine
 10
19.0499625921
 20
12.8500336553
 30
0.0
 11
19.053563792
 21
12.8562711165
 31
0.0
  0
LINE
  5
156
330
1F
100
AcDbEntity
  8
Sichtbar_(ISO)
  6
Continuous
 62
     7
100
AcDbLine
 10
19.0499625921
 20
12.8500336553
 30
0.0
 11
19.0466841971
 21
12.8500336553
 31
0.0
  0
SPLINE
  5
157
330
1F
100
AcDbEntity
  8
Sichtbar_(ISO)
  6
Continuous
 62
     7
100
AcDbSpline
210
0.0
220
0.0
230
1.0
 70
     8
 71
     3
 72
    14
 73
    10
 74
     0
 42
0.000000001
 43
0.0000000001
 40
0.0
 40
0.0
 40
0.0
 40
0.0
 40
0.021369264888811
 40
0.021369264888811
 40
0.0626820381671081
 40
0.0626820381671081
 40
0.2165859442389228
 40
0.2165859442389228
 40
1.0
 40
1.0
 40
1.0
 40
1.0
 10
19.89195802928082
 20
-12.84996634473791
 30
0.0
 10
19.88686337164484
 20
-12.85064127387152
 30
0.0
 10
19.88169082226876
 20
-12.8520368607223
 30
0.0
 10
19.8686703174414
 20
-12.85695746126432
 30
0.0
 10
19.85932509395939
 20
-12.86277637511056
 30
0.0
 10
19.82567625720822
 20
-12.89010742432966
 30
0.0
 10
19.80511479828067
 20
-12.92559202165697
 30
0.0
 10
19.71707514379193
 20
-13.11419789304519
 30
0.0
 10
19.69996259206824
 20
-13.32225456978029
 30
0.0
 10
19.69996259206824
 20
-13.49622060286448
 30
0.0
  0
SPLINE
  5
158
330
1F
100
AcDbEntity
  8
Sichtbar_(ISO)
  6
Continuous
 62
     7
100
AcDbSpline
210
0.0
220
0.0
230
1.0
 70
    28
 71
     2
 72
     6
 73
     3
 74
     0
 42
0.000000001
 43
0.0000000001
 40
0.0
 40
0.0
 40
0.0
 40
1.0
 40
1.0
 40
1.0
 10
19.69996259206826
 20
-13.97579936965769
 30
0.0
 41
1.0
 10
19.59597736470466
 20
-13.79569167262736
 30
0.0
 41
1.000000305323484
 10
19.49069576950644
 20
-13.61333860064213
 30
0.0
 41
1.000000411532552
  0
LINE
  5
159
330
1F
100
AcDbEntity
  8
Sichtbar_(ISO)
  6
Continuous
 62
     7
100
AcDbLine
 10
19.6999625921
 20
-13.4962206029
 30
0.0
 11
19.6999625921
 21
-13.9757993697
 31
0.0
  0
LINE
  5
15A
330
1F
100
AcDbEntity
  8
Sichtbar_(ISO)
  6
Continuous
 62
     7
100
AcDbLine
 10
19.0499625921
 20
-12.8499663447
 30
0.0
 11
19.8919580293
 21
-12.8499663447
 31
0.0
  0
LINE
  5
15B
330
1F
100
AcDbEntity
  8
Sichtbar_(ISO)
  6
Continuous
 62
     7
100
AcDbLine
 10
19.053563792
 20
-12.856203806
 30
0.0
 11
19.0499625921
 21
-12.8499663447
 31
0.0
  0
LINE
  5
15C
330
1F
100
AcDbEntity
  8
Sichtbar_(ISO)
  6
Continuous
 62
     7
100
AcDbLine
 10
19.4906957695
 20
-13.6133386006
 30
0.0
 11
19.053563792
 21
-12.856203806
 31
0.0
  0
SPLINE
  5
15D
330
1F
100
AcDbEntity
  8
Sichtbar_(ISO)
  6
Continuous
 62
     7
100
AcDbSpline
210
0.0
220
0.0
230
1.0
 70
    12
 71
     3
 72
    19
 73
    15
 74
     0
 42
0.000000001
 43
0.0000000001
 40
0.0
 40
0.0
 40
0.0
 40
0.0
 40
0.1188001644049047
 40
0.1188001644049047
 40
0.3533846786172708
 40
0.3533846786172708
 40
0.500000000000001
 40
0.500000000000001
 40
0.500000000000001
 40
0.6466153213827299
 40
0.6466153213827299
 40
0.881199835595096
 40
0.881199835595096
 40
1.0
 40
1.0
 40
1.0
 40
1.0
 10
31.27795422071192
 20
7.908654620394013
 30
0.0
 41
1.0
 10
31.69034786729793
 20
7.380532281652074
 30
0.0
 41
1.0
 10
32.06732240822685
 20
6.811812584004225
 30
0.0
 41
1.0
 10
33.04986850842065
 20
5.033320112056243
 30
0.0
 41
1.0
 10
33.51593419846229
 20
3.738643729056073
 30
0.0
 41
1.0
 10
33.92524473075936
 20
1.614604118981786
 30
0.0
 41
1.0
 10
33.99996259206825
 20
0.7944377103191469
 30
0.0
 41
1.0
 10
33.99996259206825
 20
0.0000336552620905
 30
0.0
 41
1.0
 10
33.99996259206825
 20
-0.7943703997949676
 30
0.0
 41
1.0
 10
33.92524473075936
 20
-1.614536808457602
 30
0.0
 41
1.0
 10
33.51593419846229
 20
-3.738576418531884
 30
0.0
 41
1.0
 10
33.04986850842065
 20
-5.033252801532058
 30
0.0
 41
1.0
 10
32.06732240822685
 20
-6.811745273480035
 30
0.0
 41
1.0
 10
31.69034786729793
 20
-7.38046497112788
 30
0.0
 41
1.0
 10
31.27795422071192
 20
-7.908587309869814
 30
0.0
 41
1.0
  0
SPLINE
  5
15E
330
1F
100
AcDbEntity
  8
Sichtbar_(ISO)
  6
Continuous
 62
     7
100
AcDbSpline
210
0.0
220
0.0
230
1.0
 70
    12
 71
     3
 72
    23
 73
    19
 74
     0
 42
0.000000001
 43
0.0000000001
 40
0.0
 40
0.0
 40
0.0
 40
0.0
 40
0.0497247326240582
 40
0.0497247326240582
 40
0.183887267667298
 40
0.183887267667298
 40
0.3784181798720377
 40
0.3784181798720377
 40
0.5000000000000001
 40
0.5000000000000001
 40
0.5000000000000001
 40
0.6215818201279635
 40
0.6215818201279635
 40
0.8161127323327032
 40
0.8161127323327032
 40
0.950275267375942
 40
0.950275267375942
 40
1.0
 40
1.0
 40
1.0
 40
1.0
 10
30.73204700501431
 20
-9.986796397780822
 30
0.0
 41
1.0
 10
30.99225821340143
 20
-9.738481242267518
 30
0.0
 41
1.0
 10
31.24263814156819
 20
-9.48006976193275
 30
0.0
 41
1.0
 10
32.13014884499828
 20
-8.489176950902616
 30
0.0
 41
1.0
 10
32.7200003734224
 20
-7.674009633081753
 30
0.0
 41
1.0
 10
33.93703764542627
 20
-5.517785061411895
 30
0.0
 41
1.0
 10
34.45783144602859
 20
-4.105260540198709
 30
0.0
 41
1.0
 10
34.91599121108383
 20
-1.775708030446385
 30
0.0
 41
1.0
 10
34.99996259206825
 20
-0.8736657144306048
 30
0.0
 41
1.0
 10
34.99996259206825
 20
0.0000336552620936
 30
0.0
 41
1.0
 10
34.99996259206825
 20
0.8737330249548049
 30
0.0
 41
1.0
 10
34.91599121108383
 20
1.775775340970571
 30
0.0
 41
1.0
 10
34.45783144602857
 20
4.1053278507229
 30
0.0
 41
1.0
 10
33.93703764542627
 20
5.517852371936072
 30
0.0
 41
1.0
 10
32.72000037342239
 20
7.674076943605921
 30
0.0
 41
1.0
 10
32.1301488449983
 20
8.489244261426794
 30
0.0
 41
1.0
 10
31.24263814156819
 20
9.480137072456923
 30
0.0
 41
1.0
 10
30.99225821340145
 20
9.738548552791704
 30
0.0
 41
1.0
 10
30.73204700501431
 20
9.986863708305002
 30
0.0
 41
1.0
  0
SPLINE
  5
15F
330
1F
100
AcDbEntity
  8
Verdeckt_(ISO)
  6
HIDDEN2
 62
     7
100
AcDbSpline
210
0.0
220
0.0
230
1.0
 70
     8
 71
     3
 72
    16
 73
    12
 74
     0
 42
0.000000001
 43
0.0000000001
 40
0.0
 40
0.0
 40
0.0
 40
0.0
 40
0.1414477315830031
 40
0.1414477315830031
 40
0.2828954631660062
 40
0.2828954631660062
 40
0.5657909263320126
 40
0.5657909263320126
 40
0.8437232857983603
 40
0.8437232857983603
 40
0.9999999999999999
 40
0.9999999999999999
 40
0.9999999999999999
 40
0.9999999999999999
 10
76.49996259206821
 20
9.082565655262092
 30
0.0
 10
75.8942082797042
 20
9.082565655262092
 30
0.0
 10
75.28373014162204
 20
9.021278561426556
 30
0.0
 10
74.092128396507
 20
8.778667711309513
 30
0.0
 10
73.51077034155303
 20
8.597493804490055
 30
0.0
 10
71.8550229279492
 20
7.896475843965285
 30
0.0
 10
70.86649310955033
 20
7.211204107831862
 30
0.0
 10
69.30263169251529
 20
5.64734269079679
 30
0.0
 10
68.60880097074246
 20
4.656735852958089
 30
0.0
 10
67.87168437005167
 20
2.916834247860875
 30
0.0
 10
67.6743743276893
 20
2.251852577741765
 30
0.0
 10
67.55541466153647
 20
1.577198785945815
 30
0.0
  0
SPLINE
  5
160
330
1F
100
AcDbEntity
  8
Verdeckt_(ISO)
  6
HIDDEN2
 62
     7
100
AcDbSpline
210
0.0
220
0.0
230
1.0
 70
     8
 71
     3
 72
    28
 73
    24
 74
     0
 42
0.000000001
 43
0.0000000001
 40
0.0
 40
0.0
 40
0.0
 40
0.0
 40
0.0519460778109954
 40
0.0519460778109954
 40
0.1117238167623987
 40
0.1117238167623987
 40
0.1715015557138018
 40
0.1715015557138018
 40
0.2910570336166089
 40
0.2910570336166089
 40
0.4085150362610536
 40
0.4085150362610536
 40
0.5259730389054975
 40
0.5259730389054975
 40
0.6434310415499421
 40
0.6434310415499421
 40
0.7608890441943856
 40
0.7608890441943856
 40
0.8804445220971933
 40
0.8804445220971933
 40
0.9402222610485962
 40
0.9402222610485962
 40
0.9999999999999999
 40
0.9999999999999999
 40
0.9999999999999999
 40
0.9999999999999999
 10
74.92279746166713
 20
-8.94451427531948
 30
0.0
 10
75.44352897364978
 20
-9.036333290587102
 30
0.0
 10
75.97356997173195
 20
-9.082498344737918
 30
0.0
 10
77.10571690443223
 20
-9.082498344737918
 30
0.0
 10
77.71619504251439
 20
-9.021211250902367
 30
0.0
 10
78.90779678762947
 20
-8.77860040078533
 30
0.0
 10
79.48915484258342
 20
-8.59742649396587
 30
0.0
 10
81.14490225618727
 20
-7.896408533441105
 30
0.0
 10
82.1334320745861
 20
-7.211136797307687
 30
0.0
 10
83.6972934916212
 20
-5.647275380272614
 30
0.0
 10
84.39112421339395
 20
-4.65666854243391
 30
0.0
 10
85.33476435569305
 20
-2.429285525036566
 30
0.0
 10
85.58249459206823
 20
-1.190220323420169
 30
0.0
 10
85.58249459206823
 20
1.19028763394435
 30
0.0
 10
85.33476435569305
 20
2.42935283556075
 30
0.0
 10
84.39112421339395
 20
4.656735852958095
 30
0.0
 10
83.6972934916212
 20
5.647342690796795
 30
0.0
 10
82.1334320745861
 20
7.211204107831862
 30
0.0
 10
81.14490225618727
 20
7.896475843965285
 30
0.0
 10
79.48915484258342
 20
8.597493804490055
 30
0.0
 10
78.90779678762947
 20
8.778667711309513
 30
0.0
 10
77.71619504251439
 20
9.021278561426543
 30
0.0
 10
77.10571690443223
 20
9.082565655262092
 30
0.0
 10
76.49996259206821
 20
9.082565655262092
 30
0.0
  0
LINE
  5
161
330
1F
100
AcDbEntity
  8
Verdeckt_(ISO)
  6
HIDDEN2
 62
     7
100
AcDbLine
 10
-88.2000374079
 20
-12.1239663447
 30
0.0
 11
-57.0000374079
 21
-12.1239663447
 31
0.0
  0
LINE
  5
162
330
1F
100
AcDbEntity
  8
Verdeckt_(ISO)
  6
HIDDEN2
 62
     7
100
AcDbLine
 10
-57.0000374079
 20
12.1240336553
 30
0.0
 11
-88.2000374079
 21
12.1240336553
 31
0.0
  0
LINE
  5
163
330
1F
100
AcDbEntity
  8
Verdeckt_(ISO)
  6
HIDDEN2
 62
     7
100
AcDbLine
 10
-57.0000374079
 20
-12.1239663447
 30
0.0
 11
-57.0000374079
 21
12.1240336553
 31
0.0
  0
LINE
  5
165
330
1F
100
AcDbEntity
  8
Skizziergeometrie_(ISO)
  6
Continuous
 62
     7
100
AcDbLine
 10
-0.0000374079
 20
34.8750336553
 30
0.0
 11
-0.0000374079
 21
34.9750336553
 31
0.0
  0
LINE
  5
168
330
1F
100
AcDbEntity
  8
Mittellinie_(ISO)
  6
CENTER2
 62
     7
100
AcDbLine
 10
89.6206697809
 20
0.0000336553
 30
0.0
 11
-104.1989477144
 21
0.0000336553
 31
0.0
  0
LINE
  5
169
330
1F
100
AcDbEntity
  8
Mittellinie_(ISO)
  6
CENTER2
 62
     7
100
AcDbLine
 10
2.3525293096
 20
39.8183768643
 30
0.0
 11
23.0130410609
 21
28.6093924918
 31
0.0
  0
LINE
  5
16A
330
1F
100
AcDbEntity
  8
Mittellinie_(ISO)
  6
CENTER2
 62
     7
100
AcDbLine
 10
2.3525293096
 20
-39.8183095538
 30
0.0
 11
23.0130410609
 21
-28.6093251813
 31
0.0
  0
LINE
  5
16B
330
1F
100
AcDbEntity
  8
Mittellinie_(ISO)
  6
CENTER2
 62
     7
100
AcDbLine
 10
23.1999625921
 20
43.9636061927
 30
0.0
 11
23.1999625921
 21
-46.8518676165
 31
0.0
  0
LINE
  5
16D
330
1F
100
AcDbEntity
  8
Mittelpunktmarkierung_(ISO)
  6
CENTER2
 62
     7
100
AcDbLine
 10
28.2499625921
 20
0.0000336553
 30
0.0
 11
12.7499625921
 21
0.0000336553
 31
0.0
  0
LINE
  5
16E
330
1F
100
AcDbEntity
  8
Mittelpunktmarkierung_(ISO)
  6
CENTER2
 62
     7
100
AcDbLine
 10
20.4999625921
 20
7.7500336553
 30
0.0
 11
20.4999625921
 21
-7.7499663447
 31
0.0
  0
CIRCLE
  5
170
330
1F
100
AcDbEntity
  8
_Konvertierung
  6
Continuous
 62
     7
100
AcDbCircle
 10
-0.0000374079
 20
34.9750336553
 30
0.0
 40
0.01
  0
CIRCLE
  5
171
330
1F
100
AcDbEntity
  8
_Konvertierung
  6
Continuous
 62
     7
100
AcDbCircle
 10
-101.8000374079
 20
18.5225223405
 30
0.0
 40
0.01
  0
CIRCLE
  5
172
330
1F
100
AcDbEntity
  8
_Konvertierung
  6
Continuous
 62
     7
100
AcDbCircle
 10
4.1999625921
 20
50.0000336553
 30
0.0
 40
0.01
  0
CIRCLE
  5
173
330
1F
100
AcDbEntity
  8
_Konvertierung
  6
Continuous
 62
     7
100
AcDbCircle
 10
4.1999625921
 20
-49.9999663447
 30
0.0
 40
0.01
  0
CIRCLE
  5
174
330
1F
100
AcDbEntity
  8
_Konvertierung
  6
Continuous
 62
     7
100
AcDbCircle
 10
-0.0000374079
 20
34.9750336553
 30
0.0
 40
0.01
  0
CIRCLE
  5
175
330
1F
100
AcDbEntity
  8
_Konvertierung
  6
Continuous
 62
     7
100
AcDbCircle
 10
37.9999625921
 20
48.8000336553
 30
0.0
 40
0.01
  0
CIRCLE
  5
176
330
1F
100
AcDbEntity
  8
_Konvertierung
  6
Continuous
 62
     7
100
AcDbCircle
 10
-0.0000374079
 20
34.9750336553
 30
0.0
 40
0.01
  0
CIRCLE
  5
177
330
1F
100
AcDbEntity
  8
_Konvertierung
  6
Continuous
 62
     7
100
AcDbCircle
 10
99.9999625921
 20
21.4216065305
 30
0.0
 40
0.01
  0
CIRCLE
  5
178
330
1F
100
AcDbEntity
  8
_Konvertierung
  6
Continuous
 62
     7
100
AcDbCircle
 10
98.9999625921
 20
12.5000336553
 30
0.0
 40
0.01
  0
CIRCLE
  5
179
330
1F
100
AcDbEntity
  8
_Konvertierung
  6
Continuous
 62
     7
100
AcDbCircle
 10
98.9999625921
 20
-12.4999663447
 30
0.0
 40
0.01
  0
LINE
  5
17A
330
1F
100
AcDbEntity
  8
Mittellinie_(ISO)
  6
CENTER2
 62
     7
100
AcDbLine
 10
23.1623985245
 20
20.8822737881
 30
0.0
 11
102.1918928101
 21
14.3850653207
 31
0.0
  0
LINE
  5
17B
330
1F
100
AcDbEntity
  8
Mittellinie_(ISO)
  6
CENTER2
 62
     7
100
AcDbLine
 10
23.1623985245
 20
-20.8822064776
 30
0.0
 11
102.1918928101
 21
-14.3849980101
 31
0.0
  0
CIRCLE
  5
17C
330
1F
100
AcDbEntity
  8
_Konvertierung
  6
Continuous
 62
     7
100
AcDbCircle
 10
89.1715354673
 20
32.2500336553
 30
0.0
 40
0.01
  0
CIRCLE
  5
17D
330
1F
100
AcDbEntity
  8
_Konvertierung
  6
Continuous
 62
     7
100
AcDbCircle
 10
89.1715354673
 20
-32.2499663447
 30
0.0
 40
0.01
  0
MTEXT
  5
17F
330
1F
100
AcDbEntity
  8
6
100
AcDbMText
 10
-87.4469197535
 20
-65.3606431531
 30
0.0
 40
4.57
 41
87.778500566
 46
7.6741609434
 71
     7
 72
     1
  1
{\fsimplex|b0||i0||c0|p34;\C7;\H4.57;\W0.94;BT 50 JD/JF ISO 7388-2}
 73
     1
 44
1.0
1001
ACAD
1000
ACAD_MTEXT_DEFINED_HEIGHT_BEGIN
1070
    46
1040
7.6741609434
1000
ACAD_MTEXT_DEFINED_HEIGHT_END
  0
MTEXT
  5
180
330
1F
100
AcDbEntity
  8
6
100
AcDbMText
 10
-87.6902043976
 20
-85.0423855884
 30
0.0
 40
4.57
 41
50.7011420755
 46
7.6741609434
 71
     7
 72
     1
  1
{\fsimplex|b0||i0||c0|p34;\C7;\H4.57;\W0.94;BT 50-25-100}
 73
     1
 44
1.0
1001
ACAD
1000
ACAD_MTEXT_DEFINED_HEIGHT_BEGIN
1070
    46
1040
7.6741609434
1000
ACAD_MTEXT_DEFINED_HEIGHT_END
  0
DIMENSION
  5
193
330
1F
100
AcDbEntity
  8
Bemaßung_(ISO)
  6
Continuous
 62
     7
100
AcDbDimension
  2
DMBLK103
 10
-101.8000374079
 20
62.9750345195
 30
0.0
 11
-50.9000384868
 21
62.9750345195
 31
0.0
 70
   160
  1
\A1;<>
 71
     5
 42
-1.0
 73
     0
 74
     0
 75
     0
  3
Standard_(DIN)
100
AcDbAlignedDimension
 13
-0.0000374079
 23
34.9750336553
 33
0.0
 14
-101.8000374079
 24
18.5225223405
 34
0.0
100
AcDbRotatedDimension
  0
DIMENSION
  5
19D
330
1F
100
AcDbEntity
  8
Bemaßung_(ISO)
  6
Continuous
 62
     7
100
AcDbDimension
  2
DMBLK104
 10
-118.4440446139
 20
50.0000336553
 30
0.0
 11
-118.4440446139
 21
0.0000329102
 31
0.0
 70
   161
  1
\A1;n <>
 71
     5
 42
-1.0
 73
     0
 74
     0
 75
     0
  3
Standard_(DIN)
100
AcDbAlignedDimension
 13
4.1999625921
 23
50.0000336553
 33
0.0
 14
4.1999625921
 24
-49.9999663447
 34
0.0
1001
ACAD
1000
DSTYLE
1002
{
1070
   271
1070
     0
1070
     0
1002
}
  0
DIMENSION
  5
1A8
330
1F
100
AcDbEntity
  8
Bemaßung_(ISO)
  6
Continuous
 62
     7
100
AcDbDimension
  2
DMBLK105
 10
37.9999625921
 20
62.9750345195
 30
0.0
 11
18.9999619811
 21
62.9750345195
 31
0.0
 70
   160
  1
\A1;<>
 71
     5
 42
-1.0
 73
     0
 74
     0
 75
     0
  3
Standard_(DIN)
100
AcDbAlignedDimension
 13
-0.0000374079
 23
34.9750336553
 33
0.0
 14
37.9999625921
 24
48.8000336553
 34
0.0
100
AcDbRotatedDimension
1001
ACAD
1000
DSTYLE
1002
{
1070
   144
1041
1.0
1070
   271
1070
     0
1070
     0
1002
}
  0
DIMENSION
  5
1B2
330
1F
100
AcDbEntity
  8
Bemaßung_(ISO)
  6
Continuous
 62
     7
100
AcDbDimension
  2
DMBLK106
 10
99.9999625921
 20
75.6849278058
 30
0.0
 11
39.999961698
 21
75.6849278058
 31
0.0
 70
   160
  1
\A1;<>
 71
     5
 42
-1.0
 73
     0
 74
     0
 75
     0
  3
Standard_(DIN)
100
AcDbAlignedDimension
 13
-0.0000374079
 23
34.9750336553
 33
0.0
 14
99.9999625921
 24
21.4216065305
 34
0.0
100
AcDbRotatedDimension
1001
ACAD
1000
DSTYLE
1002
{
1070
   144
1041
1.0
1070
   271
1070
     0
1070
     0
1002
}
  0
DIMENSION
  5
1BC
330
1F
100
AcDbEntity
  8
Bemaßung_(ISO)
  6
Continuous
 62
     7
100
AcDbDimension
  2
DMBLK107
 10
114.999963352
 20
12.5000336553
 30
0.0
 11
114.999963352
 21
0.000033469
 31
0.0
 70
   161
  1
\A1;n <>
 71
     5
 42
-1.0
 73
     0
 74
     0
 75
     0
  3
Standard_(DIN)
100
AcDbAlignedDimension
 13
98.9999625921
 23
12.5000336553
 33
0.0
 14
98.9999625921
 24
-12.4999663447
 34
0.0
1001
ACAD
1000
DSTYLE
1002
{
1070
   144
1041
1.0
1070
   271
1070
     0
1070
     0
1002
}
  0
DIMENSION
  5
1C7
330
1F
100
AcDbEntity
  8
Bemaßung_(ISO)
  6
Continuous
 62
     7
100
AcDbDimension
  2
DMBLK108
 10
131.1165570669
 20
32.2500336553
 30
0.0
 11
131.1165570669
 21
6.5000336255
 31
0.0
 70
   161
  1
\A1;n <>
 71
     5
 42
-1.0
 73
     0
 74
     0
 75
     0
  3
Standard_(DIN)
100
AcDbAlignedDimension
 13
89.1715354673
 23
32.2500336553
 33
0.0
 14
89.1715354673
 24
-32.2499663447
 34
0.0
1001
ACAD
1000
DSTYLE
1002
{
1070
   144
1041
1.0
1070
     0
1002
}
  0
ENDSEC
  0
SECTION
  2
OBJECTS
  0
DICTIONARY
  5
C
330
0
100
AcDbDictionary
281
     1
  3
ACAD_DETAILVIEWSTYLE
350
20D
  3
ACAD_GROUP
350
D
  3
ACAD_LAYOUT
350
1A
  3
ACAD_MATERIAL
350
43
  3
ACAD_MLEADERSTYLE
350
6B
  3
ACAD_MLINESTYLE
350
17
  3
ACAD_PLOTSETTINGS
350
19
  3
ACAD_PLOTSTYLENAME
350
E
  3
ACAD_SCALELIST
350
47
  3
ACAD_SECTIONVIEWSTYLE
350
20E
  3
ACAD_TABLESTYLE
350
69
  3
ACAD_VISUALSTYLE
350
2A
  3
ACDB_RECOMPOSE_DATA
350
20A
  3
AcDbVariableDictionary
350
1D2
  0
SUN
  5
6D
330
29
100
AcDbSun
 90
        1
290
     0
 63
     7
421
 16777215
 40
1.0
291
     1
 91
  2455826
 92
 54000000
292
     0
 70
     2
 71
   256
280
     1
  0
DICTIONARY
  5
20D
102
{ACAD_REACTORS
330
C
102
}
330
C
100
AcDbDictionary
281
     1
  0
DICTIONARY
  5
D
102
{ACAD_REACTORS
330
C
102
}
330
C
100
AcDbDictionary
281
     1
  0
DICTIONARY
  5
1A
102
{ACAD_REACTORS
330
C
102
}
330
C
100
AcDbDictionary
281
     1
  3
Layout1
350
1E
  3
Model
350
22
  0
DICTIONARY
  5
43
102
{ACAD_REACTORS
330
C
102
}
330
C
100
AcDbDictionary
281
     1
  3
ByBlock
350
45
  3
ByLayer
350
44
  3
Global
350
46
  0
DICTIONARY
  5
6B
102
{ACAD_REACTORS
330
C
102
}
330
C
100
AcDbDictionary
281
     1
  3
Standard
350
6C
  0
DICTIONARY
  5
17
102
{ACAD_REACTORS
330
C
102
}
330
C
100
AcDbDictionary
281
     1
  3
Standard
350
18
  0
DICTIONARY
  5
19
102
{ACAD_REACTORS
330
C
102
}
330
C
100
AcDbDictionary
281
     1
  0
ACDBDICTIONARYWDFLT
  5
E
102
{ACAD_REACTORS
330
C
102
}
330
C
100
AcDbDictionary
281
     1
  3
Normal
350
F
100
AcDbDictionaryWithDefault
340
F
  0
DICTIONARY
  5
47
102
{ACAD_REACTORS
330
C
102
}
330
C
100
AcDbDictionary
281
     1
  3
A0
350
48
  3
A1
350
49
  3
A2
350
4A
  3
A3
350
4B
  3
A4
350
4C
  3
A5
350
4D
  3
A6
350
4E
  3
A7
350
4F
  3
A8
350
50
  3
A9
350
51
  3
B0
350
52
  3
B1
350
53
  3
B2
350
54
  3
B3
350
55
  3
B4
350
56
  3
B5
350
57
  3
B6
350
58
  3
B7
350
59
  3
B8
350
5A
  3
B9
350
5B
  3
C0
350
5C
  3
C1
350
5D
  3
C2
350
5E
  3
C3
350
5F
  3
C4
350
60
  3
C5
350
61
  3
C6
350
62
  3
C7
350
63
  3
C8
350
64
  3
C9
350
65
  3
D0
350
66
  3
D1
350
67
  3
D2
350
68
  0
DICTIONARY
  5
20E
102
{ACAD_REACTORS
330
C
102
}
330
C
100
AcDbDictionary
281
     1
  0
DICTIONARY
  5
69
102
{ACAD_REACTORS
330
C
102
}
330
C
100
AcDbDictionary
281
     1
  3
Standard
350
6A
  0
DICTIONARY
  5
2A
102
{ACAD_REACTORS
330
C
102
}
330
C
100
AcDbDictionary
281
     1
  3
2dWireframe
350
2F
  3
Basic
350
32
  3
Brighten
350
36
  3
ColorChange
350
3A
  3
Conceptual
350
34
  3
Dim
350
35
  3
EdgeColorOff
350
3D
  3
Facepattern
350
39
  3
Flat
350
2B
  3
FlatWithEdges
350
2C
  3
Gouraud
350
2D
  3
GouraudWithEdges
350
2E
  3
Hidden
350
31
  3
JitterOff
350
3B
  3
Linepattern
350
38
  3
OverhangOff
350
3C
  3
Realistic
350
33
  3
Shaded
350
42
  3
Shaded with edges
350
41
  3
Shades of Gray
350
3E
  3
Sketchy
350
3F
  3
Thicken
350
37
  3
Wireframe
350
30
  3
X-Ray
350
40
  0
XRECORD
  5
20A
102
{ACAD_REACTORS
330
C
102
}
330
C
100
AcDbXrecord
280
     1
 90
        1
330
6A
  0
DICTIONARY
  5
1D2
102
{ACAD_REACTORS
330
C
102
}
330
C
100
AcDbDictionary
281
     1
  3
CANNOSCALE
350
1D3
  3
CENTEREXE
350
20F
  3
CENTERLTYPEFILE
350
210
  3
CMLEADERSTYLE
350
20C
  3
CTABLESTYLE
350
20B
  3
XCLIPFRAME
350
1D4
  0
LAYOUT
  5
1E
102
{ACAD_REACTORS
330
1A
102
}
330
1A
100
AcDbPlotSettings
  1

  2
none_device
  4

  6

 40
0.0
 41
0.0
 42
0.0
 43
0.0
 44
0.0
 45
0.0
 46
0.0
 47
0.0
 48
0.0
 49
0.0
140
0.0
141
0.0
142
1.0
143
1.0
 70
   688
 72
     1
 73
     0
 74
     5
  7

 75
    16
 76
     0
 77
     2
 78
   300
147
1.0
148
0.0
149
0.0
100
AcDbLayout
  1
Layout1
 70
     1
 71
     1
 10
0.0
 20
0.0
 11
594.0
 21
420.0
 12
0.0
 22
0.0
 32
0.0
 14
0.0
 24
0.0
 34
0.0
 15
594.0
 25
420.0
 35
0.0
146
0.0
 13
0.0
 23
0.0
 33
0.0
 16
1.0
 26
0.0
 36
0.0
 17
0.0
 27
1.0
 37
0.0
 76
     0
330
1B
  0
LAYOUT
  5
22
102
{ACAD_REACTORS
330
1A
102
}
330
1A
100
AcDbPlotSettings
  1

  2
none_device
  4
Letter_(8.50_x_11.00_Inches)
  6

 40
6.35
 41
6.35
 42
6.35000508
 43
6.35000508
 44
215.9
 45
279.4
 46
0.0
 47
0.0
 48
0.0
 49
0.0
140
0.0
141
0.0
142
1.0
143
1.0
 70
  1712
 72
     1
 73
     0
 74
     0
  7

 75
     0
 76
     0
 77
     2
 78
   300
147
1.0
148
0.0
149
0.0
100
AcDbLayout
  1
Model
 70
     1
 71
     0
 10
0.0
 20
0.0
 11
594.0
 21
420.0
 12
0.0
 22
0.0
 32
0.0
 14
0.0
 24
0.0
 34
0.0
 15
594.0
 25
420.0
 35
0.0
146
0.0
 13
0.0
 23
0.0
 33
0.0
 16
1.0
 26
0.0
 36
0.0
 17
0.0
 27
1.0
 37
0.0
 76
     0
330
1F
331
29
  0
MATERIAL
  5
45
102
{ACAD_REACTORS
330
43
102
}
330
43
100
AcDbMaterial
  1
ByBlock
 72
     1
 94
      127
  0
MATERIAL
  5
44
102
{ACAD_REACTORS
330
43
102
}
330
43
100
AcDbMaterial
  1
ByLayer
 72
     1
 94
      127
  0
MATERIAL
  5
46
102
{ACAD_REACTORS
330
43
102
}
330
43
100
AcDbMaterial
  1
Global
 72
     1
 94
      127
  0
MLEADERSTYLE
  5
6C
102
{ACAD_REACTORS
330
6B
102
}
102
{ACAD_XDICTIONARY
360
208
102
}
330
6B
100
AcDbMLeaderStyle
170
     2
171
     1
172
     0
 90
        2
 40
0.0
 41
0.0
173
     1
 91
-1056964608
340
14
 92
       -2
290
     1
 42
2.0
291
     1
 43
8.0
  3
Standard
341
0
 44
4.0
300

342
11
174
     1
178
     6
175
     1
176
     0
 93
-1056964608
 45
4.0
292
     0
297
     0
 46
4.0
343
0
 94
-1056964608
 47
1.0
 49
1.0
140
1.0
293
     1
141
0.0
294
     1
177
     0
142
1.0
295
     0
296
     0
143
3.75
1001
ACAD_MLEADERVER
1070
     2
  0
MLINESTYLE
  5
18
102
{ACAD_REACTORS
330
17
102
}
330
17
100
AcDbMlineStyle
  2
Standard
 70
     0
  3

 62
   256
 51
90.0
 52
90.0
 71
     2
 49
0.5
 62
   256
  6
BYLAYER
 49
-0.5
 62
   256
  6
BYLAYER
  0
ACDBPLACEHOLDER
  5
F
102
{ACAD_REACTORS
330
E
102
}
330
E
  0
SCALE
  5
48
102
{ACAD_REACTORS
330
47
102
}
330
47
100
AcDbScale
 70
     0
300
1:1
140
1.0
141
1.0
290
     1
  0
SCALE
  5
49
102
{ACAD_REACTORS
330
47
102
}
330
47
100
AcDbScale
 70
     0
300
1:2
140
1.0
141
2.0
290
     0
  0
SCALE
  5
4A
102
{ACAD_REACTORS
330
47
102
}
330
47
100
AcDbScale
 70
     0
300
1:4
140
1.0
141
4.0
290
     0
  0
SCALE
  5
4B
102
{ACAD_REACTORS
330
47
102
}
330
47
100
AcDbScale
 70
     0
300
1:5
140
1.0
141
5.0
290
     0
  0
SCALE
  5
4C
102
{ACAD_REACTORS
330
47
102
}
330
47
100
AcDbScale
 70
     0
300
1:8
140
1.0
141
8.0
290
     0
  0
SCALE
  5
4D
102
{ACAD_REACTORS
330
47
102
}
330
47
100
AcDbScale
 70
     0
300
1:10
140
1.0
141
10.0
290
     0
  0
SCALE
  5
4E
102
{ACAD_REACTORS
330
47
102
}
330
47
100
AcDbScale
 70
     0
300
1:16
140
1.0
141
16.0
290
     0
  0
SCALE
  5
4F
102
{ACAD_REACTORS
330
47
102
}
330
47
100
AcDbScale
 70
     0
300
1:20
140
1.0
141
20.0
290
     0
  0
SCALE
  5
50
102
{ACAD_REACTORS
330
47
102
}
330
47
100
AcDbScale
 70
     0
300
1:30
140
1.0
141
30.0
290
     0
  0
SCALE
  5
51
102
{ACAD_REACTORS
330
47
102
}
330
47
100
AcDbScale
 70
     0
300
1:40
140
1.0
141
40.0
290
     0
  0
SCALE
  5
52
102
{ACAD_REACTORS
330
47
102
}
330
47
100
AcDbScale
 70
     0
300
1:50
140
1.0
141
50.0
290
     0
  0
SCALE
  5
53
102
{ACAD_REACTORS
330
47
102
}
330
47
100
AcDbScale
 70
     0
300
1:100
140
1.0
141
100.0
290
     0
  0
SCALE
  5
54
102
{ACAD_REACTORS
330
47
102
}
330
47
100
AcDbScale
 70
     0
300
2:1
140
2.0
141
1.0
290
     0
  0
SCALE
  5
55
102
{ACAD_REACTORS
330
47
102
}
330
47
100
AcDbScale
 70
     0
300
4:1
140
4.0
141
1.0
290
     0
  0
SCALE
  5
56
102
{ACAD_REACTORS
330
47
102
}
330
47
100
AcDbScale
 70
     0
300
8:1
140
8.0
141
1.0
290
     0
  0
SCALE
  5
57
102
{ACAD_REACTORS
330
47
102
}
330
47
100
AcDbScale
 70
     0
300
10:1
140
10.0
141
1.0
290
     0
  0
SCALE
  5
58
102
{ACAD_REACTORS
330
47
102
}
330
47
100
AcDbScale
 70
     0
300
100:1
140
100.0
141
1.0
290
     0
  0
SCALE
  5
59
102
{ACAD_REACTORS
330
47
102
}
330
47
100
AcDbScale
 70
     0
300
1/128" = 1'-0"
140
0.0078125
141
12.0
290
     0
  0
SCALE
  5
5A
102
{ACAD_REACTORS
330
47
102
}
330
47
100
AcDbScale
 70
     0
300
1/64" = 1'-0"
140
0.015625
141
12.0
290
     0
  0
SCALE
  5
5B
102
{ACAD_REACTORS
330
47
102
}
330
47
100
AcDbScale
 70
     0
300
1/32" = 1'-0"
140
0.03125
141
12.0
290
     0
  0
SCALE
  5
5C
102
{ACAD_REACTORS
330
47
102
}
330
47
100
AcDbScale
 70
     0
300
1/16" = 1'-0"
140
0.0625
141
12.0
290
     0
  0
SCALE
  5
5D
102
{ACAD_REACTORS
330
47
102
}
330
47
100
AcDbScale
 70
     0
300
3/32" = 1'-0"
140
0.09375
141
12.0
290
     0
  0
SCALE
  5
5E
102
{ACAD_REACTORS
330
47
102
}
330
47
100
AcDbScale
 70
     0
300
1/8" = 1'-0"
140
0.125
141
12.0
290
     0
  0
SCALE
  5
5F
102
{ACAD_REACTORS
330
47
102
}
330
47
100
AcDbScale
 70
     0
300
3/16" = 1'-0"
140
0.1875
141
12.0
290
     0
  0
SCALE
  5
60
102
{ACAD_REACTORS
330
47
102
}
330
47
100
AcDbScale
 70
     0
300
1/4" = 1'-0"
140
0.25
141
12.0
290
     0
  0
SCALE
  5
61
102
{ACAD_REACTORS
330
47
102
}
330
47
100
AcDbScale
 70
     0
300
3/8" = 1'-0"
140
0.375
141
12.0
290
     0
  0
SCALE
  5
62
102
{ACAD_REACTORS
330
47
102
}
330
47
100
AcDbScale
 70
     0
300
1/2" = 1'-0"
140
0.5
141
12.0
290
     0
  0
SCALE
  5
63
102
{ACAD_REACTORS
330
47
102
}
330
47
100
AcDbScale
 70
     0
300
3/4" = 1'-0"
140
0.75
141
12.0
290
     0
  0
SCALE
  5
64
102
{ACAD_REACTORS
330
47
102
}
330
47
100
AcDbScale
 70
     0
300
1" = 1'-0"
140
1.0
141
12.0
290
     0
  0
SCALE
  5
65
102
{ACAD_REACTORS
330
47
102
}
330
47
100
AcDbScale
 70
     0
300
1-1/2" = 1'-0"
140
1.5
141
12.0
290
     0
  0
SCALE
  5
66
102
{ACAD_REACTORS
330
47
102
}
330
47
100
AcDbScale
 70
     0
300
3" = 1'-0"
140
3.0
141
12.0
290
     0
  0
SCALE
  5
67
102
{ACAD_REACTORS
330
47
102
}
330
47
100
AcDbScale
 70
     0
300
6" = 1'-0"
140
6.0
141
12.0
290
     0
  0
SCALE
  5
68
102
{ACAD_REACTORS
330
47
102
}
330
47
100
AcDbScale
 70
     0
300
1'-0" = 1'-0"
140
12.0
141
12.0
290
     0
  0
TABLESTYLE
  5
6A
102
{ACAD_REACTORS
330
69
102
}
102
{ACAD_XDICTIONARY
360
205
102
}
330
69
100
AcDbTableStyle
  3
Standard
 70
     0
 71
     0
 40
0.06
 41
0.06
280
     0
281
     0
  7
Standard
140
4.5
170
     2
 62
     0
 63
   257
283
     0
 90
        4
 91
        0
  1

274
    -2
284
     1
 64
     0
275
    -2
285
     1
 65
     0
276
    -2
286
     1
 66
     0
277
    -2
287
     1
 67
     0
278
    -2
288
     1
 68
     0
279
    -2
289
     1
 69
     0
  7
Standard
140
6.0
170
     5
 62
     0
 63
   257
283
     0
 90
        4
 91
        0
  1

274
    -2
284
     1
 64
     0
275
    -2
285
     1
 65
     0
276
    -2
286
     1
 66
     0
277
    -2
287
     1
 67
     0
278
    -2
288
     1
 68
     0
279
    -2
289
     1
 69
     0
  7
Standard
140
4.5
170
     5
 62
     0
 63
   257
283
     0
 90
        4
 91
        0
  1

274
    -2
284
     1
 64
     0
275
    -2
285
     1
 65
     0
276
    -2
286
     1
 66
     0
277
    -2
287
     1
 67
     0
278
    -2
288
     1
 68
     0
279
    -2
289
     1
 69
     0
  0
VISUALSTYLE
  5
2F
102
{ACAD_REACTORS
330
2A
102
}
102
{ACAD_XDICTIONARY
360
1DD
102
}
330
2A
100
AcDbVisualStyle
  2
2dWireframe
 70
     4
 71
     0
 72
     2
 73
     0
 90
        0
 40
0.6
 41
30.0
 62
     5
 63
     7
421
 16777215
 74
     1
 91
        4
 64
     7
 65
   257
 75
     1
175
     1
 42
1.0
 92
        0
 66
   257
 43
1.0
 76
     1
 77
     6
 78
     2
 67
     7
 79
     5
170
     0
171
     0
290
     0
174
     0
 93
        1
 44
0.0
173
     0
291
     0
 45
0.0
  0
VISUALSTYLE
  5
32
102
{ACAD_REACTORS
330
2A
102
}
102
{ACAD_XDICTIONARY
360
1E3
102
}
330
2A
100
AcDbVisualStyle
  2
Basic
 70
     7
 71
     1
 72
     0
 73
     1
 90
        0
 40
0.6
 41
30.0
 62
     5
 63
     7
421
 16777215
 74
     0
 91
        4
 64
     7
 65
   257
 75
     1
175
     1
 42
1.0
 92
        8
 66
     7
 43
1.0
 76
     1
 77
     6
 78
     2
 67
     7
 79
     5
170
     0
171
     0
290
     0
174
     0
 93
        1
 44
0.0
173
     0
291
     1
 45
0.0
  0
VISUALSTYLE
  5
36
102
{ACAD_REACTORS
330
2A
102
}
102
{ACAD_XDICTIONARY
360
1EB
102
}
330
2A
100
AcDbVisualStyle
  2
Brighten
 70
    12
 71
     2
 72
     2
 73
     0
 90
        0
 40
0.6
 41
30.0
 62
     5
 63
     7
421
 16777215
 74
     1
 91
        4
 64
     7
 65
   257
 75
     1
175
     1
 42
1.0
 92
        8
 66
     7
 43
1.0
 76
     1
 77
     6
 78
     2
 67
     7
 79
     5
170
     0
171
     0
290
     0
174
     0
 93
        1
 44
50.0
173
     0
291
     1
 45
0.0
  0
VISUALSTYLE
  5
3A
102
{ACAD_REACTORS
330
2A
102
}
102
{ACAD_XDICTIONARY
360
1F3
102
}
330
2A
100
AcDbVisualStyle
  2
ColorChange
 70
    16
 71
     2
 72
     2
 73
     3
 90
        0
 40
0.6
 41
30.0
 62
     5
 63
     8
421
  8421504
 74
     1
 91
        4
 64
     7
 65
   257
 75
     1
175
     1
 42
1.0
 92
        8
 66
     8
424
  8421504
 43
1.0
 76
     1
 77
     6
 78
     2
 67
     7
 79
     5
170
     0
171
     0
290
     0
174
     0
 93
        1
 44
0.0
173
     0
291
     1
 45
0.0
  0
VISUALSTYLE
  5
34
102
{ACAD_REACTORS
330
2A
102
}
102
{ACAD_XDICTIONARY
360
1E7
102
}
330
2A
100
AcDbVisualStyle
  2
Conceptual
 70
     9
 71
     3
 72
     2
 73
     0
 90
        0
 40
0.6
 41
30.0
 62
     5
 63
     7
421
 16777215
 74
     2
 91
        2
 64
     7
 65
   257
 75
     1
175
     1
 42
179.0
 92
        8
 66
     7
 43
1.0
 76
     1
 77
     6
 78
     2
 67
     7
 79
     3
170
     0
171
     0
290
     0
174
     0
 93
        1
 44
0.0
173
     0
291
     0
 45
0.0
  0
VISUALSTYLE
  5
35
102
{ACAD_REACTORS
330
2A
102
}
102
{ACAD_XDICTIONARY
360
1E9
102
}
330
2A
100
AcDbVisualStyle
  2
Dim
 70
    11
 71
     2
 72
     2
 73
     0
 90
        0
 40
0.6
 41
30.0
 62
     5
 63
     7
421
 16777215
 74
     1
 91
        4
 64
     7
 65
   257
 75
     1
175
     1
 42
1.0
 92
        8
 66
     7
 43
1.0
 76
     1
 77
     6
 78
     2
 67
     7
 79
     5
170
     0
171
     0
290
     0
174
     0
 93
        1
 44
-50.0
173
     0
291
     1
 45
0.0
  0
VISUALSTYLE
  5
3D
102
{ACAD_REACTORS
330
2A
102
}
102
{ACAD_XDICTIONARY
360
1F9
102
}
330
2A
100
AcDbVisualStyle
  2
EdgeColorOff
 70
    22
 71
     2
 72
     2
 73
     0
 90
        0
 40
0.6
 41
30.0
 62
     5
 63
     7
421
 16777215
 74
     1
 91
        4
 64
     7
 65
   257
 75
     1
175
     1
 42
1.0
 92
        8
 66
     7
 43
1.0
 76
     1
 77
     6
 78
     2
 67
     7
 79
     5
170
     0
171
     0
290
     0
174
     0
 93
        1
 44
0.0
173
     0
291
     1
 45
0.0
  0
VISUALSTYLE
  5
39
102
{ACAD_REACTORS
330
2A
102
}
102
{ACAD_XDICTIONARY
360
1F1
102
}
330
2A
100
AcDbVisualStyle
  2
Facepattern
 70
    15
 71
     2
 72
     2
 73
     0
 90
        0
 40
0.6
 41
30.0
 62
     5
 63
     7
421
 16777215
 74
     1
 91
        4
 64
     7
 65
   257
 75
     1
175
     1
 42
1.0
 92
        8
 66
     7
 43
1.0
 76
     1
 77
     6
 78
     2
 67
     7
 79
     5
170
     0
171
     0
290
     0
174
     0
 93
        1
 44
0.0
173
     0
291
     1
 45
0.0
  0
VISUALSTYLE
  5
2B
102
{ACAD_REACTORS
330
2A
102
}
102
{ACAD_XDICTIONARY
360
1D5
102
}
330
2A
100
AcDbVisualStyle
  2
Flat
 70
     0
 71
     2
 72
     1
 73
     1
 90
        2
 40
0.6
 41
30.0
 62
     5
 63
     7
421
 16777215
 74
     0
 91
        0
 64
     7
 65
   257
 75
     1
175
     1
 42
1.0
 92
        8
 66
     7
 43
1.0
 76
     1
 77
     6
 78
     2
 67
     7
 79
     5
170
     0
171
     0
290
     0
174
     0
 93
       13
 44
0.0
173
     0
291
     1
 45
0.0
  0
VISUALSTYLE
  5
2C
102
{ACAD_REACTORS
330
2A
102
}
102
{ACAD_XDICTIONARY
360
1D7
102
}
330
2A
100
AcDbVisualStyle
  2
FlatWithEdges
 70
     1
 71
     2
 72
     1
 73
     1
 90
        2
 40
0.6
 41
30.0
 62
     5
 63
     7
421
 16777215
 74
     1
 91
        0
 64
     7
 65
   257
 75
     1
175
     1
 42
1.0
 92
        0
 66
   257
 43
1.0
 76
     1
 77
     6
 78
     2
 67
     7
 79
     5
170
     0
171
     0
290
     0
174
     0
 93
       13
 44
0.0
173
     0
291
     1
 45
0.0
  0
VISUALSTYLE
  5
2D
102
{ACAD_REACTORS
330
2A
102
}
102
{ACAD_XDICTIONARY
360
1D9
102
}
330
2A
100
AcDbVisualStyle
  2
Gouraud
 70
     2
 71
     2
 72
     2
 73
     1
 90
        2
 40
0.6
 41
30.0
 62
     5
 63
     7
421
 16777215
 74
     0
 91
        0
 64
     7
 65
   257
 75
     1
175
     1
 42
1.0
 92
        0
 66
     7
 43
1.0
 76
     1
 77
     6
 78
     2
 67
     7
 79
     5
170
     0
171
     0
290
     0
174
     0
 93
       13
 44
0.0
173
     0
291
     1
 45
0.0
  0
VISUALSTYLE
  5
2E
102
{ACAD_REACTORS
330
2A
102
}
102
{ACAD_XDICTIONARY
360
1DB
102
}
330
2A
100
AcDbVisualStyle
  2
GouraudWithEdges
 70
     3
 71
     2
 72
     2
 73
     1
 90
        2
 40
0.6
 41
30.0
 62
     5
 63
     7
421
 16777215
 74
     1
 91
        0
 64
     7
 65
   257
 75
     1
175
     1
 42
1.0
 92
        0
 66
   257
 43
1.0
 76
     1
 77
     6
 78
     2
 67
     7
 79
     5
170
     0
171
     0
290
     0
174
     0
 93
       13
 44
0.0
173
     0
291
     1
 45
0.0
  0
VISUALSTYLE
  5
31
102
{ACAD_REACTORS
330
2A
102
}
102
{ACAD_XDICTIONARY
360
1E1
102
}
330
2A
100
AcDbVisualStyle
  2
Hidden
 70
     6
 71
     1
 72
     2
 73
     2
 90
        0
 40
0.6
 41
30.0
 62
     5
 63
     7
421
 16777215
 74
     2
 91
        2
 64
     7
 65
   257
 75
     2
175
     1
 42
40.0
 92
        0
 66
   257
 43
1.0
 76
     1
 77
     6
 78
     2
 67
     7
 79
     3
170
     0
171
     0
290
     0
174
     0
 93
        1
 44
0.0
173
     0
291
     0
 45
0.0
  0
VISUALSTYLE
  5
3B
102
{ACAD_REACTORS
330
2A
102
}
102
{ACAD_XDICTIONARY
360
1F5
102
}
330
2A
100
AcDbVisualStyle
  2
JitterOff
 70
    20
 71
     2
 72
     2
 73
     0
 90
        0
 40
0.6
 41
30.0
 62
     5
 63
     7
421
 16777215
 74
     1
 91
        4
 64
     7
 65
   257
 75
     1
175
     1
 42
1.0
 92
       10
 66
     7
 43
1.0
 76
     1
 77
     6
 78
     2
 67
     7
 79
     5
170
     0
171
     0
290
     0
174
     0
 93
        1
 44
0.0
173
     0
291
     1
 45
0.0
  0
VISUALSTYLE
  5
38
102
{ACAD_REACTORS
330
2A
102
}
102
{ACAD_XDICTIONARY
360
1EF
102
}
330
2A
100
AcDbVisualStyle
  2
Linepattern
 70
    14
 71
     2
 72
     2
 73
     0
 90
        0
 40
0.6
 41
30.0
 62
     5
 63
     7
421
 16777215
 74
     1
 91
        4
 64
     7
 65
   257
 75
     7
175
     7
 42
1.0
 92
        8
 66
     7
 43
1.0
 76
     1
 77
     6
 78
     2
 67
     7
 79
     5
170
     0
171
     0
290
     0
174
     0
 93
        1
 44
0.0
173
     0
291
     1
 45
0.0
  0
VISUALSTYLE
  5
3C
102
{ACAD_REACTORS
330
2A
102
}
102
{ACAD_XDICTIONARY
360
1F7
102
}
330
2A
100
AcDbVisualStyle
  2
OverhangOff
 70
    21
 71
     2
 72
     2
 73
     0
 90
        0
 40
0.6
 41
30.0
 62
     5
 63
     7
421
 16777215
 74
     1
 91
        4
 64
     7
 65
   257
 75
     1
175
     1
 42
1.0
 92
        9
 66
     7
 43
1.0
 76
     1
 77
     6
 78
     2
 67
     7
 79
     5
170
     0
171
     0
290
     0
174
     0
 93
        1
 44
0.0
173
     0
291
     1
 45
0.0
  0
VISUALSTYLE
  5
33
102
{ACAD_REACTORS
330
2A
102
}
102
{ACAD_XDICTIONARY
360
1E5
102
}
330
2A
100
AcDbVisualStyle
  2
Realistic
 70
     8
 71
     2
 72
     3
 73
     0
 90
        2
 40
0.6
 41
30.0
 62
     5
 63
     7
421
 16777215
 74
     0
 91
        0
 64
     7
 65
   257
 75
     1
175
     1
 42
1.0
 92
        8
 66
   257
 43
1.0
 76
     1
 77
     6
 78
     2
 67
     7
 79
     3
170
     0
171
     0
290
     0
174
     0
 93
       13
 44
0.0
173
     0
291
     0
 45
0.0
  0
VISUALSTYLE
  5
42
102
{ACAD_REACTORS
330
2A
102
}
102
{ACAD_XDICTIONARY
360
203
102
}
330
2A
100
AcDbVisualStyle
  2
Shaded
 70
    27
 71
     2
 72
     2
 73
     1
 90
        2
 40
0.6
 41
30.0
 62
     5
 63
     7
421
 16777215
 74
     0
 91
        4
 64
     7
 65
   257
 75
     1
175
     1
 42
1.0
 92
        8
 66
   257
 43
1.0
 76
     1
 77
     6
 78
     2
 67
     8
425
  7895160
 79
     3
170
     0
171
     0
290
     0
174
     0
 93
        5
 44
0.0
173
     0
291
     0
 45
0.0
  0
VISUALSTYLE
  5
41
102
{ACAD_REACTORS
330
2A
102
}
102
{ACAD_XDICTIONARY
360
201
102
}
330
2A
100
AcDbVisualStyle
  2
Shaded with edges
 70
    26
 71
     2
 72
     2
 73
     1
 90
        2
 40
0.6
 41
30.0
 62
     5
 63
     7
421
 16777215
 74
     1
 91
       10
 64
     7
 65
   257
 75
     2
175
     1
 42
1.0
 92
        8
 66
   257
 43
1.0
 76
     1
 77
     6
 78
     2
 67
     7
 79
     3
170
     0
171
     0
290
     0
174
     0
 93
        5
 44
0.0
173
     0
291
     0
 45
0.0
  0
VISUALSTYLE
  5
3E
102
{ACAD_REACTORS
330
2A
102
}
102
{ACAD_XDICTIONARY
360
1FB
102
}
330
2A
100
AcDbVisualStyle
  2
Shades of Gray
 70
    23
 71
     2
 72
     2
 73
     3
 90
        0
 40
0.6
 41
30.0
 62
     5
 63
     7
421
 16777215
 74
     2
 91
        2
 64
     7
 65
     7
 75
     1
175
     1
 42
40.0
 92
        8
 66
     7
 43
1.0
 76
     1
 77
     6
 78
     2
 67
     7
 79
     3
170
     0
171
     0
290
     0
174
     0
 93
        1
 44
0.0
173
     0
291
     0
 45
0.0
  0
VISUALSTYLE
  5
3F
102
{ACAD_REACTORS
330
2A
102
}
102
{ACAD_XDICTIONARY
360
1FD
102
}
330
2A
100
AcDbVisualStyle
  2
Sketchy
 70
    24
 71
     1
 72
     2
 73
     2
 90
        0
 40
0.6
 41
30.0
 62
     5
 63
     7
421
 16777215
 74
     2
 91
        2
 64
     7
 65
     7
 75
     1
175
     1
 42
40.0
 92
       11
 66
     7
 43
1.0
 76
     1
 77
     6
 78
     2
 67
     7
 79
     6
170
     0
171
     0
290
     0
174
     0
 93
        1
 44
0.0
173
     0
291
     0
 45
0.0
  0
VISUALSTYLE
  5
37
102
{ACAD_REACTORS
330
2A
102
}
102
{ACAD_XDICTIONARY
360
1ED
102
}
330
2A
100
AcDbVisualStyle
  2
Thicken
 70
    13
 71
     2
 72
     2
 73
     0
 90
        0
 40
0.6
 41
30.0
 62
     5
 63
     7
421
 16777215
 74
     1
 91
        4
 64
     7
 65
   257
 75
     1
175
     1
 42
1.0
 92
       12
 66
     7
 43
1.0
 76
     1
 77
     6
 78
     2
 67
     7
 79
     5
170
     0
171
     0
290
     0
174
     0
 93
        1
 44
0.0
173
     0
291
     1
 45
0.0
  0
VISUALSTYLE
  5
30
102
{ACAD_REACTORS
330
2A
102
}
102
{ACAD_XDICTIONARY
360
1DF
102
}
330
2A
100
AcDbVisualStyle
  2
Wireframe
 70
     5
 71
     0
 72
     2
 73
     0
 90
        0
 40
0.6
 41
30.0
 62
     5
 63
     7
421
 16777215
 74
     1
 91
        4
 64
     7
 65
   257
 75
     1
175
     1
 42
1.0
 92
        0
 66
   257
 43
1.0
 76
     1
 77
     6
 78
     2
 67
     7
 79
     3
170
     0
171
     0
290
     0
174
     0
 93
        1
 44
0.0
173
     0
291
     0
 45
0.0
  0
VISUALSTYLE
  5
40
102
{ACAD_REACTORS
330
2A
102
}
102
{ACAD_XDICTIONARY
360
1FF
102
}
330
2A
100
AcDbVisualStyle
  2
X-Ray
 70
    25
 71
     2
 72
     2
 73
     1
 90
        1
 40
0.5
 41
30.0
 62
     5
 63
     7
421
 16777215
 74
     1
 91
        0
 64
     7
 65
   257
 75
     1
175
     1
 42
1.0
 92
        8
 66
     7
 43
1.0
 76
     1
 77
     6
 78
     2
 67
     7
 79
     3
170
     0
171
     0
290
     0
174
     0
 93
       13
 44
0.0
173
     0
291
     0
 45
0.0
  0
DICTIONARYVAR
  5
1D3
102
{ACAD_REACTORS
330
1D2
102
}
330
1D2
100
DictionaryVariables
280
     0
  1
1:1
  0
DICTIONARYVAR
  5
20F
102
{ACAD_REACTORS
330
1D2
102
}
330
1D2
100
DictionaryVariables
280
     0
  1
3.500000
  0
DICTIONARYVAR
  5
210
102
{ACAD_REACTORS
330
1D2
102
}
330
1D2
100
DictionaryVariables
280
     0
  1
acadiso.lin
  0
DICTIONARYVAR
  5
20C
102
{ACAD_REACTORS
330
1D2
102
}
330
1D2
100
DictionaryVariables
280
     0
  1
Standard
  0
DICTIONARYVAR
  5
20B
102
{ACAD_REACTORS
330
1D2
102
}
330
1D2
100
DictionaryVariables
280
     0
  1
Standard
  0
DICTIONARYVAR
  5
1D4
102
{ACAD_REACTORS
330
1D2
102
}
330
1D2
100
DictionaryVariables
280
     0
  1
2
  0
DICTIONARY
  5
208
330
6C
100
AcDbDictionary
280
     1
281
     1
  3
ACAD_XREC_ROUNDTRIP
360
209
  0
DICTIONARY
  5
205
330
6A
100
AcDbDictionary
280
     1
281
     1
  3
ACAD_ROUNDTRIP_2008_TABLESTYLE_CELLSTYLEMAP
360
206
  0
DICTIONARY
  5
1DD
330
2F
100
AcDbDictionary
280
     1
281
     1
  3
ACAD_XREC_ROUNDTRIP
360
1DE
  0
DICTIONARY
  5
1E3
330
32
100
AcDbDictionary
280
     1
281
     1
  3
ACAD_XREC_ROUNDTRIP
360
1E4
  0
DICTIONARY
  5
1EB
330
36
100
AcDbDictionary
280
     1
281
     1
  3
ACAD_XREC_ROUNDTRIP
360
1EC
  0
DICTIONARY
  5
1F3
330
3A
100
AcDbDictionary
280
     1
281
     1
  3
ACAD_XREC_ROUNDTRIP
360
1F4
  0
DICTIONARY
  5
1E7
330
34
100
AcDbDictionary
280
     1
281
     1
  3
ACAD_XREC_ROUNDTRIP
360
1E8
  0
DICTIONARY
  5
1E9
330
35
100
AcDbDictionary
280
     1
281
     1
  3
ACAD_XREC_ROUNDTRIP
360
1EA
  0
DICTIONARY
  5
1F9
330
3D
100
AcDbDictionary
280
     1
281
     1
  3
ACAD_XREC_ROUNDTRIP
360
1FA
  0
DICTIONARY
  5
1F1
330
39
100
AcDbDictionary
280
     1
281
     1
  3
ACAD_XREC_ROUNDTRIP
360
1F2
  0
DICTIONARY
  5
1D5
330
2B
100
AcDbDictionary
280
     1
281
     1
  3
ACAD_XREC_ROUNDTRIP
360
1D6
  0
DICTIONARY
  5
1D7
330
2C
100
AcDbDictionary
280
     1
281
     1
  3
ACAD_XREC_ROUNDTRIP
360
1D8
  0
DICTIONARY
  5
1D9
330
2D
100
AcDbDictionary
280
     1
281
     1
  3
ACAD_XREC_ROUNDTRIP
360
1DA
  0
DICTIONARY
  5
1DB
330
2E
100
AcDbDictionary
280
     1
281
     1
  3
ACAD_XREC_ROUNDTRIP
360
1DC
  0
DICTIONARY
  5
1E1
330
31
100
AcDbDictionary
280
     1
281
     1
  3
ACAD_XREC_ROUNDTRIP
360
1E2
  0
DICTIONARY
  5
1F5
330
3B
100
AcDbDictionary
280
     1
281
     1
  3
ACAD_XREC_ROUNDTRIP
360
1F6
  0
DICTIONARY
  5
1EF
330
38
100
AcDbDictionary
280
     1
281
     1
  3
ACAD_XREC_ROUNDTRIP
360
1F0
  0
DICTIONARY
  5
1F7
330
3C
100
AcDbDictionary
280
     1
281
     1
  3
ACAD_XREC_ROUNDTRIP
360
1F8
  0
DICTIONARY
  5
1E5
330
33
100
AcDbDictionary
280
     1
281
     1
  3
ACAD_XREC_ROUNDTRIP
360
1E6
  0
DICTIONARY
  5
203
330
42
100
AcDbDictionary
280
     1
281
     1
  3
ACAD_XREC_ROUNDTRIP
360
204
  0
DICTIONARY
  5
201
330
41
100
AcDbDictionary
280
     1
281
     1
  3
ACAD_XREC_ROUNDTRIP
360
202
  0
DICTIONARY
  5
1FB
330
3E
100
AcDbDictionary
280
     1
281
     1
  3
ACAD_XREC_ROUNDTRIP
360
1FC
  0
DICTIONARY
  5
1FD
330
3F
100
AcDbDictionary
280
     1
281
     1
  3
ACAD_XREC_ROUNDTRIP
360
1FE
  0
DICTIONARY
  5
1ED
330
37
100
AcDbDictionary
280
     1
281
     1
  3
ACAD_XREC_ROUNDTRIP
360
1EE
  0
DICTIONARY
  5
1DF
330
30
100
AcDbDictionary
280
     1
281
     1
  3
ACAD_XREC_ROUNDTRIP
360
1E0
  0
DICTIONARY
  5
1FF
330
40
100
AcDbDictionary
280
     1
281
     1
  3
ACAD_XREC_ROUNDTRIP
360
200
  0
XRECORD
  5
209
102
{ACAD_REACTORS
330
208
102
}
330
208
100
AcDbXrecord
280
     1
102
ACAD_ROUNDTRIP_2010_MLEADER_STYLE
  0
CELLSTYLEMAP
  5
206
102
{ACAD_REACTORS
330
205
102
}
330
205
100
AcDbCellStyleMap
 90
        3
300
CELLSTYLE
  1
TABLEFORMAT_BEGIN
 90
        5
170
     1
 91
        0
 92
    32768
 62
   257
 93
        1
300
CONTENTFORMAT
  1
CONTENTFORMAT_BEGIN
 90
        0
 91
        0
 92
        4
 93
        0
300

 40
0.0
140
1.0
 94
        5
 62
     0
340
11
144
6.0
309
CONTENTFORMAT_END
171
     1
301
MARGIN
  1
CELLMARGIN_BEGIN
 40
1.5
 40
1.5
 40
1.5
 40
1.5
 40
1.5
 40
1.5
309
CELLMARGIN_END
 94
        6
 95
        1
302
GRIDFORMAT
  1
GRIDFORMAT_BEGIN
 90
        0
 91
        1
 62
     0
 92
       -2
340
14
 93
        0
 40
0.045
309
GRIDFORMAT_END
 95
        2
302
GRIDFORMAT
  1
GRIDFORMAT_BEGIN
 90
        0
 91
        1
 62
     0
 92
       -2
340
14
 93
        0
 40
0.045
309
GRIDFORMAT_END
 95
        4
302
GRIDFORMAT
  1
GRIDFORMAT_BEGIN
 90
        0
 91
        1
 62
     0
 92
       -2
340
14
 93
        0
 40
0.045
309
GRIDFORMAT_END
 95
        8
302
GRIDFORMAT
  1
GRIDFORMAT_BEGIN
 90
        0
 91
        1
 62
     0
 92
       -2
340
14
 93
        0
 40
0.045
309
GRIDFORMAT_END
 95
       16
302
GRIDFORMAT
  1
GRIDFORMAT_BEGIN
 90
        0
 91
        1
 62
     0
 92
       -2
340
14
 93
        0
 40
0.045
309
GRIDFORMAT_END
 95
       32
302
GRIDFORMAT
  1
GRIDFORMAT_BEGIN
 90
        0
 91
        1
 62
     0
 92
       -2
340
14
 93
        0
 40
0.045
309
GRIDFORMAT_END
309
TABLEFORMAT_END
  1
CELLSTYLE_BEGIN
 90
        1
 91
        1
300
_TITLE
309
CELLSTYLE_END
300
CELLSTYLE
  1
TABLEFORMAT_BEGIN
 90
        5
170
     1
 91
        0
 92
        0
 62
   257
 93
        1
300
CONTENTFORMAT
  1
CONTENTFORMAT_BEGIN
 90
        0
 91
        0
 92
        4
 93
        0
300

 40
0.0
140
1.0
 94
        5
 62
     0
340
11
144
4.5
309
CONTENTFORMAT_END
171
     1
301
MARGIN
  1
CELLMARGIN_BEGIN
 40
1.5
 40
1.5
 40
1.5
 40
1.5
 40
1.5
 40
1.5
309
CELLMARGIN_END
 94
        6
 95
        1
302
GRIDFORMAT
  1
GRIDFORMAT_BEGIN
 90
        0
 91
        1
 62
     0
 92
       -2
340
14
 93
        0
 40
0.045
309
GRIDFORMAT_END
 95
        2
302
GRIDFORMAT
  1
GRIDFORMAT_BEGIN
 90
        0
 91
        1
 62
     0
 92
       -2
340
14
 93
        0
 40
0.045
309
GRIDFORMAT_END
 95
        4
302
GRIDFORMAT
  1
GRIDFORMAT_BEGIN
 90
        0
 91
        1
 62
     0
 92
       -2
340
14
 93
        0
 40
0.045
309
GRIDFORMAT_END
 95
        8
302
GRIDFORMAT
  1
GRIDFORMAT_BEGIN
 90
        0
 91
        1
 62
     0
 92
       -2
340
14
 93
        0
 40
0.045
309
GRIDFORMAT_END
 95
       16
302
GRIDFORMAT
  1
GRIDFORMAT_BEGIN
 90
        0
 91
        1
 62
     0
 92
       -2
340
14
 93
        0
 40
0.045
309
GRIDFORMAT_END
 95
       32
302
GRIDFORMAT
  1
GRIDFORMAT_BEGIN
 90
        0
 91
        1
 62
     0
 92
       -2
340
14
 93
        0
 40
0.045
309
GRIDFORMAT_END
309
TABLEFORMAT_END
  1
CELLSTYLE_BEGIN
 90
        2
 91
        1
300
_HEADER
309
CELLSTYLE_END
300
CELLSTYLE
  1
TABLEFORMAT_BEGIN
 90
        5
170
     1
 91
        0
 92
        0
 62
   257
 93
        1
300
CONTENTFORMAT
  1
CONTENTFORMAT_BEGIN
 90
        0
 91
        0
 92
        4
 93
        0
300

 40
0.0
140
1.0
 94
        2
 62
     0
340
11
144
4.5
309
CONTENTFORMAT_END
171
     1
301
MARGIN
  1
CELLMARGIN_BEGIN
 40
1.5
 40
1.5
 40
1.5
 40
1.5
 40
1.5
 40
1.5
309
CELLMARGIN_END
 94
        6
 95
        1
302
GRIDFORMAT
  1
GRIDFORMAT_BEGIN
 90
        0
 91
        1
 62
     0
 92
       -2
340
14
 93
        0
 40
0.045
309
GRIDFORMAT_END
 95
        2
302
GRIDFORMAT
  1
GRIDFORMAT_BEGIN
 90
        0
 91
        1
 62
     0
 92
       -2
340
14
 93
        0
 40
0.045
309
GRIDFORMAT_END
 95
        4
302
GRIDFORMAT
  1
GRIDFORMAT_BEGIN
 90
        0
 91
        1
 62
     0
 92
       -2
340
14
 93
        0
 40
0.045
309
GRIDFORMAT_END
 95
        8
302
GRIDFORMAT
  1
GRIDFORMAT_BEGIN
 90
        0
 91
        1
 62
     0
 92
       -2
340
14
 93
        0
 40
0.045
309
GRIDFORMAT_END
 95
       16
302
GRIDFORMAT
  1
GRIDFORMAT_BEGIN
 90
        0
 91
        1
 62
     0
 92
       -2
340
14
 93
        0
 40
0.045
309
GRIDFORMAT_END
 95
       32
302
GRIDFORMAT
  1
GRIDFORMAT_BEGIN
 90
        0
 91
        1
 62
     0
 92
       -2
340
14
 93
        0
 40
0.045
309
GRIDFORMAT_END
309
TABLEFORMAT_END
  1
CELLSTYLE_BEGIN
 90
        3
 91
        2
300
_DATA
309
CELLSTYLE_END
  0
XRECORD
  5
1DE
102
{ACAD_REACTORS
330
1DD
102
}
330
1DD
100
AcDbXrecord
280
     1
102
RTVSPropertyOp0
 70
     1
102
RTVSPropertyOp1
 70
     1
102
RTVSPropertyOp2
 70
     1
102
RTVSPropertyOp3
 70
     1
102
RTVSPropertyOp4
 70
     1
102
RTVSPropertyOp5
 70
     1
102
RTVSPropertyOp6
 70
     1
102
RTVSPropertyOp7
 70
     1
102
RTVSPropertyOp8
 70
     1
102
RTVSPropertyOp9
 70
     1
102
RTVSPropertyOp10
 70
     1
102
RTVSPropertyOp11
 70
     1
102
RTVSPropertyOp12
 70
     1
102
RTVSPropertyOp13
 70
     1
102
RTVSPropertyOp14
 70
     1
102
RTVSPropertyOp15
 70
     1
102
RTVSPropertyOp16
 70
     1
102
RTVSPropertyOp17
 70
     1
102
RTVSPropertyOp18
 70
     1
102
RTVSPropertyOp19
 70
     1
102
RTVSPropertyOp20
 70
     1
102
RTVSPropertyOp21
 70
     1
102
RTVSPropertyOp22
 70
     1
102
RTVSPropertyOp23
 70
     1
102
RTVSPropertyOp24
 70
     1
102
RTVSPropertyOp25
 70
     1
102
RTVSPropertyOp26
 70
     1
102
RTVSPropertyOp27
 70
     1
102
RTVSPropertyOp28
 70
     1
102
RTVSPropertyOp29
 70
     1
102
RTVSPropertyOp30
 70
     1
102
RTVSPropertyOp31
 70
     1
102
RTVSPropertyOp32
 70
     1
102
RTVSPropertyOp33
 70
     1
102
RTVSPropertyOp34
 70
     1
102
RTVSPropertyOp35
 70
     1
102
RTVSPropertyOp36
 70
     1
102
RTVSPropertyOp37
 70
     1
102
RTVSPropertyOp38
 70
     1
102
RTVSPropertyOp39
 70
     1
102
RTVSPropertyOp40
 70
     1
102
RTVSPropertyOp41
 70
     1
102
RTVSPropertyOp42
 70
     1
102
RTVSPropertyOp43
 70
     1
102
RTVSPropertyOp44
 70
     1
102
RTVSPropertyOp45
 70
     1
102
RTVSPropertyOp46
 70
     1
102
RTVSPropertyOp47
 70
     1
102
RTVSPropertyOp48
 70
     1
102
RTVSPropertyOp49
 70
     1
102
RTVSPropertyOp50
 70
     1
102
RTVSPropertyOp51
 70
     0
102
RTVSPropertyOp52
 70
     0
102
RTVSPropertyOp53
 70
     1
102
RTVSPropertyOp54
 70
     1
102
RTVSPropertyOp55
 70
     1
102
RTVSPropertyOp56
 70
     1
102
RTVSPropertyOp57
 70
     1
102
RTVSPost2010Prop28
280
     1
102
RTVSPost2010PropOp28
 70
     1
102
RTVSPost2010Prop29
280
     1
102
RTVSPost2010PropOp29
 70
     1
102
RTVSPost2010Prop30
280
     0
102
RTVSPost2010PropOp30
 70
     1
102
RTVSPost2010Prop31
280
     0
102
RTVSPost2010PropOp31
 70
     1
102
RTVSPost2010Prop32
280
     0
102
RTVSPost2010PropOp32
 70
     1
102
RTVSPost2010Prop33
280
     0
102
RTVSPost2010PropOp33
 70
     1
102
RTVSPost2010Prop34
280
     0
102
RTVSPost2010PropOp34
 70
     1
102
RTVSPost2010Prop35
280
     0
102
RTVSPost2010PropOp35
 70
     1
102
RTVSPost2010Prop36
280
     0
102
RTVSPost2010PropOp36
 70
     1
102
RTVSPost2010Prop37
 90
       50
102
RTVSPost2010PropOp37
 70
     1
102
RTVSPost2010Prop38
140
0.0
102
RTVSPost2010PropOp38
 70
     1
102
RTVSPost2010Prop39
140
1.0
102
RTVSPost2010PropOp39
 70
     1
102
RTVSPost2010Prop40
 90
        0
102
RTVSPost2010PropOp40
 70
     1
102
RTVSPost2010Prop41ColorIndex
 90
       18
102
RTVSPost2010Prop41ColorRGB
 90
        0
102
RTVSPost2010PropOp41
 70
     1
102
RTVSPost2010Prop42
 90
       50
102
RTVSPost2010PropOp42
 70
     1
102
RTVSPost2010Prop43
 90
        3
102
RTVSPost2010PropOp43
 70
     1
102
RTVSPost2010Prop44ColorIndex
 90
        5
102
RTVSPost2010Prop44ColorRGB
 90
      255
102
RTVSPost2010PropOp44
 70
     1
102
RTVSPost2010Prop45
280
     0
102
RTVSPost2010PropOp45
 70
     1
102
RTVSPost2010Prop46
 90
       50
102
RTVSPost2010PropOp46
 70
     1
102
RTVSPost2010Prop47
 90
       50
102
RTVSPost2010PropOp47
 70
     1
102
RTVSPost2010Prop48
 90
       50
102
RTVSPost2010PropOp48
 70
     1
102
RTVSPost2010Prop49
280
     0
102
RTVSPost2010PropOp49
 70
     1
102
RTVSPost2010Prop50
 90
       50
102
RTVSPost2010PropOp50
 70
     1
102
RTVSPost2010Prop51ColorIndex
 90
      256
102
RTVSPost2010Prop51ColorRGB
 90
-16777216
102
RTVSPost2010PropOp51
 70
     0
102
RTVSPost2010Prop52
140
1.0
102
RTVSPost2010PropOp52
 70
     0
102
RTVSPost2010Prop53
 90
        2
102
RTVSPost2010PropOp53
 70
     1
102
RTVSPost2010Prop54
  1
strokes_ogs.tif
102
RTVSPost2010PropOp54
 70
     1
102
RTVSPost2010Prop55
280
     0
102
RTVSPost2010PropOp55
 70
     1
102
RTVSPost2010Prop56
140
1.0
102
RTVSPost2010PropOp56
 70
     1
102
RTVSPost2010Prop57
140
1.0
102
RTVSPost2010PropOp57
 70
     1
  0
XRECORD
  5
1E4
102
{ACAD_REACTORS
330
1E3
102
}
330
1E3
100
AcDbXrecord
280
     1
102
RTVSPropertyOp0
 70
     1
102
RTVSPropertyOp1
 70
     1
102
RTVSPropertyOp2
 70
     1
102
RTVSPropertyOp3
 70
     1
102
RTVSPropertyOp4
 70
     1
102
RTVSPropertyOp5
 70
     1
102
RTVSPropertyOp6
 70
     1
102
RTVSPropertyOp7
 70
     1
102
RTVSPropertyOp8
 70
     1
102
RTVSPropertyOp9
 70
     1
102
RTVSPropertyOp10
 70
     1
102
RTVSPropertyOp11
 70
     1
102
RTVSPropertyOp12
 70
     1
102
RTVSPropertyOp13
 70
     1
102
RTVSPropertyOp14
 70
     1
102
RTVSPropertyOp15
 70
     1
102
RTVSPropertyOp16
 70
     1
102
RTVSPropertyOp17
 70
     1
102
RTVSPropertyOp18
 70
     1
102
RTVSPropertyOp19
 70
     1
102
RTVSPropertyOp20
 70
     1
102
RTVSPropertyOp21
 70
     1
102
RTVSPropertyOp22
 70
     1
102
RTVSPropertyOp23
 70
     1
102
RTVSPropertyOp24
 70
     1
102
RTVSPropertyOp25
 70
     1
102
RTVSPropertyOp26
 70
     1
102
RTVSPropertyOp27
 70
     1
102
RTVSPropertyOp28
 70
     1
102
RTVSPropertyOp29
 70
     1
102
RTVSPropertyOp30
 70
     1
102
RTVSPropertyOp31
 70
     1
102
RTVSPropertyOp32
 70
     1
102
RTVSPropertyOp33
 70
     1
102
RTVSPropertyOp34
 70
     1
102
RTVSPropertyOp35
 70
     1
102
RTVSPropertyOp36
 70
     1
102
RTVSPropertyOp37
 70
     1
102
RTVSPropertyOp38
 70
     1
102
RTVSPropertyOp39
 70
     1
102
RTVSPropertyOp40
 70
     1
102
RTVSPropertyOp41
 70
     1
102
RTVSPropertyOp42
 70
     1
102
RTVSPropertyOp43
 70
     1
102
RTVSPropertyOp44
 70
     1
102
RTVSPropertyOp45
 70
     1
102
RTVSPropertyOp46
 70
     1
102
RTVSPropertyOp47
 70
     1
102
RTVSPropertyOp48
 70
     1
102
RTVSPropertyOp49
 70
     1
102
RTVSPropertyOp50
 70
     1
102
RTVSPropertyOp51
 70
     0
102
RTVSPropertyOp52
 70
     0
102
RTVSPropertyOp53
 70
     1
102
RTVSPropertyOp54
 70
     1
102
RTVSPropertyOp55
 70
     1
102
RTVSPropertyOp56
 70
     1
102
RTVSPropertyOp57
 70
     1
102
RTVSPost2010Prop28
280
     0
102
RTVSPost2010PropOp28
 70
     1
102
RTVSPost2010Prop29
280
     1
102
RTVSPost2010PropOp29
 70
     1
102
RTVSPost2010Prop30
280
     1
102
RTVSPost2010PropOp30
 70
     1
102
RTVSPost2010Prop31
280
     0
102
RTVSPost2010PropOp31
 70
     1
102
RTVSPost2010Prop32
280
     0
102
RTVSPost2010PropOp32
 70
     1
102
RTVSPost2010Prop33
280
     0
102
RTVSPost2010PropOp33
 70
     1
102
RTVSPost2010Prop34
280
     0
102
RTVSPost2010PropOp34
 70
     1
102
RTVSPost2010Prop35
280
     0
102
RTVSPost2010PropOp35
 70
     1
102
RTVSPost2010Prop36
280
     0
102
RTVSPost2010PropOp36
 70
     1
102
RTVSPost2010Prop37
 90
       50
102
RTVSPost2010PropOp37
 70
     1
102
RTVSPost2010Prop38
140
0.0
102
RTVSPost2010PropOp38
 70
     1
102
RTVSPost2010Prop39
140
1.0
102
RTVSPost2010PropOp39
 70
     1
102
RTVSPost2010Prop40
 90
        0
102
RTVSPost2010PropOp40
 70
     1
102
RTVSPost2010Prop41ColorIndex
 90
       18
102
RTVSPost2010Prop41ColorRGB
 90
        0
102
RTVSPost2010PropOp41
 70
     1
102
RTVSPost2010Prop42
 90
       50
102
RTVSPost2010PropOp42
 70
     1
102
RTVSPost2010Prop43
 90
        3
102
RTVSPost2010PropOp43
 70
     1
102
RTVSPost2010Prop44ColorIndex
 90
        5
102
RTVSPost2010Prop44ColorRGB
 90
      255
102
RTVSPost2010PropOp44
 70
     1
102
RTVSPost2010Prop45
280
     0
102
RTVSPost2010PropOp45
 70
     1
102
RTVSPost2010Prop46
 90
       50
102
RTVSPost2010PropOp46
 70
     1
102
RTVSPost2010Prop47
 90
       50
102
RTVSPost2010PropOp47
 70
     1
102
RTVSPost2010Prop48
 90
       50
102
RTVSPost2010PropOp48
 70
     1
102
RTVSPost2010Prop49
280
     0
102
RTVSPost2010PropOp49
 70
     1
102
RTVSPost2010Prop50
 90
       50
102
RTVSPost2010PropOp50
 70
     1
102
RTVSPost2010Prop51ColorIndex
 90
      256
102
RTVSPost2010Prop51ColorRGB
 90
-16777216
102
RTVSPost2010PropOp51
 70
     0
102
RTVSPost2010Prop52
140
1.0
102
RTVSPost2010PropOp52
 70
     0
102
RTVSPost2010Prop53
 90
        2
102
RTVSPost2010PropOp53
 70
     1
102
RTVSPost2010Prop54
  1
strokes_ogs.tif
102
RTVSPost2010PropOp54
 70
     1
102
RTVSPost2010Prop55
280
     0
102
RTVSPost2010PropOp55
 70
     1
102
RTVSPost2010Prop56
140
1.0
102
RTVSPost2010PropOp56
 70
     1
102
RTVSPost2010Prop57
140
1.0
102
RTVSPost2010PropOp57
 70
     1
  0
XRECORD
  5
1EC
102
{ACAD_REACTORS
330
1EB
102
}
330
1EB
100
AcDbXrecord
280
     1
102
RTVSPropertyOp0
 70
     1
102
RTVSPropertyOp1
 70
     1
102
RTVSPropertyOp2
 70
     1
102
RTVSPropertyOp3
 70
     1
102
RTVSPropertyOp4
 70
     1
102
RTVSPropertyOp5
 70
     1
102
RTVSPropertyOp6
 70
     1
102
RTVSPropertyOp7
 70
     1
102
RTVSPropertyOp8
 70
     1
102
RTVSPropertyOp9
 70
     1
102
RTVSPropertyOp10
 70
     1
102
RTVSPropertyOp11
 70
     1
102
RTVSPropertyOp12
 70
     1
102
RTVSPropertyOp13
 70
     1
102
RTVSPropertyOp14
 70
     1
102
RTVSPropertyOp15
 70
     1
102
RTVSPropertyOp16
 70
     1
102
RTVSPropertyOp17
 70
     1
102
RTVSPropertyOp18
 70
     1
102
RTVSPropertyOp19
 70
     1
102
RTVSPropertyOp20
 70
     1
102
RTVSPropertyOp21
 70
     1
102
RTVSPropertyOp22
 70
     1
102
RTVSPropertyOp23
 70
     1
102
RTVSPropertyOp24
 70
     1
102
RTVSPropertyOp25
 70
     1
102
RTVSPropertyOp26
 70
     1
102
RTVSPropertyOp27
 70
     1
102
RTVSPropertyOp28
 70
     1
102
RTVSPropertyOp29
 70
     1
102
RTVSPropertyOp30
 70
     1
102
RTVSPropertyOp31
 70
     1
102
RTVSPropertyOp32
 70
     1
102
RTVSPropertyOp33
 70
     1
102
RTVSPropertyOp34
 70
     1
102
RTVSPropertyOp35
 70
     1
102
RTVSPropertyOp36
 70
     1
102
RTVSPropertyOp37
 70
     1
102
RTVSPropertyOp38
 70
     1
102
RTVSPropertyOp39
 70
     1
102
RTVSPropertyOp40
 70
     1
102
RTVSPropertyOp41
 70
     1
102
RTVSPropertyOp42
 70
     1
102
RTVSPropertyOp43
 70
     1
102
RTVSPropertyOp44
 70
     1
102
RTVSPropertyOp45
 70
     1
102
RTVSPropertyOp46
 70
     1
102
RTVSPropertyOp47
 70
     1
102
RTVSPropertyOp48
 70
     1
102
RTVSPropertyOp49
 70
     1
102
RTVSPropertyOp50
 70
     1
102
RTVSPropertyOp51
 70
     0
102
RTVSPropertyOp52
 70
     0
102
RTVSPropertyOp53
 70
     1
102
RTVSPropertyOp54
 70
     1
102
RTVSPropertyOp55
 70
     1
102
RTVSPropertyOp56
 70
     1
102
RTVSPropertyOp57
 70
     1
102
RTVSPost2010Prop28
280
     0
102
RTVSPost2010PropOp28
 70
     1
102
RTVSPost2010Prop29
280
     1
102
RTVSPost2010PropOp29
 70
     1
102
RTVSPost2010Prop30
280
     1
102
RTVSPost2010PropOp30
 70
     1
102
RTVSPost2010Prop31
280
     0
102
RTVSPost2010PropOp31
 70
     1
102
RTVSPost2010Prop32
280
     0
102
RTVSPost2010PropOp32
 70
     1
102
RTVSPost2010Prop33
280
     0
102
RTVSPost2010PropOp33
 70
     1
102
RTVSPost2010Prop34
280
     0
102
RTVSPost2010PropOp34
 70
     1
102
RTVSPost2010Prop35
280
     0
102
RTVSPost2010PropOp35
 70
     1
102
RTVSPost2010Prop36
280
     0
102
RTVSPost2010PropOp36
 70
     1
102
RTVSPost2010Prop37
 90
       50
102
RTVSPost2010PropOp37
 70
     1
102
RTVSPost2010Prop38
140
0.0
102
RTVSPost2010PropOp38
 70
     1
102
RTVSPost2010Prop39
140
1.0
102
RTVSPost2010PropOp39
 70
     1
102
RTVSPost2010Prop40
 90
        0
102
RTVSPost2010PropOp40
 70
     1
102
RTVSPost2010Prop41ColorIndex
 90
       18
102
RTVSPost2010Prop41ColorRGB
 90
        0
102
RTVSPost2010PropOp41
 70
     1
102
RTVSPost2010Prop42
 90
       50
102
RTVSPost2010PropOp42
 70
     1
102
RTVSPost2010Prop43
 90
        3
102
RTVSPost2010PropOp43
 70
     1
102
RTVSPost2010Prop44ColorIndex
 90
        5
102
RTVSPost2010Prop44ColorRGB
 90
      255
102
RTVSPost2010PropOp44
 70
     1
102
RTVSPost2010Prop45
280
     0
102
RTVSPost2010PropOp45
 70
     1
102
RTVSPost2010Prop46
 90
       50
102
RTVSPost2010PropOp46
 70
     1
102
RTVSPost2010Prop47
 90
       50
102
RTVSPost2010PropOp47
 70
     1
102
RTVSPost2010Prop48
 90
       50
102
RTVSPost2010PropOp48
 70
     1
102
RTVSPost2010Prop49
280
     0
102
RTVSPost2010PropOp49
 70
     1
102
RTVSPost2010Prop50
 90
       50
102
RTVSPost2010PropOp50
 70
     1
102
RTVSPost2010Prop51ColorIndex
 90
      256
102
RTVSPost2010Prop51ColorRGB
 90
-16777216
102
RTVSPost2010PropOp51
 70
     0
102
RTVSPost2010Prop52
140
1.0
102
RTVSPost2010PropOp52
 70
     0
102
RTVSPost2010Prop53
 90
        2
102
RTVSPost2010PropOp53
 70
     1
102
RTVSPost2010Prop54
  1
strokes_ogs.tif
102
RTVSPost2010PropOp54
 70
     1
102
RTVSPost2010Prop55
280
     0
102
RTVSPost2010PropOp55
 70
     1
102
RTVSPost2010Prop56
140
1.0
102
RTVSPost2010PropOp56
 70
     1
102
RTVSPost2010Prop57
140
1.0
102
RTVSPost2010PropOp57
 70
     1
  0
XRECORD
  5
1F4
102
{ACAD_REACTORS
330
1F3
102
}
330
1F3
100
AcDbXrecord
280
     1
102
RTVSPropertyOp0
 70
     1
102
RTVSPropertyOp1
 70
     1
102
RTVSPropertyOp2
 70
     1
102
RTVSPropertyOp3
 70
     1
102
RTVSPropertyOp4
 70
     1
102
RTVSPropertyOp5
 70
     1
102
RTVSPropertyOp6
 70
     1
102
RTVSPropertyOp7
 70
     1
102
RTVSPropertyOp8
 70
     1
102
RTVSPropertyOp9
 70
     1
102
RTVSPropertyOp10
 70
     1
102
RTVSPropertyOp11
 70
     1
102
RTVSPropertyOp12
 70
     1
102
RTVSPropertyOp13
 70
     1
102
RTVSPropertyOp14
 70
     1
102
RTVSPropertyOp15
 70
     1
102
RTVSPropertyOp16
 70
     1
102
RTVSPropertyOp17
 70
     1
102
RTVSPropertyOp18
 70
     1
102
RTVSPropertyOp19
 70
     1
102
RTVSPropertyOp20
 70
     1
102
RTVSPropertyOp21
 70
     1
102
RTVSPropertyOp22
 70
     1
102
RTVSPropertyOp23
 70
     1
102
RTVSPropertyOp24
 70
     1
102
RTVSPropertyOp25
 70
     1
102
RTVSPropertyOp26
 70
     1
102
RTVSPropertyOp27
 70
     1
102
RTVSPropertyOp28
 70
     1
102
RTVSPropertyOp29
 70
     1
102
RTVSPropertyOp30
 70
     1
102
RTVSPropertyOp31
 70
     1
102
RTVSPropertyOp32
 70
     1
102
RTVSPropertyOp33
 70
     1
102
RTVSPropertyOp34
 70
     1
102
RTVSPropertyOp35
 70
     1
102
RTVSPropertyOp36
 70
     1
102
RTVSPropertyOp37
 70
     1
102
RTVSPropertyOp38
 70
     1
102
RTVSPropertyOp39
 70
     1
102
RTVSPropertyOp40
 70
     1
102
RTVSPropertyOp41
 70
     1
102
RTVSPropertyOp42
 70
     1
102
RTVSPropertyOp43
 70
     1
102
RTVSPropertyOp44
 70
     1
102
RTVSPropertyOp45
 70
     1
102
RTVSPropertyOp46
 70
     1
102
RTVSPropertyOp47
 70
     1
102
RTVSPropertyOp48
 70
     1
102
RTVSPropertyOp49
 70
     1
102
RTVSPropertyOp50
 70
     1
102
RTVSPropertyOp51
 70
     0
102
RTVSPropertyOp52
 70
     0
102
RTVSPropertyOp53
 70
     1
102
RTVSPropertyOp54
 70
     1
102
RTVSPropertyOp55
 70
     1
102
RTVSPropertyOp56
 70
     1
102
RTVSPropertyOp57
 70
     1
102
RTVSPost2010Prop28
280
     0
102
RTVSPost2010PropOp28
 70
     1
102
RTVSPost2010Prop29
280
     1
102
RTVSPost2010PropOp29
 70
     1
102
RTVSPost2010Prop30
280
     1
102
RTVSPost2010PropOp30
 70
     1
102
RTVSPost2010Prop31
280
     0
102
RTVSPost2010PropOp31
 70
     1
102
RTVSPost2010Prop32
280
     0
102
RTVSPost2010PropOp32
 70
     1
102
RTVSPost2010Prop33
280
     0
102
RTVSPost2010PropOp33
 70
     1
102
RTVSPost2010Prop34
280
     0
102
RTVSPost2010PropOp34
 70
     1
102
RTVSPost2010Prop35
280
     0
102
RTVSPost2010PropOp35
 70
     1
102
RTVSPost2010Prop36
280
     0
102
RTVSPost2010PropOp36
 70
     1
102
RTVSPost2010Prop37
 90
       50
102
RTVSPost2010PropOp37
 70
     1
102
RTVSPost2010Prop38
140
0.0
102
RTVSPost2010PropOp38
 70
     1
102
RTVSPost2010Prop39
140
1.0
102
RTVSPost2010PropOp39
 70
     1
102
RTVSPost2010Prop40
 90
        0
102
RTVSPost2010PropOp40
 70
     1
102
RTVSPost2010Prop41ColorIndex
 90
       18
102
RTVSPost2010Prop41ColorRGB
 90
        0
102
RTVSPost2010PropOp41
 70
     1
102
RTVSPost2010Prop42
 90
       50
102
RTVSPost2010PropOp42
 70
     1
102
RTVSPost2010Prop43
 90
        3
102
RTVSPost2010PropOp43
 70
     1
102
RTVSPost2010Prop44ColorIndex
 90
        5
102
RTVSPost2010Prop44ColorRGB
 90
      255
102
RTVSPost2010PropOp44
 70
     1
102
RTVSPost2010Prop45
280
     0
102
RTVSPost2010PropOp45
 70
     1
102
RTVSPost2010Prop46
 90
       50
102
RTVSPost2010PropOp46
 70
     1
102
RTVSPost2010Prop47
 90
       50
102
RTVSPost2010PropOp47
 70
     1
102
RTVSPost2010Prop48
 90
       50
102
RTVSPost2010PropOp48
 70
     1
102
RTVSPost2010Prop49
280
     0
102
RTVSPost2010PropOp49
 70
     1
102
RTVSPost2010Prop50
 90
       50
102
RTVSPost2010PropOp50
 70
     1
102
RTVSPost2010Prop51ColorIndex
 90
      256
102
RTVSPost2010Prop51ColorRGB
 90
-16777216
102
RTVSPost2010PropOp51
 70
     0
102
RTVSPost2010Prop52
140
1.0
102
RTVSPost2010PropOp52
 70
     0
102
RTVSPost2010Prop53
 90
        2
102
RTVSPost2010PropOp53
 70
     1
102
RTVSPost2010Prop54
  1
strokes_ogs.tif
102
RTVSPost2010PropOp54
 70
     1
102
RTVSPost2010Prop55
280
     0
102
RTVSPost2010PropOp55
 70
     1
102
RTVSPost2010Prop56
140
1.0
102
RTVSPost2010PropOp56
 70
     1
102
RTVSPost2010Prop57
140
1.0
102
RTVSPost2010PropOp57
 70
     1
  0
XRECORD
  5
1E8
102
{ACAD_REACTORS
330
1E7
102
}
330
1E7
100
AcDbXrecord
280
     1
102
RTVSPropertyOp0
 70
     1
102
RTVSPropertyOp1
 70
     1
102
RTVSPropertyOp2
 70
     1
102
RTVSPropertyOp3
 70
     1
102
RTVSPropertyOp4
 70
     1
102
RTVSPropertyOp5
 70
     1
102
RTVSPropertyOp6
 70
     1
102
RTVSPropertyOp7
 70
     1
102
RTVSPropertyOp8
 70
     1
102
RTVSPropertyOp9
 70
     1
102
RTVSPropertyOp10
 70
     1
102
RTVSPropertyOp11
 70
     1
102
RTVSPropertyOp12
 70
     1
102
RTVSPropertyOp13
 70
     1
102
RTVSPropertyOp14
 70
     1
102
RTVSPropertyOp15
 70
     1
102
RTVSPropertyOp16
 70
     1
102
RTVSPropertyOp17
 70
     1
102
RTVSPropertyOp18
 70
     1
102
RTVSPropertyOp19
 70
     1
102
RTVSPropertyOp20
 70
     1
102
RTVSPropertyOp21
 70
     1
102
RTVSPropertyOp22
 70
     1
102
RTVSPropertyOp23
 70
     1
102
RTVSPropertyOp24
 70
     1
102
RTVSPropertyOp25
 70
     1
102
RTVSPropertyOp26
 70
     1
102
RTVSPropertyOp27
 70
     1
102
RTVSPropertyOp28
 70
     1
102
RTVSPropertyOp29
 70
     1
102
RTVSPropertyOp30
 70
     1
102
RTVSPropertyOp31
 70
     1
102
RTVSPropertyOp32
 70
     1
102
RTVSPropertyOp33
 70
     1
102
RTVSPropertyOp34
 70
     1
102
RTVSPropertyOp35
 70
     1
102
RTVSPropertyOp36
 70
     1
102
RTVSPropertyOp37
 70
     1
102
RTVSPropertyOp38
 70
     1
102
RTVSPropertyOp39
 70
     1
102
RTVSPropertyOp40
 70
     1
102
RTVSPropertyOp41
 70
     1
102
RTVSPropertyOp42
 70
     1
102
RTVSPropertyOp43
 70
     1
102
RTVSPropertyOp44
 70
     1
102
RTVSPropertyOp45
 70
     1
102
RTVSPropertyOp46
 70
     1
102
RTVSPropertyOp47
 70
     1
102
RTVSPropertyOp48
 70
     1
102
RTVSPropertyOp49
 70
     1
102
RTVSPropertyOp50
 70
     1
102
RTVSPropertyOp51
 70
     0
102
RTVSPropertyOp52
 70
     0
102
RTVSPropertyOp53
 70
     1
102
RTVSPropertyOp54
 70
     1
102
RTVSPropertyOp55
 70
     1
102
RTVSPropertyOp56
 70
     1
102
RTVSPropertyOp57
 70
     1
102
RTVSPost2010Prop28
280
     0
102
RTVSPost2010PropOp28
 70
     1
102
RTVSPost2010Prop29
280
     1
102
RTVSPost2010PropOp29
 70
     1
102
RTVSPost2010Prop30
280
     1
102
RTVSPost2010PropOp30
 70
     1
102
RTVSPost2010Prop31
280
     0
102
RTVSPost2010PropOp31
 70
     1
102
RTVSPost2010Prop32
280
     0
102
RTVSPost2010PropOp32
 70
     1
102
RTVSPost2010Prop33
280
     0
102
RTVSPost2010PropOp33
 70
     1
102
RTVSPost2010Prop34
280
     0
102
RTVSPost2010PropOp34
 70
     1
102
RTVSPost2010Prop35
280
     0
102
RTVSPost2010PropOp35
 70
     1
102
RTVSPost2010Prop36
280
     0
102
RTVSPost2010PropOp36
 70
     1
102
RTVSPost2010Prop37
 90
       50
102
RTVSPost2010PropOp37
 70
     1
102
RTVSPost2010Prop38
140
0.0
102
RTVSPost2010PropOp38
 70
     1
102
RTVSPost2010Prop39
140
1.0
102
RTVSPost2010PropOp39
 70
     1
102
RTVSPost2010Prop40
 90
        0
102
RTVSPost2010PropOp40
 70
     1
102
RTVSPost2010Prop41ColorIndex
 90
       18
102
RTVSPost2010Prop41ColorRGB
 90
        0
102
RTVSPost2010PropOp41
 70
     1
102
RTVSPost2010Prop42
 90
       50
102
RTVSPost2010PropOp42
 70
     1
102
RTVSPost2010Prop43
 90
        3
102
RTVSPost2010PropOp43
 70
     1
102
RTVSPost2010Prop44ColorIndex
 90
        5
102
RTVSPost2010Prop44ColorRGB
 90
      255
102
RTVSPost2010PropOp44
 70
     1
102
RTVSPost2010Prop45
280
     0
102
RTVSPost2010PropOp45
 70
     1
102
RTVSPost2010Prop46
 90
       50
102
RTVSPost2010PropOp46
 70
     1
102
RTVSPost2010Prop47
 90
       50
102
RTVSPost2010PropOp47
 70
     1
102
RTVSPost2010Prop48
 90
       50
102
RTVSPost2010PropOp48
 70
     1
102
RTVSPost2010Prop49
280
     0
102
RTVSPost2010PropOp49
 70
     1
102
RTVSPost2010Prop50
 90
       50
102
RTVSPost2010PropOp50
 70
     1
102
RTVSPost2010Prop51ColorIndex
 90
      256
102
RTVSPost2010Prop51ColorRGB
 90
-16777216
102
RTVSPost2010PropOp51
 70
     0
102
RTVSPost2010Prop52
140
1.0
102
RTVSPost2010PropOp52
 70
     0
102
RTVSPost2010Prop53
 90
        2
102
RTVSPost2010PropOp53
 70
     1
102
RTVSPost2010Prop54
  1
strokes_ogs.tif
102
RTVSPost2010PropOp54
 70
     1
102
RTVSPost2010Prop55
280
     0
102
RTVSPost2010PropOp55
 70
     1
102
RTVSPost2010Prop56
140
1.0
102
RTVSPost2010PropOp56
 70
     1
102
RTVSPost2010Prop57
140
1.0
102
RTVSPost2010PropOp57
 70
     1
  0
XRECORD
  5
1EA
102
{ACAD_REACTORS
330
1E9
102
}
330
1E9
100
AcDbXrecord
280
     1
102
RTVSPropertyOp0
 70
     1
102
RTVSPropertyOp1
 70
     1
102
RTVSPropertyOp2
 70
     1
102
RTVSPropertyOp3
 70
     1
102
RTVSPropertyOp4
 70
     1
102
RTVSPropertyOp5
 70
     1
102
RTVSPropertyOp6
 70
     1
102
RTVSPropertyOp7
 70
     1
102
RTVSPropertyOp8
 70
     1
102
RTVSPropertyOp9
 70
     1
102
RTVSPropertyOp10
 70
     1
102
RTVSPropertyOp11
 70
     1
102
RTVSPropertyOp12
 70
     1
102
RTVSPropertyOp13
 70
     1
102
RTVSPropertyOp14
 70
     1
102
RTVSPropertyOp15
 70
     1
102
RTVSPropertyOp16
 70
     1
102
RTVSPropertyOp17
 70
     1
102
RTVSPropertyOp18
 70
     1
102
RTVSPropertyOp19
 70
     1
102
RTVSPropertyOp20
 70
     1
102
RTVSPropertyOp21
 70
     1
102
RTVSPropertyOp22
 70
     1
102
RTVSPropertyOp23
 70
     1
102
RTVSPropertyOp24
 70
     1
102
RTVSPropertyOp25
 70
     1
102
RTVSPropertyOp26
 70
     1
102
RTVSPropertyOp27
 70
     1
102
RTVSPropertyOp28
 70
     1
102
RTVSPropertyOp29
 70
     1
102
RTVSPropertyOp30
 70
     1
102
RTVSPropertyOp31
 70
     1
102
RTVSPropertyOp32
 70
     1
102
RTVSPropertyOp33
 70
     1
102
RTVSPropertyOp34
 70
     1
102
RTVSPropertyOp35
 70
     1
102
RTVSPropertyOp36
 70
     1
102
RTVSPropertyOp37
 70
     1
102
RTVSPropertyOp38
 70
     1
102
RTVSPropertyOp39
 70
     1
102
RTVSPropertyOp40
 70
     1
102
RTVSPropertyOp41
 70
     1
102
RTVSPropertyOp42
 70
     1
102
RTVSPropertyOp43
 70
     1
102
RTVSPropertyOp44
 70
     1
102
RTVSPropertyOp45
 70
     1
102
RTVSPropertyOp46
 70
     1
102
RTVSPropertyOp47
 70
     1
102
RTVSPropertyOp48
 70
     1
102
RTVSPropertyOp49
 70
     1
102
RTVSPropertyOp50
 70
     1
102
RTVSPropertyOp51
 70
     0
102
RTVSPropertyOp52
 70
     0
102
RTVSPropertyOp53
 70
     1
102
RTVSPropertyOp54
 70
     1
102
RTVSPropertyOp55
 70
     1
102
RTVSPropertyOp56
 70
     1
102
RTVSPropertyOp57
 70
     1
102
RTVSPost2010Prop28
280
     0
102
RTVSPost2010PropOp28
 70
     1
102
RTVSPost2010Prop29
280
     1
102
RTVSPost2010PropOp29
 70
     1
102
RTVSPost2010Prop30
280
     1
102
RTVSPost2010PropOp30
 70
     1
102
RTVSPost2010Prop31
280
     0
102
RTVSPost2010PropOp31
 70
     1
102
RTVSPost2010Prop32
280
     0
102
RTVSPost2010PropOp32
 70
     1
102
RTVSPost2010Prop33
280
     0
102
RTVSPost2010PropOp33
 70
     1
102
RTVSPost2010Prop34
280
     0
102
RTVSPost2010PropOp34
 70
     1
102
RTVSPost2010Prop35
280
     0
102
RTVSPost2010PropOp35
 70
     1
102
RTVSPost2010Prop36
280
     0
102
RTVSPost2010PropOp36
 70
     1
102
RTVSPost2010Prop37
 90
       50
102
RTVSPost2010PropOp37
 70
     1
102
RTVSPost2010Prop38
140
0.0
102
RTVSPost2010PropOp38
 70
     1
102
RTVSPost2010Prop39
140
1.0
102
RTVSPost2010PropOp39
 70
     1
102
RTVSPost2010Prop40
 90
        0
102
RTVSPost2010PropOp40
 70
     1
102
RTVSPost2010Prop41ColorIndex
 90
       18
102
RTVSPost2010Prop41ColorRGB
 90
        0
102
RTVSPost2010PropOp41
 70
     1
102
RTVSPost2010Prop42
 90
       50
102
RTVSPost2010PropOp42
 70
     1
102
RTVSPost2010Prop43
 90
        3
102
RTVSPost2010PropOp43
 70
     1
102
RTVSPost2010Prop44ColorIndex
 90
        5
102
RTVSPost2010Prop44ColorRGB
 90
      255
102
RTVSPost2010PropOp44
 70
     1
102
RTVSPost2010Prop45
280
     0
102
RTVSPost2010PropOp45
 70
     1
102
RTVSPost2010Prop46
 90
       50
102
RTVSPost2010PropOp46
 70
     1
102
RTVSPost2010Prop47
 90
       50
102
RTVSPost2010PropOp47
 70
     1
102
RTVSPost2010Prop48
 90
       50
102
RTVSPost2010PropOp48
 70
     1
102
RTVSPost2010Prop49
280
     0
102
RTVSPost2010PropOp49
 70
     1
102
RTVSPost2010Prop50
 90
       50
102
RTVSPost2010PropOp50
 70
     1
102
RTVSPost2010Prop51ColorIndex
 90
      256
102
RTVSPost2010Prop51ColorRGB
 90
-16777216
102
RTVSPost2010PropOp51
 70
     0
102
RTVSPost2010Prop52
140
1.0
102
RTVSPost2010PropOp52
 70
     0
102
RTVSPost2010Prop53
 90
        2
102
RTVSPost2010PropOp53
 70
     1
102
RTVSPost2010Prop54
  1
strokes_ogs.tif
102
RTVSPost2010PropOp54
 70
     1
102
RTVSPost2010Prop55
280
     0
102
RTVSPost2010PropOp55
 70
     1
102
RTVSPost2010Prop56
140
1.0
102
RTVSPost2010PropOp56
 70
     1
102
RTVSPost2010Prop57
140
1.0
102
RTVSPost2010PropOp57
 70
     1
  0
XRECORD
  5
1FA
102
{ACAD_REACTORS
330
1F9
102
}
330
1F9
100
AcDbXrecord
280
     1
102
RTVSPropertyOp0
 70
     0
102
RTVSPropertyOp1
 70
     0
102
RTVSPropertyOp2
 70
     0
102
RTVSPropertyOp3
 70
     0
102
RTVSPropertyOp4
 70
     0
102
RTVSPropertyOp5
 70
     0
102
RTVSPropertyOp6
 70
     0
102
RTVSPropertyOp7
 70
     0
102
RTVSPropertyOp8
 70
     0
102
RTVSPropertyOp9
 70
     0
102
RTVSPropertyOp10
 70
     0
102
RTVSPropertyOp11
 70
     0
102
RTVSPropertyOp12
 70
     0
102
RTVSPropertyOp13
 70
     0
102
RTVSPropertyOp14
 70
     2
102
RTVSPropertyOp15
 70
     0
102
RTVSPropertyOp16
 70
     0
102
RTVSPropertyOp17
 70
     0
102
RTVSPropertyOp18
 70
     0
102
RTVSPropertyOp19
 70
     0
102
RTVSPropertyOp20
 70
     0
102
RTVSPropertyOp21
 70
     0
102
RTVSPropertyOp22
 70
     0
102
RTVSPropertyOp23
 70
     0
102
RTVSPropertyOp24
 70
     0
102
RTVSPropertyOp25
 70
     0
102
RTVSPropertyOp26
 70
     0
102
RTVSPropertyOp27
 70
     0
102
RTVSPropertyOp28
 70
     0
102
RTVSPropertyOp29
 70
     0
102
RTVSPropertyOp30
 70
     0
102
RTVSPropertyOp31
 70
     0
102
RTVSPropertyOp32
 70
     0
102
RTVSPropertyOp33
 70
     0
102
RTVSPropertyOp34
 70
     0
102
RTVSPropertyOp35
 70
     0
102
RTVSPropertyOp36
 70
     0
102
RTVSPropertyOp37
 70
     0
102
RTVSPropertyOp38
 70
     0
102
RTVSPropertyOp39
 70
     0
102
RTVSPropertyOp40
 70
     0
102
RTVSPropertyOp41
 70
     0
102
RTVSPropertyOp42
 70
     0
102
RTVSPropertyOp43
 70
     0
102
RTVSPropertyOp44
 70
     0
102
RTVSPropertyOp45
 70
     0
102
RTVSPropertyOp46
 70
     0
102
RTVSPropertyOp47
 70
     0
102
RTVSPropertyOp48
 70
     0
102
RTVSPropertyOp49
 70
     0
102
RTVSPropertyOp50
 70
     0
102
RTVSPropertyOp51
 70
     0
102
RTVSPropertyOp52
 70
     0
102
RTVSPropertyOp53
 70
     0
102
RTVSPropertyOp54
 70
     0
102
RTVSPropertyOp55
 70
     0
102
RTVSPropertyOp56
 70
     0
102
RTVSPropertyOp57
 70
     0
102
RTVSPost2010Prop28
280
     0
102
RTVSPost2010PropOp28
 70
     0
102
RTVSPost2010Prop29
280
     1
102
RTVSPost2010PropOp29
 70
     0
102
RTVSPost2010Prop30
280
     1
102
RTVSPost2010PropOp30
 70
     0
102
RTVSPost2010Prop31
280
     0
102
RTVSPost2010PropOp31
 70
     0
102
RTVSPost2010Prop32
280
     0
102
RTVSPost2010PropOp32
 70
     0
102
RTVSPost2010Prop33
280
     0
102
RTVSPost2010PropOp33
 70
     0
102
RTVSPost2010Prop34
280
     0
102
RTVSPost2010PropOp34
 70
     0
102
RTVSPost2010Prop35
280
     0
102
RTVSPost2010PropOp35
 70
     0
102
RTVSPost2010Prop36
280
     0
102
RTVSPost2010PropOp36
 70
     0
102
RTVSPost2010Prop37
 90
       50
102
RTVSPost2010PropOp37
 70
     0
102
RTVSPost2010Prop38
140
0.0
102
RTVSPost2010PropOp38
 70
     0
102
RTVSPost2010Prop39
140
1.0
102
RTVSPost2010PropOp39
 70
     0
102
RTVSPost2010Prop40
 90
        0
102
RTVSPost2010PropOp40
 70
     0
102
RTVSPost2010Prop41ColorIndex
 90
       18
102
RTVSPost2010Prop41ColorRGB
 90
        0
102
RTVSPost2010PropOp41
 70
     0
102
RTVSPost2010Prop42
 90
       50
102
RTVSPost2010PropOp42
 70
     0
102
RTVSPost2010Prop43
 90
        3
102
RTVSPost2010PropOp43
 70
     0
102
RTVSPost2010Prop44ColorIndex
 90
        5
102
RTVSPost2010Prop44ColorRGB
 90
      255
102
RTVSPost2010PropOp44
 70
     0
102
RTVSPost2010Prop45
280
     0
102
RTVSPost2010PropOp45
 70
     0
102
RTVSPost2010Prop46
 90
       50
102
RTVSPost2010PropOp46
 70
     0
102
RTVSPost2010Prop47
 90
       50
102
RTVSPost2010PropOp47
 70
     0
102
RTVSPost2010Prop48
 90
       50
102
RTVSPost2010PropOp48
 70
     0
102
RTVSPost2010Prop49
280
     0
102
RTVSPost2010PropOp49
 70
     0
102
RTVSPost2010Prop50
 90
       50
102
RTVSPost2010PropOp50
 70
     0
102
RTVSPost2010Prop51ColorIndex
 90
      256
102
RTVSPost2010Prop51ColorRGB
 90
-16777216
102
RTVSPost2010PropOp51
 70
     0
102
RTVSPost2010Prop52
140
1.0
102
RTVSPost2010PropOp52
 70
     0
102
RTVSPost2010Prop53
 90
        2
102
RTVSPost2010PropOp53
 70
     0
102
RTVSPost2010Prop54
  1
strokes_ogs.tif
102
RTVSPost2010PropOp54
 70
     0
102
RTVSPost2010Prop55
280
     0
102
RTVSPost2010PropOp55
 70
     0
102
RTVSPost2010Prop56
140
1.0
102
RTVSPost2010PropOp56
 70
     0
102
RTVSPost2010Prop57
140
1.0
102
RTVSPost2010PropOp57
 70
     0
  0
XRECORD
  5
1F2
102
{ACAD_REACTORS
330
1F1
102
}
330
1F1
100
AcDbXrecord
280
     1
102
RTVSPropertyOp0
 70
     1
102
RTVSPropertyOp1
 70
     1
102
RTVSPropertyOp2
 70
     1
102
RTVSPropertyOp3
 70
     1
102
RTVSPropertyOp4
 70
     1
102
RTVSPropertyOp5
 70
     1
102
RTVSPropertyOp6
 70
     1
102
RTVSPropertyOp7
 70
     1
102
RTVSPropertyOp8
 70
     1
102
RTVSPropertyOp9
 70
     1
102
RTVSPropertyOp10
 70
     1
102
RTVSPropertyOp11
 70
     1
102
RTVSPropertyOp12
 70
     1
102
RTVSPropertyOp13
 70
     1
102
RTVSPropertyOp14
 70
     1
102
RTVSPropertyOp15
 70
     1
102
RTVSPropertyOp16
 70
     1
102
RTVSPropertyOp17
 70
     1
102
RTVSPropertyOp18
 70
     1
102
RTVSPropertyOp19
 70
     1
102
RTVSPropertyOp20
 70
     1
102
RTVSPropertyOp21
 70
     1
102
RTVSPropertyOp22
 70
     1
102
RTVSPropertyOp23
 70
     1
102
RTVSPropertyOp24
 70
     1
102
RTVSPropertyOp25
 70
     1
102
RTVSPropertyOp26
 70
     1
102
RTVSPropertyOp27
 70
     1
102
RTVSPropertyOp28
 70
     1
102
RTVSPropertyOp29
 70
     1
102
RTVSPropertyOp30
 70
     1
102
RTVSPropertyOp31
 70
     1
102
RTVSPropertyOp32
 70
     1
102
RTVSPropertyOp33
 70
     1
102
RTVSPropertyOp34
 70
     1
102
RTVSPropertyOp35
 70
     1
102
RTVSPropertyOp36
 70
     1
102
RTVSPropertyOp37
 70
     1
102
RTVSPropertyOp38
 70
     1
102
RTVSPropertyOp39
 70
     1
102
RTVSPropertyOp40
 70
     1
102
RTVSPropertyOp41
 70
     1
102
RTVSPropertyOp42
 70
     1
102
RTVSPropertyOp43
 70
     1
102
RTVSPropertyOp44
 70
     1
102
RTVSPropertyOp45
 70
     1
102
RTVSPropertyOp46
 70
     1
102
RTVSPropertyOp47
 70
     1
102
RTVSPropertyOp48
 70
     1
102
RTVSPropertyOp49
 70
     1
102
RTVSPropertyOp50
 70
     1
102
RTVSPropertyOp51
 70
     0
102
RTVSPropertyOp52
 70
     0
102
RTVSPropertyOp53
 70
     1
102
RTVSPropertyOp54
 70
     1
102
RTVSPropertyOp55
 70
     1
102
RTVSPropertyOp56
 70
     1
102
RTVSPropertyOp57
 70
     1
102
RTVSPost2010Prop28
280
     0
102
RTVSPost2010PropOp28
 70
     1
102
RTVSPost2010Prop29
280
     1
102
RTVSPost2010PropOp29
 70
     1
102
RTVSPost2010Prop30
280
     1
102
RTVSPost2010PropOp30
 70
     1
102
RTVSPost2010Prop31
280
     0
102
RTVSPost2010PropOp31
 70
     1
102
RTVSPost2010Prop32
280
     0
102
RTVSPost2010PropOp32
 70
     1
102
RTVSPost2010Prop33
280
     0
102
RTVSPost2010PropOp33
 70
     1
102
RTVSPost2010Prop34
280
     0
102
RTVSPost2010PropOp34
 70
     1
102
RTVSPost2010Prop35
280
     0
102
RTVSPost2010PropOp35
 70
     1
102
RTVSPost2010Prop36
280
     0
102
RTVSPost2010PropOp36
 70
     1
102
RTVSPost2010Prop37
 90
       50
102
RTVSPost2010PropOp37
 70
     1
102
RTVSPost2010Prop38
140
0.0
102
RTVSPost2010PropOp38
 70
     1
102
RTVSPost2010Prop39
140
1.0
102
RTVSPost2010PropOp39
 70
     1
102
RTVSPost2010Prop40
 90
        0
102
RTVSPost2010PropOp40
 70
     1
102
RTVSPost2010Prop41ColorIndex
 90
       18
102
RTVSPost2010Prop41ColorRGB
 90
        0
102
RTVSPost2010PropOp41
 70
     1
102
RTVSPost2010Prop42
 90
       50
102
RTVSPost2010PropOp42
 70
     1
102
RTVSPost2010Prop43
 90
        3
102
RTVSPost2010PropOp43
 70
     1
102
RTVSPost2010Prop44ColorIndex
 90
        5
102
RTVSPost2010Prop44ColorRGB
 90
      255
102
RTVSPost2010PropOp44
 70
     1
102
RTVSPost2010Prop45
280
     0
102
RTVSPost2010PropOp45
 70
     1
102
RTVSPost2010Prop46
 90
       50
102
RTVSPost2010PropOp46
 70
     1
102
RTVSPost2010Prop47
 90
       50
102
RTVSPost2010PropOp47
 70
     1
102
RTVSPost2010Prop48
 90
       50
102
RTVSPost2010PropOp48
 70
     1
102
RTVSPost2010Prop49
280
     0
102
RTVSPost2010PropOp49
 70
     1
102
RTVSPost2010Prop50
 90
       50
102
RTVSPost2010PropOp50
 70
     1
102
RTVSPost2010Prop51ColorIndex
 90
      256
102
RTVSPost2010Prop51ColorRGB
 90
-16777216
102
RTVSPost2010PropOp51
 70
     0
102
RTVSPost2010Prop52
140
1.0
102
RTVSPost2010PropOp52
 70
     0
102
RTVSPost2010Prop53
 90
        2
102
RTVSPost2010PropOp53
 70
     1
102
RTVSPost2010Prop54
  1
strokes_ogs.tif
102
RTVSPost2010PropOp54
 70
     1
102
RTVSPost2010Prop55
280
     0
102
RTVSPost2010PropOp55
 70
     1
102
RTVSPost2010Prop56
140
1.0
102
RTVSPost2010PropOp56
 70
     1
102
RTVSPost2010Prop57
140
1.0
102
RTVSPost2010PropOp57
 70
     1
  0
XRECORD
  5
1D6
102
{ACAD_REACTORS
330
1D5
102
}
330
1D5
100
AcDbXrecord
280
     1
102
RTVSPropertyOp0
 70
     1
102
RTVSPropertyOp1
 70
     1
102
RTVSPropertyOp2
 70
     1
102
RTVSPropertyOp3
 70
     1
102
RTVSPropertyOp4
 70
     1
102
RTVSPropertyOp5
 70
     1
102
RTVSPropertyOp6
 70
     1
102
RTVSPropertyOp7
 70
     1
102
RTVSPropertyOp8
 70
     1
102
RTVSPropertyOp9
 70
     1
102
RTVSPropertyOp10
 70
     1
102
RTVSPropertyOp11
 70
     1
102
RTVSPropertyOp12
 70
     1
102
RTVSPropertyOp13
 70
     1
102
RTVSPropertyOp14
 70
     1
102
RTVSPropertyOp15
 70
     1
102
RTVSPropertyOp16
 70
     1
102
RTVSPropertyOp17
 70
     1
102
RTVSPropertyOp18
 70
     1
102
RTVSPropertyOp19
 70
     1
102
RTVSPropertyOp20
 70
     1
102
RTVSPropertyOp21
 70
     1
102
RTVSPropertyOp22
 70
     1
102
RTVSPropertyOp23
 70
     1
102
RTVSPropertyOp24
 70
     1
102
RTVSPropertyOp25
 70
     1
102
RTVSPropertyOp26
 70
     1
102
RTVSPropertyOp27
 70
     1
102
RTVSPropertyOp28
 70
     1
102
RTVSPropertyOp29
 70
     1
102
RTVSPropertyOp30
 70
     1
102
RTVSPropertyOp31
 70
     1
102
RTVSPropertyOp32
 70
     1
102
RTVSPropertyOp33
 70
     1
102
RTVSPropertyOp34
 70
     1
102
RTVSPropertyOp35
 70
     1
102
RTVSPropertyOp36
 70
     1
102
RTVSPropertyOp37
 70
     1
102
RTVSPropertyOp38
 70
     1
102
RTVSPropertyOp39
 70
     1
102
RTVSPropertyOp40
 70
     1
102
RTVSPropertyOp41
 70
     1
102
RTVSPropertyOp42
 70
     1
102
RTVSPropertyOp43
 70
     1
102
RTVSPropertyOp44
 70
     1
102
RTVSPropertyOp45
 70
     1
102
RTVSPropertyOp46
 70
     1
102
RTVSPropertyOp47
 70
     1
102
RTVSPropertyOp48
 70
     1
102
RTVSPropertyOp49
 70
     1
102
RTVSPropertyOp50
 70
     1
102
RTVSPropertyOp51
 70
     0
102
RTVSPropertyOp52
 70
     0
102
RTVSPropertyOp53
 70
     1
102
RTVSPropertyOp54
 70
     1
102
RTVSPropertyOp55
 70
     1
102
RTVSPropertyOp56
 70
     1
102
RTVSPropertyOp57
 70
     1
102
RTVSPost2010Prop28
280
     0
102
RTVSPost2010PropOp28
 70
     1
102
RTVSPost2010Prop29
280
     1
102
RTVSPost2010PropOp29
 70
     1
102
RTVSPost2010Prop30
280
     1
102
RTVSPost2010PropOp30
 70
     1
102
RTVSPost2010Prop31
280
     0
102
RTVSPost2010PropOp31
 70
     1
102
RTVSPost2010Prop32
280
     0
102
RTVSPost2010PropOp32
 70
     1
102
RTVSPost2010Prop33
280
     0
102
RTVSPost2010PropOp33
 70
     1
102
RTVSPost2010Prop34
280
     0
102
RTVSPost2010PropOp34
 70
     1
102
RTVSPost2010Prop35
280
     0
102
RTVSPost2010PropOp35
 70
     1
102
RTVSPost2010Prop36
280
     0
102
RTVSPost2010PropOp36
 70
     1
102
RTVSPost2010Prop37
 90
       50
102
RTVSPost2010PropOp37
 70
     1
102
RTVSPost2010Prop38
140
0.0
102
RTVSPost2010PropOp38
 70
     1
102
RTVSPost2010Prop39
140
1.0
102
RTVSPost2010PropOp39
 70
     1
102
RTVSPost2010Prop40
 90
        0
102
RTVSPost2010PropOp40
 70
     1
102
RTVSPost2010Prop41ColorIndex
 90
       18
102
RTVSPost2010Prop41ColorRGB
 90
        0
102
RTVSPost2010PropOp41
 70
     1
102
RTVSPost2010Prop42
 90
       50
102
RTVSPost2010PropOp42
 70
     1
102
RTVSPost2010Prop43
 90
        3
102
RTVSPost2010PropOp43
 70
     1
102
RTVSPost2010Prop44ColorIndex
 90
        5
102
RTVSPost2010Prop44ColorRGB
 90
      255
102
RTVSPost2010PropOp44
 70
     1
102
RTVSPost2010Prop45
280
     0
102
RTVSPost2010PropOp45
 70
     1
102
RTVSPost2010Prop46
 90
       50
102
RTVSPost2010PropOp46
 70
     1
102
RTVSPost2010Prop47
 90
       50
102
RTVSPost2010PropOp47
 70
     1
102
RTVSPost2010Prop48
 90
       50
102
RTVSPost2010PropOp48
 70
     1
102
RTVSPost2010Prop49
280
     0
102
RTVSPost2010PropOp49
 70
     1
102
RTVSPost2010Prop50
 90
       50
102
RTVSPost2010PropOp50
 70
     1
102
RTVSPost2010Prop51ColorIndex
 90
      256
102
RTVSPost2010Prop51ColorRGB
 90
-16777216
102
RTVSPost2010PropOp51
 70
     0
102
RTVSPost2010Prop52
140
1.0
102
RTVSPost2010PropOp52
 70
     0
102
RTVSPost2010Prop53
 90
        2
102
RTVSPost2010PropOp53
 70
     1
102
RTVSPost2010Prop54
  1
strokes_ogs.tif
102
RTVSPost2010PropOp54
 70
     1
102
RTVSPost2010Prop55
280
     0
102
RTVSPost2010PropOp55
 70
     1
102
RTVSPost2010Prop56
140
1.0
102
RTVSPost2010PropOp56
 70
     1
102
RTVSPost2010Prop57
140
1.0
102
RTVSPost2010PropOp57
 70
     1
  0
XRECORD
  5
1D8
102
{ACAD_REACTORS
330
1D7
102
}
330
1D7
100
AcDbXrecord
280
     1
102
RTVSPropertyOp0
 70
     1
102
RTVSPropertyOp1
 70
     1
102
RTVSPropertyOp2
 70
     1
102
RTVSPropertyOp3
 70
     1
102
RTVSPropertyOp4
 70
     1
102
RTVSPropertyOp5
 70
     1
102
RTVSPropertyOp6
 70
     1
102
RTVSPropertyOp7
 70
     1
102
RTVSPropertyOp8
 70
     1
102
RTVSPropertyOp9
 70
     1
102
RTVSPropertyOp10
 70
     1
102
RTVSPropertyOp11
 70
     1
102
RTVSPropertyOp12
 70
     1
102
RTVSPropertyOp13
 70
     1
102
RTVSPropertyOp14
 70
     1
102
RTVSPropertyOp15
 70
     1
102
RTVSPropertyOp16
 70
     1
102
RTVSPropertyOp17
 70
     1
102
RTVSPropertyOp18
 70
     1
102
RTVSPropertyOp19
 70
     1
102
RTVSPropertyOp20
 70
     1
102
RTVSPropertyOp21
 70
     1
102
RTVSPropertyOp22
 70
     1
102
RTVSPropertyOp23
 70
     1
102
RTVSPropertyOp24
 70
     1
102
RTVSPropertyOp25
 70
     1
102
RTVSPropertyOp26
 70
     1
102
RTVSPropertyOp27
 70
     1
102
RTVSPropertyOp28
 70
     1
102
RTVSPropertyOp29
 70
     1
102
RTVSPropertyOp30
 70
     1
102
RTVSPropertyOp31
 70
     1
102
RTVSPropertyOp32
 70
     1
102
RTVSPropertyOp33
 70
     1
102
RTVSPropertyOp34
 70
     1
102
RTVSPropertyOp35
 70
     1
102
RTVSPropertyOp36
 70
     1
102
RTVSPropertyOp37
 70
     1
102
RTVSPropertyOp38
 70
     1
102
RTVSPropertyOp39
 70
     1
102
RTVSPropertyOp40
 70
     1
102
RTVSPropertyOp41
 70
     1
102
RTVSPropertyOp42
 70
     1
102
RTVSPropertyOp43
 70
     1
102
RTVSPropertyOp44
 70
     1
102
RTVSPropertyOp45
 70
     1
102
RTVSPropertyOp46
 70
     1
102
RTVSPropertyOp47
 70
     1
102
RTVSPropertyOp48
 70
     1
102
RTVSPropertyOp49
 70
     1
102
RTVSPropertyOp50
 70
     1
102
RTVSPropertyOp51
 70
     0
102
RTVSPropertyOp52
 70
     0
102
RTVSPropertyOp53
 70
     1
102
RTVSPropertyOp54
 70
     1
102
RTVSPropertyOp55
 70
     1
102
RTVSPropertyOp56
 70
     1
102
RTVSPropertyOp57
 70
     1
102
RTVSPost2010Prop28
280
     0
102
RTVSPost2010PropOp28
 70
     1
102
RTVSPost2010Prop29
280
     1
102
RTVSPost2010PropOp29
 70
     1
102
RTVSPost2010Prop30
280
     1
102
RTVSPost2010PropOp30
 70
     1
102
RTVSPost2010Prop31
280
     0
102
RTVSPost2010PropOp31
 70
     1
102
RTVSPost2010Prop32
280
     0
102
RTVSPost2010PropOp32
 70
     1
102
RTVSPost2010Prop33
280
     0
102
RTVSPost2010PropOp33
 70
     1
102
RTVSPost2010Prop34
280
     0
102
RTVSPost2010PropOp34
 70
     1
102
RTVSPost2010Prop35
280
     0
102
RTVSPost2010PropOp35
 70
     1
102
RTVSPost2010Prop36
280
     0
102
RTVSPost2010PropOp36
 70
     1
102
RTVSPost2010Prop37
 90
       50
102
RTVSPost2010PropOp37
 70
     1
102
RTVSPost2010Prop38
140
0.0
102
RTVSPost2010PropOp38
 70
     1
102
RTVSPost2010Prop39
140
1.0
102
RTVSPost2010PropOp39
 70
     1
102
RTVSPost2010Prop40
 90
        0
102
RTVSPost2010PropOp40
 70
     1
102
RTVSPost2010Prop41ColorIndex
 90
       18
102
RTVSPost2010Prop41ColorRGB
 90
        0
102
RTVSPost2010PropOp41
 70
     1
102
RTVSPost2010Prop42
 90
       50
102
RTVSPost2010PropOp42
 70
     1
102
RTVSPost2010Prop43
 90
        3
102
RTVSPost2010PropOp43
 70
     1
102
RTVSPost2010Prop44ColorIndex
 90
        5
102
RTVSPost2010Prop44ColorRGB
 90
      255
102
RTVSPost2010PropOp44
 70
     1
102
RTVSPost2010Prop45
280
     0
102
RTVSPost2010PropOp45
 70
     1
102
RTVSPost2010Prop46
 90
       50
102
RTVSPost2010PropOp46
 70
     1
102
RTVSPost2010Prop47
 90
       50
102
RTVSPost2010PropOp47
 70
     1
102
RTVSPost2010Prop48
 90
       50
102
RTVSPost2010PropOp48
 70
     1
102
RTVSPost2010Prop49
280
     0
102
RTVSPost2010PropOp49
 70
     1
102
RTVSPost2010Prop50
 90
       50
102
RTVSPost2010PropOp50
 70
     1
102
RTVSPost2010Prop51ColorIndex
 90
      256
102
RTVSPost2010Prop51ColorRGB
 90
-16777216
102
RTVSPost2010PropOp51
 70
     0
102
RTVSPost2010Prop52
140
1.0
102
RTVSPost2010PropOp52
 70
     0
102
RTVSPost2010Prop53
 90
        2
102
RTVSPost2010PropOp53
 70
     1
102
RTVSPost2010Prop54
  1
strokes_ogs.tif
102
RTVSPost2010PropOp54
 70
     1
102
RTVSPost2010Prop55
280
     0
102
RTVSPost2010PropOp55
 70
     1
102
RTVSPost2010Prop56
140
1.0
102
RTVSPost2010PropOp56
 70
     1
102
RTVSPost2010Prop57
140
1.0
102
RTVSPost2010PropOp57
 70
     1
  0
XRECORD
  5
1DA
102
{ACAD_REACTORS
330
1D9
102
}
330
1D9
100
AcDbXrecord
280
     1
102
RTVSPropertyOp0
 70
     1
102
RTVSPropertyOp1
 70
     1
102
RTVSPropertyOp2
 70
     1
102
RTVSPropertyOp3
 70
     1
102
RTVSPropertyOp4
 70
     1
102
RTVSPropertyOp5
 70
     1
102
RTVSPropertyOp6
 70
     1
102
RTVSPropertyOp7
 70
     1
102
RTVSPropertyOp8
 70
     1
102
RTVSPropertyOp9
 70
     1
102
RTVSPropertyOp10
 70
     1
102
RTVSPropertyOp11
 70
     1
102
RTVSPropertyOp12
 70
     1
102
RTVSPropertyOp13
 70
     1
102
RTVSPropertyOp14
 70
     1
102
RTVSPropertyOp15
 70
     1
102
RTVSPropertyOp16
 70
     1
102
RTVSPropertyOp17
 70
     1
102
RTVSPropertyOp18
 70
     1
102
RTVSPropertyOp19
 70
     1
102
RTVSPropertyOp20
 70
     1
102
RTVSPropertyOp21
 70
     1
102
RTVSPropertyOp22
 70
     1
102
RTVSPropertyOp23
 70
     1
102
RTVSPropertyOp24
 70
     1
102
RTVSPropertyOp25
 70
     1
102
RTVSPropertyOp26
 70
     1
102
RTVSPropertyOp27
 70
     1
102
RTVSPropertyOp28
 70
     1
102
RTVSPropertyOp29
 70
     1
102
RTVSPropertyOp30
 70
     1
102
RTVSPropertyOp31
 70
     1
102
RTVSPropertyOp32
 70
     1
102
RTVSPropertyOp33
 70
     1
102
RTVSPropertyOp34
 70
     1
102
RTVSPropertyOp35
 70
     1
102
RTVSPropertyOp36
 70
     1
102
RTVSPropertyOp37
 70
     1
102
RTVSPropertyOp38
 70
     1
102
RTVSPropertyOp39
 70
     1
102
RTVSPropertyOp40
 70
     1
102
RTVSPropertyOp41
 70
     1
102
RTVSPropertyOp42
 70
     1
102
RTVSPropertyOp43
 70
     1
102
RTVSPropertyOp44
 70
     1
102
RTVSPropertyOp45
 70
     1
102
RTVSPropertyOp46
 70
     1
102
RTVSPropertyOp47
 70
     1
102
RTVSPropertyOp48
 70
     1
102
RTVSPropertyOp49
 70
     1
102
RTVSPropertyOp50
 70
     1
102
RTVSPropertyOp51
 70
     0
102
RTVSPropertyOp52
 70
     0
102
RTVSPropertyOp53
 70
     1
102
RTVSPropertyOp54
 70
     1
102
RTVSPropertyOp55
 70
     1
102
RTVSPropertyOp56
 70
     1
102
RTVSPropertyOp57
 70
     1
102
RTVSPost2010Prop28
280
     0
102
RTVSPost2010PropOp28
 70
     1
102
RTVSPost2010Prop29
280
     1
102
RTVSPost2010PropOp29
 70
     1
102
RTVSPost2010Prop30
280
     1
102
RTVSPost2010PropOp30
 70
     1
102
RTVSPost2010Prop31
280
     0
102
RTVSPost2010PropOp31
 70
     1
102
RTVSPost2010Prop32
280
     0
102
RTVSPost2010PropOp32
 70
     1
102
RTVSPost2010Prop33
280
     0
102
RTVSPost2010PropOp33
 70
     1
102
RTVSPost2010Prop34
280
     0
102
RTVSPost2010PropOp34
 70
     1
102
RTVSPost2010Prop35
280
     0
102
RTVSPost2010PropOp35
 70
     1
102
RTVSPost2010Prop36
280
     0
102
RTVSPost2010PropOp36
 70
     1
102
RTVSPost2010Prop37
 90
       50
102
RTVSPost2010PropOp37
 70
     1
102
RTVSPost2010Prop38
140
0.0
102
RTVSPost2010PropOp38
 70
     1
102
RTVSPost2010Prop39
140
1.0
102
RTVSPost2010PropOp39
 70
     1
102
RTVSPost2010Prop40
 90
        0
102
RTVSPost2010PropOp40
 70
     1
102
RTVSPost2010Prop41ColorIndex
 90
       18
102
RTVSPost2010Prop41ColorRGB
 90
        0
102
RTVSPost2010PropOp41
 70
     1
102
RTVSPost2010Prop42
 90
       50
102
RTVSPost2010PropOp42
 70
     1
102
RTVSPost2010Prop43
 90
        3
102
RTVSPost2010PropOp43
 70
     1
102
RTVSPost2010Prop44ColorIndex
 90
        5
102
RTVSPost2010Prop44ColorRGB
 90
      255
102
RTVSPost2010PropOp44
 70
     1
102
RTVSPost2010Prop45
280
     0
102
RTVSPost2010PropOp45
 70
     1
102
RTVSPost2010Prop46
 90
       50
102
RTVSPost2010PropOp46
 70
     1
102
RTVSPost2010Prop47
 90
       50
102
RTVSPost2010PropOp47
 70
     1
102
RTVSPost2010Prop48
 90
       50
102
RTVSPost2010PropOp48
 70
     1
102
RTVSPost2010Prop49
280
     0
102
RTVSPost2010PropOp49
 70
     1
102
RTVSPost2010Prop50
 90
       50
102
RTVSPost2010PropOp50
 70
     1
102
RTVSPost2010Prop51ColorIndex
 90
      256
102
RTVSPost2010Prop51ColorRGB
 90
-16777216
102
RTVSPost2010PropOp51
 70
     0
102
RTVSPost2010Prop52
140
1.0
102
RTVSPost2010PropOp52
 70
     0
102
RTVSPost2010Prop53
 90
        2
102
RTVSPost2010PropOp53
 70
     1
102
RTVSPost2010Prop54
  1
strokes_ogs.tif
102
RTVSPost2010PropOp54
 70
     1
102
RTVSPost2010Prop55
280
     0
102
RTVSPost2010PropOp55
 70
     1
102
RTVSPost2010Prop56
140
1.0
102
RTVSPost2010PropOp56
 70
     1
102
RTVSPost2010Prop57
140
1.0
102
RTVSPost2010PropOp57
 70
     1
  0
XRECORD
  5
1DC
102
{ACAD_REACTORS
330
1DB
102
}
330
1DB
100
AcDbXrecord
280
     1
102
RTVSPropertyOp0
 70
     1
102
RTVSPropertyOp1
 70
     1
102
RTVSPropertyOp2
 70
     1
102
RTVSPropertyOp3
 70
     1
102
RTVSPropertyOp4
 70
     1
102
RTVSPropertyOp5
 70
     1
102
RTVSPropertyOp6
 70
     1
102
RTVSPropertyOp7
 70
     1
102
RTVSPropertyOp8
 70
     1
102
RTVSPropertyOp9
 70
     1
102
RTVSPropertyOp10
 70
     1
102
RTVSPropertyOp11
 70
     1
102
RTVSPropertyOp12
 70
     1
102
RTVSPropertyOp13
 70
     1
102
RTVSPropertyOp14
 70
     1
102
RTVSPropertyOp15
 70
     1
102
RTVSPropertyOp16
 70
     1
102
RTVSPropertyOp17
 70
     1
102
RTVSPropertyOp18
 70
     1
102
RTVSPropertyOp19
 70
     1
102
RTVSPropertyOp20
 70
     1
102
RTVSPropertyOp21
 70
     1
102
RTVSPropertyOp22
 70
     1
102
RTVSPropertyOp23
 70
     1
102
RTVSPropertyOp24
 70
     1
102
RTVSPropertyOp25
 70
     1
102
RTVSPropertyOp26
 70
     1
102
RTVSPropertyOp27
 70
     1
102
RTVSPropertyOp28
 70
     1
102
RTVSPropertyOp29
 70
     1
102
RTVSPropertyOp30
 70
     1
102
RTVSPropertyOp31
 70
     1
102
RTVSPropertyOp32
 70
     1
102
RTVSPropertyOp33
 70
     1
102
RTVSPropertyOp34
 70
     1
102
RTVSPropertyOp35
 70
     1
102
RTVSPropertyOp36
 70
     1
102
RTVSPropertyOp37
 70
     1
102
RTVSPropertyOp38
 70
     1
102
RTVSPropertyOp39
 70
     1
102
RTVSPropertyOp40
 70
     1
102
RTVSPropertyOp41
 70
     1
102
RTVSPropertyOp42
 70
     1
102
RTVSPropertyOp43
 70
     1
102
RTVSPropertyOp44
 70
     1
102
RTVSPropertyOp45
 70
     1
102
RTVSPropertyOp46
 70
     1
102
RTVSPropertyOp47
 70
     1
102
RTVSPropertyOp48
 70
     1
102
RTVSPropertyOp49
 70
     1
102
RTVSPropertyOp50
 70
     1
102
RTVSPropertyOp51
 70
     0
102
RTVSPropertyOp52
 70
     0
102
RTVSPropertyOp53
 70
     1
102
RTVSPropertyOp54
 70
     1
102
RTVSPropertyOp55
 70
     1
102
RTVSPropertyOp56
 70
     1
102
RTVSPropertyOp57
 70
     1
102
RTVSPost2010Prop28
280
     0
102
RTVSPost2010PropOp28
 70
     1
102
RTVSPost2010Prop29
280
     1
102
RTVSPost2010PropOp29
 70
     1
102
RTVSPost2010Prop30
280
     1
102
RTVSPost2010PropOp30
 70
     1
102
RTVSPost2010Prop31
280
     0
102
RTVSPost2010PropOp31
 70
     1
102
RTVSPost2010Prop32
280
     0
102
RTVSPost2010PropOp32
 70
     1
102
RTVSPost2010Prop33
280
     0
102
RTVSPost2010PropOp33
 70
     1
102
RTVSPost2010Prop34
280
     0
102
RTVSPost2010PropOp34
 70
     1
102
RTVSPost2010Prop35
280
     0
102
RTVSPost2010PropOp35
 70
     1
102
RTVSPost2010Prop36
280
     0
102
RTVSPost2010PropOp36
 70
     1
102
RTVSPost2010Prop37
 90
       50
102
RTVSPost2010PropOp37
 70
     1
102
RTVSPost2010Prop38
140
0.0
102
RTVSPost2010PropOp38
 70
     1
102
RTVSPost2010Prop39
140
1.0
102
RTVSPost2010PropOp39
 70
     1
102
RTVSPost2010Prop40
 90
        0
102
RTVSPost2010PropOp40
 70
     1
102
RTVSPost2010Prop41ColorIndex
 90
       18
102
RTVSPost2010Prop41ColorRGB
 90
        0
102
RTVSPost2010PropOp41
 70
     1
102
RTVSPost2010Prop42
 90
       50
102
RTVSPost2010PropOp42
 70
     1
102
RTVSPost2010Prop43
 90
        3
102
RTVSPost2010PropOp43
 70
     1
102
RTVSPost2010Prop44ColorIndex
 90
        5
102
RTVSPost2010Prop44ColorRGB
 90
      255
102
RTVSPost2010PropOp44
 70
     1
102
RTVSPost2010Prop45
280
     0
102
RTVSPost2010PropOp45
 70
     1
102
RTVSPost2010Prop46
 90
       50
102
RTVSPost2010PropOp46
 70
     1
102
RTVSPost2010Prop47
 90
       50
102
RTVSPost2010PropOp47
 70
     1
102
RTVSPost2010Prop48
 90
       50
102
RTVSPost2010PropOp48
 70
     1
102
RTVSPost2010Prop49
280
     0
102
RTVSPost2010PropOp49
 70
     1
102
RTVSPost2010Prop50
 90
       50
102
RTVSPost2010PropOp50
 70
     1
102
RTVSPost2010Prop51ColorIndex
 90
      256
102
RTVSPost2010Prop51ColorRGB
 90
-16777216
102
RTVSPost2010PropOp51
 70
     0
102
RTVSPost2010Prop52
140
1.0
102
RTVSPost2010PropOp52
 70
     0
102
RTVSPost2010Prop53
 90
        2
102
RTVSPost2010PropOp53
 70
     1
102
RTVSPost2010Prop54
  1
strokes_ogs.tif
102
RTVSPost2010PropOp54
 70
     1
102
RTVSPost2010Prop55
280
     0
102
RTVSPost2010PropOp55
 70
     1
102
RTVSPost2010Prop56
140
1.0
102
RTVSPost2010PropOp56
 70
     1
102
RTVSPost2010Prop57
140
1.0
102
RTVSPost2010PropOp57
 70
     1
  0
XRECORD
  5
1E2
102
{ACAD_REACTORS
330
1E1
102
}
330
1E1
100
AcDbXrecord
280
     1
102
RTVSPropertyOp0
 70
     1
102
RTVSPropertyOp1
 70
     1
102
RTVSPropertyOp2
 70
     1
102
RTVSPropertyOp3
 70
     1
102
RTVSPropertyOp4
 70
     1
102
RTVSPropertyOp5
 70
     1
102
RTVSPropertyOp6
 70
     1
102
RTVSPropertyOp7
 70
     1
102
RTVSPropertyOp8
 70
     1
102
RTVSPropertyOp9
 70
     1
102
RTVSPropertyOp10
 70
     1
102
RTVSPropertyOp11
 70
     1
102
RTVSPropertyOp12
 70
     1
102
RTVSPropertyOp13
 70
     1
102
RTVSPropertyOp14
 70
     1
102
RTVSPropertyOp15
 70
     1
102
RTVSPropertyOp16
 70
     1
102
RTVSPropertyOp17
 70
     1
102
RTVSPropertyOp18
 70
     1
102
RTVSPropertyOp19
 70
     1
102
RTVSPropertyOp20
 70
     1
102
RTVSPropertyOp21
 70
     1
102
RTVSPropertyOp22
 70
     1
102
RTVSPropertyOp23
 70
     1
102
RTVSPropertyOp24
 70
     1
102
RTVSPropertyOp25
 70
     1
102
RTVSPropertyOp26
 70
     1
102
RTVSPropertyOp27
 70
     1
102
RTVSPropertyOp28
 70
     1
102
RTVSPropertyOp29
 70
     1
102
RTVSPropertyOp30
 70
     1
102
RTVSPropertyOp31
 70
     1
102
RTVSPropertyOp32
 70
     1
102
RTVSPropertyOp33
 70
     1
102
RTVSPropertyOp34
 70
     1
102
RTVSPropertyOp35
 70
     1
102
RTVSPropertyOp36
 70
     1
102
RTVSPropertyOp37
 70
     1
102
RTVSPropertyOp38
 70
     1
102
RTVSPropertyOp39
 70
     1
102
RTVSPropertyOp40
 70
     1
102
RTVSPropertyOp41
 70
     1
102
RTVSPropertyOp42
 70
     1
102
RTVSPropertyOp43
 70
     1
102
RTVSPropertyOp44
 70
     1
102
RTVSPropertyOp45
 70
     1
102
RTVSPropertyOp46
 70
     1
102
RTVSPropertyOp47
 70
     1
102
RTVSPropertyOp48
 70
     1
102
RTVSPropertyOp49
 70
     1
102
RTVSPropertyOp50
 70
     1
102
RTVSPropertyOp51
 70
     0
102
RTVSPropertyOp52
 70
     0
102
RTVSPropertyOp53
 70
     1
102
RTVSPropertyOp54
 70
     1
102
RTVSPropertyOp55
 70
     1
102
RTVSPropertyOp56
 70
     1
102
RTVSPropertyOp57
 70
     1
102
RTVSPost2010Prop28
280
     0
102
RTVSPost2010PropOp28
 70
     1
102
RTVSPost2010Prop29
280
     1
102
RTVSPost2010PropOp29
 70
     1
102
RTVSPost2010Prop30
280
     1
102
RTVSPost2010PropOp30
 70
     1
102
RTVSPost2010Prop31
280
     0
102
RTVSPost2010PropOp31
 70
     1
102
RTVSPost2010Prop32
280
     0
102
RTVSPost2010PropOp32
 70
     1
102
RTVSPost2010Prop33
280
     0
102
RTVSPost2010PropOp33
 70
     1
102
RTVSPost2010Prop34
280
     0
102
RTVSPost2010PropOp34
 70
     1
102
RTVSPost2010Prop35
280
     0
102
RTVSPost2010PropOp35
 70
     1
102
RTVSPost2010Prop36
280
     0
102
RTVSPost2010PropOp36
 70
     1
102
RTVSPost2010Prop37
 90
       50
102
RTVSPost2010PropOp37
 70
     1
102
RTVSPost2010Prop38
140
0.0
102
RTVSPost2010PropOp38
 70
     1
102
RTVSPost2010Prop39
140
1.0
102
RTVSPost2010PropOp39
 70
     1
102
RTVSPost2010Prop40
 90
        0
102
RTVSPost2010PropOp40
 70
     1
102
RTVSPost2010Prop41ColorIndex
 90
       18
102
RTVSPost2010Prop41ColorRGB
 90
        0
102
RTVSPost2010PropOp41
 70
     1
102
RTVSPost2010Prop42
 90
       50
102
RTVSPost2010PropOp42
 70
     1
102
RTVSPost2010Prop43
 90
        3
102
RTVSPost2010PropOp43
 70
     1
102
RTVSPost2010Prop44ColorIndex
 90
        5
102
RTVSPost2010Prop44ColorRGB
 90
      255
102
RTVSPost2010PropOp44
 70
     1
102
RTVSPost2010Prop45
280
     0
102
RTVSPost2010PropOp45
 70
     1
102
RTVSPost2010Prop46
 90
       50
102
RTVSPost2010PropOp46
 70
     1
102
RTVSPost2010Prop47
 90
       50
102
RTVSPost2010PropOp47
 70
     1
102
RTVSPost2010Prop48
 90
       50
102
RTVSPost2010PropOp48
 70
     1
102
RTVSPost2010Prop49
280
     0
102
RTVSPost2010PropOp49
 70
     1
102
RTVSPost2010Prop50
 90
       50
102
RTVSPost2010PropOp50
 70
     1
102
RTVSPost2010Prop51ColorIndex
 90
      256
102
RTVSPost2010Prop51ColorRGB
 90
-16777216
102
RTVSPost2010PropOp51
 70
     0
102
RTVSPost2010Prop52
140
1.0
102
RTVSPost2010PropOp52
 70
     0
102
RTVSPost2010Prop53
 90
        2
102
RTVSPost2010PropOp53
 70
     1
102
RTVSPost2010Prop54
  1
strokes_ogs.tif
102
RTVSPost2010PropOp54
 70
     1
102
RTVSPost2010Prop55
280
     0
102
RTVSPost2010PropOp55
 70
     1
102
RTVSPost2010Prop56
140
1.0
102
RTVSPost2010PropOp56
 70
     1
102
RTVSPost2010Prop57
140
1.0
102
RTVSPost2010PropOp57
 70
     1
  0
XRECORD
  5
1F6
102
{ACAD_REACTORS
330
1F5
102
}
330
1F5
100
AcDbXrecord
280
     1
102
RTVSPropertyOp0
 70
     0
102
RTVSPropertyOp1
 70
     0
102
RTVSPropertyOp2
 70
     0
102
RTVSPropertyOp3
 70
     0
102
RTVSPropertyOp4
 70
     0
102
RTVSPropertyOp5
 70
     0
102
RTVSPropertyOp6
 70
     0
102
RTVSPropertyOp7
 70
     0
102
RTVSPropertyOp8
 70
     0
102
RTVSPropertyOp9
 70
     0
102
RTVSPropertyOp10
 70
     0
102
RTVSPropertyOp11
 70
     0
102
RTVSPropertyOp12
 70
     0
102
RTVSPropertyOp13
 70
     0
102
RTVSPropertyOp14
 70
     2
102
RTVSPropertyOp15
 70
     0
102
RTVSPropertyOp16
 70
     0
102
RTVSPropertyOp17
 70
     0
102
RTVSPropertyOp18
 70
     0
102
RTVSPropertyOp19
 70
     0
102
RTVSPropertyOp20
 70
     0
102
RTVSPropertyOp21
 70
     0
102
RTVSPropertyOp22
 70
     0
102
RTVSPropertyOp23
 70
     0
102
RTVSPropertyOp24
 70
     0
102
RTVSPropertyOp25
 70
     0
102
RTVSPropertyOp26
 70
     0
102
RTVSPropertyOp27
 70
     0
102
RTVSPropertyOp28
 70
     0
102
RTVSPropertyOp29
 70
     0
102
RTVSPropertyOp30
 70
     0
102
RTVSPropertyOp31
 70
     0
102
RTVSPropertyOp32
 70
     0
102
RTVSPropertyOp33
 70
     0
102
RTVSPropertyOp34
 70
     0
102
RTVSPropertyOp35
 70
     0
102
RTVSPropertyOp36
 70
     0
102
RTVSPropertyOp37
 70
     0
102
RTVSPropertyOp38
 70
     0
102
RTVSPropertyOp39
 70
     0
102
RTVSPropertyOp40
 70
     0
102
RTVSPropertyOp41
 70
     0
102
RTVSPropertyOp42
 70
     0
102
RTVSPropertyOp43
 70
     0
102
RTVSPropertyOp44
 70
     0
102
RTVSPropertyOp45
 70
     0
102
RTVSPropertyOp46
 70
     0
102
RTVSPropertyOp47
 70
     0
102
RTVSPropertyOp48
 70
     0
102
RTVSPropertyOp49
 70
     0
102
RTVSPropertyOp50
 70
     0
102
RTVSPropertyOp51
 70
     0
102
RTVSPropertyOp52
 70
     0
102
RTVSPropertyOp53
 70
     0
102
RTVSPropertyOp54
 70
     0
102
RTVSPropertyOp55
 70
     0
102
RTVSPropertyOp56
 70
     0
102
RTVSPropertyOp57
 70
     0
102
RTVSPost2010Prop28
280
     0
102
RTVSPost2010PropOp28
 70
     0
102
RTVSPost2010Prop29
280
     1
102
RTVSPost2010PropOp29
 70
     0
102
RTVSPost2010Prop30
280
     1
102
RTVSPost2010PropOp30
 70
     0
102
RTVSPost2010Prop31
280
     0
102
RTVSPost2010PropOp31
 70
     0
102
RTVSPost2010Prop32
280
     0
102
RTVSPost2010PropOp32
 70
     0
102
RTVSPost2010Prop33
280
     0
102
RTVSPost2010PropOp33
 70
     0
102
RTVSPost2010Prop34
280
     0
102
RTVSPost2010PropOp34
 70
     0
102
RTVSPost2010Prop35
280
     0
102
RTVSPost2010PropOp35
 70
     0
102
RTVSPost2010Prop36
280
     0
102
RTVSPost2010PropOp36
 70
     0
102
RTVSPost2010Prop37
 90
       50
102
RTVSPost2010PropOp37
 70
     0
102
RTVSPost2010Prop38
140
0.0
102
RTVSPost2010PropOp38
 70
     0
102
RTVSPost2010Prop39
140
1.0
102
RTVSPost2010PropOp39
 70
     0
102
RTVSPost2010Prop40
 90
        0
102
RTVSPost2010PropOp40
 70
     0
102
RTVSPost2010Prop41ColorIndex
 90
       18
102
RTVSPost2010Prop41ColorRGB
 90
        0
102
RTVSPost2010PropOp41
 70
     0
102
RTVSPost2010Prop42
 90
       50
102
RTVSPost2010PropOp42
 70
     0
102
RTVSPost2010Prop43
 90
        3
102
RTVSPost2010PropOp43
 70
     0
102
RTVSPost2010Prop44ColorIndex
 90
        5
102
RTVSPost2010Prop44ColorRGB
 90
      255
102
RTVSPost2010PropOp44
 70
     0
102
RTVSPost2010Prop45
280
     0
102
RTVSPost2010PropOp45
 70
     0
102
RTVSPost2010Prop46
 90
       50
102
RTVSPost2010PropOp46
 70
     0
102
RTVSPost2010Prop47
 90
       50
102
RTVSPost2010PropOp47
 70
     0
102
RTVSPost2010Prop48
 90
       50
102
RTVSPost2010PropOp48
 70
     0
102
RTVSPost2010Prop49
280
     0
102
RTVSPost2010PropOp49
 70
     0
102
RTVSPost2010Prop50
 90
       50
102
RTVSPost2010PropOp50
 70
     0
102
RTVSPost2010Prop51ColorIndex
 90
      256
102
RTVSPost2010Prop51ColorRGB
 90
-16777216
102
RTVSPost2010PropOp51
 70
     0
102
RTVSPost2010Prop52
140
1.0
102
RTVSPost2010PropOp52
 70
     0
102
RTVSPost2010Prop53
 90
        2
102
RTVSPost2010PropOp53
 70
     0
102
RTVSPost2010Prop54
  1
strokes_ogs.tif
102
RTVSPost2010PropOp54
 70
     0
102
RTVSPost2010Prop55
280
     0
102
RTVSPost2010PropOp55
 70
     0
102
RTVSPost2010Prop56
140
1.0
102
RTVSPost2010PropOp56
 70
     0
102
RTVSPost2010Prop57
140
1.0
102
RTVSPost2010PropOp57
 70
     0
  0
XRECORD
  5
1F0
102
{ACAD_REACTORS
330
1EF
102
}
330
1EF
100
AcDbXrecord
280
     1
102
RTVSPropertyOp0
 70
     1
102
RTVSPropertyOp1
 70
     1
102
RTVSPropertyOp2
 70
     1
102
RTVSPropertyOp3
 70
     1
102
RTVSPropertyOp4
 70
     1
102
RTVSPropertyOp5
 70
     1
102
RTVSPropertyOp6
 70
     1
102
RTVSPropertyOp7
 70
     1
102
RTVSPropertyOp8
 70
     1
102
RTVSPropertyOp9
 70
     1
102
RTVSPropertyOp10
 70
     1
102
RTVSPropertyOp11
 70
     1
102
RTVSPropertyOp12
 70
     1
102
RTVSPropertyOp13
 70
     1
102
RTVSPropertyOp14
 70
     1
102
RTVSPropertyOp15
 70
     1
102
RTVSPropertyOp16
 70
     1
102
RTVSPropertyOp17
 70
     1
102
RTVSPropertyOp18
 70
     1
102
RTVSPropertyOp19
 70
     1
102
RTVSPropertyOp20
 70
     1
102
RTVSPropertyOp21
 70
     1
102
RTVSPropertyOp22
 70
     1
102
RTVSPropertyOp23
 70
     1
102
RTVSPropertyOp24
 70
     1
102
RTVSPropertyOp25
 70
     1
102
RTVSPropertyOp26
 70
     1
102
RTVSPropertyOp27
 70
     1
102
RTVSPropertyOp28
 70
     1
102
RTVSPropertyOp29
 70
     1
102
RTVSPropertyOp30
 70
     1
102
RTVSPropertyOp31
 70
     1
102
RTVSPropertyOp32
 70
     1
102
RTVSPropertyOp33
 70
     1
102
RTVSPropertyOp34
 70
     1
102
RTVSPropertyOp35
 70
     1
102
RTVSPropertyOp36
 70
     1
102
RTVSPropertyOp37
 70
     1
102
RTVSPropertyOp38
 70
     1
102
RTVSPropertyOp39
 70
     1
102
RTVSPropertyOp40
 70
     1
102
RTVSPropertyOp41
 70
     1
102
RTVSPropertyOp42
 70
     1
102
RTVSPropertyOp43
 70
     1
102
RTVSPropertyOp44
 70
     1
102
RTVSPropertyOp45
 70
     1
102
RTVSPropertyOp46
 70
     1
102
RTVSPropertyOp47
 70
     1
102
RTVSPropertyOp48
 70
     1
102
RTVSPropertyOp49
 70
     1
102
RTVSPropertyOp50
 70
     1
102
RTVSPropertyOp51
 70
     0
102
RTVSPropertyOp52
 70
     0
102
RTVSPropertyOp53
 70
     1
102
RTVSPropertyOp54
 70
     1
102
RTVSPropertyOp55
 70
     1
102
RTVSPropertyOp56
 70
     1
102
RTVSPropertyOp57
 70
     1
102
RTVSPost2010Prop28
280
     0
102
RTVSPost2010PropOp28
 70
     1
102
RTVSPost2010Prop29
280
     1
102
RTVSPost2010PropOp29
 70
     1
102
RTVSPost2010Prop30
280
     1
102
RTVSPost2010PropOp30
 70
     1
102
RTVSPost2010Prop31
280
     0
102
RTVSPost2010PropOp31
 70
     1
102
RTVSPost2010Prop32
280
     0
102
RTVSPost2010PropOp32
 70
     1
102
RTVSPost2010Prop33
280
     0
102
RTVSPost2010PropOp33
 70
     1
102
RTVSPost2010Prop34
280
     0
102
RTVSPost2010PropOp34
 70
     1
102
RTVSPost2010Prop35
280
     0
102
RTVSPost2010PropOp35
 70
     1
102
RTVSPost2010Prop36
280
     0
102
RTVSPost2010PropOp36
 70
     1
102
RTVSPost2010Prop37
 90
       50
102
RTVSPost2010PropOp37
 70
     1
102
RTVSPost2010Prop38
140
0.0
102
RTVSPost2010PropOp38
 70
     1
102
RTVSPost2010Prop39
140
1.0
102
RTVSPost2010PropOp39
 70
     1
102
RTVSPost2010Prop40
 90
        0
102
RTVSPost2010PropOp40
 70
     1
102
RTVSPost2010Prop41ColorIndex
 90
       18
102
RTVSPost2010Prop41ColorRGB
 90
        0
102
RTVSPost2010PropOp41
 70
     1
102
RTVSPost2010Prop42
 90
       50
102
RTVSPost2010PropOp42
 70
     1
102
RTVSPost2010Prop43
 90
        3
102
RTVSPost2010PropOp43
 70
     1
102
RTVSPost2010Prop44ColorIndex
 90
        5
102
RTVSPost2010Prop44ColorRGB
 90
      255
102
RTVSPost2010PropOp44
 70
     1
102
RTVSPost2010Prop45
280
     0
102
RTVSPost2010PropOp45
 70
     1
102
RTVSPost2010Prop46
 90
       50
102
RTVSPost2010PropOp46
 70
     1
102
RTVSPost2010Prop47
 90
       50
102
RTVSPost2010PropOp47
 70
     1
102
RTVSPost2010Prop48
 90
       50
102
RTVSPost2010PropOp48
 70
     1
102
RTVSPost2010Prop49
280
     0
102
RTVSPost2010PropOp49
 70
     1
102
RTVSPost2010Prop50
 90
       50
102
RTVSPost2010PropOp50
 70
     1
102
RTVSPost2010Prop51ColorIndex
 90
      256
102
RTVSPost2010Prop51ColorRGB
 90
-16777216
102
RTVSPost2010PropOp51
 70
     0
102
RTVSPost2010Prop52
140
1.0
102
RTVSPost2010PropOp52
 70
     0
102
RTVSPost2010Prop53
 90
        2
102
RTVSPost2010PropOp53
 70
     1
102
RTVSPost2010Prop54
  1
strokes_ogs.tif
102
RTVSPost2010PropOp54
 70
     1
102
RTVSPost2010Prop55
280
     0
102
RTVSPost2010PropOp55
 70
     1
102
RTVSPost2010Prop56
140
1.0
102
RTVSPost2010PropOp56
 70
     1
102
RTVSPost2010Prop57
140
1.0
102
RTVSPost2010PropOp57
 70
     1
  0
XRECORD
  5
1F8
102
{ACAD_REACTORS
330
1F7
102
}
330
1F7
100
AcDbXrecord
280
     1
102
RTVSPropertyOp0
 70
     0
102
RTVSPropertyOp1
 70
     0
102
RTVSPropertyOp2
 70
     0
102
RTVSPropertyOp3
 70
     0
102
RTVSPropertyOp4
 70
     0
102
RTVSPropertyOp5
 70
     0
102
RTVSPropertyOp6
 70
     0
102
RTVSPropertyOp7
 70
     0
102
RTVSPropertyOp8
 70
     0
102
RTVSPropertyOp9
 70
     0
102
RTVSPropertyOp10
 70
     0
102
RTVSPropertyOp11
 70
     0
102
RTVSPropertyOp12
 70
     0
102
RTVSPropertyOp13
 70
     0
102
RTVSPropertyOp14
 70
     2
102
RTVSPropertyOp15
 70
     0
102
RTVSPropertyOp16
 70
     0
102
RTVSPropertyOp17
 70
     0
102
RTVSPropertyOp18
 70
     0
102
RTVSPropertyOp19
 70
     0
102
RTVSPropertyOp20
 70
     0
102
RTVSPropertyOp21
 70
     0
102
RTVSPropertyOp22
 70
     0
102
RTVSPropertyOp23
 70
     0
102
RTVSPropertyOp24
 70
     0
102
RTVSPropertyOp25
 70
     0
102
RTVSPropertyOp26
 70
     0
102
RTVSPropertyOp27
 70
     0
102
RTVSPropertyOp28
 70
     0
102
RTVSPropertyOp29
 70
     0
102
RTVSPropertyOp30
 70
     0
102
RTVSPropertyOp31
 70
     0
102
RTVSPropertyOp32
 70
     0
102
RTVSPropertyOp33
 70
     0
102
RTVSPropertyOp34
 70
     0
102
RTVSPropertyOp35
 70
     0
102
RTVSPropertyOp36
 70
     0
102
RTVSPropertyOp37
 70
     0
102
RTVSPropertyOp38
 70
     0
102
RTVSPropertyOp39
 70
     0
102
RTVSPropertyOp40
 70
     0
102
RTVSPropertyOp41
 70
     0
102
RTVSPropertyOp42
 70
     0
102
RTVSPropertyOp43
 70
     0
102
RTVSPropertyOp44
 70
     0
102
RTVSPropertyOp45
 70
     0
102
RTVSPropertyOp46
 70
     0
102
RTVSPropertyOp47
 70
     0
102
RTVSPropertyOp48
 70
     0
102
RTVSPropertyOp49
 70
     0
102
RTVSPropertyOp50
 70
     0
102
RTVSPropertyOp51
 70
     0
102
RTVSPropertyOp52
 70
     0
102
RTVSPropertyOp53
 70
     0
102
RTVSPropertyOp54
 70
     0
102
RTVSPropertyOp55
 70
     0
102
RTVSPropertyOp56
 70
     0
102
RTVSPropertyOp57
 70
     0
102
RTVSPost2010Prop28
280
     0
102
RTVSPost2010PropOp28
 70
     0
102
RTVSPost2010Prop29
280
     1
102
RTVSPost2010PropOp29
 70
     0
102
RTVSPost2010Prop30
280
     1
102
RTVSPost2010PropOp30
 70
     0
102
RTVSPost2010Prop31
280
     0
102
RTVSPost2010PropOp31
 70
     0
102
RTVSPost2010Prop32
280
     0
102
RTVSPost2010PropOp32
 70
     0
102
RTVSPost2010Prop33
280
     0
102
RTVSPost2010PropOp33
 70
     0
102
RTVSPost2010Prop34
280
     0
102
RTVSPost2010PropOp34
 70
     0
102
RTVSPost2010Prop35
280
     0
102
RTVSPost2010PropOp35
 70
     0
102
RTVSPost2010Prop36
280
     0
102
RTVSPost2010PropOp36
 70
     0
102
RTVSPost2010Prop37
 90
       50
102
RTVSPost2010PropOp37
 70
     0
102
RTVSPost2010Prop38
140
0.0
102
RTVSPost2010PropOp38
 70
     0
102
RTVSPost2010Prop39
140
1.0
102
RTVSPost2010PropOp39
 70
     0
102
RTVSPost2010Prop40
 90
        0
102
RTVSPost2010PropOp40
 70
     0
102
RTVSPost2010Prop41ColorIndex
 90
       18
102
RTVSPost2010Prop41ColorRGB
 90
        0
102
RTVSPost2010PropOp41
 70
     0
102
RTVSPost2010Prop42
 90
       50
102
RTVSPost2010PropOp42
 70
     0
102
RTVSPost2010Prop43
 90
        3
102
RTVSPost2010PropOp43
 70
     0
102
RTVSPost2010Prop44ColorIndex
 90
        5
102
RTVSPost2010Prop44ColorRGB
 90
      255
102
RTVSPost2010PropOp44
 70
     0
102
RTVSPost2010Prop45
280
     0
102
RTVSPost2010PropOp45
 70
     0
102
RTVSPost2010Prop46
 90
       50
102
RTVSPost2010PropOp46
 70
     0
102
RTVSPost2010Prop47
 90
       50
102
RTVSPost2010PropOp47
 70
     0
102
RTVSPost2010Prop48
 90
       50
102
RTVSPost2010PropOp48
 70
     0
102
RTVSPost2010Prop49
280
     0
102
RTVSPost2010PropOp49
 70
     0
102
RTVSPost2010Prop50
 90
       50
102
RTVSPost2010PropOp50
 70
     0
102
RTVSPost2010Prop51ColorIndex
 90
      256
102
RTVSPost2010Prop51ColorRGB
 90
-16777216
102
RTVSPost2010PropOp51
 70
     0
102
RTVSPost2010Prop52
140
1.0
102
RTVSPost2010PropOp52
 70
     0
102
RTVSPost2010Prop53
 90
        2
102
RTVSPost2010PropOp53
 70
     0
102
RTVSPost2010Prop54
  1
strokes_ogs.tif
102
RTVSPost2010PropOp54
 70
     0
102
RTVSPost2010Prop55
280
     0
102
RTVSPost2010PropOp55
 70
     0
102
RTVSPost2010Prop56
140
1.0
102
RTVSPost2010PropOp56
 70
     0
102
RTVSPost2010Prop57
140
1.0
102
RTVSPost2010PropOp57
 70
     0
  0
XRECORD
  5
1E6
102
{ACAD_REACTORS
330
1E5
102
}
330
1E5
100
AcDbXrecord
280
     1
102
RTVSPropertyOp0
 70
     1
102
RTVSPropertyOp1
 70
     1
102
RTVSPropertyOp2
 70
     1
102
RTVSPropertyOp3
 70
     1
102
RTVSPropertyOp4
 70
     1
102
RTVSPropertyOp5
 70
     1
102
RTVSPropertyOp6
 70
     1
102
RTVSPropertyOp7
 70
     1
102
RTVSPropertyOp8
 70
     1
102
RTVSPropertyOp9
 70
     1
102
RTVSPropertyOp10
 70
     1
102
RTVSPropertyOp11
 70
     1
102
RTVSPropertyOp12
 70
     1
102
RTVSPropertyOp13
 70
     1
102
RTVSPropertyOp14
 70
     1
102
RTVSPropertyOp15
 70
     1
102
RTVSPropertyOp16
 70
     1
102
RTVSPropertyOp17
 70
     1
102
RTVSPropertyOp18
 70
     1
102
RTVSPropertyOp19
 70
     1
102
RTVSPropertyOp20
 70
     1
102
RTVSPropertyOp21
 70
     1
102
RTVSPropertyOp22
 70
     1
102
RTVSPropertyOp23
 70
     1
102
RTVSPropertyOp24
 70
     1
102
RTVSPropertyOp25
 70
     1
102
RTVSPropertyOp26
 70
     1
102
RTVSPropertyOp27
 70
     1
102
RTVSPropertyOp28
 70
     1
102
RTVSPropertyOp29
 70
     1
102
RTVSPropertyOp30
 70
     1
102
RTVSPropertyOp31
 70
     1
102
RTVSPropertyOp32
 70
     1
102
RTVSPropertyOp33
 70
     1
102
RTVSPropertyOp34
 70
     1
102
RTVSPropertyOp35
 70
     1
102
RTVSPropertyOp36
 70
     1
102
RTVSPropertyOp37
 70
     1
102
RTVSPropertyOp38
 70
     1
102
RTVSPropertyOp39
 70
     1
102
RTVSPropertyOp40
 70
     1
102
RTVSPropertyOp41
 70
     1
102
RTVSPropertyOp42
 70
     1
102
RTVSPropertyOp43
 70
     1
102
RTVSPropertyOp44
 70
     1
102
RTVSPropertyOp45
 70
     1
102
RTVSPropertyOp46
 70
     1
102
RTVSPropertyOp47
 70
     1
102
RTVSPropertyOp48
 70
     1
102
RTVSPropertyOp49
 70
     1
102
RTVSPropertyOp50
 70
     1
102
RTVSPropertyOp51
 70
     0
102
RTVSPropertyOp52
 70
     0
102
RTVSPropertyOp53
 70
     1
102
RTVSPropertyOp54
 70
     1
102
RTVSPropertyOp55
 70
     1
102
RTVSPropertyOp56
 70
     1
102
RTVSPropertyOp57
 70
     1
102
RTVSPost2010Prop28
280
     0
102
RTVSPost2010PropOp28
 70
     1
102
RTVSPost2010Prop29
280
     1
102
RTVSPost2010PropOp29
 70
     1
102
RTVSPost2010Prop30
280
     1
102
RTVSPost2010PropOp30
 70
     1
102
RTVSPost2010Prop31
280
     0
102
RTVSPost2010PropOp31
 70
     1
102
RTVSPost2010Prop32
280
     0
102
RTVSPost2010PropOp32
 70
     1
102
RTVSPost2010Prop33
280
     0
102
RTVSPost2010PropOp33
 70
     1
102
RTVSPost2010Prop34
280
     0
102
RTVSPost2010PropOp34
 70
     1
102
RTVSPost2010Prop35
280
     0
102
RTVSPost2010PropOp35
 70
     1
102
RTVSPost2010Prop36
280
     0
102
RTVSPost2010PropOp36
 70
     1
102
RTVSPost2010Prop37
 90
       50
102
RTVSPost2010PropOp37
 70
     1
102
RTVSPost2010Prop38
140
0.0
102
RTVSPost2010PropOp38
 70
     1
102
RTVSPost2010Prop39
140
1.0
102
RTVSPost2010PropOp39
 70
     1
102
RTVSPost2010Prop40
 90
        0
102
RTVSPost2010PropOp40
 70
     1
102
RTVSPost2010Prop41ColorIndex
 90
       18
102
RTVSPost2010Prop41ColorRGB
 90
        0
102
RTVSPost2010PropOp41
 70
     1
102
RTVSPost2010Prop42
 90
       50
102
RTVSPost2010PropOp42
 70
     1
102
RTVSPost2010Prop43
 90
        3
102
RTVSPost2010PropOp43
 70
     1
102
RTVSPost2010Prop44ColorIndex
 90
        5
102
RTVSPost2010Prop44ColorRGB
 90
      255
102
RTVSPost2010PropOp44
 70
     1
102
RTVSPost2010Prop45
280
     0
102
RTVSPost2010PropOp45
 70
     1
102
RTVSPost2010Prop46
 90
       50
102
RTVSPost2010PropOp46
 70
     1
102
RTVSPost2010Prop47
 90
       50
102
RTVSPost2010PropOp47
 70
     1
102
RTVSPost2010Prop48
 90
       50
102
RTVSPost2010PropOp48
 70
     1
102
RTVSPost2010Prop49
280
     0
102
RTVSPost2010PropOp49
 70
     1
102
RTVSPost2010Prop50
 90
       50
102
RTVSPost2010PropOp50
 70
     1
102
RTVSPost2010Prop51ColorIndex
 90
      256
102
RTVSPost2010Prop51ColorRGB
 90
-16777216
102
RTVSPost2010PropOp51
 70
     0
102
RTVSPost2010Prop52
140
1.0
102
RTVSPost2010PropOp52
 70
     0
102
RTVSPost2010Prop53
 90
        2
102
RTVSPost2010PropOp53
 70
     1
102
RTVSPost2010Prop54
  1
strokes_ogs.tif
102
RTVSPost2010PropOp54
 70
     1
102
RTVSPost2010Prop55
280
     0
102
RTVSPost2010PropOp55
 70
     1
102
RTVSPost2010Prop56
140
1.0
102
RTVSPost2010PropOp56
 70
     1
102
RTVSPost2010Prop57
140
1.0
102
RTVSPost2010PropOp57
 70
     1
  0
XRECORD
  5
204
102
{ACAD_REACTORS
330
203
102
}
330
203
100
AcDbXrecord
280
     1
102
RTVSPropertyOp0
 70
     1
102
RTVSPropertyOp1
 70
     1
102
RTVSPropertyOp2
 70
     1
102
RTVSPropertyOp3
 70
     1
102
RTVSPropertyOp4
 70
     1
102
RTVSPropertyOp5
 70
     1
102
RTVSPropertyOp6
 70
     1
102
RTVSPropertyOp7
 70
     1
102
RTVSPropertyOp8
 70
     1
102
RTVSPropertyOp9
 70
     1
102
RTVSPropertyOp10
 70
     1
102
RTVSPropertyOp11
 70
     1
102
RTVSPropertyOp12
 70
     1
102
RTVSPropertyOp13
 70
     1
102
RTVSPropertyOp14
 70
     1
102
RTVSPropertyOp15
 70
     1
102
RTVSPropertyOp16
 70
     1
102
RTVSPropertyOp17
 70
     1
102
RTVSPropertyOp18
 70
     1
102
RTVSPropertyOp19
 70
     1
102
RTVSPropertyOp20
 70
     1
102
RTVSPropertyOp21
 70
     1
102
RTVSPropertyOp22
 70
     1
102
RTVSPropertyOp23
 70
     1
102
RTVSPropertyOp24
 70
     1
102
RTVSPropertyOp25
 70
     1
102
RTVSPropertyOp26
 70
     1
102
RTVSPropertyOp27
 70
     1
102
RTVSPropertyOp28
 70
     1
102
RTVSPropertyOp29
 70
     1
102
RTVSPropertyOp30
 70
     1
102
RTVSPropertyOp31
 70
     1
102
RTVSPropertyOp32
 70
     1
102
RTVSPropertyOp33
 70
     1
102
RTVSPropertyOp34
 70
     1
102
RTVSPropertyOp35
 70
     1
102
RTVSPropertyOp36
 70
     1
102
RTVSPropertyOp37
 70
     1
102
RTVSPropertyOp38
 70
     1
102
RTVSPropertyOp39
 70
     1
102
RTVSPropertyOp40
 70
     1
102
RTVSPropertyOp41
 70
     1
102
RTVSPropertyOp42
 70
     1
102
RTVSPropertyOp43
 70
     1
102
RTVSPropertyOp44
 70
     1
102
RTVSPropertyOp45
 70
     1
102
RTVSPropertyOp46
 70
     1
102
RTVSPropertyOp47
 70
     1
102
RTVSPropertyOp48
 70
     1
102
RTVSPropertyOp49
 70
     1
102
RTVSPropertyOp50
 70
     1
102
RTVSPropertyOp51
 70
     0
102
RTVSPropertyOp52
 70
     0
102
RTVSPropertyOp53
 70
     1
102
RTVSPropertyOp54
 70
     1
102
RTVSPropertyOp55
 70
     1
102
RTVSPropertyOp56
 70
     1
102
RTVSPropertyOp57
 70
     1
102
RTVSPost2010Prop28
280
     0
102
RTVSPost2010PropOp28
 70
     1
102
RTVSPost2010Prop29
280
     1
102
RTVSPost2010PropOp29
 70
     1
102
RTVSPost2010Prop30
280
     1
102
RTVSPost2010PropOp30
 70
     1
102
RTVSPost2010Prop31
280
     0
102
RTVSPost2010PropOp31
 70
     1
102
RTVSPost2010Prop32
280
     0
102
RTVSPost2010PropOp32
 70
     1
102
RTVSPost2010Prop33
280
     0
102
RTVSPost2010PropOp33
 70
     1
102
RTVSPost2010Prop34
280
     0
102
RTVSPost2010PropOp34
 70
     1
102
RTVSPost2010Prop35
280
     0
102
RTVSPost2010PropOp35
 70
     1
102
RTVSPost2010Prop36
280
     0
102
RTVSPost2010PropOp36
 70
     1
102
RTVSPost2010Prop37
 90
       50
102
RTVSPost2010PropOp37
 70
     1
102
RTVSPost2010Prop38
140
0.0
102
RTVSPost2010PropOp38
 70
     1
102
RTVSPost2010Prop39
140
1.0
102
RTVSPost2010PropOp39
 70
     1
102
RTVSPost2010Prop40
 90
        0
102
RTVSPost2010PropOp40
 70
     1
102
RTVSPost2010Prop41ColorIndex
 90
       18
102
RTVSPost2010Prop41ColorRGB
 90
        0
102
RTVSPost2010PropOp41
 70
     1
102
RTVSPost2010Prop42
 90
       50
102
RTVSPost2010PropOp42
 70
     1
102
RTVSPost2010Prop43
 90
        3
102
RTVSPost2010PropOp43
 70
     1
102
RTVSPost2010Prop44ColorIndex
 90
        5
102
RTVSPost2010Prop44ColorRGB
 90
      255
102
RTVSPost2010PropOp44
 70
     1
102
RTVSPost2010Prop45
280
     0
102
RTVSPost2010PropOp45
 70
     1
102
RTVSPost2010Prop46
 90
       50
102
RTVSPost2010PropOp46
 70
     1
102
RTVSPost2010Prop47
 90
       50
102
RTVSPost2010PropOp47
 70
     1
102
RTVSPost2010Prop48
 90
       50
102
RTVSPost2010PropOp48
 70
     1
102
RTVSPost2010Prop49
280
     0
102
RTVSPost2010PropOp49
 70
     1
102
RTVSPost2010Prop50
 90
       50
102
RTVSPost2010PropOp50
 70
     1
102
RTVSPost2010Prop51ColorIndex
 90
      256
102
RTVSPost2010Prop51ColorRGB
 90
-16777216
102
RTVSPost2010PropOp51
 70
     0
102
RTVSPost2010Prop52
140
1.0
102
RTVSPost2010PropOp52
 70
     0
102
RTVSPost2010Prop53
 90
        2
102
RTVSPost2010PropOp53
 70
     1
102
RTVSPost2010Prop54
  1
strokes_ogs.tif
102
RTVSPost2010PropOp54
 70
     1
102
RTVSPost2010Prop55
280
     0
102
RTVSPost2010PropOp55
 70
     1
102
RTVSPost2010Prop56
140
1.0
102
RTVSPost2010PropOp56
 70
     1
102
RTVSPost2010Prop57
140
1.0
102
RTVSPost2010PropOp57
 70
     1
  0
XRECORD
  5
202
102
{ACAD_REACTORS
330
201
102
}
330
201
100
AcDbXrecord
280
     1
102
RTVSPropertyOp0
 70
     1
102
RTVSPropertyOp1
 70
     1
102
RTVSPropertyOp2
 70
     1
102
RTVSPropertyOp3
 70
     1
102
RTVSPropertyOp4
 70
     1
102
RTVSPropertyOp5
 70
     1
102
RTVSPropertyOp6
 70
     1
102
RTVSPropertyOp7
 70
     1
102
RTVSPropertyOp8
 70
     1
102
RTVSPropertyOp9
 70
     1
102
RTVSPropertyOp10
 70
     1
102
RTVSPropertyOp11
 70
     1
102
RTVSPropertyOp12
 70
     1
102
RTVSPropertyOp13
 70
     1
102
RTVSPropertyOp14
 70
     1
102
RTVSPropertyOp15
 70
     1
102
RTVSPropertyOp16
 70
     1
102
RTVSPropertyOp17
 70
     1
102
RTVSPropertyOp18
 70
     1
102
RTVSPropertyOp19
 70
     1
102
RTVSPropertyOp20
 70
     1
102
RTVSPropertyOp21
 70
     1
102
RTVSPropertyOp22
 70
     1
102
RTVSPropertyOp23
 70
     1
102
RTVSPropertyOp24
 70
     1
102
RTVSPropertyOp25
 70
     1
102
RTVSPropertyOp26
 70
     1
102
RTVSPropertyOp27
 70
     1
102
RTVSPropertyOp28
 70
     1
102
RTVSPropertyOp29
 70
     1
102
RTVSPropertyOp30
 70
     1
102
RTVSPropertyOp31
 70
     1
102
RTVSPropertyOp32
 70
     1
102
RTVSPropertyOp33
 70
     1
102
RTVSPropertyOp34
 70
     1
102
RTVSPropertyOp35
 70
     1
102
RTVSPropertyOp36
 70
     1
102
RTVSPropertyOp37
 70
     1
102
RTVSPropertyOp38
 70
     1
102
RTVSPropertyOp39
 70
     1
102
RTVSPropertyOp40
 70
     1
102
RTVSPropertyOp41
 70
     1
102
RTVSPropertyOp42
 70
     1
102
RTVSPropertyOp43
 70
     1
102
RTVSPropertyOp44
 70
     1
102
RTVSPropertyOp45
 70
     1
102
RTVSPropertyOp46
 70
     1
102
RTVSPropertyOp47
 70
     1
102
RTVSPropertyOp48
 70
     1
102
RTVSPropertyOp49
 70
     1
102
RTVSPropertyOp50
 70
     1
102
RTVSPropertyOp51
 70
     0
102
RTVSPropertyOp52
 70
     0
102
RTVSPropertyOp53
 70
     1
102
RTVSPropertyOp54
 70
     1
102
RTVSPropertyOp55
 70
     1
102
RTVSPropertyOp56
 70
     1
102
RTVSPropertyOp57
 70
     1
102
RTVSPost2010Prop28
280
     0
102
RTVSPost2010PropOp28
 70
     1
102
RTVSPost2010Prop29
280
     1
102
RTVSPost2010PropOp29
 70
     1
102
RTVSPost2010Prop30
280
     1
102
RTVSPost2010PropOp30
 70
     1
102
RTVSPost2010Prop31
280
     0
102
RTVSPost2010PropOp31
 70
     1
102
RTVSPost2010Prop32
280
     0
102
RTVSPost2010PropOp32
 70
     1
102
RTVSPost2010Prop33
280
     0
102
RTVSPost2010PropOp33
 70
     1
102
RTVSPost2010Prop34
280
     0
102
RTVSPost2010PropOp34
 70
     1
102
RTVSPost2010Prop35
280
     0
102
RTVSPost2010PropOp35
 70
     1
102
RTVSPost2010Prop36
280
     0
102
RTVSPost2010PropOp36
 70
     1
102
RTVSPost2010Prop37
 90
       50
102
RTVSPost2010PropOp37
 70
     1
102
RTVSPost2010Prop38
140
0.0
102
RTVSPost2010PropOp38
 70
     1
102
RTVSPost2010Prop39
140
1.0
102
RTVSPost2010PropOp39
 70
     1
102
RTVSPost2010Prop40
 90
        0
102
RTVSPost2010PropOp40
 70
     1
102
RTVSPost2010Prop41ColorIndex
 90
       18
102
RTVSPost2010Prop41ColorRGB
 90
        0
102
RTVSPost2010PropOp41
 70
     1
102
RTVSPost2010Prop42
 90
       50
102
RTVSPost2010PropOp42
 70
     1
102
RTVSPost2010Prop43
 90
        3
102
RTVSPost2010PropOp43
 70
     1
102
RTVSPost2010Prop44ColorIndex
 90
        5
102
RTVSPost2010Prop44ColorRGB
 90
      255
102
RTVSPost2010PropOp44
 70
     1
102
RTVSPost2010Prop45
280
     0
102
RTVSPost2010PropOp45
 70
     1
102
RTVSPost2010Prop46
 90
       50
102
RTVSPost2010PropOp46
 70
     1
102
RTVSPost2010Prop47
 90
       50
102
RTVSPost2010PropOp47
 70
     1
102
RTVSPost2010Prop48
 90
       50
102
RTVSPost2010PropOp48
 70
     1
102
RTVSPost2010Prop49
280
     0
102
RTVSPost2010PropOp49
 70
     1
102
RTVSPost2010Prop50
 90
       50
102
RTVSPost2010PropOp50
 70
     1
102
RTVSPost2010Prop51ColorIndex
 90
      256
102
RTVSPost2010Prop51ColorRGB
 90
-16777216
102
RTVSPost2010PropOp51
 70
     0
102
RTVSPost2010Prop52
140
1.0
102
RTVSPost2010PropOp52
 70
     0
102
RTVSPost2010Prop53
 90
        2
102
RTVSPost2010PropOp53
 70
     1
102
RTVSPost2010Prop54
  1
strokes_ogs.tif
102
RTVSPost2010PropOp54
 70
     1
102
RTVSPost2010Prop55
280
     0
102
RTVSPost2010PropOp55
 70
     1
102
RTVSPost2010Prop56
140
1.0
102
RTVSPost2010PropOp56
 70
     1
102
RTVSPost2010Prop57
140
1.0
102
RTVSPost2010PropOp57
 70
     1
  0
XRECORD
  5
1FC
102
{ACAD_REACTORS
330
1FB
102
}
330
1FB
100
AcDbXrecord
280
     1
102
RTVSPropertyOp0
 70
     1
102
RTVSPropertyOp1
 70
     1
102
RTVSPropertyOp2
 70
     1
102
RTVSPropertyOp3
 70
     1
102
RTVSPropertyOp4
 70
     1
102
RTVSPropertyOp5
 70
     1
102
RTVSPropertyOp6
 70
     1
102
RTVSPropertyOp7
 70
     1
102
RTVSPropertyOp8
 70
     1
102
RTVSPropertyOp9
 70
     1
102
RTVSPropertyOp10
 70
     1
102
RTVSPropertyOp11
 70
     1
102
RTVSPropertyOp12
 70
     1
102
RTVSPropertyOp13
 70
     1
102
RTVSPropertyOp14
 70
     1
102
RTVSPropertyOp15
 70
     1
102
RTVSPropertyOp16
 70
     1
102
RTVSPropertyOp17
 70
     1
102
RTVSPropertyOp18
 70
     1
102
RTVSPropertyOp19
 70
     1
102
RTVSPropertyOp20
 70
     1
102
RTVSPropertyOp21
 70
     1
102
RTVSPropertyOp22
 70
     1
102
RTVSPropertyOp23
 70
     1
102
RTVSPropertyOp24
 70
     1
102
RTVSPropertyOp25
 70
     1
102
RTVSPropertyOp26
 70
     1
102
RTVSPropertyOp27
 70
     1
102
RTVSPropertyOp28
 70
     1
102
RTVSPropertyOp29
 70
     1
102
RTVSPropertyOp30
 70
     1
102
RTVSPropertyOp31
 70
     1
102
RTVSPropertyOp32
 70
     1
102
RTVSPropertyOp33
 70
     1
102
RTVSPropertyOp34
 70
     1
102
RTVSPropertyOp35
 70
     1
102
RTVSPropertyOp36
 70
     1
102
RTVSPropertyOp37
 70
     1
102
RTVSPropertyOp38
 70
     1
102
RTVSPropertyOp39
 70
     1
102
RTVSPropertyOp40
 70
     1
102
RTVSPropertyOp41
 70
     1
102
RTVSPropertyOp42
 70
     1
102
RTVSPropertyOp43
 70
     1
102
RTVSPropertyOp44
 70
     1
102
RTVSPropertyOp45
 70
     1
102
RTVSPropertyOp46
 70
     1
102
RTVSPropertyOp47
 70
     1
102
RTVSPropertyOp48
 70
     1
102
RTVSPropertyOp49
 70
     1
102
RTVSPropertyOp50
 70
     1
102
RTVSPropertyOp51
 70
     0
102
RTVSPropertyOp52
 70
     0
102
RTVSPropertyOp53
 70
     1
102
RTVSPropertyOp54
 70
     1
102
RTVSPropertyOp55
 70
     1
102
RTVSPropertyOp56
 70
     1
102
RTVSPropertyOp57
 70
     1
102
RTVSPost2010Prop28
280
     0
102
RTVSPost2010PropOp28
 70
     1
102
RTVSPost2010Prop29
280
     1
102
RTVSPost2010PropOp29
 70
     1
102
RTVSPost2010Prop30
280
     1
102
RTVSPost2010PropOp30
 70
     1
102
RTVSPost2010Prop31
280
     0
102
RTVSPost2010PropOp31
 70
     1
102
RTVSPost2010Prop32
280
     0
102
RTVSPost2010PropOp32
 70
     1
102
RTVSPost2010Prop33
280
     0
102
RTVSPost2010PropOp33
 70
     1
102
RTVSPost2010Prop34
280
     0
102
RTVSPost2010PropOp34
 70
     1
102
RTVSPost2010Prop35
280
     0
102
RTVSPost2010PropOp35
 70
     1
102
RTVSPost2010Prop36
280
     0
102
RTVSPost2010PropOp36
 70
     1
102
RTVSPost2010Prop37
 90
       50
102
RTVSPost2010PropOp37
 70
     1
102
RTVSPost2010Prop38
140
0.0
102
RTVSPost2010PropOp38
 70
     1
102
RTVSPost2010Prop39
140
1.0
102
RTVSPost2010PropOp39
 70
     1
102
RTVSPost2010Prop40
 90
        0
102
RTVSPost2010PropOp40
 70
     1
102
RTVSPost2010Prop41ColorIndex
 90
       18
102
RTVSPost2010Prop41ColorRGB
 90
        0
102
RTVSPost2010PropOp41
 70
     1
102
RTVSPost2010Prop42
 90
       50
102
RTVSPost2010PropOp42
 70
     1
102
RTVSPost2010Prop43
 90
        3
102
RTVSPost2010PropOp43
 70
     1
102
RTVSPost2010Prop44ColorIndex
 90
        5
102
RTVSPost2010Prop44ColorRGB
 90
      255
102
RTVSPost2010PropOp44
 70
     1
102
RTVSPost2010Prop45
280
     0
102
RTVSPost2010PropOp45
 70
     1
102
RTVSPost2010Prop46
 90
       50
102
RTVSPost2010PropOp46
 70
     1
102
RTVSPost2010Prop47
 90
       50
102
RTVSPost2010PropOp47
 70
     1
102
RTVSPost2010Prop48
 90
       50
102
RTVSPost2010PropOp48
 70
     1
102
RTVSPost2010Prop49
280
     0
102
RTVSPost2010PropOp49
 70
     1
102
RTVSPost2010Prop50
 90
       50
102
RTVSPost2010PropOp50
 70
     1
102
RTVSPost2010Prop51ColorIndex
 90
      256
102
RTVSPost2010Prop51ColorRGB
 90
-16777216
102
RTVSPost2010PropOp51
 70
     0
102
RTVSPost2010Prop52
140
1.0
102
RTVSPost2010PropOp52
 70
     0
102
RTVSPost2010Prop53
 90
        2
102
RTVSPost2010PropOp53
 70
     1
102
RTVSPost2010Prop54
  1
strokes_ogs.tif
102
RTVSPost2010PropOp54
 70
     1
102
RTVSPost2010Prop55
280
     0
102
RTVSPost2010PropOp55
 70
     1
102
RTVSPost2010Prop56
140
1.0
102
RTVSPost2010PropOp56
 70
     1
102
RTVSPost2010Prop57
140
1.0
102
RTVSPost2010PropOp57
 70
     1
  0
XRECORD
  5
1FE
102
{ACAD_REACTORS
330
1FD
102
}
330
1FD
100
AcDbXrecord
280
     1
102
RTVSPropertyOp0
 70
     1
102
RTVSPropertyOp1
 70
     1
102
RTVSPropertyOp2
 70
     1
102
RTVSPropertyOp3
 70
     1
102
RTVSPropertyOp4
 70
     1
102
RTVSPropertyOp5
 70
     1
102
RTVSPropertyOp6
 70
     1
102
RTVSPropertyOp7
 70
     1
102
RTVSPropertyOp8
 70
     1
102
RTVSPropertyOp9
 70
     1
102
RTVSPropertyOp10
 70
     1
102
RTVSPropertyOp11
 70
     1
102
RTVSPropertyOp12
 70
     1
102
RTVSPropertyOp13
 70
     1
102
RTVSPropertyOp14
 70
     1
102
RTVSPropertyOp15
 70
     1
102
RTVSPropertyOp16
 70
     1
102
RTVSPropertyOp17
 70
     1
102
RTVSPropertyOp18
 70
     1
102
RTVSPropertyOp19
 70
     1
102
RTVSPropertyOp20
 70
     1
102
RTVSPropertyOp21
 70
     1
102
RTVSPropertyOp22
 70
     1
102
RTVSPropertyOp23
 70
     1
102
RTVSPropertyOp24
 70
     1
102
RTVSPropertyOp25
 70
     1
102
RTVSPropertyOp26
 70
     1
102
RTVSPropertyOp27
 70
     1
102
RTVSPropertyOp28
 70
     1
102
RTVSPropertyOp29
 70
     1
102
RTVSPropertyOp30
 70
     1
102
RTVSPropertyOp31
 70
     1
102
RTVSPropertyOp32
 70
     1
102
RTVSPropertyOp33
 70
     1
102
RTVSPropertyOp34
 70
     1
102
RTVSPropertyOp35
 70
     1
102
RTVSPropertyOp36
 70
     1
102
RTVSPropertyOp37
 70
     1
102
RTVSPropertyOp38
 70
     1
102
RTVSPropertyOp39
 70
     1
102
RTVSPropertyOp40
 70
     1
102
RTVSPropertyOp41
 70
     1
102
RTVSPropertyOp42
 70
     1
102
RTVSPropertyOp43
 70
     1
102
RTVSPropertyOp44
 70
     1
102
RTVSPropertyOp45
 70
     1
102
RTVSPropertyOp46
 70
     1
102
RTVSPropertyOp47
 70
     1
102
RTVSPropertyOp48
 70
     1
102
RTVSPropertyOp49
 70
     1
102
RTVSPropertyOp50
 70
     1
102
RTVSPropertyOp51
 70
     0
102
RTVSPropertyOp52
 70
     0
102
RTVSPropertyOp53
 70
     1
102
RTVSPropertyOp54
 70
     1
102
RTVSPropertyOp55
 70
     1
102
RTVSPropertyOp56
 70
     1
102
RTVSPropertyOp57
 70
     1
102
RTVSPost2010Prop28
280
     0
102
RTVSPost2010PropOp28
 70
     1
102
RTVSPost2010Prop29
280
     1
102
RTVSPost2010PropOp29
 70
     1
102
RTVSPost2010Prop30
280
     1
102
RTVSPost2010PropOp30
 70
     1
102
RTVSPost2010Prop31
280
     0
102
RTVSPost2010PropOp31
 70
     1
102
RTVSPost2010Prop32
280
     0
102
RTVSPost2010PropOp32
 70
     1
102
RTVSPost2010Prop33
280
     0
102
RTVSPost2010PropOp33
 70
     1
102
RTVSPost2010Prop34
280
     0
102
RTVSPost2010PropOp34
 70
     1
102
RTVSPost2010Prop35
280
     0
102
RTVSPost2010PropOp35
 70
     1
102
RTVSPost2010Prop36
280
     0
102
RTVSPost2010PropOp36
 70
     1
102
RTVSPost2010Prop37
 90
       50
102
RTVSPost2010PropOp37
 70
     1
102
RTVSPost2010Prop38
140
0.0
102
RTVSPost2010PropOp38
 70
     1
102
RTVSPost2010Prop39
140
1.0
102
RTVSPost2010PropOp39
 70
     1
102
RTVSPost2010Prop40
 90
        0
102
RTVSPost2010PropOp40
 70
     1
102
RTVSPost2010Prop41ColorIndex
 90
       18
102
RTVSPost2010Prop41ColorRGB
 90
        0
102
RTVSPost2010PropOp41
 70
     1
102
RTVSPost2010Prop42
 90
       50
102
RTVSPost2010PropOp42
 70
     1
102
RTVSPost2010Prop43
 90
        3
102
RTVSPost2010PropOp43
 70
     1
102
RTVSPost2010Prop44ColorIndex
 90
        5
102
RTVSPost2010Prop44ColorRGB
 90
      255
102
RTVSPost2010PropOp44
 70
     1
102
RTVSPost2010Prop45
280
     0
102
RTVSPost2010PropOp45
 70
     1
102
RTVSPost2010Prop46
 90
       50
102
RTVSPost2010PropOp46
 70
     1
102
RTVSPost2010Prop47
 90
       50
102
RTVSPost2010PropOp47
 70
     1
102
RTVSPost2010Prop48
 90
       50
102
RTVSPost2010PropOp48
 70
     1
102
RTVSPost2010Prop49
280
     0
102
RTVSPost2010PropOp49
 70
     1
102
RTVSPost2010Prop50
 90
       50
102
RTVSPost2010PropOp50
 70
     1
102
RTVSPost2010Prop51ColorIndex
 90
      256
102
RTVSPost2010Prop51ColorRGB
 90
-16777216
102
RTVSPost2010PropOp51
 70
     0
102
RTVSPost2010Prop52
140
1.0
102
RTVSPost2010PropOp52
 70
     0
102
RTVSPost2010Prop53
 90
        2
102
RTVSPost2010PropOp53
 70
     1
102
RTVSPost2010Prop54
  1
strokes_ogs.tif
102
RTVSPost2010PropOp54
 70
     1
102
RTVSPost2010Prop55
280
     0
102
RTVSPost2010PropOp55
 70
     1
102
RTVSPost2010Prop56
140
1.0
102
RTVSPost2010PropOp56
 70
     1
102
RTVSPost2010Prop57
140
1.0
102
RTVSPost2010PropOp57
 70
     1
  0
XRECORD
  5
1EE
102
{ACAD_REACTORS
330
1ED
102
}
330
1ED
100
AcDbXrecord
280
     1
102
RTVSPropertyOp0
 70
     1
102
RTVSPropertyOp1
 70
     1
102
RTVSPropertyOp2
 70
     1
102
RTVSPropertyOp3
 70
     1
102
RTVSPropertyOp4
 70
     1
102
RTVSPropertyOp5
 70
     1
102
RTVSPropertyOp6
 70
     1
102
RTVSPropertyOp7
 70
     1
102
RTVSPropertyOp8
 70
     1
102
RTVSPropertyOp9
 70
     1
102
RTVSPropertyOp10
 70
     1
102
RTVSPropertyOp11
 70
     1
102
RTVSPropertyOp12
 70
     1
102
RTVSPropertyOp13
 70
     1
102
RTVSPropertyOp14
 70
     1
102
RTVSPropertyOp15
 70
     1
102
RTVSPropertyOp16
 70
     1
102
RTVSPropertyOp17
 70
     1
102
RTVSPropertyOp18
 70
     1
102
RTVSPropertyOp19
 70
     1
102
RTVSPropertyOp20
 70
     1
102
RTVSPropertyOp21
 70
     1
102
RTVSPropertyOp22
 70
     1
102
RTVSPropertyOp23
 70
     1
102
RTVSPropertyOp24
 70
     1
102
RTVSPropertyOp25
 70
     1
102
RTVSPropertyOp26
 70
     1
102
RTVSPropertyOp27
 70
     1
102
RTVSPropertyOp28
 70
     1
102
RTVSPropertyOp29
 70
     1
102
RTVSPropertyOp30
 70
     1
102
RTVSPropertyOp31
 70
     1
102
RTVSPropertyOp32
 70
     1
102
RTVSPropertyOp33
 70
     1
102
RTVSPropertyOp34
 70
     1
102
RTVSPropertyOp35
 70
     1
102
RTVSPropertyOp36
 70
     1
102
RTVSPropertyOp37
 70
     1
102
RTVSPropertyOp38
 70
     1
102
RTVSPropertyOp39
 70
     1
102
RTVSPropertyOp40
 70
     1
102
RTVSPropertyOp41
 70
     1
102
RTVSPropertyOp42
 70
     1
102
RTVSPropertyOp43
 70
     1
102
RTVSPropertyOp44
 70
     1
102
RTVSPropertyOp45
 70
     1
102
RTVSPropertyOp46
 70
     1
102
RTVSPropertyOp47
 70
     1
102
RTVSPropertyOp48
 70
     1
102
RTVSPropertyOp49
 70
     1
102
RTVSPropertyOp50
 70
     1
102
RTVSPropertyOp51
 70
     0
102
RTVSPropertyOp52
 70
     0
102
RTVSPropertyOp53
 70
     1
102
RTVSPropertyOp54
 70
     1
102
RTVSPropertyOp55
 70
     1
102
RTVSPropertyOp56
 70
     1
102
RTVSPropertyOp57
 70
     1
102
RTVSPost2010Prop28
280
     0
102
RTVSPost2010PropOp28
 70
     1
102
RTVSPost2010Prop29
280
     1
102
RTVSPost2010PropOp29
 70
     1
102
RTVSPost2010Prop30
280
     1
102
RTVSPost2010PropOp30
 70
     1
102
RTVSPost2010Prop31
280
     0
102
RTVSPost2010PropOp31
 70
     1
102
RTVSPost2010Prop32
280
     0
102
RTVSPost2010PropOp32
 70
     1
102
RTVSPost2010Prop33
280
     0
102
RTVSPost2010PropOp33
 70
     1
102
RTVSPost2010Prop34
280
     0
102
RTVSPost2010PropOp34
 70
     1
102
RTVSPost2010Prop35
280
     0
102
RTVSPost2010PropOp35
 70
     1
102
RTVSPost2010Prop36
280
     0
102
RTVSPost2010PropOp36
 70
     1
102
RTVSPost2010Prop37
 90
       50
102
RTVSPost2010PropOp37
 70
     1
102
RTVSPost2010Prop38
140
0.0
102
RTVSPost2010PropOp38
 70
     1
102
RTVSPost2010Prop39
140
1.0
102
RTVSPost2010PropOp39
 70
     1
102
RTVSPost2010Prop40
 90
        0
102
RTVSPost2010PropOp40
 70
     1
102
RTVSPost2010Prop41ColorIndex
 90
       18
102
RTVSPost2010Prop41ColorRGB
 90
        0
102
RTVSPost2010PropOp41
 70
     1
102
RTVSPost2010Prop42
 90
       50
102
RTVSPost2010PropOp42
 70
     1
102
RTVSPost2010Prop43
 90
        3
102
RTVSPost2010PropOp43
 70
     1
102
RTVSPost2010Prop44ColorIndex
 90
        5
102
RTVSPost2010Prop44ColorRGB
 90
      255
102
RTVSPost2010PropOp44
 70
     1
102
RTVSPost2010Prop45
280
     0
102
RTVSPost2010PropOp45
 70
     1
102
RTVSPost2010Prop46
 90
       50
102
RTVSPost2010PropOp46
 70
     1
102
RTVSPost2010Prop47
 90
       50
102
RTVSPost2010PropOp47
 70
     1
102
RTVSPost2010Prop48
 90
       50
102
RTVSPost2010PropOp48
 70
     1
102
RTVSPost2010Prop49
280
     0
102
RTVSPost2010PropOp49
 70
     1
102
RTVSPost2010Prop50
 90
       50
102
RTVSPost2010PropOp50
 70
     1
102
RTVSPost2010Prop51ColorIndex
 90
      256
102
RTVSPost2010Prop51ColorRGB
 90
-16777216
102
RTVSPost2010PropOp51
 70
     0
102
RTVSPost2010Prop52
140
1.0
102
RTVSPost2010PropOp52
 70
     0
102
RTVSPost2010Prop53
 90
        2
102
RTVSPost2010PropOp53
 70
     1
102
RTVSPost2010Prop54
  1
strokes_ogs.tif
102
RTVSPost2010PropOp54
 70
     1
102
RTVSPost2010Prop55
280
     0
102
RTVSPost2010PropOp55
 70
     1
102
RTVSPost2010Prop56
140
1.0
102
RTVSPost2010PropOp56
 70
     1
102
RTVSPost2010Prop57
140
1.0
102
RTVSPost2010PropOp57
 70
     1
  0
XRECORD
  5
1E0
102
{ACAD_REACTORS
330
1DF
102
}
330
1DF
100
AcDbXrecord
280
     1
102
RTVSPropertyOp0
 70
     1
102
RTVSPropertyOp1
 70
     1
102
RTVSPropertyOp2
 70
     1
102
RTVSPropertyOp3
 70
     1
102
RTVSPropertyOp4
 70
     1
102
RTVSPropertyOp5
 70
     1
102
RTVSPropertyOp6
 70
     1
102
RTVSPropertyOp7
 70
     1
102
RTVSPropertyOp8
 70
     1
102
RTVSPropertyOp9
 70
     1
102
RTVSPropertyOp10
 70
     1
102
RTVSPropertyOp11
 70
     1
102
RTVSPropertyOp12
 70
     1
102
RTVSPropertyOp13
 70
     1
102
RTVSPropertyOp14
 70
     1
102
RTVSPropertyOp15
 70
     1
102
RTVSPropertyOp16
 70
     1
102
RTVSPropertyOp17
 70
     1
102
RTVSPropertyOp18
 70
     1
102
RTVSPropertyOp19
 70
     1
102
RTVSPropertyOp20
 70
     1
102
RTVSPropertyOp21
 70
     1
102
RTVSPropertyOp22
 70
     1
102
RTVSPropertyOp23
 70
     1
102
RTVSPropertyOp24
 70
     1
102
RTVSPropertyOp25
 70
     1
102
RTVSPropertyOp26
 70
     1
102
RTVSPropertyOp27
 70
     1
102
RTVSPropertyOp28
 70
     1
102
RTVSPropertyOp29
 70
     1
102
RTVSPropertyOp30
 70
     1
102
RTVSPropertyOp31
 70
     1
102
RTVSPropertyOp32
 70
     1
102
RTVSPropertyOp33
 70
     1
102
RTVSPropertyOp34
 70
     1
102
RTVSPropertyOp35
 70
     1
102
RTVSPropertyOp36
 70
     1
102
RTVSPropertyOp37
 70
     1
102
RTVSPropertyOp38
 70
     1
102
RTVSPropertyOp39
 70
     1
102
RTVSPropertyOp40
 70
     1
102
RTVSPropertyOp41
 70
     1
102
RTVSPropertyOp42
 70
     1
102
RTVSPropertyOp43
 70
     1
102
RTVSPropertyOp44
 70
     1
102
RTVSPropertyOp45
 70
     1
102
RTVSPropertyOp46
 70
     1
102
RTVSPropertyOp47
 70
     1
102
RTVSPropertyOp48
 70
     1
102
RTVSPropertyOp49
 70
     1
102
RTVSPropertyOp50
 70
     1
102
RTVSPropertyOp51
 70
     0
102
RTVSPropertyOp52
 70
     0
102
RTVSPropertyOp53
 70
     1
102
RTVSPropertyOp54
 70
     1
102
RTVSPropertyOp55
 70
     1
102
RTVSPropertyOp56
 70
     1
102
RTVSPropertyOp57
 70
     1
102
RTVSPost2010Prop28
280
     0
102
RTVSPost2010PropOp28
 70
     1
102
RTVSPost2010Prop29
280
     1
102
RTVSPost2010PropOp29
 70
     1
102
RTVSPost2010Prop30
280
     1
102
RTVSPost2010PropOp30
 70
     1
102
RTVSPost2010Prop31
280
     0
102
RTVSPost2010PropOp31
 70
     1
102
RTVSPost2010Prop32
280
     0
102
RTVSPost2010PropOp32
 70
     1
102
RTVSPost2010Prop33
280
     0
102
RTVSPost2010PropOp33
 70
     1
102
RTVSPost2010Prop34
280
     0
102
RTVSPost2010PropOp34
 70
     1
102
RTVSPost2010Prop35
280
     0
102
RTVSPost2010PropOp35
 70
     1
102
RTVSPost2010Prop36
280
     0
102
RTVSPost2010PropOp36
 70
     1
102
RTVSPost2010Prop37
 90
       50
102
RTVSPost2010PropOp37
 70
     1
102
RTVSPost2010Prop38
140
0.0
102
RTVSPost2010PropOp38
 70
     1
102
RTVSPost2010Prop39
140
1.0
102
RTVSPost2010PropOp39
 70
     1
102
RTVSPost2010Prop40
 90
        0
102
RTVSPost2010PropOp40
 70
     1
102
RTVSPost2010Prop41ColorIndex
 90
       18
102
RTVSPost2010Prop41ColorRGB
 90
        0
102
RTVSPost2010PropOp41
 70
     1
102
RTVSPost2010Prop42
 90
       50
102
RTVSPost2010PropOp42
 70
     1
102
RTVSPost2010Prop43
 90
        3
102
RTVSPost2010PropOp43
 70
     1
102
RTVSPost2010Prop44ColorIndex
 90
        5
102
RTVSPost2010Prop44ColorRGB
 90
      255
102
RTVSPost2010PropOp44
 70
     1
102
RTVSPost2010Prop45
280
     0
102
RTVSPost2010PropOp45
 70
     1
102
RTVSPost2010Prop46
 90
       50
102
RTVSPost2010PropOp46
 70
     1
102
RTVSPost2010Prop47
 90
       50
102
RTVSPost2010PropOp47
 70
     1
102
RTVSPost2010Prop48
 90
       50
102
RTVSPost2010PropOp48
 70
     1
102
RTVSPost2010Prop49
280
     0
102
RTVSPost2010PropOp49
 70
     1
102
RTVSPost2010Prop50
 90
       50
102
RTVSPost2010PropOp50
 70
     1
102
RTVSPost2010Prop51ColorIndex
 90
      256
102
RTVSPost2010Prop51ColorRGB
 90
-16777216
102
RTVSPost2010PropOp51
 70
     0
102
RTVSPost2010Prop52
140
1.0
102
RTVSPost2010PropOp52
 70
     0
102
RTVSPost2010Prop53
 90
        2
102
RTVSPost2010PropOp53
 70
     1
102
RTVSPost2010Prop54
  1
strokes_ogs.tif
102
RTVSPost2010PropOp54
 70
     1
102
RTVSPost2010Prop55
280
     0
102
RTVSPost2010PropOp55
 70
     1
102
RTVSPost2010Prop56
140
1.0
102
RTVSPost2010PropOp56
 70
     1
102
RTVSPost2010Prop57
140
1.0
102
RTVSPost2010PropOp57
 70
     1
  0
XRECORD
  5
200
102
{ACAD_REACTORS
330
1FF
102
}
330
1FF
100
AcDbXrecord
280
     1
102
RTVSPropertyOp0
 70
     1
102
RTVSPropertyOp1
 70
     1
102
RTVSPropertyOp2
 70
     1
102
RTVSPropertyOp3
 70
     1
102
RTVSPropertyOp4
 70
     1
102
RTVSPropertyOp5
 70
     1
102
RTVSPropertyOp6
 70
     1
102
RTVSPropertyOp7
 70
     1
102
RTVSPropertyOp8
 70
     1
102
RTVSPropertyOp9
 70
     1
102
RTVSPropertyOp10
 70
     1
102
RTVSPropertyOp11
 70
     1
102
RTVSPropertyOp12
 70
     1
102
RTVSPropertyOp13
 70
     1
102
RTVSPropertyOp14
 70
     1
102
RTVSPropertyOp15
 70
     1
102
RTVSPropertyOp16
 70
     1
102
RTVSPropertyOp17
 70
     1
102
RTVSPropertyOp18
 70
     1
102
RTVSPropertyOp19
 70
     1
102
RTVSPropertyOp20
 70
     1
102
RTVSPropertyOp21
 70
     1
102
RTVSPropertyOp22
 70
     1
102
RTVSPropertyOp23
 70
     1
102
RTVSPropertyOp24
 70
     1
102
RTVSPropertyOp25
 70
     1
102
RTVSPropertyOp26
 70
     1
102
RTVSPropertyOp27
 70
     1
102
RTVSPropertyOp28
 70
     1
102
RTVSPropertyOp29
 70
     1
102
RTVSPropertyOp30
 70
     1
102
RTVSPropertyOp31
 70
     1
102
RTVSPropertyOp32
 70
     1
102
RTVSPropertyOp33
 70
     1
102
RTVSPropertyOp34
 70
     1
102
RTVSPropertyOp35
 70
     1
102
RTVSPropertyOp36
 70
     1
102
RTVSPropertyOp37
 70
     1
102
RTVSPropertyOp38
 70
     1
102
RTVSPropertyOp39
 70
     1
102
RTVSPropertyOp40
 70
     1
102
RTVSPropertyOp41
 70
     1
102
RTVSPropertyOp42
 70
     1
102
RTVSPropertyOp43
 70
     1
102
RTVSPropertyOp44
 70
     1
102
RTVSPropertyOp45
 70
     1
102
RTVSPropertyOp46
 70
     1
102
RTVSPropertyOp47
 70
     1
102
RTVSPropertyOp48
 70
     1
102
RTVSPropertyOp49
 70
     1
102
RTVSPropertyOp50
 70
     1
102
RTVSPropertyOp51
 70
     0
102
RTVSPropertyOp52
 70
     0
102
RTVSPropertyOp53
 70
     1
102
RTVSPropertyOp54
 70
     1
102
RTVSPropertyOp55
 70
     1
102
RTVSPropertyOp56
 70
     1
102
RTVSPropertyOp57
 70
     1
102
RTVSPost2010Prop28
280
     0
102
RTVSPost2010PropOp28
 70
     1
102
RTVSPost2010Prop29
280
     1
102
RTVSPost2010PropOp29
 70
     1
102
RTVSPost2010Prop30
280
     1
102
RTVSPost2010PropOp30
 70
     1
102
RTVSPost2010Prop31
280
     0
102
RTVSPost2010PropOp31
 70
     1
102
RTVSPost2010Prop32
280
     0
102
RTVSPost2010PropOp32
 70
     1
102
RTVSPost2010Prop33
280
     0
102
RTVSPost2010PropOp33
 70
     1
102
RTVSPost2010Prop34
280
     0
102
RTVSPost2010PropOp34
 70
     1
102
RTVSPost2010Prop35
280
     0
102
RTVSPost2010PropOp35
 70
     1
102
RTVSPost2010Prop36
280
     0
102
RTVSPost2010PropOp36
 70
     1
102
RTVSPost2010Prop37
 90
       50
102
RTVSPost2010PropOp37
 70
     1
102
RTVSPost2010Prop38
140
0.0
102
RTVSPost2010PropOp38
 70
     1
102
RTVSPost2010Prop39
140
1.0
102
RTVSPost2010PropOp39
 70
     1
102
RTVSPost2010Prop40
 90
        0
102
RTVSPost2010PropOp40
 70
     1
102
RTVSPost2010Prop41ColorIndex
 90
       18
102
RTVSPost2010Prop41ColorRGB
 90
        0
102
RTVSPost2010PropOp41
 70
     1
102
RTVSPost2010Prop42
 90
       50
102
RTVSPost2010PropOp42
 70
     1
102
RTVSPost2010Prop43
 90
        3
102
RTVSPost2010PropOp43
 70
     1
102
RTVSPost2010Prop44ColorIndex
 90
        5
102
RTVSPost2010Prop44ColorRGB
 90
      255
102
RTVSPost2010PropOp44
 70
     1
102
RTVSPost2010Prop45
280
     0
102
RTVSPost2010PropOp45
 70
     1
102
RTVSPost2010Prop46
 90
       50
102
RTVSPost2010PropOp46
 70
     1
102
RTVSPost2010Prop47
 90
       50
102
RTVSPost2010PropOp47
 70
     1
102
RTVSPost2010Prop48
 90
       50
102
RTVSPost2010PropOp48
 70
     1
102
RTVSPost2010Prop49
280
     0
102
RTVSPost2010PropOp49
 70
     1
102
RTVSPost2010Prop50
 90
       50
102
RTVSPost2010PropOp50
 70
     1
102
RTVSPost2010Prop51ColorIndex
 90
      256
102
RTVSPost2010Prop51ColorRGB
 90
-16777216
102
RTVSPost2010PropOp51
 70
     0
102
RTVSPost2010Prop52
140
1.0
102
RTVSPost2010PropOp52
 70
     0
102
RTVSPost2010Prop53
 90
        2
102
RTVSPost2010PropOp53
 70
     1
102
RTVSPost2010Prop54
  1
strokes_ogs.tif
102
RTVSPost2010PropOp54
 70
     1
102
RTVSPost2010Prop55
280
     0
102
RTVSPost2010PropOp55
 70
     1
102
RTVSPost2010Prop56
140
1.0
102
RTVSPost2010PropOp56
 70
     1
102
RTVSPost2010Prop57
140
1.0
102
RTVSPost2010PropOp57
 70
     1
  0
ENDSEC
  0
EOF
