  0
SECTION
  2
HEADER
  9
$ACADVER
  1
AC1021
  9
$ACADMAINTVER
 70
    25
  9
$DWGCODEPAGE
  3
ANSI_1252
  9
$INSBASE
 10
0.0
 20
0.0
 30
0.0
  9
$EXTMIN
 10
0.0
 20
0.0
 30
0.0
  9
$EXTMAX
 10
594.0
 20
420.0
 30
0.0
  9
$LIMMIN
 10
0.0
 20
0.0
  9
$LIMMAX
 10
594.0
 20
420.0
  9
$ORTHOMODE
 70
     0
  9
$REGENMODE
 70
     1
  9
$FILLMODE
 70
     1
  9
$QTEXTMODE
 70
     0
  9
$MIRRTEXT
 70
     1
  9
$LTSCALE
 40
1.0
  9
$ATTMODE
 70
     1
  9
$TEXTSIZE
 40
4.57
  9
$TRACEWID
 40
1.0
  9
$TEXTSTYLE
  7
Standard
  9
$CLAYER
  8
0
  9
$CELTYPE
  6
ByLayer
  9
$CECOLOR
 62
   256
  9
$CELTSCALE
 40
1.0
  9
$DISPSILH
 70
     0
  9
$DIMSCALE
 40
1.0
  9
$DIMASZ
 40
2.5
  9
$DIMEXO
 40
0.625
  9
$DIMDLI
 40
3.75
  9
$DIMRND
 40
0.0
  9
$DIMDLE
 40
0.0
  9
$DIMEXE
 40
1.25
  9
$DIMTP
 40
0.0
  9
$DIMTM
 40
0.0
  9
$DIMTXT
 40
2.5
  9
$DIMCEN
 40
2.5
  9
$DIMTSZ
 40
0.0
  9
$DIMTOL
 70
     0
  9
$DIMLIM
 70
     0
  9
$DIMTIH
 70
     0
  9
$DIMTOH
 70
     0
  9
$DIMSE1
 70
     0
  9
$DIMSE2
 70
     0
  9
$DIMTAD
 70
     1
  9
$DIMZIN
 70
     8
  9
$DIMBLK
  1

  9
$DIMASO
 70
     1
  9
$DIMSHO
 70
     1
  9
$DIMPOST
  1

  9
$DIMAPOST
  1

  9
$DIMALT
 70
     0
  9
$DIMALTD
 70
     3
  9
$DIMALTF
 40
0.0393700787
  9
$DIMLFAC
 40
1.0
  9
$DIMTOFL
 70
     1
  9
$DIMTVP
 40
0.0
  9
$DIMTIX
 70
     0
  9
$DIMSOXD
 70
     0
  9
$DIMSAH
 70
     0
  9
$DIMBLK1
  1

  9
$DIMBLK2
  1

  9
$DIMSTYLE
  2
ISO-25
  9
$DIMCLRD
 70
     0
  9
$DIMCLRE
 70
     0
  9
$DIMCLRT
 70
     0
  9
$DIMTFAC
 40
1.0
  9
$DIMGAP
 40
0.625
  9
$DIMJUST
 70
     0
  9
$DIMSD1
 70
     0
  9
$DIMSD2
 70
     0
  9
$DIMTOLJ
 70
     0
  9
$DIMTZIN
 70
     8
  9
$DIMALTZ
 70
     0
  9
$DIMALTTZ
 70
     0
  9
$DIMUPT
 70
     0
  9
$DIMDEC
 70
     2
  9
$DIMTDEC
 70
     2
  9
$DIMALTU
 70
     2
  9
$DIMALTTD
 70
     3
  9
$DIMTXSTY
  7
Standard
  9
$DIMAUNIT
 70
     0
  9
$DIMADEC
 70
     0
  9
$DIMALTRND
 40
0.0
  9
$DIMAZIN
 70
     0
  9
$DIMDSEP
 70
    44
  9
$DIMATFIT
 70
     3
  9
$DIMFRAC
 70
     0
  9
$DIMLDRBLK
  1

  9
$DIMLUNIT
 70
     2
  9
$DIMLWD
 70
    -2
  9
$DIMLWE
 70
    -2
  9
$DIMTMOVE
 70
     0
  9
$DIMFXL
 40
1.0
  9
$DIMFXLON
 70
     0
  9
$DIMJOGANG
 40
0.7853981634
  9
$DIMTFILL
 70
     0
  9
$DIMTFILLCLR
 70
     0
  9
$DIMARCSYM
 70
     0
  9
$DIMLTYPE
  6

  9
$DIMLTEX1
  6

  9
$DIMLTEX2
  6

  9
$LUNITS
 70
     2
  9
$LUPREC
 70
     4
  9
$SKETCHINC
 40
1.0
  9
$FILLETRAD
 40
10.0
  9
$AUNITS
 70
     0
  9
$AUPREC
 70
     0
  9
$MENU
  1
.
  9
$ELEVATION
 40
0.0
  9
$PELEVATION
 40
0.0
  9
$THICKNESS
 40
0.0
  9
$LIMCHECK
 70
     0
  9
$CHAMFERA
 40
0.0
  9
$CHAMFERB
 40
0.0
  9
$CHAMFERC
 40
0.0
  9
$CHAMFERD
 40
0.0
  9
$SKPOLY
 70
     0
  9
$TDCREATE
 40
2460686.378146482
  9
$TDUCREATE
 40
2460686.336479815
  9
$TDUPDATE
 40
2460686.378149016
  9
$TDUUPDATE
 40
2460686.336482349
  9
$TDINDWG
 40
0.0000000116
  9
$TDUSRTIMER
 40
0.0000000116
  9
$USRTIMER
 70
     1
  9
$ANGBASE
 50
0.0
  9
$ANGDIR
 70
     0
  9
$PDMODE
 70
     0
  9
$PDSIZE
 40
0.0
  9
$PLINEWID
 40
0.0
  9
$SPLFRAME
 70
     0
  9
$SPLINETYPE
 70
     6
  9
$SPLINESEGS
 70
     8
  9
$HANDSEED
  5
27C
  9
$SURFTAB1
 70
     6
  9
$SURFTAB2
 70
     6
  9
$SURFTYPE
 70
     6
  9
$SURFU
 70
     6
  9
$SURFV
 70
     6
  9
$UCSBASE
  2

  9
$UCSNAME
  2

  9
$UCSORG
 10
0.0
 20
0.0
 30
0.0
  9
$UCSXDIR
 10
1.0
 20
0.0
 30
0.0
  9
$UCSYDIR
 10
0.0
 20
1.0
 30
0.0
  9
$UCSORTHOREF
  2

  9
$UCSORTHOVIEW
 70
     0
  9
$UCSORGTOP
 10
0.0
 20
0.0
 30
0.0
  9
$UCSORGBOTTOM
 10
0.0
 20
0.0
 30
0.0
  9
$UCSORGLEFT
 10
0.0
 20
0.0
 30
0.0
  9
$UCSORGRIGHT
 10
0.0
 20
0.0
 30
0.0
  9
$UCSORGFRONT
 10
0.0
 20
0.0
 30
0.0
  9
$UCSORGBACK
 10
0.0
 20
0.0
 30
0.0
  9
$PUCSBASE
  2

  9
$PUCSNAME
  2

  9
$PUCSORG
 10
0.0
 20
0.0
 30
0.0
  9
$PUCSXDIR
 10
1.0
 20
0.0
 30
0.0
  9
$PUCSYDIR
 10
0.0
 20
1.0
 30
0.0
  9
$PUCSORTHOREF
  2

  9
$PUCSORTHOVIEW
 70
     0
  9
$PUCSORGTOP
 10
0.0
 20
0.0
 30
0.0
  9
$PUCSORGBOTTOM
 10
0.0
 20
0.0
 30
0.0
  9
$PUCSORGLEFT
 10
0.0
 20
0.0
 30
0.0
  9
$PUCSORGRIGHT
 10
0.0
 20
0.0
 30
0.0
  9
$PUCSORGFRONT
 10
0.0
 20
0.0
 30
0.0
  9
$PUCSORGBACK
 10
0.0
 20
0.0
 30
0.0
  9
$USERI1
 70
     0
  9
$USERI2
 70
     0
  9
$USERI3
 70
     0
  9
$USERI4
 70
     0
  9
$USERI5
 70
     0
  9
$USERR1
 40
0.0
  9
$USERR2
 40
0.0
  9
$USERR3
 40
0.0
  9
$USERR4
 40
0.0
  9
$USERR5
 40
0.0
  9
$WORLDVIEW
 70
     1
  9
$SHADEDGE
 70
     3
  9
$SHADEDIF
 70
    70
  9
$TILEMODE
 70
     1
  9
$MAXACTVP
 70
    64
  9
$PINSBASE
 10
0.0
 20
0.0
 30
0.0
  9
$PLIMCHECK
 70
     0
  9
$PEXTMIN
 10
0.0
 20
0.0
 30
0.0
  9
$PEXTMAX
 10
594.0
 20
420.0
 30
0.0
  9
$PLIMMIN
 10
0.0
 20
0.0
  9
$PLIMMAX
 10
594.0
 20
420.0
  9
$UNITMODE
 70
     0
  9
$VISRETAIN
 70
     1
  9
$PLINEGEN
 70
     0
  9
$PSLTSCALE
 70
     1
  9
$TREEDEPTH
 70
  3020
  9
$CMLSTYLE
  2
Standard
  9
$CMLJUST
 70
     0
  9
$CMLSCALE
 40
20.0
  9
$PROXYGRAPHICS
 70
     1
  9
$MEASUREMENT
 70
     1
  9
$CELWEIGHT
370
    -1
  9
$ENDCAPS
280
     0
  9
$JOINSTYLE
280
     0
  9
$LWDISPLAY
290
     0
  9
$INSUNITS
 70
     4
  9
$HYPERLINKBASE
  1

  9
$STYLESHEET
  1

  9
$XEDIT
290
     1
  9
$CEPSNTYPE
380
     0
  9
$PSTYLEMODE
290
     1
  9
$FINGERPRINTGUID
  2
{736c6453-8309-4495-98fb-08366e8177fd}
  9
$VERSIONGUID
  2
{FAEB1C32-E019-11D5-929B-00C0DF256EC4}
  9
$EXTNAMES
290
     1
  9
$PSVPSCALE
 40
0.0
  9
$OLESTARTUP
290
     0
  9
$SORTENTS
280
   127
  9
$INDEXCTL
280
     0
  9
$HIDETEXT
280
     1
  9
$XCLIPFRAME
290
     0
  9
$HALOGAP
280
     0
  9
$OBSCOLOR
 70
   257
  9
$OBSLTYPE
280
     0
  9
$INTERSECTIONDISPLAY
280
     0
  9
$INTERSECTIONCOLOR
 70
   257
  9
$DIMASSOC
280
     2
  9
$PROJECTNAME
  1

  9
$CAMERADISPLAY
290
     0
  9
$LENSLENGTH
 40
50.0
  9
$CAMERAHEIGHT
 40
0.0
  9
$STEPSPERSEC
 40
2.0
  9
$STEPSIZE
 40
6.0
  9
$3DDWFPREC
 40
2.0
  9
$PSOLWIDTH
 40
5.0
  9
$PSOLHEIGHT
 40
80.0
  9
$LOFTANG1
 40
1.5707963268
  9
$LOFTANG2
 40
1.5707963268
  9
$LOFTMAG1
 40
0.0
  9
$LOFTMAG2
 40
0.0
  9
$LOFTPARAM
 70
     7
  9
$LOFTNORMALS
280
     1
  9
$LATITUDE
 40
37.795
  9
$LONGITUDE
 40
-122.394
  9
$NORTHDIRECTION
 40
0.0
  9
$TIMEZONE
 70
 -8000
  9
$LIGHTGLYPHDISPLAY
280
     1
  9
$TILEMODELIGHTSYNCH
280
     1
  9
$CMATERIAL
347
44
  9
$SOLIDHIST
280
     0
  9
$SHOWHIST
280
     1
  9
$DWFFRAME
280
     2
  9
$DGNFRAME
280
     2
  9
$REALWORLDSCALE
290
     1
  9
$INTERFERECOLOR
 62
   256
  9
$CSHADOW
280
     0
  9
$SHADOWPLANELOCATION
 40
0.0
  0
ENDSEC
  0
SECTION
  2
CLASSES
  0
CLASS
  1
ACDBDICTIONARYWDFLT
  2
AcDbDictionaryWithDefault
  3
ObjectDBX Classes
 90
        0
 91
        3
280
     0
281
     0
  0
CLASS
  1
VISUALSTYLE
  2
AcDbVisualStyle
  3
ObjectDBX Classes
 90
     4095
 91
        3
280
     0
281
     0
  0
CLASS
  1
MATERIAL
  2
AcDbMaterial
  3
ObjectDBX Classes
 90
     1153
 91
        3
280
     0
281
     0
  0
CLASS
  1
SCALE
  2
AcDbScale
  3
ObjectDBX Classes
 90
     1153
 91
        3
280
     0
281
     0
  0
CLASS
  1
TABLESTYLE
  2
AcDbTableStyle
  3
ObjectDBX Classes
 90
     4095
 91
        3
280
     0
281
     0
  0
CLASS
  1
MLEADERSTYLE
  2
AcDbMLeaderStyle
  3
ACDB_MLEADERSTYLE_CLASS
 90
     4095
 91
        3
280
     0
281
     0
  0
CLASS
  1
SUN
  2
AcDbSun
  3
SCENEOE
 90
     1153
 91
        3
280
     0
281
     0
  0
CLASS
  1
DICTIONARYVAR
  2
AcDbDictionaryVar
  3
ObjectDBX Classes
 90
        0
 91
        3
280
     0
281
     0
  0
CLASS
  1
CELLSTYLEMAP
  2
AcDbCellStyleMap
  3
ObjectDBX Classes
 90
     1152
 91
        3
280
     0
281
     0
  0
ENDSEC
  0
SECTION
  2
TABLES
  0
TABLE
  2
VPORT
  5
8
330
0
100
AcDbSymbolTable
 70
     1
  0
VPORT
  5
29
330
8
100
AcDbSymbolTableRecord
100
AcDbViewportTableRecord
  2
*Active
 70
     0
 10
0.0
 20
0.0
 11
1.0
 21
1.0
 12
344.1869158879
 22
148.5
 13
0.0
 23
0.0
 14
10.0
 24
10.0
 15
10.0
 25
10.0
 16
0.0
 26
0.0
 36
1.0
 17
0.0
 27
0.0
 37
0.0
 40
297.0
 41
1.9729729729
 42
50.0
 43
0.0
 44
0.0
 50
0.0
 51
0.0
 71
     0
 72
   100
 73
     1
 74
     3
 75
     0
 76
     0
 77
     0
 78
     0
281
     0
 65
     1
110
0.0
120
0.0
130
0.0
111
1.0
121
0.0
131
0.0
112
0.0
122
1.0
132
0.0
 79
     0
146
0.0
348
2F
 60
     3
 61
     5
292
     1
282
     1
141
0.0
142
0.0
 63
   250
361
6D
  0
ENDTAB
  0
TABLE
  2
LTYPE
  5
5
330
0
100
AcDbSymbolTable
 70
     3
  0
LTYPE
  5
14
330
5
100
AcDbSymbolTableRecord
100
AcDbLinetypeTableRecord
  2
ByBlock
 70
     0
  3

 72
    65
 73
     0
 40
0.0
  0
LTYPE
  5
15
330
5
100
AcDbSymbolTableRecord
100
AcDbLinetypeTableRecord
  2
ByLayer
 70
     0
  3

 72
    65
 73
     0
 40
0.0
  0
LTYPE
  5
16
330
5
100
AcDbSymbolTableRecord
100
AcDbLinetypeTableRecord
  2
Continuous
 70
     0
  3
Solid line
 72
    65
 73
     0
 40
0.0
  0
LTYPE
  5
6F
330
5
100
AcDbSymbolTableRecord
100
AcDbLinetypeTableRecord
  2
HIDDEN2
 70
     0
  3
Hidden (.5x) _ _ _ _ _ _ _ _ _ _ _ _ _ _ _ _ _ 
 72
    65
 73
     2
 40
4.7625
 49
3.175
 74
     4
 75
     0
340
0
 46
0.0
 50
0.0
 44
0.0
 45
0.0
 49
-1.5875
 74
     4
 75
     0
340
0
 46
0.0
 50
0.0
 44
0.0
 45
0.0
  0
LTYPE
  5
1DD
330
5
100
AcDbSymbolTableRecord
100
AcDbLinetypeTableRecord
  2
CENTER2
 70
     0
  3
Center (.5x) ___ _ ___ _ ___ _ ___ _ ___ _ ___
 72
    65
 73
     4
 40
28.575
 49
19.05
 74
     4
 75
     0
340
0
 46
0.0
 50
0.0
 44
0.0
 45
0.0
 49
-3.175
 74
     4
 75
     0
340
0
 46
0.0
 50
0.0
 44
0.0
 45
0.0
 49
3.175
 74
     4
 75
     0
340
0
 46
0.0
 50
0.0
 44
0.0
 45
0.0
 49
-3.175
 74
     4
 75
     0
340
0
 46
0.0
 50
0.0
 44
0.0
 45
0.0
  0
ENDTAB
  0
TABLE
  2
LAYER
  5
2
330
0
100
AcDbSymbolTable
 70
     8
  0
LAYER
  5
10
330
2
100
AcDbSymbolTableRecord
100
AcDbLayerTableRecord
  2
0
 70
     0
 62
     7
  6
Continuous
370
    -3
390
F
347
46
  0
LAYER
  5
6E
330
2
100
AcDbSymbolTableRecord
100
AcDbLayerTableRecord
  2
Verdeckt_(ISO)
 70
     0
 62
     7
  6
Continuous
370
    -3
390
F
347
46
  0
LAYER
  5
7C
330
2
100
AcDbSymbolTableRecord
100
AcDbLayerTableRecord
  2
Sichtbar_(ISO)
 70
     0
 62
     7
  6
Continuous
370
    -3
390
F
347
46
  0
LAYER
  5
1D1
330
2
100
AcDbSymbolTableRecord
100
AcDbLayerTableRecord
  2
_Konvertierung
 70
     1
 62
    -7
  6
Continuous
370
    -3
390
F
347
46
  0
LAYER
  5
1DC
330
2
100
AcDbSymbolTableRecord
100
AcDbLayerTableRecord
  2
Mittelpunktmarkierung_(ISO)
 70
     0
 62
     7
  6
Continuous
370
    -3
390
F
347
46
  0
LAYER
  5
1E2
330
2
100
AcDbSymbolTableRecord
100
AcDbLayerTableRecord
  2
Mittellinie_(ISO)
 70
     0
 62
     7
  6
Continuous
370
    -3
390
F
347
46
  0
LAYER
  5
1E9
330
2
100
AcDbSymbolTableRecord
100
AcDbLayerTableRecord
  2
6
 70
     0
 62
     7
  6
Continuous
370
    -3
390
F
347
46
  0
LAYER
  5
1EC
330
2
100
AcDbSymbolTableRecord
100
AcDbLayerTableRecord
  2
Bemaßung_(ISO)
 70
     0
 62
     7
  6
Continuous
370
    -3
390
F
347
46
  0
ENDTAB
  0
TABLE
  2
STYLE
  5
3
330
0
100
AcDbSymbolTable
 70
     2
  0
STYLE
  5
11
330
3
100
AcDbSymbolTableRecord
100
AcDbTextStyleTableRecord
  2
Standard
 70
     0
 40
0.0
 41
1.0
 50
0.0
 71
     0
 42
4.57
  3
txt
  4

  0
STYLE
  5
1FC
330
3
100
AcDbSymbolTableRecord
100
AcDbTextStyleTableRecord
  2
SEACAD_Arial
 70
     0
 40
0.0
 41
1.0
 50
0.0
 71
     0
 42
4.57
  3
arial.ttf
  4

1001
ACAD
1000
Arial
1071
        0
  0
ENDTAB
  0
TABLE
  2
VIEW
  5
6
330
0
100
AcDbSymbolTable
 70
     0
  0
ENDTAB
  0
TABLE
  2
UCS
  5
7
330
0
100
AcDbSymbolTable
 70
     0
  0
ENDTAB
  0
TABLE
  2
APPID
  5
9
330
0
100
AcDbSymbolTable
 70
     2
  0
APPID
  5
12
330
9
100
AcDbSymbolTableRecord
100
AcDbRegAppTableRecord
  2
ACAD
 70
     0
  0
APPID
  5
272
330
9
100
AcDbSymbolTableRecord
100
AcDbRegAppTableRecord
  2
ACAD_MLEADERVER
 70
     0
  0
ENDTAB
  0
TABLE
  2
DIMSTYLE
  5
A
330
0
100
AcDbSymbolTable
 70
     3
100
AcDbDimStyleTable
  0
DIMSTYLE
105
27
330
A
100
AcDbSymbolTableRecord
100
AcDbDimStyleTableRecord
  2
ISO-25
 70
     0
 41
2.5
 42
0.625
 43
3.75
 44
1.25
 73
     0
 74
     0
 77
     1
 78
     8
140
2.5
141
2.5
143
0.0393700787
147
0.625
171
     3
172
     1
178
     0
271
     2
272
     2
274
     3
278
    44
283
     0
284
     8
340
11
  0
DIMSTYLE
105
1ED
330
A
100
AcDbSymbolTableRecord
100
AcDbDimStyleTableRecord
  2
Standard
 70
     0
178
     0
340
11
  0
DIMSTYLE
105
1FD
102
{ACAD_REACTORS
330
1FE
330
209
330
214
330
21E
330
228
330
233
102
}
330
A
100
AcDbSymbolTableRecord
100
AcDbDimStyleTableRecord
  2
Standard_(DIN)
 70
     0
 41
2.5
 42
1.75
 44
1.75
 73
     0
 74
     0
 77
     1
140
3.5
141
1.75
143
1.0
144
1.0
147
0.875
173
     1
178
     0
271
     1
272
     2
278
    44
340
1FC
343
1F7
344
1F7
  0
ENDTAB
  0
TABLE
  2
BLOCK_RECORD
  5
1
330
0
100
AcDbSymbolTable
 70
     9
  0
BLOCK_RECORD
  5
1F
330
1
100
AcDbSymbolTableRecord
100
AcDbBlockTableRecord
  2
*Model_Space
340
22
 70
     0
280
     1
281
     0
  0
BLOCK_RECORD
  5
1B
330
1
100
AcDbSymbolTableRecord
100
AcDbBlockTableRecord
  2
*Paper_Space
340
1E
 70
     0
280
     1
281
     0
  0
BLOCK_RECORD
  5
1EE
330
1
100
AcDbSymbolTableRecord
100
AcDbBlockTableRecord
  2
_Oblique
340
0
 70
     0
280
     1
281
     0
  0
BLOCK_RECORD
  5
1F2
330
1
100
AcDbSymbolTableRecord
100
AcDbBlockTableRecord
  2
_Dot
340
0
 70
     0
280
     1
281
     0
  0
BLOCK_RECORD
  5
1F7
330
1
100
AcDbSymbolTableRecord
100
AcDbBlockTableRecord
  2
_SE_FILLED
340
0
 70
     0
280
     1
281
     0
  0
BLOCK_RECORD
  5
1FF
330
1
100
AcDbSymbolTableRecord
100
AcDbBlockTableRecord
  2
DMBLK121
340
0
 70
     0
280
     1
281
     0
  0
BLOCK_RECORD
  5
20A
330
1
100
AcDbSymbolTableRecord
100
AcDbBlockTableRecord
  2
DMBLK122
340
0
 70
     0
280
     1
281
     0
  0
BLOCK_RECORD
  5
215
330
1
100
AcDbSymbolTableRecord
100
AcDbBlockTableRecord
  2
DMBLK123
340
0
 70
     0
280
     1
281
     0
  0
BLOCK_RECORD
  5
21F
330
1
100
AcDbSymbolTableRecord
100
AcDbBlockTableRecord
  2
DMBLK124
340
0
 70
     0
280
     1
281
     0
  0
BLOCK_RECORD
  5
229
330
1
100
AcDbSymbolTableRecord
100
AcDbBlockTableRecord
  2
DMBLK125
340
0
 70
     0
280
     1
281
     0
  0
BLOCK_RECORD
  5
234
330
1
100
AcDbSymbolTableRecord
100
AcDbBlockTableRecord
  2
DMBLK126
340
0
 70
     0
280
     1
281
     0
  0
ENDTAB
  0
ENDSEC
  0
SECTION
  2
BLOCKS
  0
BLOCK
  5
20
330
1F
100
AcDbEntity
  8
0
100
AcDbBlockBegin
  2
*Model_Space
 70
     0
 10
0.0
 20
0.0
 30
0.0
  3
*Model_Space
  1

  0
ENDBLK
  5
21
330
1F
100
AcDbEntity
  8
0
100
AcDbBlockEnd
  0
BLOCK
  5
1C
330
1B
100
AcDbEntity
 67
     1
  8
0
100
AcDbBlockBegin
  2
*Paper_Space
 70
     0
 10
0.0
 20
0.0
 30
0.0
  3
*Paper_Space
  1

  0
ENDBLK
  5
1D
330
1B
100
AcDbEntity
 67
     1
  8
0
100
AcDbBlockEnd
  0
BLOCK
  5
1EF
330
1EE
100
AcDbEntity
  8
0
100
AcDbBlockBegin
  2
_Oblique
 70
     0
 10
0.0
 20
0.0
 30
0.0
  3
_Oblique
  1

  0
LINE
  5
1F1
330
1EE
100
AcDbEntity
  8
0
  6
ByBlock
 62
     0
370
    -2
100
AcDbLine
 10
-0.5
 20
-0.5
 30
0.0
 11
0.5
 21
0.5
 31
0.0
  0
ENDBLK
  5
1F0
330
1EE
100
AcDbEntity
  8
0
100
AcDbBlockEnd
  0
BLOCK
  5
1F3
330
1F2
100
AcDbEntity
  8
0
100
AcDbBlockBegin
  2
_Dot
 70
     0
 10
0.0
 20
0.0
 30
0.0
  3
_Dot
  1

  0
LWPOLYLINE
  5
1F5
330
1F2
100
AcDbEntity
  8
0
  6
ByBlock
 62
     0
100
AcDbPolyline
 90
        2
 70
     1
 43
0.5
 10
-0.25
 20
0.0
 42
1.0
 10
0.25
 20
0.0
 42
1.0
  0
LINE
  5
1F6
330
1F2
100
AcDbEntity
  8
0
  6
ByBlock
 62
     0
370
    -2
100
AcDbLine
 10
-0.5
 20
0.0
 30
0.0
 11
-1.0
 21
0.0
 31
0.0
  0
ENDBLK
  5
1F4
330
1F2
100
AcDbEntity
  8
0
100
AcDbBlockEnd
  0
BLOCK
  5
1FA
330
1F7
100
AcDbEntity
  8
0
100
AcDbBlockBegin
  2
_SE_FILLED
 70
     0
 10
0.0
 20
0.0
 30
0.0
  3
_SE_FILLED
  1

  0
SOLID
  5
1F8
330
1F7
100
AcDbEntity
  8
0
 62
     0
100
AcDbTrace
 10
0.0
 20
0.0
 30
0.0
 11
-1.0
 21
-0.1665
 31
0.0
 12
-1.0
 22
0.1665
 32
0.0
 13
0.0
 23
0.0
 33
0.0
  0
LINE
  5
1F9
330
1F7
100
AcDbEntity
  8
0
 62
     0
100
AcDbLine
 10
0.0
 20
0.0
 30
0.0
 11
-1.0
 21
0.0
 31
0.0
  0
ENDBLK
  5
1FB
330
1F7
100
AcDbEntity
  8
0
100
AcDbBlockEnd
  0
BLOCK
  5
207
330
1FF
100
AcDbEntity
  8
0
100
AcDbBlockBegin
  2
DMBLK121
 70
     0
 10
0.0
 20
0.0
 30
0.0
  3
DMBLK121
  1

  0
HATCH
  5
200
330
1FF
100
AcDbEntity
  8
Bemaßung_(ISO)
  6
Continuous
 62
     7
100
AcDbHatch
 10
0.0
 20
0.0
 30
0.0
210
0.0
220
0.0
230
1.0
  2
SOLID
 70
     1
 71
     0
 91
        1
 92
        1
 93
        3
 72
     1
 10
80.33046806943713
 20
9.749998790121335
 11
79.91380141208369
 21
12.24999873424198
 72
     1
 10
79.91380141208369
 20
12.24999873424198
 11
79.49713475473024
 21
9.749998790121335
 72
     1
 10
79.49713475473024
 20
9.749998790121335
 11
80.33046806943713
 21
9.749998790121335
 97
        0
 75
     0
 76
     1
 98
        0
  0
HATCH
  5
201
330
1FF
100
AcDbEntity
  8
Bemaßung_(ISO)
  6
Continuous
 62
     7
100
AcDbHatch
 10
0.0
 20
0.0
 30
0.0
210
0.0
220
0.0
230
1.0
  2
SOLID
 70
     1
 71
     0
 91
        1
 92
        1
 93
        3
 72
     1
 10
80.33046806943713
 20
-9.750000680887442
 11
79.49713475473024
 21
-9.750000680887442
 72
     1
 10
79.49713475473024
 20
-9.750000680887442
 11
79.91380141208369
 21
-12.25000062500809
 72
     1
 10
79.91380141208369
 20
-12.25000062500809
 11
80.33046806943713
 21
-9.750000680887442
 97
        0
 75
     0
 76
     1
 98
        0
  0
LINE
  5
202
330
1FF
100
AcDbEntity
  8
Bemaßung_(ISO)
  6
Continuous
 62
     7
100
AcDbLine
 10
50.5840546833
 20
12.2499987342
 30
0.0
 11
81.6638014661
 21
12.2499987342
 31
0.0
  0
LINE
  5
203
330
1FF
100
AcDbEntity
  8
Bemaßung_(ISO)
  6
Continuous
 62
     7
100
AcDbLine
 10
50.5840546833
 20
-12.2500012658
 30
0.0
 11
81.6638014661
 21
-12.2500012658
 31
0.0
  0
LINE
  5
204
330
1FF
100
AcDbEntity
  8
Bemaßung_(ISO)
  6
Continuous
 62
     7
100
AcDbLine
 10
79.9138014121
 20
12.2499987342
 30
0.0
 11
79.9138014121
 21
-12.250000625
 31
0.0
  0
TEXT
  5
205
330
1FF
100
AcDbEntity
  8
Bemaßung_(ISO)
  6
Continuous
 62
     7
100
AcDbText
 10
79.0388014121
 20
-2.1989139889
 30
0.0
 40
3.5
  1
24,5
 50
90.0
  7
SEACAD_Arial
 11
75.5388014121
 21
-2.1989139889
 31
0.0
100
AcDbText
 73
     3
  0
TEXT
  5
206
330
1FF
100
AcDbEntity
  8
Bemaßung_(ISO)
  6
Continuous
 62
     7
100
AcDbText
 10
79.0388014121
 20
-7.3880444236
 30
0.0
 40
3.5
  1
n
 50
90.0
  7
SEACAD_Arial
 11
75.5388014121
 21
-7.3880444236
 31
0.0
100
AcDbText
 73
     3
  0
ENDBLK
  5
208
330
1FF
100
AcDbEntity
  8
0
100
AcDbBlockEnd
  0
BLOCK
  5
212
330
20A
100
AcDbEntity
  8
0
100
AcDbBlockBegin
  2
DMBLK122
 70
     0
 10
0.0
 20
0.0
 30
0.0
  3
DMBLK122
  1

  0
HATCH
  5
20B
330
20A
100
AcDbEntity
  8
Bemaßung_(ISO)
  6
Continuous
 62
     7
100
AcDbHatch
 10
0.0
 20
0.0
 30
0.0
210
0.0
220
0.0
230
1.0
  2
SOLID
 70
     1
 71
     0
 91
        1
 92
        1
 93
        3
 72
     1
 10
-27.85416894030273
 20
-17.50000132163737
 11
-27.43750228294929
 21
-20.00000126575802
 72
     1
 10
-27.43750228294929
 20
-20.00000126575802
 11
-27.02083562559585
 21
-17.50000132163737
 72
     1
 10
-27.02083562559585
 20
-17.50000132163737
 11
-27.85416894030273
 21
-17.50000132163737
 97
        0
 75
     0
 76
     1
 98
        0
  0
HATCH
  5
20C
330
20A
100
AcDbEntity
  8
Bemaßung_(ISO)
  6
Continuous
 62
     7
100
AcDbHatch
 10
0.0
 20
0.0
 30
0.0
210
0.0
220
0.0
230
1.0
  2
SOLID
 70
     1
 71
     0
 91
        1
 92
        1
 93
        3
 72
     1
 10
-27.85416894030273
 20
17.49999789605166
 11
-27.02083562559585
 21
17.49999789605166
 72
     1
 10
-27.02083562559585
 20
17.49999789605166
 11
-27.43750228294929
 21
19.99999784017231
 72
     1
 10
-27.43750228294929
 20
19.99999784017231
 11
-27.85416894030273
 21
17.49999789605166
 97
        0
 75
     0
 76
     1
 98
        0
  0
LINE
  5
20D
330
20A
100
AcDbEntity
  8
Bemaßung_(ISO)
  6
Continuous
 62
     7
100
AcDbLine
 10
-1.0500214969
 20
-20.0000012658
 30
0.0
 11
-29.187502337
 21
-20.0000012658
 31
0.0
  0
LINE
  5
20E
330
20A
100
AcDbEntity
  8
Bemaßung_(ISO)
  6
Continuous
 62
     7
100
AcDbLine
 10
-1.0500214969
 20
19.9999987342
 30
0.0
 11
-29.187502337
 21
19.9999987342
 31
0.0
  0
LINE
  5
20F
330
20A
100
AcDbEntity
  8
Bemaßung_(ISO)
  6
Continuous
 62
     7
100
AcDbLine
 10
-27.4375022829
 20
-20.0000012658
 30
0.0
 11
-27.4375022829
 21
19.9999978402
 31
0.0
  0
TEXT
  5
210
330
20A
100
AcDbEntity
  8
Bemaßung_(ISO)
  6
Continuous
 62
     7
100
AcDbText
 10
-28.3125022829
 20
-0.1445669302
 30
0.0
 40
3.5
  1
40
 50
90.0
  7
SEACAD_Arial
 11
-31.8125022829
 21
-0.1445669302
 31
0.0
100
AcDbText
 73
     3
  0
TEXT
  5
211
330
20A
100
AcDbEntity
  8
Bemaßung_(ISO)
  6
Continuous
 62
     7
100
AcDbText
 10
-28.3125022829
 20
-5.333697365
 30
0.0
 40
3.5
  1
n
 50
90.0
  7
SEACAD_Arial
 11
-31.8125022829
 21
-5.333697365
 31
0.0
100
AcDbText
 73
     3
  0
ENDBLK
  5
213
330
20A
100
AcDbEntity
  8
0
100
AcDbBlockEnd
  0
BLOCK
  5
21C
330
215
100
AcDbEntity
  8
0
100
AcDbBlockBegin
  2
DMBLK123
 70
     0
 10
0.0
 20
0.0
 30
0.0
  3
DMBLK123
  1

  0
HATCH
  5
216
330
215
100
AcDbEntity
  8
Bemaßung_(ISO)
  6
Continuous
 62
     7
100
AcDbHatch
 10
0.0
 20
0.0
 30
0.0
210
0.0
220
0.0
230
1.0
  2
SOLID
 70
     1
 71
     0
 91
        1
 92
        1
 93
        3
 72
     1
 10
2.499978501258291
 20
25.5028365745855
 11
-0.0000214428623546
 21
25.08616991723206
 72
     1
 10
-0.0000214428623546
 20
25.08616991723206
 11
2.499978501258291
 21
24.66950325987861
 72
     1
 10
2.499978501258291
 20
24.66950325987861
 11
2.499978501258291
 21
25.5028365745855
 97
        0
 75
     0
 76
     1
 98
        0
  0
HATCH
  5
217
330
215
100
AcDbEntity
  8
Bemaßung_(ISO)
  6
Continuous
 62
     7
100
AcDbHatch
 10
0.0
 20
0.0
 30
0.0
210
0.0
220
0.0
230
1.0
  2
SOLID
 70
     1
 71
     0
 91
        1
 92
        1
 93
        3
 72
     1
 10
17.49997816598216
 20
25.5028365745855
 11
17.49997816598216
 21
24.66950325987861
 72
     1
 10
17.49997816598216
 20
24.66950325987861
 11
19.99997811010281
 21
25.08616991723206
 72
     1
 10
19.99997811010281
 20
25.08616991723206
 11
17.49997816598216
 21
25.5028365745855
 97
        0
 75
     0
 76
     1
 98
        0
  0
LINE
  5
218
330
215
100
AcDbEntity
  8
Bemaßung_(ISO)
  6
Continuous
 62
     7
100
AcDbLine
 10
-0.0000214429
 20
21.0499987883
 30
0.0
 11
-0.0000214429
 21
26.8361699712
 31
0.0
  0
LINE
  5
219
330
215
100
AcDbEntity
  8
Bemaßung_(ISO)
  6
Continuous
 62
     7
100
AcDbLine
 10
19.9999785571
 20
-3.7500012117
 30
0.0
 11
19.9999785571
 21
26.8361699712
 31
0.0
  0
LINE
  5
21A
330
215
100
AcDbEntity
  8
Bemaßung_(ISO)
  6
Continuous
 62
     7
100
AcDbLine
 10
-0.0000214429
 20
25.0861699172
 30
0.0
 11
19.9999781101
 21
25.0861699172
 31
0.0
  0
TEXT
  5
21B
330
215
100
AcDbEntity
  8
Bemaßung_(ISO)
  6
Continuous
 62
     7
100
AcDbText
 10
7.2608478988
 20
25.9611699172
 30
0.0
 40
3.5
  1
20
  7
SEACAD_Arial
 11
7.2608478988
 21
29.4611699172
 31
0.0
100
AcDbText
 73
     3
  0
ENDBLK
  5
21D
330
215
100
AcDbEntity
  8
0
100
AcDbBlockEnd
  0
BLOCK
  5
226
330
21F
100
AcDbEntity
  8
0
100
AcDbBlockBegin
  2
DMBLK124
 70
     0
 10
0.0
 20
0.0
 30
0.0
  3
DMBLK124
  1

  0
HATCH
  5
220
330
21F
100
AcDbEntity
  8
Bemaßung_(ISO)
  6
Continuous
 62
     7
100
AcDbHatch
 10
0.0
 20
0.0
 30
0.0
210
0.0
220
0.0
230
1.0
  2
SOLID
 70
     1
 71
     0
 91
        1
 92
        1
 93
        3
 72
     1
 10
2.499978501258291
 20
36.20921099630124
 11
-0.0000214428623546
 21
35.7925443389478
 72
     1
 10
-0.0000214428623546
 20
35.7925443389478
 11
2.499978501258291
 21
35.37587768159436
 72
     1
 10
2.499978501258291
 20
35.37587768159436
 11
2.499978501258291
 21
36.20921099630124
 97
        0
 75
     0
 76
     1
 98
        0
  0
HATCH
  5
221
330
21F
100
AcDbEntity
  8
Bemaßung_(ISO)
  6
Continuous
 62
     7
100
AcDbHatch
 10
0.0
 20
0.0
 30
0.0
210
0.0
220
0.0
230
1.0
  2
SOLID
 70
     1
 71
     0
 91
        1
 92
        1
 93
        3
 72
     1
 10
57.41141594564716
 20
36.20921099630124
 11
57.41141594564716
 21
35.37587768159436
 72
     1
 10
57.41141594564716
 20
35.37587768159436
 11
59.9114158897678
 21
35.7925443389478
 72
     1
 10
59.9114158897678
 20
35.7925443389478
 11
57.41141594564716
 21
36.20921099630124
 97
        0
 75
     0
 76
     1
 98
        0
  0
LINE
  5
222
330
21F
100
AcDbEntity
  8
Bemaßung_(ISO)
  6
Continuous
 62
     7
100
AcDbLine
 10
-0.0000214429
 20
21.0499987883
 30
0.0
 11
-0.0000214429
 21
37.542544393
 31
0.0
  0
LINE
  5
223
330
21F
100
AcDbEntity
  8
Bemaßung_(ISO)
  6
Continuous
 62
     7
100
AcDbLine
 10
59.9114163849
 20
5.3385609605
 30
0.0
 11
59.9114163849
 21
37.542544393
 31
0.0
  0
LINE
  5
224
330
21F
100
AcDbEntity
  8
Bemaßung_(ISO)
  6
Continuous
 62
     7
100
AcDbLine
 10
-0.0000214429
 20
35.7925443389
 30
0.0
 11
59.9114158898
 21
35.7925443389
 31
0.0
  0
TEXT
  5
225
330
21F
100
AcDbEntity
  8
Bemaßung_(ISO)
  6
Continuous
 62
     7
100
AcDbText
 10
27.2165667887
 20
36.6675443389
 30
0.0
 40
3.5
  1
60
  7
SEACAD_Arial
 11
27.2165667887
 21
40.1675443389
 31
0.0
100
AcDbText
 73
     3
  0
ENDBLK
  5
227
330
21F
100
AcDbEntity
  8
0
100
AcDbBlockEnd
  0
BLOCK
  5
231
330
229
100
AcDbEntity
  8
0
100
AcDbBlockBegin
  2
DMBLK125
 70
     0
 10
0.0
 20
0.0
 30
0.0
  3
DMBLK125
  1

  0
HATCH
  5
22A
330
229
100
AcDbEntity
  8
Bemaßung_(ISO)
  6
Continuous
 62
     7
100
AcDbHatch
 10
0.0
 20
0.0
 30
0.0
210
0.0
220
0.0
230
1.0
  2
SOLID
 70
     1
 71
     0
 91
        1
 92
        1
 93
        3
 72
     1
 10
66.65420579590698
 20
-5.500001209878667
 11
66.23753913855353
 21
-3.000001265758022
 72
     1
 10
66.23753913855353
 20
-3.000001265758022
 11
65.82087248120008
 21
-5.500001209878667
 72
     1
 10
65.82087248120008
 20
-5.500001209878667
 11
66.65420579590698
 21
-5.500001209878667
 97
        0
 75
     0
 76
     1
 98
        0
  0
HATCH
  5
22B
330
229
100
AcDbEntity
  8
Bemaßung_(ISO)
  6
Continuous
 62
     7
100
AcDbHatch
 10
0.0
 20
0.0
 30
0.0
210
0.0
220
0.0
230
1.0
  2
SOLID
 70
     1
 71
     0
 91
        1
 92
        1
 93
        3
 72
     1
 10
66.65420579590698
 20
5.499998678362627
 11
65.82087248120008
 21
5.499998678362627
 72
     1
 10
65.82087248120008
 20
5.499998678362627
 11
66.23753913855353
 21
2.999998734241982
 72
     1
 10
66.23753913855353
 20
2.999998734241982
 11
66.65420579590698
 21
5.499998678362627
 97
        0
 75
     0
 76
     1
 98
        0
  0
LINE
  5
22C
330
229
100
AcDbEntity
  8
Bemaßung_(ISO)
  6
Continuous
 62
     7
100
AcDbLine
 10
60.7499786112
 20
-3.0000012658
 30
0.0
 11
67.9875391926
 21
-3.0000012658
 31
0.0
  0
LINE
  5
22D
330
229
100
AcDbEntity
  8
Bemaßung_(ISO)
  6
Continuous
 62
     7
100
AcDbLine
 10
41.6614164389
 20
2.9999987342
 30
0.0
 11
67.9875391926
 21
2.9999987342
 31
0.0
  0
LINE
  5
22E
330
229
100
AcDbEntity
  8
Bemaßung_(ISO)
  6
Continuous
 62
     7
100
AcDbLine
 10
66.2375391386
 20
-27.4341523937
 30
0.0
 11
66.2375391386
 21
7.9999986746
 31
0.0
  0
TEXT
  5
22F
330
229
100
AcDbEntity
  8
Bemaßung_(ISO)
  6
Continuous
 62
     7
100
AcDbText
 10
65.3625391386
 20
-21.0200217317
 30
0.0
 40
3.5
  1
6
 50
90.0
  7
SEACAD_Arial
 11
61.8625391386
 21
-21.0200217317
 31
0.0
100
AcDbText
 73
     3
  0
TEXT
  5
230
330
229
100
AcDbEntity
  8
Bemaßung_(ISO)
  6
Continuous
 62
     7
100
AcDbText
 10
65.3625391386
 20
-26.2091521665
 30
0.0
 40
3.5
  1
n
 50
90.0
  7
SEACAD_Arial
 11
61.8625391386
 21
-26.2091521665
 31
0.0
100
AcDbText
 73
     3
  0
ENDBLK
  5
232
330
229
100
AcDbEntity
  8
0
100
AcDbBlockEnd
  0
BLOCK
  5
23B
330
234
100
AcDbEntity
  8
0
100
AcDbBlockBegin
  2
DMBLK126
 70
     0
 10
0.0
 20
0.0
 30
0.0
  3
DMBLK126
  1

  0
HATCH
  5
235
330
234
100
AcDbEntity
  8
Bemaßung_(ISO)
  6
Continuous
 62
     7
100
AcDbHatch
 10
0.0
 20
0.0
 30
0.0
210
0.0
220
0.0
230
1.0
  2
SOLID
 70
     1
 71
     0
 91
        1
 92
        1
 93
        3
 72
     1
 10
-17.50002149874171
 20
25.50283711352727
 11
-20.00002144286236
 21
25.08617045617383
 72
     1
 10
-20.00002144286236
 20
25.08617045617383
 11
-17.50002149874171
 21
24.66950379882039
 72
     1
 10
-17.50002149874171
 20
24.66950379882039
 11
-17.50002149874171
 21
25.50283711352727
 97
        0
 75
     0
 76
     1
 98
        0
  0
HATCH
  5
236
330
234
100
AcDbEntity
  8
Bemaßung_(ISO)
  6
Continuous
 62
     7
100
AcDbHatch
 10
0.0
 20
0.0
 30
0.0
210
0.0
220
0.0
230
1.0
  2
SOLID
 70
     1
 71
     0
 91
        1
 92
        1
 93
        3
 72
     1
 10
-2.500021834017839
 20
25.50283711352727
 11
-2.500021834017839
 21
24.66950379882039
 72
     1
 10
-2.500021834017839
 20
24.66950379882039
 11
-0.0000218898971935
 21
25.08617045617383
 72
     1
 10
-0.0000218898971935
 20
25.08617045617383
 11
-2.500021834017839
 21
25.50283711352727
 97
        0
 75
     0
 76
     1
 98
        0
  0
LINE
  5
237
330
234
100
AcDbEntity
  8
Bemaßung_(ISO)
  6
Continuous
 62
     7
100
AcDbLine
 10
-20.0000214429
 20
14.9056461386
 30
0.0
 11
-20.0000214429
 21
26.8361705102
 31
0.0
  0
LINE
  5
238
330
234
100
AcDbEntity
  8
Bemaßung_(ISO)
  6
Continuous
 62
     7
100
AcDbLine
 10
-0.0000214429
 20
21.0499987883
 30
0.0
 11
-0.0000214429
 21
26.8361705102
 31
0.0
  0
LINE
  5
239
330
234
100
AcDbEntity
  8
Bemaßung_(ISO)
  6
Continuous
 62
     7
100
AcDbLine
 10
-20.0000214429
 20
25.0861704562
 30
0.0
 11
-0.0000218899
 21
25.0861704562
 31
0.0
  0
TEXT
  5
23A
330
234
100
AcDbEntity
  8
Bemaßung_(ISO)
  6
Continuous
 62
     7
100
AcDbText
 10
-12.7391521012
 20
25.9611704562
 30
0.0
 40
3.5
  1
20
  7
SEACAD_Arial
 11
-12.7391521012
 21
29.4611704562
 31
0.0
100
AcDbText
 73
     3
  0
ENDBLK
  5
23C
330
234
100
AcDbEntity
  8
0
100
AcDbBlockEnd
  0
ENDSEC
  0
SECTION
  2
ENTITIES
  0
SPLINE
  5
70
330
1F
100
AcDbEntity
  8
Verdeckt_(ISO)
  6
HIDDEN2
 62
     7
100
AcDbSpline
210
0.0
220
0.0
230
1.0
 70
    12
 71
     3
 72
    16
 73
    12
 74
     0
 42
0.000000001
 43
0.0000000001
 40
0.0
 40
0.0
 40
0.0
 40
0.0
 40
0.1792895411337952
 40
0.1792895411337952
 40
0.4226164964660064
 40
0.4226164964660064
 40
0.6831895663601897
 40
0.6831895663601897
 40
0.9816854543941341
 40
0.9816854543941341
 40
1.0
 40
1.0
 40
1.0
 40
1.0
 10
59.69997872757092
 20
-1.399475777742494
 30
0.0
 41
1.0
 10
59.69997901437575
 20
-1.398670100075764
 30
0.0
 41
1.0
 10
59.69998562904521
 20
-1.324309605052735
 30
0.0
 41
1.0
 10
59.70000995849943
 20
-0.9938362878228173
 30
0.0
 41
1.0
 10
59.70002869576333
 20
-0.6838144681092624
 30
0.0
 41
1.0
 10
59.70004371002563
 20
0.0337753644494404
 30
0.0
 41
1.0
 10
59.7000366086544
 20
0.4419302298793422
 30
0.0
 41
1.0
 10
59.70000406122961
 20
1.129686005956415
 30
0.0
 41
1.0
 10
59.69998099280378
 20
1.372597838072573
 30
0.0
 41
1.0
 10
59.6999786301085
 20
1.399228515340863
 30
0.0
 41
1.0
 10
59.69997857435142
 20
1.399948944188854
 30
0.0
 41
1.0
 10
59.69997859435742
 20
1.399867395001066
 30
0.0
 41
1.0
  0
ELLIPSE
  5
71
330
1F
100
AcDbEntity
  8
Verdeckt_(ISO)
  6
HIDDEN2
 62
     7
100
AcDbEllipse
 10
24.7511192618
 20
-0.0000012658
 30
0.0
 11
5.000000000000000E-16
 21
-1.4
 31
0.0
210
0.0
220
0.0
230
1.0
 40
0.0348994967
 41
2.638751054321173
 42
3.597193223288642
  0
ELLIPSE
  5
72
330
1F
100
AcDbEntity
  8
Verdeckt_(ISO)
  6
HIDDEN2
 62
     7
100
AcDbEllipse
 10
24.7511192618
 20
-0.0000012658
 30
0.0
 11
-1.000000000000000E-15
 21
1.4
 31
0.0
210
0.0
220
0.0
230
1.0
 40
0.0348994967
 41
2.685992083890923
 42
3.644434252858469
  0
LINE
  5
73
330
1F
100
AcDbEntity
  8
Verdeckt_(ISO)
  6
HIDDEN2
 62
     7
100
AcDbLine
 10
59.6999785572
 20
1.3999987342
 30
0.0
 11
59.7999785571
 21
1.4999987342
 31
0.0
  0
LINE
  5
74
330
1F
100
AcDbEntity
  8
Verdeckt_(ISO)
  6
HIDDEN2
 62
     7
100
AcDbLine
 10
59.7999785571
 20
-1.5000012658
 30
0.0
 11
59.6999785572
 21
-1.4000012658
 31
0.0
  0
LINE
  5
75
330
1F
100
AcDbEntity
  8
Verdeckt_(ISO)
  6
HIDDEN2
 62
     7
100
AcDbLine
 10
24.7511192618
 20
1.3999987342
 30
0.0
 11
59.6999785572
 21
1.3999987342
 31
0.0
  0
LINE
  5
76
330
1F
100
AcDbEntity
  8
Verdeckt_(ISO)
  6
HIDDEN2
 62
     7
100
AcDbLine
 10
24.7511192618
 20
-1.4000012658
 30
0.0
 11
59.6999785572
 21
-1.4000012658
 31
0.0
  0
LINE
  5
77
330
1F
100
AcDbEntity
  8
Verdeckt_(ISO)
  6
HIDDEN2
 62
     7
100
AcDbLine
 10
59.7999785571
 20
6.7999987342
 30
0.0
 11
59.7999785571
 21
-6.8000012658
 31
0.0
  0
LINE
  5
78
330
1F
100
AcDbEntity
  8
Verdeckt_(ISO)
  6
HIDDEN2
 62
     7
100
AcDbLine
 10
59.8152833638
 20
-3.6846964591
 30
0.0
 11
59.7999785571
 21
-3.7000012658
 31
0.0
  0
LINE
  5
79
330
1F
100
AcDbEntity
  8
Verdeckt_(ISO)
  6
HIDDEN2
 62
     7
100
AcDbLine
 10
59.8152833638
 20
3.6846939276
 30
0.0
 11
59.7999785571
 21
3.6999987342
 31
0.0
  0
LINE
  5
7A
330
1F
100
AcDbEntity
  8
Verdeckt_(ISO)
  6
HIDDEN2
 62
     7
100
AcDbLine
 10
59.7999785571
 20
6.7999987342
 30
0.0
 11
59.8152833638
 21
6.8153035409
 31
0.0
  0
LINE
  5
7B
330
1F
100
AcDbEntity
  8
Verdeckt_(ISO)
  6
HIDDEN2
 62
     7
100
AcDbLine
 10
59.7999785571
 20
-6.8000012658
 30
0.0
 11
59.8152833638
 21
-6.8153060724
 31
0.0
  0
LINE
  5
7D
330
1F
100
AcDbEntity
  8
Sichtbar_(ISO)
  6
Continuous
 62
     7
100
AcDbLine
 10
59.9114163849
 20
-3.588563438
 30
0.0
 11
59.9114163849
 21
3.5885609065
 31
0.0
  0
LINE
  5
7E
330
1F
100
AcDbEntity
  8
Sichtbar_(ISO)
  6
Continuous
 62
     7
100
AcDbLine
 10
59.8152833638
 20
6.8153035409
 30
0.0
 11
59.8152833638
 21
-6.8153060724
 31
0.0
  0
LINE
  5
7F
330
1F
100
AcDbEntity
  8
Sichtbar_(ISO)
  6
Continuous
 62
     7
100
AcDbLine
 10
59.9114163849
 20
-3.588563438
 30
0.0
 11
59.8152833638
 21
-3.6846964591
 31
0.0
  0
LINE
  5
80
330
1F
100
AcDbEntity
  8
Sichtbar_(ISO)
  6
Continuous
 62
     7
100
AcDbLine
 10
59.9114163849
 20
3.5885609065
 30
0.0
 11
59.8152833638
 21
3.6846939276
 31
0.0
  0
SPLINE
  5
81
330
1F
100
AcDbEntity
  8
Verdeckt_(ISO)
  6
HIDDEN2
 62
     7
100
AcDbSpline
210
0.0
220
0.0
230
1.0
 70
     8
 71
     3
 72
    22
 73
    18
 74
     0
 42
0.000000001
 43
0.0000000001
 40
0.0
 40
0.0
 40
0.0
 40
0.0
 40
0.1414502309761363
 40
0.1414502309761363
 40
0.3207251154880684
 40
0.3207251154880684
 40
0.4103625577440344
 40
0.4103625577440344
 40
0.5000000000000006
 40
0.5000000000000006
 40
0.5896374422559667
 40
0.5896374422559667
 40
0.6792748845119325
 40
0.6792748845119325
 40
0.8585497690238652
 40
0.8585497690238652
 40
1.0
 40
1.0
 40
1.0
 40
1.0
 10
25.2360964222744
 20
0.7037194164673812
 30
0.0
 10
25.32521164537269
 20
0.6615219797509841
 30
0.0
 10
25.40979144773654
 20
0.6144214589924241
 30
0.0
 10
25.58136594752415
 20
0.4993135106597223
 30
0.0
 10
25.67891761736956
 20
0.4182187351278022
 30
0.0
 10
25.7879334980967
 20
0.2753244860903021
 30
0.0
 10
25.81811768662868
 20
0.2241626072383092
 30
0.0
 10
25.86013141026667
 20
0.116035631374179
 30
0.0
 10
25.87197711500275
 20
0.0590768954877148
 30
0.0
 10
25.87197711500275
 20
-0.0590794270037547
 30
0.0
 10
25.86013141026668
 20
-0.1160381628902201
 30
0.0
 10
25.81811768662869
 20
-0.2241651387543504
 30
0.0
 10
25.7879334980967
 20
-0.2753270176063424
 30
0.0
 10
25.67891761736956
 20
-0.4182212666438428
 30
0.0
 10
25.58136594752415
 20
-0.4993160421757631
 30
0.0
 10
25.40979144773654
 20
-0.6144239905084647
 30
0.0
 10
25.32521164537269
 20
-0.6615245112670256
 30
0.0
 10
25.2360964222744
 20
-0.7037219479834219
 30
0.0
  0
CIRCLE
  5
82
330
1F
100
AcDbEntity
  8
Verdeckt_(ISO)
  6
HIDDEN2
 62
     7
100
AcDbCircle
 10
23.9114163849
 20
-0.0000012658
 30
0.0
 40
2.0
  0
CIRCLE
  5
83
330
1F
100
AcDbEntity
  8
Verdeckt_(ISO)
  6
HIDDEN2
 62
     7
100
AcDbCircle
 10
23.9114163849
 20
-0.0000012658
 30
0.0
 40
1.5
  0
SPLINE
  5
84
330
1F
100
AcDbEntity
  8
Sichtbar_(ISO)
  6
Continuous
 62
     7
100
AcDbSpline
210
0.0
220
0.0
230
1.0
 70
     8
 71
     3
 72
    16
 73
    12
 74
     0
 42
0.000000001
 43
0.0000000001
 40
0.0
 40
0.0
 40
0.0
 40
0.0
 40
0.3571972697988147
 40
0.3571972697988147
 40
0.5357959046982221
 40
0.5357959046982221
 40
0.7143945395976296
 40
0.7143945395976296
 40
0.8571972697988147
 40
0.8571972697988147
 40
0.9999999999999999
 40
0.9999999999999999
 40
1.000000000006322
 40
1.000000000006322
 10
42.41141638490378
 20
-11.31748722081419
 30
0.0
 10
43.37019551274273
 20
-11.31748722081419
 30
0.0
 10
44.38466104437474
 20
-11.40435253129976
 30
0.0
 10
45.72737510789495
 20
-11.62072504711941
 30
0.0
 10
46.14616450924424
 20
-11.70542617027264
 30
0.0
 10
46.88947095310925
 20
-11.87688154740713
 30
0.0
 10
47.21417174255914
 20
-11.96349922628638
 30
0.0
 10
47.68493008658421
 20
-12.09743658055532
 30
0.0
 10
47.86944200621035
 20
-12.15386709966076
 30
0.0
 10
48.11371918270793
 20
-12.2304462523927
 30
0.0
 10
48.1731435565078
 20
-12.25000126575802
 30
0.0
 10
48.1731435565078
 20
-12.25000126575802
 30
0.0
  0
SPLINE
  5
85
330
1F
100
AcDbEntity
  8
Sichtbar_(ISO)
  6
Continuous
 62
     7
100
AcDbSpline
210
0.0
220
0.0
230
1.0
 70
     8
 71
     3
 72
    16
 73
    12
 74
     0
 42
0.000000001
 43
0.0000000001
 40
-0.000000000013709
 40
-0.000000000013709
 40
0.0
 40
0.0
 40
0.1428027301894354
 40
0.1428027301894354
 40
0.2856054603925781
 40
0.2856054603925781
 40
0.4642040952944334
 40
0.4642040952944334
 40
0.6428027301962899
 40
0.6428027301962899
 40
1.0
 40
1.0
 40
1.0
 40
1.0
 10
36.64968921329978
 20
-12.25000126575802
 30
0.0
 10
36.64968921331118
 20
-12.25000126575426
 30
0.0
 10
36.70911358711136
 20
-12.23044625238902
 30
0.0
 10
36.95339076359721
 20
-12.15386709966076
 30
0.0
 10
37.13790268322334
 20
-12.09743658055532
 30
0.0
 10
37.60866102724843
 20
-11.96349922628638
 30
0.0
 10
37.93336181669832
 20
-11.87688154740713
 30
0.0
 10
38.67666826056335
 20
-11.70542617027264
 30
0.0
 10
39.09545766191263
 20
-11.62072504711941
 30
0.0
 10
40.43817172543285
 20
-11.40435253129976
 30
0.0
 10
41.45263725706484
 20
-11.31748722081419
 30
0.0
 10
42.41141638490378
 20
-11.31748722081419
 30
0.0
  0
ARC
  5
86
330
1F
100
AcDbEntity
  8
Verdeckt_(ISO)
  6
HIDDEN2
 62
     7
100
AcDbCircle
 10
42.4114163849
 20
-17.8000012658
 30
0.0
 40
7.999999999999998
100
AcDbArc
 50
43.927691875
 51
136.072308125
  0
SPLINE
  5
87
330
1F
100
AcDbEntity
  8
Verdeckt_(ISO)
  6
HIDDEN2
 62
     7
100
AcDbSpline
210
0.0
220
0.0
230
1.0
 70
     8
 71
     3
 72
    26
 73
    22
 74
     0
 42
0.000000001
 43
0.0000000001
 40
-0.0000000000004457
 40
-0.0000000000004457
 40
0.0
 40
0.0
 40
0.1224074199782544
 40
0.1224074199782544
 40
0.244814839956955
 40
0.244814839956955
 40
0.3724074199783666
 40
0.3724074199783666
 40
0.4362037099890719
 40
0.4362037099890719
 40
0.4999999999997775
 40
0.4999999999997775
 40
0.5637962900104834
 40
0.5637962900104834
 40
0.6275925800211887
 40
0.6275925800211887
 40
0.7551851600425981
 40
0.7551851600425981
 40
0.8775925800212991
 40
0.8775925800212991
 40
1.0
 40
1.0
 40
1.000000000000651
 40
1.000000000000651
 10
39.91141638490378
 20
2.999998734241982
 30
0.0
 10
39.91141638490429
 20
2.99999873424155
 30
0.0
 10
39.98178709446804
 20
2.940616313061854
 30
0.0
 10
40.24362264672973
 20
2.728269803472213
 30
0.0
 10
40.43438356006424
 20
2.576461486058042
 30
0.0
 10
40.86177977491314
 20
2.264750759832211
 30
0.0
 10
41.13153567082249
 20
2.078755227320615
 30
0.0
 10
41.58202850516282
 20
1.849638567847639
 30
0.0
 10
41.73999418495842
 20
1.782163345755305
 30
0.0
 10
42.06786025862931
 20
1.686289376619507
 30
0.0
 10
42.23787197130032
 20
1.658311129419683
 30
0.0
 10
42.58496079850725
 20
1.658311129419683
 30
0.0
 10
42.75497251117826
 20
1.686289376619506
 30
0.0
 10
43.08283858484918
 20
1.782163345755303
 30
0.0
 10
43.24080426464474
 20
1.849638567847635
 30
0.0
 10
43.69129709898508
 20
2.07875522732061
 30
0.0
 10
43.96105299489441
 20
2.264750759832212
 30
0.0
 10
44.38844920974331
 20
2.576461486058042
 30
0.0
 10
44.57921012307784
 20
2.728269803472213
 30
0.0
 10
44.84104567534
 20
2.940616313062242
 30
0.0
 10
44.91141638490379
 20
2.999998734241982
 30
0.0
 10
44.91141638490379
 20
2.999998734241982
 30
0.0
  0
LINE
  5
88
330
1F
100
AcDbEntity
  8
Verdeckt_(ISO)
  6
HIDDEN2
 62
     7
100
AcDbLine
 10
44.9114163849
 20
10.7499987342
 30
0.0
 11
39.9114163849
 21
10.7499987342
 31
0.0
  0
LINE
  5
89
330
1F
100
AcDbEntity
  8
Verdeckt_(ISO)
  6
HIDDEN2
 62
     7
100
AcDbLine
 10
39.9114163849
 20
2.9999987342
 30
0.0
 11
39.9114163849
 21
10.7499987342
 31
0.0
  0
LINE
  5
8A
330
1F
100
AcDbEntity
  8
Verdeckt_(ISO)
  6
HIDDEN2
 62
     7
100
AcDbLine
 10
44.9114163849
 20
2.9999987342
 30
0.0
 11
44.9114163849
 21
10.7499987342
 31
0.0
  0
LINE
  5
8B
330
1F
100
AcDbEntity
  8
Verdeckt_(ISO)
  6
HIDDEN2
 62
     7
100
AcDbLine
 10
39.9114163849
 20
10.7499987342
 30
0.0
 11
38.4114163849
 21
12.2499987342
 31
0.0
  0
LINE
  5
8C
330
1F
100
AcDbEntity
  8
Verdeckt_(ISO)
  6
HIDDEN2
 62
     7
100
AcDbLine
 10
44.9114163849
 20
10.7499987342
 30
0.0
 11
46.4114163849
 21
12.2499987342
 31
0.0
  0
SPLINE
  5
8D
330
1F
100
AcDbEntity
  8
Sichtbar_(ISO)
  6
Continuous
 62
     7
100
AcDbSpline
210
0.0
220
0.0
230
1.0
 70
     8
 71
     3
 72
    23
 73
    19
 74
     0
 42
0.000000001
 43
0.0000000001
 40
0.0
 40
0.0
 40
0.0
 40
0.0
 40
0.127095878095323
 40
0.127095878095323
 40
0.2541917561906452
 40
0.2541917561906452
 40
0.3770958780953234
 40
0.3770958780953234
 40
0.4999999999999995
 40
0.4999999999999995
 40
0.4999999999999995
 40
0.6229041219046776
 40
0.6229041219046776
 40
0.7458082438093556
 40
0.7458082438093556
 40
0.8729041219046768
 40
0.8729041219046768
 40
1.0
 40
1.0
 40
1.0
 40
1.0
 10
46.41141638490378
 20
12.24999873424198
 30
0.0
 10
46.41141638490378
 20
12.24999873424198
 30
0.0
 10
46.28922712114294
 20
12.21884886863036
 30
0.0
 10
45.82735686227366
 20
12.11411795824678
 30
0.0
 10
45.48846824645924
 20
12.04236893924491
 30
0.0
 10
44.75723507364666
 20
11.9164219838919
 30
0.0
 10
44.31777009711314
 20
11.85313995151066
 30
0.0
 10
43.37763982069552
 20
11.76527805181123
 30
0.0
 10
42.87686093728959
 20
11.74179760253303
 30
0.0
 10
42.41141638490378
 20
11.74179760253303
 30
0.0
 10
41.94597183251796
 20
11.74179760253303
 30
0.0
 10
41.44519294911205
 20
11.76527805181124
 30
0.0
 10
40.50506267269441
 20
11.85313995151067
 30
0.0
 10
40.06559769616089
 20
11.9164219838919
 30
0.0
 10
39.33436452334835
 20
12.04236893924491
 30
0.0
 10
38.99547590753392
 20
12.11411795824678
 30
0.0
 10
38.53360564866463
 20
12.21884886863036
 30
0.0
 10
38.41141638490377
 20
12.24999873424198
 30
0.0
 10
38.41141638490377
 20
12.24999873424198
 30
0.0
  0
SPLINE
  5
8E
330
1F
100
AcDbEntity
  8
Sichtbar_(ISO)
  6
Continuous
 62
     7
100
AcDbSpline
210
0.0
220
0.0
230
1.0
 70
     8
 71
     3
 72
    12
 73
     8
 74
     0
 42
0.000000001
 43
0.0000000001
 40
0.0
 40
0.0
 40
0.0
 40
0.0
 40
0.232177840332276
 40
0.232177840332276
 40
0.6215391223073378
 40
0.6215391223073378
 40
1.0
 40
1.0
 40
1.0
 40
1.0
 10
19.7416550024523
 20
5.829240914918845
 30
0.0
 10
19.70059572712687
 20
5.861381309011501
 30
0.0
 10
19.65453673959003
 20
5.887815513690705
 30
0.0
 10
19.51632379688166
 20
5.943564528474116
 30
0.0
 10
19.42195902529812
 20
5.959688376678528
 30
0.0
 10
19.23035109460067
 20
5.976654891200824
 30
0.0
 10
19.12079326063092
 20
5.978964539435468
 30
0.0
 10
18.99997855713763
 20
5.978964539435468
 30
0.0
  0
LINE
  5
8F
330
1F
100
AcDbEntity
  8
Sichtbar_(ISO)
  6
Continuous
 62
     7
100
AcDbLine
 10
18.0779939993
 20
5.9789645394
 30
0.0
 11
18.9999785571
 21
5.9789645394
 31
0.0
  0
SPLINE
  5
90
330
1F
100
AcDbEntity
  8
Sichtbar_(ISO)
  6
Continuous
 62
     7
100
AcDbSpline
210
0.0
220
0.0
230
1.0
 70
     8
 71
     3
 72
    10
 73
     6
 74
     0
 42
0.000000001
 43
0.0000000001
 40
0.0
 40
0.0
 40
0.0
 40
0.0
 40
0.4024756923996089
 40
0.4024756923996089
 40
1.0
 40
1.0
 40
1.0
 40
1.0
 10
19.74165500092383
 20
5.82924091450921
 30
0.0
 10
19.6673466694048
 20
5.747076029593398
 30
0.0
 10
19.57750086781481
 20
5.675841747388061
 30
0.0
 10
19.33095722556563
 20
5.541566494657724
 30
0.0
 10
19.16208102527533
 20
5.499998734241978
 30
0.0
 10
18.99997855713763
 20
5.499998734241978
 30
0.0
  0
LINE
  5
91
330
1F
100
AcDbEntity
  8
Sichtbar_(ISO)
  6
Continuous
 62
     7
100
AcDbLine
 10
18.9999785571
 20
5.4999987342
 30
0.0
 11
18.3511334427
 21
5.4999987342
 31
0.0
  0
SPLINE
  5
92
330
1F
100
AcDbEntity
  8
Sichtbar_(ISO)
  6
Continuous
 62
     7
100
AcDbSpline
210
0.0
220
0.0
230
1.0
 70
     8
 71
     3
 72
    12
 73
     8
 74
     0
 42
0.000000001
 43
0.0000000001
 40
0.0
 40
0.0
 40
0.0
 40
0.0
 40
0.0041361757534207
 40
0.0041361757534207
 40
0.7322361203677298
 40
0.7322361203677298
 40
1.0
 40
1.0
 40
1.0
 40
1.0
 10
19.99997855713764
 20
6.499998734241979
 30
0.0
 10
19.99997855713764
 20
6.499000561769832
 30
0.0
 10
19.99997706261521
 20
6.49800230813225
 30
0.0
 10
19.99944777646842
 20
6.321265539016876
 30
0.0
 10
19.95272880352825
 20
6.148134596543014
 30
0.0
 10
19.8300243784378
 20
5.938492047547208
 30
0.0
 10
19.78983476875087
 20
5.882514685139014
 30
0.0
 10
19.7416550024523
 20
5.829240914918845
 30
0.0
  0
LINE
  5
93
330
1F
100
AcDbEntity
  8
Sichtbar_(ISO)
  6
Continuous
 62
     7
100
AcDbLine
 10
19.9999785571
 20
6.4999987342
 30
0.0
 11
19.9999785571
 21
18.9999987342
 31
0.0
  0
LINE
  5
94
330
1F
100
AcDbEntity
  8
Sichtbar_(ISO)
  6
Continuous
 62
     7
100
AcDbLine
 10
19.9999785571
 20
-19.0000012658
 30
0.0
 11
19.9999785571
 21
-6.5000012658
 31
0.0
  0
SPLINE
  5
95
330
1F
100
AcDbEntity
  8
Sichtbar_(ISO)
  6
Continuous
 62
     7
100
AcDbSpline
210
0.0
220
0.0
230
1.0
 70
     8
 71
     3
 72
    12
 73
     8
 74
     0
 42
0.000000001
 43
0.0000000001
 40
0.0
 40
0.0
 40
0.0
 40
0.0
 40
0.2677638796124983
 40
0.2677638796124983
 40
0.9958638242460474
 40
0.9958638242460474
 40
1.0
 40
1.0
 40
1.0
 40
1.0
 10
19.7416550024523
 20
-5.829243446434888
 30
0.0
 10
19.78983476875087
 20
-5.882517216655061
 30
0.0
 10
19.83002437843781
 20
-5.938494579063271
 30
0.0
 10
19.9527288035373
 20
-6.148137128074543
 30
0.0
 10
19.99944777646848
 20
-6.321268070552712
 30
0.0
 10
19.99997706261521
 20
-6.49800483964828
 30
0.0
 10
19.99997855713764
 20
-6.499003093285883
 30
0.0
 10
19.99997855713764
 20
-6.50000126575802
 30
0.0
  0
LINE
  5
96
330
1F
100
AcDbEntity
  8
Sichtbar_(ISO)
  6
Continuous
 62
     7
100
AcDbLine
 10
-20.0000214429
 20
13.1556460846
 30
0.0
 11
-20.0000214429
 21
5.2923961717
 31
0.0
  0
SPLINE
  5
97
330
1F
100
AcDbEntity
  8
Sichtbar_(ISO)
  6
Continuous
 62
     7
100
AcDbSpline
210
0.0
220
0.0
230
1.0
 70
     8
 71
     3
 72
    18
 73
    14
 74
     0
 42
0.000000001
 43
0.0000000001
 40
0.0
 40
0.0
 40
0.0
 40
0.0
 40
0.0145024366821182
 40
0.0145024366821182
 40
0.2364230217438953
 40
0.2364230217438953
 40
0.4244893064322606
 40
0.4244893064322606
 40
0.6288769855358585
 40
0.6288769855358585
 40
0.9188985066507105
 40
0.9188985066507105
 40
1.0
 40
1.0
 40
1.0
 40
1.0
 10
-19.46681192765835
 20
5.747968979414567
 30
0.0
 10
-19.47070108774269
 20
5.750040682120665
 30
0.0
 10
-19.47459140049131
 20
5.752061526101929
 30
0.0
 10
-19.53802341787152
 20
5.784147409706421
 30
0.0
 10
-19.59888978486995
 20
5.802465943005701
 30
0.0
 10
-19.7090820008782
 20
5.799991257864134
 30
0.0
 10
-19.75550943388937
 20
5.784842377716969
 30
0.0
 10
-19.84320708850323
 20
5.726654921289329
 30
0.0
 10
-19.88110841350041
 20
5.682963769720366
 30
0.0
 10
-19.95330579401998
 20
5.563311555340025
 30
0.0
 10
-19.98400895878267
 20
5.474184328830254
 30
0.0
 10
-19.99845689105129
 20
5.347912462902912
 30
0.0
 10
-20.00002144286236
 20
5.320171095697654
 30
0.0
 10
-20.00002144286236
 20
5.292396171719635
 30
0.0
  0
SPLINE
  5
98
330
1F
100
AcDbEntity
  8
Sichtbar_(ISO)
  6
Continuous
 62
     7
100
AcDbSpline
210
0.0
220
0.0
230
1.0
 70
     8
 71
     3
 72
    12
 73
     8
 74
     0
 42
0.000000001
 43
0.0000000001
 40
0.0
 40
0.0
 40
0.0
 40
0.0
 40
0.2286495662170906
 40
0.2286495662170906
 40
0.5852512125376669
 40
0.5852512125376669
 40
1.0
 40
1.0
 40
1.0
 40
1.0
 10
-18.95506116442678
 20
6.1366670805449
 30
0.0
 10
-19.00240615058876
 20
6.129218411329098
 30
0.0
 10
-19.04740017595378
 20
6.112582765058689
 30
0.0
 10
-19.15591130607117
 20
6.056362774932002
 30
0.0
 10
-19.21808019317468
 20
6.007930681332779
 30
0.0
 10
-19.33719967802774
 20
5.899033117360579
 30
0.0
 10
-19.4022892197716
 20
5.828078520452332
 30
0.0
 10
-19.46681192765835
 20
5.747968979414567
 30
0.0
  0
SPLINE
  5
99
330
1F
100
AcDbEntity
  8
Sichtbar_(ISO)
  6
Continuous
 62
     7
100
AcDbSpline
210
0.0
220
0.0
230
1.0
 70
     8
 71
     3
 72
    10
 73
     6
 74
     0
 42
0.000000001
 43
0.0000000001
 40
0.0
 40
0.0
 40
0.0
 40
0.0
 40
0.6214152888010321
 40
0.6214152888010321
 40
1.0
 40
1.0
 40
1.0
 40
1.0
 10
-19.46681192765834
 20
-5.747971510930606
 30
0.0
 10
-19.35629092787877
 20
-5.885191210124199
 30
0.0
 10
-19.24168701582567
 20
-5.998878385775184
 30
0.0
 10
-19.06369288901725
 20
-6.108762126869774
 30
0.0
 10
-19.00602888004903
 20
-6.128650987806694
 30
0.0
 10
-18.95506116442678
 20
-6.136669612060936
 30
0.0
  0
SPLINE
  5
9A
330
1F
100
AcDbEntity
  8
Sichtbar_(ISO)
  6
Continuous
 62
     7
100
AcDbSpline
210
0.0
220
0.0
230
1.0
 70
     8
 71
     3
 72
    16
 73
    12
 74
     0
 42
0.000000001
 43
0.0000000001
 40
0.0
 40
0.0
 40
0.0
 40
0.0
 40
0.0624800801790165
 40
0.0624800801790165
 40
0.4014666734437575
 40
0.4014666734437575
 40
0.6249670554802363
 40
0.6249670554802363
 40
0.819640791386457
 40
0.819640791386457
 40
1.0
 40
1.0
 40
1.0
 40
1.0
 10
-20.00002144286236
 20
-5.292398703235676
 30
0.0
 10
-20.00002144286236
 20
-5.314173496511781
 30
0.0
 10
-19.99905960916331
 20
-5.335938480750198
 30
0.0
 10
-19.98659360265312
 20
-5.475409490138428
 30
0.0
 10
-19.94813143741989
 20
-5.58142554981885
 30
0.0
 10
-19.85922595086779
 20
-5.709970902374014
 30
0.0
 10
-19.81470885034462
 20
-5.752450906119526
 30
0.0
 10
-19.71499961941306
 20
-5.798870505150453
 30
0.0
 10
-19.66517770290941
 20
-5.805613262771194
 30
0.0
 10
-19.56374537144703
 20
-5.791781337568618
 30
0.0
 10
-19.51467740706157
 20
-5.773468801105809
 30
0.0
 10
-19.46681192765834
 20
-5.747971510930606
 30
0.0
  0
LINE
  5
9B
330
1F
100
AcDbEntity
  8
Sichtbar_(ISO)
  6
Continuous
 62
     7
100
AcDbLine
 10
-20.0000214429
 20
-5.2923987032
 30
0.0
 11
-20.0000214429
 21
-13.1556486161
 31
0.0
  0
ARC
  5
9C
330
1F
100
AcDbEntity
  8
Sichtbar_(ISO)
  6
Continuous
 62
     7
100
AcDbCircle
 10
18.9999785571
 20
18.9999987342
 30
0.0
 40
1.0
100
AcDbArc
 50
0.0
 51
90.0
  0
ARC
  5
9D
330
1F
100
AcDbEntity
  8
Sichtbar_(ISO)
  6
Continuous
 62
     7
100
AcDbCircle
 10
18.9999785571
 20
-19.0000012658
 30
0.0
 40
1.0
100
AcDbArc
 50
270.0
 51
0.0
  0
ARC
  5
9E
330
1F
100
AcDbEntity
  8
Sichtbar_(ISO)
  6
Continuous
 62
     7
100
AcDbCircle
 10
-18.9000214429
 20
13.1556460846
 30
0.0
 40
1.1
100
AcDbArc
 50
92.8680555556
 51
180.0
  0
ARC
  5
9F
330
1F
100
AcDbEntity
  8
Sichtbar_(ISO)
  6
Continuous
 62
     7
100
AcDbCircle
 10
-18.9000214429
 20
-13.1556486161
 30
0.0
 40
1.1
100
AcDbArc
 50
180.0
 51
267.1319444444
  0
SPLINE
  5
A0
330
1F
100
AcDbEntity
  8
Verdeckt_(ISO)
  6
HIDDEN2
 62
     7
100
AcDbSpline
210
0.0
220
0.0
230
1.0
 70
     8
 71
     3
 72
    16
 73
    12
 74
     0
 42
0.000000001
 43
0.0000000001
 40
0.0
 40
0.0
 40
0.0
 40
0.0
 40
0.2698397564294682
 40
0.2698397564294682
 40
0.5750292898065231
 40
0.5750292898065231
 40
0.7850367593530682
 40
0.7850367593530682
 40
0.9954624250140509
 40
0.9954624250140509
 40
1.0
 40
1.0
 40
1.0
 40
1.0
 10
19.49997855713764
 20
15.83221163528043
 30
0.0
 10
19.5769819597155
 20
15.77642647904615
 30
0.0
 10
19.65077872816332
 20
15.71892198933657
 30
0.0
 10
19.79140110299585
 20
15.58871585113027
 30
0.0
 10
19.85376884872293
 20
15.51716709127197
 30
0.0
 10
19.93301136915178
 20
15.3915140799558
 30
0.0
 10
19.95768086638696
 20
15.33952407315058
 30
0.0
 10
19.99103725479096
 20
15.23419441340935
 30
0.0
 10
19.99961251935551
 20
15.1811227045249
 30
0.0
 10
19.99997473422278
 20
15.12677655381326
 30
0.0
 10
19.99997855713764
 20
15.12562937666703
 30
0.0
 10
19.99997855713764
 20
15.12448219649614
 30
0.0
  0
SPLINE
  5
A1
330
1F
100
AcDbEntity
  8
Verdeckt_(ISO)
  6
HIDDEN2
 62
     7
100
AcDbSpline
210
0.0
220
0.0
230
1.0
 70
     8
 71
     3
 72
    10
 73
     6
 74
     0
 42
0.000000001
 43
0.0000000001
 40
0.0
 40
0.0
 40
0.0
 40
0.0
 40
0.6765479914077246
 40
0.6765479914077246
 40
1.0
 40
1.0
 40
1.0
 40
1.0
 10
18.99997855713764
 20
15.99999873424198
 30
0.0
 10
19.11433219777493
 20
15.99999873424198
 30
0.0
 10
19.24796885215561
 20
15.96882547665118
 30
0.0
 10
19.40093252283831
 20
15.89691147083475
 30
0.0
 10
19.45186009249449
 20
15.8670710827595
 30
0.0
 10
19.49997855713764
 20
15.83221163528043
 30
0.0
  0
SPLINE
  5
A2
330
1F
100
AcDbEntity
  8
Verdeckt_(ISO)
  6
HIDDEN2
 62
     7
100
AcDbSpline
210
0.0
220
0.0
230
1.0
 70
     8
 71
     3
 72
    12
 73
     8
 74
     0
 42
0.000000001
 43
0.0000000001
 40
0.0
 40
0.0
 40
0.0
 40
0.0
 40
0.4359388798761307
 40
0.4359388798761307
 40
0.8374323716996782
 40
0.8374323716996782
 40
1.0
 40
1.0
 40
1.0
 40
1.0
 10
18.99997855713764
 20
4.985733803613538
 30
0.0
 10
19.13990693242489
 20
4.985733803613538
 30
0.0
 10
19.26601181650746
 20
4.984878036073278
 30
0.0
 10
19.47145667686757
 20
4.965519951123916
 30
0.0
 10
19.56821624516941
 20
4.947216185086631
 30
0.0
 10
19.69182804339903
 20
4.886961583854796
 30
0.0
 10
19.72422461917343
 20
4.866410566516509
 30
0.0
 10
19.75370168053107
 20
4.8428066348686
 30
0.0
  0
LINE
  5
A3
330
1F
100
AcDbEntity
  8
Verdeckt_(ISO)
  6
HIDDEN2
 62
     7
100
AcDbLine
 10
18.9999785571
 20
4.9857338036
 30
0.0
 11
18.0615299143
 21
4.9857338036
 31
0.0
  0
SPLINE
  5
A4
330
1F
100
AcDbEntity
  8
Verdeckt_(ISO)
  6
HIDDEN2
 62
     7
100
AcDbSpline
210
0.0
220
0.0
230
1.0
 70
     8
 71
     3
 72
    12
 73
     8
 74
     0
 42
0.000000001
 43
0.0000000001
 40
0.0
 40
0.0
 40
0.0
 40
0.0
 40
0.2165717770030814
 40
0.2165717770030814
 40
0.5851696116341129
 40
0.5851696116341129
 40
1.0
 40
1.0
 40
1.0
 40
1.0
 10
19.75370168053107
 20
-4.842809166384641
 30
0.0
 10
19.71542696423592
 20
-4.873457872383939
 30
0.0
 10
19.67240393686863
 20
-4.898809322158842
 30
0.0
 10
19.541575463631
 20
-4.952835572630784
 30
0.0
 10
19.4519233043681
 20
-4.968057966106004
 30
0.0
 10
19.25654436154344
 20
-4.984877099340314
 30
0.0
 10
19.13490438031337
 20
-4.985736335129576
 30
0.0
 10
18.99997855713764
 20
-4.985736335129576
 30
0.0
  0
LINE
  5
A5
330
1F
100
AcDbEntity
  8
Verdeckt_(ISO)
  6
HIDDEN2
 62
     7
100
AcDbLine
 10
18.0615299143
 20
-4.9857363351
 30
0.0
 11
18.9999785571
 21
-4.9857363351
 31
0.0
  0
SPLINE
  5
A6
330
1F
100
AcDbEntity
  8
Sichtbar_(ISO)
  6
Continuous
 62
     7
100
AcDbSpline
210
0.0
220
0.0
230
1.0
 70
     8
 71
     3
 72
    12
 73
     8
 74
     0
 42
0.000000001
 43
0.0000000001
 40
0.0
 40
0.0
 40
0.0
 40
0.0
 40
0.4495361246694023
 40
0.4495361246694023
 40
0.8638433710670688
 40
0.8638433710670688
 40
1.0
 40
1.0
 40
1.0
 40
1.0
 10
18.99997855713763
 20
-5.978967070951508
 30
0.0
 10
19.13959815971465
 20
-5.978967070951508
 30
0.0
 10
19.26606095590253
 20
-5.976122661675673
 30
0.0
 10
19.47337851396377
 20
-5.951302922747149
 30
0.0
 10
19.57123393947721
 20
-5.929259149117679
 30
0.0
 10
19.68946625099143
 20
-5.866509038815014
 30
0.0
 10
19.71656116556263
 20
-5.848886408969865
 30
0.0
 10
19.7416550024523
 20
-5.829243446434888
 30
0.0
  0
LINE
  5
A7
330
1F
100
AcDbEntity
  8
Sichtbar_(ISO)
  6
Continuous
 62
     7
100
AcDbLine
 10
18.9999785571
 20
-5.978967071
 30
0.0
 11
18.0779939993
 21
-5.978967071
 31
0.0
  0
SPLINE
  5
A8
330
1F
100
AcDbEntity
  8
Sichtbar_(ISO)
  6
Continuous
 62
     7
100
AcDbSpline
210
0.0
220
0.0
230
1.0
 70
     8
 71
     3
 72
    10
 73
     6
 74
     0
 42
0.000000001
 43
0.0000000001
 40
0.0
 40
0.0
 40
0.0
 40
0.0
 40
0.5975243076003905
 40
0.5975243076003905
 40
1.0
 40
1.0
 40
1.0
 40
1.0
 10
18.99997855713763
 20
-5.500001265758022
 30
0.0
 10
19.16208102527533
 20
-5.500001265758022
 30
0.0
 10
19.33095722556563
 20
-5.541569026173764
 30
0.0
 10
19.57750086781481
 20
-5.6758442789041
 30
0.0
 10
19.6673466694048
 20
-5.747078561109436
 30
0.0
 10
19.74165500092383
 20
-5.829243446025246
 30
0.0
  0
LINE
  5
A9
330
1F
100
AcDbEntity
  8
Sichtbar_(ISO)
  6
Continuous
 62
     7
100
AcDbLine
 10
18.3511334427
 20
-5.5000012658
 30
0.0
 11
18.9999785571
 21
-5.5000012658
 31
0.0
  0
ELLIPSE
  5
AA
330
1F
100
AcDbEntity
  8
Sichtbar_(ISO)
  6
Continuous
 62
     7
100
AcDbEllipse
 10
13.0380069217
 20
-0.0000012658
 30
0.0
 11
-22.53408931776902
 21
-19.08923747312495
 31
0.0
210
0.0
220
0.0
230
1.0
 40
0.26478365
 41
1.567610271079716
 42
1.570151532735421
  0
ELLIPSE
  5
AB
330
1F
100
AcDbEntity
  8
Sichtbar_(ISO)
  6
Continuous
 62
     7
100
AcDbEllipse
 10
13.0380069217
 20
-0.0000012658
 30
0.0
 11
22.53408931776902
 21
-19.08923747312495
 31
0.0
210
0.0
220
0.0
230
1.0
 40
0.26478365
 41
1.571441120854369
 42
1.573982382510074
  0
LINE
  5
AC
330
1F
100
AcDbEntity
  8
Sichtbar_(ISO)
  6
Continuous
 62
     7
100
AcDbLine
 10
18.3511334427
 20
-5.5000012658
 30
0.0
 11
18.0779939993
 21
-5.978967071
 31
0.0
  0
LINE
  5
AD
330
1F
100
AcDbEntity
  8
Sichtbar_(ISO)
  6
Continuous
 62
     7
100
AcDbLine
 10
17.4799785571
 20
-5.5000012658
 30
0.0
 11
18.3511334427
 21
-5.5000012658
 31
0.0
  0
LINE
  5
AE
330
1F
100
AcDbEntity
  8
Sichtbar_(ISO)
  6
Continuous
 62
     7
100
AcDbLine
 10
17.4799785571
 20
-5.5000012658
 30
0.0
 11
16.9999785571
 21
-5.9800012658
 31
0.0
  0
LINE
  5
AF
330
1F
100
AcDbEntity
  8
Sichtbar_(ISO)
  6
Continuous
 62
     7
100
AcDbLine
 10
16.9999785571
 20
-5.981661126
 30
0.0
 11
16.9999785571
 21
-5.9800012658
 31
0.0
  0
SPLINE
  5
B0
330
1F
100
AcDbEntity
  8
Sichtbar_(ISO)
  6
Continuous
 62
     7
100
AcDbSpline
210
0.0
220
0.0
230
1.0
 70
    12
 71
     2
 72
     6
 73
     3
 74
     0
 42
0.000000001
 43
0.0000000001
 40
0.0
 40
0.0
 40
0.0
 40
1.0
 40
1.0
 40
1.0
 10
18.02070449930133
 20
-6.027448672879812
 30
0.0
 41
1.0
 10
17.48821937534049
 20
-6.005491247730701
 30
0.0
 41
1.000837443208952
 10
16.99997855713763
 20
-5.981661126000941
 30
0.0
 41
1.0
  0
LINE
  5
B1
330
1F
100
AcDbEntity
  8
Sichtbar_(ISO)
  6
Continuous
 62
     7
100
AcDbLine
 10
17.4799785571
 20
5.4999987342
 30
0.0
 11
16.9999785571
 21
5.9799987342
 31
0.0
  0
LINE
  5
B2
330
1F
100
AcDbEntity
  8
Sichtbar_(ISO)
  6
Continuous
 62
     7
100
AcDbLine
 10
16.9999785571
 20
5.9799987342
 30
0.0
 11
16.9999785571
 21
5.9816585945
 31
0.0
  0
LINE
  5
B3
330
1F
100
AcDbEntity
  8
Sichtbar_(ISO)
  6
Continuous
 62
     7
100
AcDbLine
 10
18.3511334427
 20
5.4999987342
 30
0.0
 11
17.4799785571
 21
5.4999987342
 31
0.0
  0
LINE
  5
B4
330
1F
100
AcDbEntity
  8
Sichtbar_(ISO)
  6
Continuous
 62
     7
100
AcDbLine
 10
18.0779939993
 20
5.9789645394
 30
0.0
 11
18.3511334427
 21
5.4999987342
 31
0.0
  0
SPLINE
  5
B5
330
1F
100
AcDbEntity
  8
Sichtbar_(ISO)
  6
Continuous
 62
     7
100
AcDbSpline
210
0.0
220
0.0
230
1.0
 70
    12
 71
     2
 72
     6
 73
     3
 74
     0
 42
0.000000001
 43
0.0000000001
 40
0.0
 40
0.0
 40
0.0
 40
1.0
 40
1.0
 40
1.0
 10
16.99997855713763
 20
5.9816585944849
 30
0.0
 41
1.0
 10
17.48821937534049
 20
6.005488716214662
 30
0.0
 41
1.000837443208952
 10
18.02070449930133
 20
6.027446141363774
 30
0.0
 41
1.0
  0
ELLIPSE
  5
B6
330
1F
100
AcDbEntity
  8
Verdeckt_(ISO)
  6
HIDDEN2
 62
     7
100
AcDbEllipse
 10
11.8648018409
 20
-0.0000012658
 30
0.0
 11
-22.53408931776899
 21
-19.08923747312494
 31
0.0
210
0.0
220
0.0
230
1.0
 40
0.26478365
 41
-4.663221728984746
 42
-4.661387108231035
  0
ELLIPSE
  5
B7
330
1F
100
AcDbEntity
  8
Verdeckt_(ISO)
  6
HIDDEN2
 62
     7
100
AcDbEllipse
 10
11.8648018409
 20
-0.0000012658
 30
0.0
 11
22.53408931776899
 21
-19.08923747312494
 31
0.0
210
0.0
220
0.0
230
1.0
 40
0.26478365
 41
1.519794454641242
 42
1.521629075394951
  0
LINE
  5
B8
330
1F
100
AcDbEntity
  8
Verdeckt_(ISO)
  6
HIDDEN2
 62
     7
100
AcDbLine
 10
17.4799785571
 20
-4.5000012658
 30
0.0
 11
16.9999785571
 21
-4.9800012658
 31
0.0
  0
LINE
  5
B9
330
1F
100
AcDbEntity
  8
Verdeckt_(ISO)
  6
HIDDEN2
 62
     7
100
AcDbLine
 10
18.0615299143
 20
-4.9857363351
 30
0.0
 11
18.3270525942
 21
-4.5000012658
 31
0.0
  0
SPLINE
  5
BA
330
1F
100
AcDbEntity
  8
Verdeckt_(ISO)
  6
HIDDEN2
 62
     7
100
AcDbSpline
210
0.0
220
0.0
230
1.0
 70
    12
 71
     2
 72
     6
 73
     3
 74
     0
 42
0.000000001
 43
0.0000000001
 40
0.0
 40
0.0
 40
0.0
 40
1.0
 40
1.0
 40
1.0
 10
16.99997855713765
 20
-4.989293854407018
 30
0.0
 41
1.0
 10
17.48831523364353
 20
-5.00594009103388
 30
0.0
 41
1.000859250570782
 10
18.02070449930134
 20
-5.021261949725974
 30
0.0
 41
1.0
  0
LINE
  5
BB
330
1F
100
AcDbEntity
  8
Verdeckt_(ISO)
  6
HIDDEN2
 62
     7
100
AcDbLine
 10
18.3270525942
 20
4.4999987342
 30
0.0
 11
18.0615299143
 21
4.9857338036
 31
0.0
  0
SPLINE
  5
BC
330
1F
100
AcDbEntity
  8
Verdeckt_(ISO)
  6
HIDDEN2
 62
     7
100
AcDbSpline
210
0.0
220
0.0
230
1.0
 70
    12
 71
     2
 72
     6
 73
     3
 74
     0
 42
0.000000001
 43
0.0000000001
 40
0.0
 40
0.0
 40
0.0
 40
1.0
 40
1.0
 40
1.0
 10
18.02070449930134
 20
5.021259418209933
 30
0.0
 41
1.0
 10
17.48831523364353
 20
5.005937559517841
 30
0.0
 41
1.000859250570782
 10
16.99997855713765
 20
4.989291322890977
 30
0.0
 41
1.0
  0
LINE
  5
BD
330
1F
100
AcDbEntity
  8
Verdeckt_(ISO)
  6
HIDDEN2
 62
     7
100
AcDbLine
 10
17.4799785571
 20
4.4999987342
 30
0.0
 11
16.9999785571
 21
4.9799987342
 31
0.0
  0
LINE
  5
BE
330
1F
100
AcDbEntity
  8
Verdeckt_(ISO)
  6
HIDDEN2
 62
     7
100
AcDbLine
 10
18.0207044993
 20
-5.0212619497
 30
0.0
 11
18.0207044993
 21
-6.0274486729
 31
0.0
  0
LINE
  5
BF
330
1F
100
AcDbEntity
  8
Verdeckt_(ISO)
  6
HIDDEN2
 62
     7
100
AcDbLine
 10
18.0207044993
 20
6.0274461414
 30
0.0
 11
18.0207044993
 21
5.0212594182
 31
0.0
  0
LINE
  5
C0
330
1F
100
AcDbEntity
  8
Verdeckt_(ISO)
  6
HIDDEN2
 62
     7
100
AcDbLine
 10
-19.2000214429
 20
-4.2048623769
 30
0.0
 11
-19.2000214429
 21
-10.5000012658
 31
0.0
  0
LINE
  5
C1
330
1F
100
AcDbEntity
  8
Verdeckt_(ISO)
  6
HIDDEN2
 62
     7
100
AcDbLine
 10
-19.2000214429
 20
10.4999987342
 30
0.0
 11
-19.2000214429
 21
4.2048598454
 31
0.0
  0
LINE
  5
C2
330
1F
100
AcDbEntity
  8
Verdeckt_(ISO)
  6
HIDDEN2
 62
     7
100
AcDbLine
 10
-11.9973717121
 20
10.4999987342
 30
0.0
 11
-11.9973717121
 21
-10.5000012658
 31
0.0
  0
LINE
  5
C3
330
1F
100
AcDbEntity
  8
Verdeckt_(ISO)
  6
HIDDEN2
 62
     7
100
AcDbLine
 10
13.979252615
 20
6.0274461414
 30
0.0
 11
13.979252615
 21
5.0212594182
 31
0.0
  0
LINE
  5
C4
330
1F
100
AcDbEntity
  8
Verdeckt_(ISO)
  6
HIDDEN2
 62
     7
100
AcDbLine
 10
13.979252615
 20
-5.0212619497
 30
0.0
 11
13.979252615
 21
-6.0274486729
 31
0.0
  0
LINE
  5
C5
330
1F
100
AcDbEntity
  8
Verdeckt_(ISO)
  6
HIDDEN2
 62
     7
100
AcDbLine
 10
6.1999785571
 20
10.4999987342
 30
0.0
 11
6.1999785571
 21
-10.5000012658
 31
0.0
  0
LINE
  5
C6
330
1F
100
AcDbEntity
  8
Verdeckt_(ISO)
  6
HIDDEN2
 62
     7
100
AcDbLine
 10
7.9999785571
 20
-1.0000012849
 30
0.0
 11
7.9999785571
 21
-9.9000012658
 31
0.0
  0
LINE
  5
C7
330
1F
100
AcDbEntity
  8
Verdeckt_(ISO)
  6
HIDDEN2
 62
     7
100
AcDbLine
 10
7.9999785571
 20
9.8999987342
 30
0.0
 11
7.9999785571
 21
0.9999987534
 31
0.0
  0
LINE
  5
C8
330
1F
100
AcDbEntity
  8
Verdeckt_(ISO)
  6
HIDDEN2
 62
     7
100
AcDbLine
 10
8.9999785571
 20
5.4999987342
 30
0.0
 11
8.9999785571
 21
-5.5000012658
 31
0.0
  0
LINE
  5
C9
330
1F
100
AcDbEntity
  8
Verdeckt_(ISO)
  6
HIDDEN2
 62
     7
100
AcDbLine
 10
13.9999785571
 20
6.2499987342
 30
0.0
 11
13.9999785571
 21
-6.2500012658
 31
0.0
  0
LINE
  5
CA
330
1F
100
AcDbEntity
  8
Verdeckt_(ISO)
  6
HIDDEN2
 62
     7
100
AcDbLine
 10
15.9999785571
 20
6.2499987342
 30
0.0
 11
15.9999785571
 21
-6.2500012658
 31
0.0
  0
LINE
  5
CB
330
1F
100
AcDbEntity
  8
Verdeckt_(ISO)
  6
HIDDEN2
 62
     7
100
AcDbLine
 10
20.9999785571
 20
3.4999987342
 30
0.0
 11
20.9999785571
 21
-3.5000012658
 31
0.0
  0
LINE
  5
CC
330
1F
100
AcDbEntity
  8
Verdeckt_(ISO)
  6
HIDDEN2
 62
     7
100
AcDbLine
 10
25.9999785571
 20
3.4999987342
 30
0.0
 11
25.9999785571
 21
-3.5000012658
 31
0.0
  0
ARC
  5
CD
330
1F
100
AcDbEntity
  8
Verdeckt_(ISO)
  6
HIDDEN2
 62
     7
100
AcDbCircle
 10
-4.175844715
 20
7.7499987342
 30
0.0
 40
5.0
100
AcDbArc
 50
33.3670129692
 51
90.0
  0
ARC
  5
CE
330
1F
100
AcDbEntity
  8
Verdeckt_(ISO)
  6
HIDDEN2
 62
     7
100
AcDbCircle
 10
-4.175844715
 20
-7.7500012658
 30
0.0
 40
5.0
100
AcDbArc
 50
270.0
 51
326.6329870308
  0
LINE
  5
CF
330
1F
100
AcDbEntity
  8
Verdeckt_(ISO)
  6
HIDDEN2
 62
     7
100
AcDbLine
 10
-4.175844715
 20
-12.7500012658
 30
0.0
 11
-10.4673934987
 21
-12.7500012658
 31
0.0
  0
LINE
  5
D0
330
1F
100
AcDbEntity
  8
Verdeckt_(ISO)
  6
HIDDEN2
 62
     7
100
AcDbLine
 10
-4.175844715
 20
12.7499987342
 30
0.0
 11
-10.4673934987
 21
12.7499987342
 31
0.0
  0
LINE
  5
D1
330
1F
100
AcDbEntity
  8
Verdeckt_(ISO)
  6
HIDDEN2
 62
     7
100
AcDbLine
 10
-11.9973717121
 20
-10.5000012658
 30
0.0
 11
-19.2000214429
 21
-10.5000012658
 31
0.0
  0
LINE
  5
D2
330
1F
100
AcDbEntity
  8
Verdeckt_(ISO)
  6
HIDDEN2
 62
     7
100
AcDbLine
 10
-11.9973717121
 20
10.4999987342
 30
0.0
 11
-19.2000214429
 21
10.4999987342
 31
0.0
  0
LINE
  5
D3
330
1F
100
AcDbEntity
  8
Verdeckt_(ISO)
  6
HIDDEN2
 62
     7
100
AcDbLine
 10
-19.2000214429
 20
10.4999987342
 30
0.0
 11
-20.0000214429
 21
10.9618789496
 31
0.0
  0
LINE
  5
D4
330
1F
100
AcDbEntity
  8
Verdeckt_(ISO)
  6
HIDDEN2
 62
     7
100
AcDbLine
 10
-19.2000214429
 20
-10.5000012658
 30
0.0
 11
-20.0000214429
 21
-10.9618814811
 31
0.0
  0
LINE
  5
D5
330
1F
100
AcDbEntity
  8
Verdeckt_(ISO)
  6
HIDDEN2
 62
     7
100
AcDbLine
 10
-11.9973717121
 20
10.4999987342
 30
0.0
 11
-10.8138036602
 21
12.5499987342
 31
0.0
  0
LINE
  5
D6
330
1F
100
AcDbEntity
  8
Verdeckt_(ISO)
  6
HIDDEN2
 62
     7
100
AcDbLine
 10
-11.9973717121
 20
-10.5000012658
 30
0.0
 11
-10.8138036602
 21
-12.5500012658
 31
0.0
  0
ARC
  5
D7
330
1F
100
AcDbEntity
  8
Verdeckt_(ISO)
  6
HIDDEN2
 62
     7
100
AcDbCircle
 10
-10.4673934987
 20
12.3499987342
 30
0.0
 40
0.4000000000000001
100
AcDbArc
 50
90.0
 51
150.0
  0
ARC
  5
D8
330
1F
100
AcDbEntity
  8
Verdeckt_(ISO)
  6
HIDDEN2
 62
     7
100
AcDbCircle
 10
-10.4673934987
 20
-12.3500012658
 30
0.0
 40
0.4000000000000001
100
AcDbArc
 50
210.0
 51
270.0
  0
LINE
  5
D9
330
1F
100
AcDbEntity
  8
Verdeckt_(ISO)
  6
HIDDEN2
 62
     7
100
AcDbLine
 10
6.1999785571
 20
-10.5000012658
 30
0.0
 11
-0.0000214429
 21
-10.5000012658
 31
0.0
  0
LINE
  5
DA
330
1F
100
AcDbEntity
  8
Verdeckt_(ISO)
  6
HIDDEN2
 62
     7
100
AcDbLine
 10
6.1999785571
 20
10.4999987342
 30
0.0
 11
-0.0000214429
 21
10.4999987342
 31
0.0
  0
ARC
  5
DB
330
1F
100
AcDbEntity
  8
Verdeckt_(ISO)
  6
HIDDEN2
 62
     7
100
AcDbCircle
 10
6.9999785571
 20
9.8999987342
 30
0.0
 40
0.9999999999999998
100
AcDbArc
 50
0.0
 51
143.1301023542
  0
ARC
  5
DC
330
1F
100
AcDbEntity
  8
Verdeckt_(ISO)
  6
HIDDEN2
 62
     7
100
AcDbCircle
 10
6.9999785571
 20
-9.9000012658
 30
0.0
 40
0.9999999999999998
100
AcDbArc
 50
216.8698976458
 51
360.0
  0
LINE
  5
DD
330
1F
100
AcDbEntity
  8
Verdeckt_(ISO)
  6
HIDDEN2
 62
     7
100
AcDbLine
 10
8.9999785571
 20
-5.5000012658
 30
0.0
 11
7.9999785571
 21
-6.5000012658
 31
0.0
  0
LINE
  5
DE
330
1F
100
AcDbEntity
  8
Verdeckt_(ISO)
  6
HIDDEN2
 62
     7
100
AcDbLine
 10
8.9999785571
 20
5.4999987342
 30
0.0
 11
7.9999785571
 21
6.4999987342
 31
0.0
  0
LINE
  5
DF
330
1F
100
AcDbEntity
  8
Verdeckt_(ISO)
  6
HIDDEN2
 62
     7
100
AcDbLine
 10
12.4999785571
 20
-5.5000012658
 30
0.0
 11
8.9999785571
 21
-5.5000012658
 31
0.0
  0
LINE
  5
E0
330
1F
100
AcDbEntity
  8
Verdeckt_(ISO)
  6
HIDDEN2
 62
     7
100
AcDbLine
 10
12.4999785571
 20
5.4999987342
 30
0.0
 11
8.9999785571
 21
5.4999987342
 31
0.0
  0
LINE
  5
E1
330
1F
100
AcDbEntity
  8
Verdeckt_(ISO)
  6
HIDDEN2
 62
     7
100
AcDbLine
 10
15.9999785571
 20
-6.2500012658
 30
0.0
 11
13.9999785571
 21
-6.2500012658
 31
0.0
  0
LINE
  5
E2
330
1F
100
AcDbEntity
  8
Verdeckt_(ISO)
  6
HIDDEN2
 62
     7
100
AcDbLine
 10
15.9999785571
 20
6.2499987342
 30
0.0
 11
13.9999785571
 21
6.2499987342
 31
0.0
  0
LINE
  5
E3
330
1F
100
AcDbEntity
  8
Verdeckt_(ISO)
  6
HIDDEN2
 62
     7
100
AcDbLine
 10
20.9999785571
 20
-2.5000012658
 30
0.0
 11
15.9999785571
 21
-2.5000012658
 31
0.0
  0
LINE
  5
E4
330
1F
100
AcDbEntity
  8
Verdeckt_(ISO)
  6
HIDDEN2
 62
     7
100
AcDbLine
 10
20.9999785571
 20
2.4999987342
 30
0.0
 11
15.9999785571
 21
2.4999987342
 31
0.0
  0
LINE
  5
E5
330
1F
100
AcDbEntity
  8
Verdeckt_(ISO)
  6
HIDDEN2
 62
     7
100
AcDbLine
 10
25.9999785571
 20
-3.5000012658
 30
0.0
 11
20.9999785571
 21
-3.5000012658
 31
0.0
  0
LINE
  5
E6
330
1F
100
AcDbEntity
  8
Verdeckt_(ISO)
  6
HIDDEN2
 62
     7
100
AcDbLine
 10
25.9999785571
 20
3.4999987342
 30
0.0
 11
20.9999785571
 21
3.4999987342
 31
0.0
  0
LINE
  5
E7
330
1F
100
AcDbEntity
  8
Verdeckt_(ISO)
  6
HIDDEN2
 62
     7
100
AcDbLine
 10
58.9999785571
 20
-3.0000012658
 30
0.0
 11
25.9999785571
 21
-3.0000012658
 31
0.0
  0
LINE
  5
E8
330
1F
100
AcDbEntity
  8
Verdeckt_(ISO)
  6
HIDDEN2
 62
     7
100
AcDbLine
 10
58.9999785571
 20
2.9999987342
 30
0.0
 11
44.9114163849
 21
2.9999987342
 31
0.0
  0
LINE
  5
E9
330
1F
100
AcDbEntity
  8
Verdeckt_(ISO)
  6
HIDDEN2
 62
     7
100
AcDbLine
 10
39.9114163849
 20
2.9999987342
 30
0.0
 11
25.9999785571
 21
2.9999987342
 31
0.0
  0
ARC
  5
EA
330
1F
100
AcDbEntity
  8
Verdeckt_(ISO)
  6
HIDDEN2
 62
     7
100
AcDbCircle
 10
58.9999785571
 20
3.9999987342
 30
0.0
 40
0.9999999999999933
100
AcDbArc
 50
270.0
 51
335.7048110546
  0
ARC
  5
EB
330
1F
100
AcDbEntity
  8
Verdeckt_(ISO)
  6
HIDDEN2
 62
     7
100
AcDbCircle
 10
58.9999785571
 20
-4.0000012658
 30
0.0
 40
0.9999999999999929
100
AcDbArc
 50
24.2951889454
 51
90.0
  0
LINE
  5
EC
330
1F
100
AcDbEntity
  8
Verdeckt_(ISO)
  6
HIDDEN2
 62
     7
100
AcDbLine
 10
0.1912375974
 20
-15.3851982261
 30
0.0
 11
-0.0000214429
 21
-16.2850012658
 31
0.0
  0
LINE
  5
ED
330
1F
100
AcDbEntity
  8
Verdeckt_(ISO)
  6
HIDDEN2
 62
     7
100
AcDbLine
 10
0.1912375974
 20
15.3851956946
 30
0.0
 11
-0.0000214429
 21
16.2849987342
 31
0.0
  0
ARC
  5
EE
330
1F
100
AcDbEntity
  8
Verdeckt_(ISO)
  6
HIDDEN2
 62
     7
100
AcDbCircle
 10
-0.2000214429
 20
15.3020310182
 30
0.0
 40
0.4000000000000002
100
AcDbArc
 50
0.0
 51
12.0
  0
ARC
  5
EF
330
1F
100
AcDbEntity
  8
Verdeckt_(ISO)
  6
HIDDEN2
 62
     7
100
AcDbCircle
 10
-0.2000214429
 20
15.3020310182
 30
0.0
 40
0.4000000000000002
100
AcDbArc
 50
300.0
 51
0.0
  0
ARC
  5
F0
330
1F
100
AcDbEntity
  8
Verdeckt_(ISO)
  6
HIDDEN2
 62
     7
100
AcDbCircle
 10
-0.2000214429
 20
-15.3020335498
 30
0.0
 40
0.4000000000000002
100
AcDbArc
 50
0.0
 51
60.0
  0
ARC
  5
F1
330
1F
100
AcDbEntity
  8
Verdeckt_(ISO)
  6
HIDDEN2
 62
     7
100
AcDbCircle
 10
-0.2000214429
 20
-15.3020335498
 30
0.0
 40
0.4000000000000003
100
AcDbArc
 50
348.0
 51
0.0
  0
LINE
  5
F2
330
1F
100
AcDbEntity
  8
Verdeckt_(ISO)
  6
HIDDEN2
 62
     7
100
AcDbLine
 10
0.1999785571
 20
-15.3020335498
 30
0.0
 11
0.1999785571
 21
15.3020310182
 31
0.0
  0
LINE
  5
F3
330
1F
100
AcDbEntity
  8
Sichtbar_(ISO)
  6
Continuous
 62
     7
100
AcDbLine
 10
18.0207044993
 20
-6.0274486729
 30
0.0
 11
18.0207044993
 21
-20.0000012658
 31
0.0
  0
LINE
  5
F4
330
1F
100
AcDbEntity
  8
Sichtbar_(ISO)
  6
Continuous
 62
     7
100
AcDbLine
 10
18.0207044993
 20
19.9999987342
 30
0.0
 11
18.0207044993
 21
6.0274461414
 31
0.0
  0
LINE
  5
F5
330
1F
100
AcDbEntity
  8
Sichtbar_(ISO)
  6
Continuous
 62
     7
100
AcDbLine
 10
-2.6000214429
 20
15.0736371437
 30
0.0
 11
-2.6000214429
 21
-15.0736396752
 31
0.0
  0
LINE
  5
F6
330
1F
100
AcDbEntity
  8
Sichtbar_(ISO)
  6
Continuous
 62
     7
100
AcDbLine
 10
16.9999785571
 20
-5.981661126
 30
0.0
 11
16.9999785571
 21
-18.2320520733
 31
0.0
  0
LINE
  5
F7
330
1F
100
AcDbEntity
  8
Sichtbar_(ISO)
  6
Continuous
 62
     7
100
AcDbLine
 10
16.9999785571
 20
18.2320495418
 30
0.0
 11
16.9999785571
 21
5.9816585945
 31
0.0
  0
LINE
  5
F8
330
1F
100
AcDbEntity
  8
Sichtbar_(ISO)
  6
Continuous
 62
     7
100
AcDbLine
 10
13.979252615
 20
-6.0274486729
 30
0.0
 11
13.979252615
 21
-20.0000012658
 31
0.0
  0
LINE
  5
F9
330
1F
100
AcDbEntity
  8
Sichtbar_(ISO)
  6
Continuous
 62
     7
100
AcDbLine
 10
13.979252615
 20
19.9999987342
 30
0.0
 11
13.979252615
 21
6.0274461414
 31
0.0
  0
LINE
  5
FA
330
1F
100
AcDbEntity
  8
Sichtbar_(ISO)
  6
Continuous
 62
     7
100
AcDbLine
 10
0.6999785571
 20
19.9999987342
 30
0.0
 11
0.6999785571
 21
-20.0000012658
 31
0.0
  0
LINE
  5
FB
330
1F
100
AcDbEntity
  8
Sichtbar_(ISO)
  6
Continuous
 62
     7
100
AcDbLine
 10
14.9999785571
 20
18.2320495418
 30
0.0
 11
14.9999785571
 21
5.9816585945
 31
0.0
  0
LINE
  5
FC
330
1F
100
AcDbEntity
  8
Sichtbar_(ISO)
  6
Continuous
 62
     7
100
AcDbLine
 10
14.9999785571
 20
-5.981661126
 30
0.0
 11
14.9999785571
 21
-18.2320520733
 31
0.0
  0
LINE
  5
FD
330
1F
100
AcDbEntity
  8
Sichtbar_(ISO)
  6
Continuous
 62
     7
100
AcDbLine
 10
26.4999785571
 20
12.2499987342
 30
0.0
 11
26.4999785571
 21
-12.2500012658
 31
0.0
  0
LINE
  5
FE
330
1F
100
AcDbEntity
  8
Sichtbar_(ISO)
  6
Continuous
 62
     7
100
AcDbLine
 10
26.2999785571
 20
12.0499987342
 30
0.0
 11
26.2999785571
 21
-12.0500012658
 31
0.0
  0
LINE
  5
FF
330
1F
100
AcDbEntity
  8
Sichtbar_(ISO)
  6
Continuous
 62
     7
100
AcDbLine
 10
-0.0000214429
 20
19.2999987342
 30
0.0
 11
-0.0000214429
 21
-19.3000012658
 31
0.0
  0
ARC
  5
100
330
1F
100
AcDbEntity
  8
Sichtbar_(ISO)
  6
Continuous
 62
     7
100
AcDbCircle
 10
22.9999785571
 20
15.0499987342
 30
0.0
 40
3.000000000000001
100
AcDbArc
 50
180.0
 51
270.0
  0
ARC
  5
101
330
1F
100
AcDbEntity
  8
Sichtbar_(ISO)
  6
Continuous
 62
     7
100
AcDbCircle
 10
22.9999785571
 20
-15.0500012658
 30
0.0
 40
3.000000000000001
100
AcDbArc
 50
90.0
 51
180.0
  0
LINE
  5
102
330
1F
100
AcDbEntity
  8
Sichtbar_(ISO)
  6
Continuous
 62
     7
100
AcDbLine
 10
18.9999785571
 20
-20.0000012658
 30
0.0
 11
18.0207044993
 21
-20.0000012658
 31
0.0
  0
LINE
  5
103
330
1F
100
AcDbEntity
  8
Sichtbar_(ISO)
  6
Continuous
 62
     7
100
AcDbLine
 10
18.9999785571
 20
19.9999987342
 30
0.0
 11
18.0207044993
 21
19.9999987342
 31
0.0
  0
LINE
  5
104
330
1F
100
AcDbEntity
  8
Sichtbar_(ISO)
  6
Continuous
 62
     7
100
AcDbLine
 10
-18.9550611644
 20
14.2542682349
 30
0.0
 11
-2.6000214429
 21
15.0736371437
 31
0.0
  0
LINE
  5
105
330
1F
100
AcDbEntity
  8
Sichtbar_(ISO)
  6
Continuous
 62
     7
100
AcDbLine
 10
-18.9550611644
 20
-14.2542707664
 30
0.0
 11
-2.6000214429
 21
-15.0736396752
 31
0.0
  0
ARC
  5
106
330
1F
100
AcDbEntity
  8
Sichtbar_(ISO)
  6
Continuous
 62
     7
100
AcDbCircle
 10
16.7999785571
 20
-17.6000012658
 30
0.0
 40
0.2
100
AcDbArc
 50
0.0
 51
90.0
  0
LINE
  5
107
330
1F
100
AcDbEntity
  8
Sichtbar_(ISO)
  6
Continuous
 62
     7
100
AcDbLine
 10
16.9999785571
 20
18.2320495418
 30
0.0
 11
18.0207044993
 21
19.9999987342
 31
0.0
  0
ARC
  5
108
330
1F
100
AcDbEntity
  8
Sichtbar_(ISO)
  6
Continuous
 62
     7
100
AcDbCircle
 10
15.1999785571
 20
-17.6000012658
 30
0.0
 40
0.2
100
AcDbArc
 50
90.0
 51
180.0
  0
LINE
  5
109
330
1F
100
AcDbEntity
  8
Sichtbar_(ISO)
  6
Continuous
 62
     7
100
AcDbLine
 10
16.9999785571
 20
-18.2320520733
 30
0.0
 11
18.0207044993
 21
-20.0000012658
 31
0.0
  0
LINE
  5
10A
330
1F
100
AcDbEntity
  8
Sichtbar_(ISO)
  6
Continuous
 62
     7
100
AcDbLine
 10
13.979252615
 20
-20.0000012658
 30
0.0
 11
12.8249785571
 21
-20.0000012658
 31
0.0
  0
LINE
  5
10B
330
1F
100
AcDbEntity
  8
Sichtbar_(ISO)
  6
Continuous
 62
     7
100
AcDbLine
 10
1.1749785571
 20
-20.0000012658
 30
0.0
 11
0.6999785571
 21
-20.0000012658
 31
0.0
  0
LINE
  5
10C
330
1F
100
AcDbEntity
  8
Sichtbar_(ISO)
  6
Continuous
 62
     7
100
AcDbLine
 10
13.979252615
 20
19.9999987342
 30
0.0
 11
10.8650208036
 21
19.9999987342
 31
0.0
  0
LINE
  5
10D
330
1F
100
AcDbEntity
  8
Sichtbar_(ISO)
  6
Continuous
 62
     7
100
AcDbLine
 10
3.1349363106
 20
19.9999987342
 30
0.0
 11
0.6999785571
 21
19.9999987342
 31
0.0
  0
LINE
  5
10E
330
1F
100
AcDbEntity
  8
Sichtbar_(ISO)
  6
Continuous
 62
     7
100
AcDbLine
 10
14.9999785571
 20
18.2320495418
 30
0.0
 11
13.979252615
 21
19.9999987342
 31
0.0
  0
LINE
  5
10F
330
1F
100
AcDbEntity
  8
Sichtbar_(ISO)
  6
Continuous
 62
     7
100
AcDbLine
 10
14.9999785571
 20
-18.2320520733
 30
0.0
 11
13.979252615
 21
-20.0000012658
 31
0.0
  0
ARC
  5
110
330
1F
100
AcDbEntity
  8
Sichtbar_(ISO)
  6
Continuous
 62
     7
100
AcDbCircle
 10
15.1999785571
 20
17.5999987342
 30
0.0
 40
0.2
100
AcDbArc
 50
180.0
 51
270.0
  0
LINE
  5
111
330
1F
100
AcDbEntity
  8
Sichtbar_(ISO)
  6
Continuous
 62
     7
100
AcDbLine
 10
16.7999785571
 20
-17.4000012658
 30
0.0
 11
15.1999785571
 21
-17.4000012658
 31
0.0
  0
LINE
  5
112
330
1F
100
AcDbEntity
  8
Sichtbar_(ISO)
  6
Continuous
 62
     7
100
AcDbLine
 10
16.7999785571
 20
17.3999987342
 30
0.0
 11
15.1999785571
 21
17.3999987342
 31
0.0
  0
ARC
  5
113
330
1F
100
AcDbEntity
  8
Sichtbar_(ISO)
  6
Continuous
 62
     7
100
AcDbCircle
 10
16.7999785571
 20
17.5999987342
 30
0.0
 40
0.2
100
AcDbArc
 50
270.0
 51
0.0
  0
ARC
  5
114
330
1F
100
AcDbEntity
  8
Sichtbar_(ISO)
  6
Continuous
 62
     7
100
AcDbCircle
 10
57.9999785571
 20
5.9758582126
 30
0.0
 40
1.99999999999992
100
AcDbArc
 50
24.817079357
 51
65.0
  0
ARC
  5
115
330
1F
100
AcDbEntity
  8
Sichtbar_(ISO)
  6
Continuous
 62
     7
100
AcDbCircle
 10
57.9999785571
 20
-5.9758607441
 30
0.0
 40
1.99999999999992
100
AcDbArc
 50
295.0
 51
335.182920643
  0
LINE
  5
116
330
1F
100
AcDbEntity
  8
Sichtbar_(ISO)
  6
Continuous
 62
     7
100
AcDbLine
 10
58.8452150806
 20
-7.7884763182
 30
0.0
 11
49.6792911528
 21
-12.0626168398
 31
0.0
  0
LINE
  5
117
330
1F
100
AcDbEntity
  8
Sichtbar_(ISO)
  6
Continuous
 62
     7
100
AcDbLine
 10
58.8452150806
 20
7.7884737867
 30
0.0
 11
49.6792911528
 21
12.0626143083
 31
0.0
  0
ARC
  5
118
330
1F
100
AcDbEntity
  8
Sichtbar_(ISO)
  6
Continuous
 62
     7
100
AcDbCircle
 10
48.8340546293
 20
10.2499987342
 30
0.0
 40
1.999999999999988
100
AcDbArc
 50
65.0
 51
90.0
  0
ARC
  5
119
330
1F
100
AcDbEntity
  8
Sichtbar_(ISO)
  6
Continuous
 62
     7
100
AcDbCircle
 10
48.8340546293
 20
-10.2500012658
 30
0.0
 40
1.999999999999987
100
AcDbArc
 50
270.0
 51
295.0
  0
LINE
  5
11A
330
1F
100
AcDbEntity
  8
Sichtbar_(ISO)
  6
Continuous
 62
     7
100
AcDbLine
 10
48.8340546293
 20
-12.2500012658
 30
0.0
 11
48.1731435565
 21
-12.2500012658
 31
0.0
  0
LINE
  5
11B
330
1F
100
AcDbEntity
  8
Sichtbar_(ISO)
  6
Continuous
 62
     7
100
AcDbLine
 10
36.6496892133
 20
-12.2500012658
 30
0.0
 11
26.4999785571
 21
-12.2500012658
 31
0.0
  0
LINE
  5
11C
330
1F
100
AcDbEntity
  8
Sichtbar_(ISO)
  6
Continuous
 62
     7
100
AcDbLine
 10
48.8340546293
 20
12.2499987342
 30
0.0
 11
46.4114163849
 21
12.2499987342
 31
0.0
  0
LINE
  5
11D
330
1F
100
AcDbEntity
  8
Sichtbar_(ISO)
  6
Continuous
 62
     7
100
AcDbLine
 10
38.4114163849
 20
12.2499987342
 30
0.0
 11
26.4999785571
 21
12.2499987342
 31
0.0
  0
LINE
  5
11E
330
1F
100
AcDbEntity
  8
Sichtbar_(ISO)
  6
Continuous
 62
     7
100
AcDbLine
 10
26.2999785571
 20
12.0499987342
 30
0.0
 11
26.4999785571
 21
12.2499987342
 31
0.0
  0
LINE
  5
11F
330
1F
100
AcDbEntity
  8
Sichtbar_(ISO)
  6
Continuous
 62
     7
100
AcDbLine
 10
26.2999785571
 20
-12.0500012658
 30
0.0
 11
26.4999785571
 21
-12.2500012658
 31
0.0
  0
LINE
  5
120
330
1F
100
AcDbEntity
  8
Sichtbar_(ISO)
  6
Continuous
 62
     7
100
AcDbLine
 10
26.2999785571
 20
-12.0500012658
 30
0.0
 11
22.9999785571
 21
-12.0500012658
 31
0.0
  0
LINE
  5
121
330
1F
100
AcDbEntity
  8
Sichtbar_(ISO)
  6
Continuous
 62
     7
100
AcDbLine
 10
26.2999785571
 20
12.0499987342
 30
0.0
 11
22.9999785571
 21
12.0499987342
 31
0.0
  0
LINE
  5
122
330
1F
100
AcDbEntity
  8
Sichtbar_(ISO)
  6
Continuous
 62
     7
100
AcDbLine
 10
-0.0000214429
 20
19.2999987342
 30
0.0
 11
0.6999785571
 21
19.9999987342
 31
0.0
  0
LINE
  5
123
330
1F
100
AcDbEntity
  8
Sichtbar_(ISO)
  6
Continuous
 62
     7
100
AcDbLine
 10
-0.0000214429
 20
-19.3000012658
 30
0.0
 11
0.6999785571
 21
-20.0000012658
 31
0.0
  0
ARC
  5
124
330
1F
100
AcDbEntity
  8
Sichtbar_(ISO)
  6
Continuous
 62
     7
100
AcDbCircle
 10
-0.2000214429
 20
15.3020310182
 30
0.0
 40
0.4000000000000002
100
AcDbArc
 50
270.0
 51
300.0
  0
ARC
  5
125
330
1F
100
AcDbEntity
  8
Sichtbar_(ISO)
  6
Continuous
 62
     7
100
AcDbCircle
 10
-0.2000214429
 20
-15.3020335498
 30
0.0
 40
0.4000000000000002
100
AcDbArc
 50
60.0
 51
90.0
  0
LINE
  5
126
330
1F
100
AcDbEntity
  8
Sichtbar_(ISO)
  6
Continuous
 62
     7
100
AcDbLine
 10
-0.2000214429
 20
-14.9020335498
 30
0.0
 11
-1.9069176648
 21
-14.9020335498
 31
0.0
  0
LINE
  5
127
330
1F
100
AcDbEntity
  8
Sichtbar_(ISO)
  6
Continuous
 62
     7
100
AcDbLine
 10
-0.2000214429
 20
14.9020310182
 30
0.0
 11
-1.9069176648
 21
14.9020310182
 31
0.0
  0
ARC
  5
128
330
1F
100
AcDbEntity
  8
Sichtbar_(ISO)
  6
Continuous
 62
     7
100
AcDbCircle
 10
-1.9069176648
 20
15.3020310182
 30
0.0
 40
0.4000000000000001
100
AcDbArc
 50
255.0
 51
270.0
  0
ARC
  5
129
330
1F
100
AcDbEntity
  8
Sichtbar_(ISO)
  6
Continuous
 62
     7
100
AcDbCircle
 10
-1.9069176648
 20
-15.3020335498
 30
0.0
 40
0.4000000000000001
100
AcDbArc
 50
90.0
 51
105.0
  0
LINE
  5
12A
330
1F
100
AcDbEntity
  8
Sichtbar_(ISO)
  6
Continuous
 62
     7
100
AcDbLine
 10
-2.0104452828
 20
-14.9156632192
 30
0.0
 11
-2.6000214429
 21
-15.0736396752
 31
0.0
  0
LINE
  5
12B
330
1F
100
AcDbEntity
  8
Sichtbar_(ISO)
  6
Continuous
 62
     7
100
AcDbLine
 10
-2.0104452828
 20
14.9156606877
 30
0.0
 11
-2.6000214429
 21
15.0736371437
 31
0.0
  0
ARC
  5
12C
330
1F
100
AcDbEntity
  8
Verdeckt_(ISO)
  6
HIDDEN2
 62
     7
100
AcDbCircle
 10
18.9999785571
 20
5.4999987342
 30
0.0
 40
1.0
100
AcDbArc
 50
270.0
 51
0.0
  0
ARC
  5
12D
330
1F
100
AcDbEntity
  8
Verdeckt_(ISO)
  6
HIDDEN2
 62
     7
100
AcDbCircle
 10
19.4999785571
 20
11.4999987342
 30
0.0
 40
0.5000000000000024
100
AcDbArc
 50
0.0
 51
90.0
  0
ARC
  5
12E
330
1F
100
AcDbEntity
  8
Verdeckt_(ISO)
  6
HIDDEN2
 62
     7
100
AcDbCircle
 10
18.9999785571
 20
-5.5000012658
 30
0.0
 40
1.0
100
AcDbArc
 50
0.0
 51
90.0
  0
LINE
  5
12F
330
1F
100
AcDbEntity
  8
Verdeckt_(ISO)
  6
HIDDEN2
 62
     7
100
AcDbLine
 10
18.9999785571
 20
15.9999987342
 30
0.0
 11
18.0207044993
 21
15.9999987342
 31
0.0
  0
LINE
  5
130
330
1F
100
AcDbEntity
  8
Verdeckt_(ISO)
  6
HIDDEN2
 62
     7
100
AcDbLine
 10
19.4999785571
 20
11.9999987342
 30
0.0
 11
12.4721145121
 21
11.9999987342
 31
0.0
  0
LINE
  5
131
330
1F
100
AcDbEntity
  8
Verdeckt_(ISO)
  6
HIDDEN2
 62
     7
100
AcDbLine
 10
13.979252615
 20
15.9999987342
 30
0.0
 11
7.9999785571
 21
15.9999987342
 31
0.0
  0
SPLINE
  5
132
330
1F
100
AcDbEntity
  8
Verdeckt_(ISO)
  6
HIDDEN2
 62
     7
100
AcDbSpline
210
0.0
220
0.0
230
1.0
 70
    12
 71
     2
 72
     6
 73
     3
 74
     0
 42
0.000000001
 43
0.0000000001
 40
0.0
 40
0.0
 40
0.0
 40
1.0
 40
1.0
 40
1.0
 10
14.99997855713765
 20
13.72616632209302
 30
0.0
 41
1.0
 10
14.52865458636346
 20
14.81050857396057
 30
0.0
 41
1.001773314389825
 10
13.97925261497395
 20
15.99999873424198
 30
0.0
 41
1.0
  0
SPLINE
  5
133
330
1F
100
AcDbEntity
  8
Verdeckt_(ISO)
  6
HIDDEN2
 62
     7
100
AcDbSpline
210
0.0
220
0.0
230
1.0
 70
     8
 71
     3
 72
    14
 73
    10
 74
     0
 42
0.000000001
 43
0.0000000001
 40
0.0
 40
0.0
 40
0.0
 40
0.0
 40
0.1884681587874262
 40
0.1884681587874262
 40
0.4123287851205287
 40
0.4123287851205287
 40
0.6843010521089076
 40
0.6843010521089076
 40
1.0
 40
1.0
 40
1.0
 40
1.0
 10
15.19997855713765
 20
12.59999873424198
 30
0.0
 10
15.17776548470141
 20
12.59999873424198
 30
0.0
 10
15.1519169766015
 20
12.60650874763456
 30
0.0
 10
15.10842350937378
 20
12.62818913854597
 30
0.0
 10
15.0843221906005
 20
12.64872126785417
 30
0.0
 10
15.04721611930932
 20
12.69386887662703
 30
0.0
 10
15.02934720020427
 20
12.72793251380055
 30
0.0
 10
15.00691702502287
 20
12.79346367891402
 30
0.0
 10
14.99997855713765
 20
12.83757164724191
 30
0.0
 10
14.99997855713765
 20
12.87478028578684
 30
0.0
  0
LINE
  5
134
330
1F
100
AcDbEntity
  8
Verdeckt_(ISO)
  6
HIDDEN2
 62
     7
100
AcDbLine
 10
16.7999785571
 20
12.5999987342
 30
0.0
 11
15.1999785571
 21
12.5999987342
 31
0.0
  0
SPLINE
  5
135
330
1F
100
AcDbEntity
  8
Verdeckt_(ISO)
  6
HIDDEN2
 62
     7
100
AcDbSpline
210
0.0
220
0.0
230
1.0
 70
     8
 71
     3
 72
    14
 73
    10
 74
     0
 42
0.000000001
 43
0.0000000001
 40
0.0
 40
0.0
 40
0.0
 40
0.0
 40
0.315698947891098
 40
0.315698947891098
 40
0.5876712148794713
 40
0.5876712148794713
 40
0.8115318412125763
 40
0.8115318412125763
 40
1.0
 40
1.0
 40
1.0
 40
1.0
 10
16.99997855713764
 20
12.87478028578684
 30
0.0
 10
16.99997855713764
 20
12.83757164724191
 30
0.0
 10
16.99304008925242
 20
12.79346367891402
 30
0.0
 10
16.97060991407102
 20
12.72793251380053
 30
0.0
 10
16.95274099496598
 20
12.69386887662703
 30
0.0
 10
16.91563492367479
 20
12.64872126785417
 30
0.0
 10
16.89153360490151
 20
12.62818913854597
 30
0.0
 10
16.84804013767379
 20
12.60650874763456
 30
0.0
 10
16.82219162957389
 20
12.59999873424198
 30
0.0
 10
16.79997855713765
 20
12.59999873424198
 30
0.0
  0
SPLINE
  5
136
330
1F
100
AcDbEntity
  8
Verdeckt_(ISO)
  6
HIDDEN2
 62
     7
100
AcDbSpline
210
0.0
220
0.0
230
1.0
 70
    12
 71
     2
 72
     6
 73
     3
 74
     0
 42
0.000000001
 43
0.0000000001
 40
0.0
 40
0.0
 40
0.0
 40
1.0
 40
1.0
 40
1.0
 10
17.49997855713764
 20
14.85720287818033
 30
0.0
 41
1.000886370599054
 10
17.24008612241462
 20
14.27856508423365
 30
0.0
 41
1.000902598094475
 10
16.99997855713764
 20
13.72616632209302
 30
0.0
 41
1.0
  0
SPLINE
  5
137
330
1F
100
AcDbEntity
  8
Verdeckt_(ISO)
  6
HIDDEN2
 62
     7
100
AcDbSpline
210
0.0
220
0.0
230
1.0
 70
    12
 71
     2
 72
     6
 73
     3
 74
     0
 42
0.000000001
 43
0.0000000001
 40
0.0
 40
0.0
 40
0.0
 40
1.0
 40
1.0
 40
1.0
 10
18.02070449930134
 20
15.99999873424198
 30
0.0
 41
1.0
 10
17.75069899148682
 20
15.41541966191926
 30
0.0
 41
1.000427439766272
 10
17.49997855713764
 20
14.85720287818033
 30
0.0
 41
1.0
  0
ARC
  5
138
330
1F
100
AcDbEntity
  8
Verdeckt_(ISO)
  6
HIDDEN2
 62
     7
100
AcDbCircle
 10
12.4721145121
 20
16.4999987342
 30
0.0
 40
4.500000000000001
100
AcDbArc
 50
186.3793702084
 51
270.0
  0
LINE
  5
139
330
1F
100
AcDbEntity
  8
Sichtbar_(ISO)
  6
Continuous
 62
     7
100
AcDbLine
 10
-20.0000214429
 20
-4.8250012658
 30
0.0
 11
-20.0000214429
 21
-5.2923987032
 31
0.0
  0
SPLINE
  5
13A
330
1F
100
AcDbEntity
  8
Sichtbar_(ISO)
  6
Continuous
 62
     7
100
AcDbSpline
210
0.0
220
0.0
230
1.0
 70
     8
 71
     3
 72
    14
 73
    10
 74
     0
 42
0.000000001
 43
0.0000000001
 40
0.0
 40
0.0
 40
0.0
 40
0.0
 40
0.3038676250545523
 40
0.3038676250545523
 40
0.6077352501091039
 40
0.6077352501091039
 40
0.8908858686645608
 40
0.8908858686645608
 40
1.0
 40
1.0
 40
1.0
 40
1.0
 10
-19.20002144286235
 20
-4.025001265758019
 30
0.0
 10
-19.20002144286235
 20
-4.025001265758018
 30
0.0
 10
-19.20920742586675
 20
-4.088557858452489
 30
0.0
 10
-19.24620885621723
 20
-4.339741294108311
 30
0.0
 10
-19.27409612257585
 20
-4.527362946183376
 30
0.0
 10
-19.33728599364046
 20
-4.940706719155958
 30
0.0
 10
-19.37541243697089
 20
-5.185478371282583
 30
0.0
 10
-19.43331598432356
 20
-5.544265431347358
 30
0.0
 10
-19.44996184213409
 20
-5.646175451473654
 30
0.0
 10
-19.46681192375024
 20
-5.747971508280412
 30
0.0
  0
LINE
  5
13B
330
1F
100
AcDbEntity
  8
Sichtbar_(ISO)
  6
Continuous
 62
     7
100
AcDbLine
 10
-20.0000214429
 20
-4.8250012658
 30
0.0
 11
-19.2000214429
 21
-4.0250012658
 31
0.0
  0
SPLINE
  5
13C
330
1F
100
AcDbEntity
  8
Sichtbar_(ISO)
  6
Continuous
 62
     7
100
AcDbSpline
210
0.0
220
0.0
230
1.0
 70
     8
 71
     3
 72
    18
 73
    14
 74
     0
 42
0.000000001
 43
0.0000000001
 40
0.0
 40
0.0
 40
0.0
 40
0.0
 40
0.0052750729638541
 40
0.0052750729638541
 40
0.0293888467085266
 40
0.0293888467085266
 40
0.0776163941978576
 40
0.0776163941978576
 40
0.2960436963652552
 40
0.2960436963652552
 40
0.5144709985326498
 40
0.5144709985326498
 40
1.0
 40
1.0
 40
1.0
 40
1.0
 10
-16.75726482963599
 20
-6.758503405268365
 30
0.0
 10
-16.75858999218982
 20
-6.75532693997713
 30
0.0
 10
-16.76007013657048
 20
-6.752191088593765
 30
0.0
 10
-16.76913155428183
 20
-6.734947690622737
 30
0.0
 10
-16.77947333175244
 20
-6.721602497078491
 30
0.0
 10
-16.81623037316634
 20
-6.684012747001488
 30
0.0
 10
-16.84782868341698
 20
-6.66201304528923
 30
0.0
 10
-17.01605319660753
 20
-6.561489552063497
 30
0.0
 10
-17.18419018997237
 20
-6.509223134208281
 30
0.0
 10
-17.52606702287311
 20
-6.411217130503644
 30
0.0
 10
-17.70136148716867
 20
-6.370170375457148
 30
0.0
 10
-18.21841344171505
 20
-6.258437752653972
 30
0.0
 10
-18.58366552160162
 20
-6.195100367154028
 30
0.0
 10
-18.95506116490049
 20
-6.136669611986383
 30
0.0
  0
LINE
  5
13D
330
1F
100
AcDbEntity
  8
Sichtbar_(ISO)
  6
Continuous
 62
     7
100
AcDbLine
 10
-19.2000214429
 20
-4.0250012658
 30
0.0
 11
-15.0000214429
 21
-4.0250012658
 31
0.0
  0
SPLINE
  5
13E
330
1F
100
AcDbEntity
  8
Sichtbar_(ISO)
  6
Continuous
 62
     7
100
AcDbSpline
210
0.0
220
0.0
230
1.0
 70
     8
 71
     3
 72
    18
 73
    14
 74
     0
 42
0.000000001
 43
0.0000000001
 40
0.0
 40
0.0
 40
0.0
 40
0.0
 40
0.485529001467337
 40
0.485529001467337
 40
0.7039563036347383
 40
0.7039563036347383
 40
0.9223836058021435
 40
0.9223836058021435
 40
0.9706111532914813
 40
0.9706111532914813
 40
0.9947249270361497
 40
0.9947249270361497
 40
1.0
 40
1.0
 40
1.0
 40
1.0
 10
-18.95506116490049
 20
6.136667080470355
 30
0.0
 10
-18.58366552160164
 20
6.195097835637995
 30
0.0
 10
-18.21841344171508
 20
6.258435221137934
 30
0.0
 10
-17.70136148716872
 20
6.370167843941108
 30
0.0
 10
-17.52606702287316
 20
6.411214598987602
 30
0.0
 10
-17.18419018997242
 20
6.509220602692237
 30
0.0
 10
-17.01605319660757
 20
6.561487020547456
 30
0.0
 10
-16.84782868341703
 20
6.662010513773186
 30
0.0
 10
-16.81623037316639
 20
6.684010215485449
 30
0.0
 10
-16.7794733317525
 20
6.721599965562454
 30
0.0
 10
-16.76913155428187
 20
6.734945159106699
 30
0.0
 10
-16.76007013657052
 20
6.752188557077725
 30
0.0
 10
-16.75858999218987
 20
6.755324408461092
 30
0.0
 10
-16.75726482963604
 20
6.758500873752327
 30
0.0
  0
SPLINE
  5
13F
330
1F
100
AcDbEntity
  8
Sichtbar_(ISO)
  6
Continuous
 62
     7
100
AcDbSpline
210
0.0
220
0.0
230
1.0
 70
    12
 71
     2
 72
     6
 73
     3
 74
     0
 42
0.000000001
 43
0.0000000001
 40
0.0
 40
0.0
 40
0.0
 40
1.0
 40
1.0
 40
1.0
 10
-16.75726482963606
 20
6.758500873752327
 30
0.0
 41
1.004808657661071
 10
-16.50757509773119
 20
7.357016704615711
 30
0.0
 41
1.004371292958704
 10
-15.00002144287217
 20
7.959200698724521
 30
0.0
 41
1.001738680692382
  0
SPLINE
  5
140
330
1F
100
AcDbEntity
  8
Sichtbar_(ISO)
  6
Continuous
 62
     7
100
AcDbSpline
210
0.0
220
0.0
230
1.0
 70
    12
 71
     2
 72
     6
 73
     3
 74
     0
 42
0.000000001
 43
0.0000000001
 40
0.0
 40
0.0
 40
0.0
 40
1.0
 40
1.0
 40
1.0
 10
-15.00002144285438
 20
-7.959203230247651
 30
0.0
 41
1.001738680692352
 10
-16.50757509772969
 20
-7.357019236135265
 30
0.0
 41
1.004371292958704
 10
-16.757264829636
 20
-6.758503405268368
 30
0.0
 41
1.004808657661073
  0
LINE
  5
141
330
1F
100
AcDbEntity
  8
Sichtbar_(ISO)
  6
Continuous
 62
     7
100
AcDbLine
 10
-19.2000214429
 20
4.0249987342
 30
0.0
 11
-15.0000214429
 21
4.0249987342
 31
0.0
  0
SPLINE
  5
142
330
1F
100
AcDbEntity
  8
Verdeckt_(ISO)
  6
HIDDEN2
 62
     7
100
AcDbSpline
210
0.0
220
0.0
230
1.0
 70
     8
 71
     3
 72
    18
 73
    14
 74
     0
 42
0.000000001
 43
0.0000000001
 40
0.0
 40
0.0
 40
0.0
 40
0.0
 40
0.1734017919877417
 40
0.1734017919877417
 40
0.517923706628676
 40
0.517923706628676
 40
0.7479065312252567
 40
0.7479065312252567
 40
0.8480198196604262
 40
0.8480198196604262
 40
0.9353886164666565
 40
0.9353886164666565
 40
1.0
 40
1.0
 40
1.0
 40
1.0
 10
-16.50002144286234
 20
-4.665012069872484
 30
0.0
 10
-16.50000581644863
 20
-4.840346240002511
 30
0.0
 10
-16.52527236546702
 20
-5.0240251710205
 30
0.0
 10
-16.68239592333953
 20
-5.586335473942078
 30
0.0
 10
-16.86429784275754
 20
-5.878625049113269
 30
0.0
 10
-17.07226281465752
 20
-6.164984047089755
 30
0.0
 10
-17.17111105216687
 20
-6.280724340485273
 30
0.0
 10
-17.30150765212847
 20
-6.381566739893189
 30
0.0
 10
-17.33469537470732
 20
-6.400026010089059
 30
0.0
 10
-17.38937625560758
 20
-6.421371051508476
 30
0.0
 10
-17.4155606542443
 20
-6.427271860034466
 30
0.0
 10
-17.4624944330659
 20
-6.428128235701619
 30
0.0
 10
-17.48157304862195
 20
-6.425550933362691
 30
0.0
 10
-17.5000214428612
 20
-6.420759475480819
 30
0.0
  0
SPLINE
  5
143
330
1F
100
AcDbEntity
  8
Verdeckt_(ISO)
  6
HIDDEN2
 62
     7
100
AcDbSpline
210
0.0
220
0.0
230
1.0
 70
     8
 71
     3
 72
    20
 73
    16
 74
     0
 42
0.000000001
 43
0.0000000001
 40
0.0
 40
0.0
 40
0.0
 40
0.0
 40
0.0470968622531276
 40
0.0470968622531276
 40
0.1053807494438013
 40
0.1053807494438013
 40
0.1720400418806788
 40
0.1720400418806788
 40
0.2926116044966731
 40
0.2926116044966731
 40
0.6127754035139955
 40
0.6127754035139955
 40
0.9577454196598932
 40
0.9577454196598932
 40
1.0
 40
1.0
 40
1.0
 40
1.0
 10
-17.50002144286123
 20
6.42075694396475
 30
0.0
 10
-17.48225442172923
 20
6.42537479903504
 30
0.0
 10
-17.46382060864916
 20
6.427951836041935
 30
0.0
 10
-17.42065083967939
 20
6.427585630208841
 30
0.0
 10
-17.39725332059424
 20
6.4231507137766
 30
0.0
 10
-17.34779720625844
 20
6.406112792950244
 30
0.0
 10
-17.31899341841733
 20
6.391516509649882
 30
0.0
 10
-17.22775160126483
 20
6.328263282490261
 30
0.0
 10
-17.17117098947615
 20
6.271208955031291
 30
0.0
 10
-17.01336918716284
 20
6.09620510644726
 30
0.0
 10
-16.86936287473206
 20
5.896316793114634
 30
0.0
 10
-16.61676331212376
 20
5.386998453255869
 30
0.0
 10
-16.5226005652391
 20
5.091307153078565
 30
0.0
 10
-16.50118025940463
 20
4.740499362323135
 30
0.0
 10
-16.50002612271942
 20
4.702557295927023
 30
0.0
 10
-16.50002144286234
 20
4.665009538356444
 30
0.0
  0
LINE
  5
144
330
1F
100
AcDbEntity
  8
Verdeckt_(ISO)
  6
HIDDEN2
 62
     7
100
AcDbLine
 10
-16.5000214429
 20
-3.0250012658
 30
0.0
 11
-16.5000214429
 21
-4.6650120699
 31
0.0
  0
LINE
  5
145
330
1F
100
AcDbEntity
  8
Verdeckt_(ISO)
  6
HIDDEN2
 62
     7
100
AcDbLine
 10
-16.5000214429
 20
4.6650095384
 30
0.0
 11
-16.5000214429
 21
3.0249987342
 31
0.0
  0
SPLINE
  5
146
330
1F
100
AcDbEntity
  8
Verdeckt_(ISO)
  6
HIDDEN2
 62
     7
100
AcDbSpline
210
0.0
220
0.0
230
1.0
 70
     8
 71
     3
 72
    12
 73
     8
 74
     0
 42
0.000000001
 43
0.0000000001
 40
0.0
 40
0.0
 40
0.0
 40
0.0
 40
0.0117434454633509
 40
0.0117434454633509
 40
0.9336088051805878
 40
0.9336088051805878
 40
1.0
 40
1.0
 40
1.0
 40
1.0
 10
-17.50002144286234
 20
-4.20486237686913
 30
0.0
 10
-17.49871828457107
 20
-4.204217488724296
 30
0.0
 10
-17.49741511390839
 20
-4.203572566120669
 30
0.0
 10
-17.39381406816756
 20
-4.152298199404395
 30
0.0
 10
-17.28441177441447
 20
-4.097830310998213
 30
0.0
 10
-17.17474957858023
 20
-4.033790108973884
 30
0.0
 10
-17.16735891407386
 20
-4.029427372656376
 30
0.0
 10
-17.15994942556244
 20
-4.025001878792814
 30
0.0
  0
SPLINE
  5
147
330
1F
100
AcDbEntity
  8
Verdeckt_(ISO)
  6
HIDDEN2
 62
     7
100
AcDbSpline
210
0.0
220
0.0
230
1.0
 70
     8
 71
     3
 72
    14
 73
    10
 74
     0
 42
0.000000001
 43
0.0000000001
 40
0.0
 40
0.0
 40
0.0
 40
0.0
 40
0.2158394936520594
 40
0.2158394936520594
 40
0.6618154449041044
 40
0.6618154449041044
 40
0.9957461273056676
 40
0.9957461273056676
 40
1.0
 40
1.0
 40
1.0
 40
1.0
 10
-14.12515402994711
 20
-3.509363743473828
 30
0.0
 10
-14.1672134282006
 20
-3.585372544602154
 30
0.0
 10
-14.21869069441593
 20
-3.656276825029555
 30
0.0
 10
-14.400782534185
 20
-3.857719832956478
 30
0.0
 10
-14.54549809329103
 20
-3.958310212124309
 30
0.0
 10
-14.78441177443213
 20
-4.097830311008521
 30
0.0
 10
-14.89381406324455
 20
-4.152298196961819
 30
0.0
 10
-14.99741511434437
 20
-4.203572566336763
 30
0.0
 10
-14.99871828413474
 20
-4.204217488508369
 30
0.0
 10
-15.00002144286235
 20
-4.204862376869133
 30
0.0
  0
SPLINE
  5
148
330
1F
100
AcDbEntity
  8
Verdeckt_(ISO)
  6
HIDDEN2
 62
     7
100
AcDbSpline
210
0.0
220
0.0
230
1.0
 70
     8
 71
     3
 72
    14
 73
    10
 74
     0
 42
0.000000001
 43
0.0000000001
 40
0.0
 40
0.0
 40
0.0
 40
0.0
 40
0.0042538711785868
 40
0.0042538711785868
 40
0.3381845540416264
 40
0.3381845540416264
 40
0.7841605060041642
 40
0.7841605060041642
 40
1.0
 40
1.0
 40
1.0
 40
1.0
 10
-15.00002144286235
 20
4.204859845353092
 30
0.0
 10
-14.99871828467852
 20
4.204214957261428
 30
0.0
 10
-14.9974151138013
 20
4.203570034551544
 30
0.0
 10
-14.89381406933651
 20
4.152295668468315
 30
0.0
 10
-14.78441177441046
 20
4.097827779479823
 30
0.0
 10
-14.54549809329112
 20
3.958307680608319
 30
0.0
 10
-14.40078253418505
 20
3.857717301440485
 30
0.0
 10
-14.21869069441593
 20
3.656274293513519
 30
0.0
 10
-14.1672134282006
 20
3.585370013086118
 30
0.0
 10
-14.12515402994712
 20
3.509361211957791
 30
0.0
  0
SPLINE
  5
149
330
1F
100
AcDbEntity
  8
Verdeckt_(ISO)
  6
HIDDEN2
 62
     7
100
AcDbSpline
210
0.0
220
0.0
230
1.0
 70
     8
 71
     3
 72
    12
 73
     8
 74
     0
 42
0.000000001
 43
0.0000000001
 40
0.0
 40
0.0
 40
0.0
 40
0.0
 40
0.066391194719807
 40
0.066391194719807
 40
0.988256553119875
 40
0.988256553119875
 40
1.0
 40
1.0
 40
1.0
 40
1.0
 10
-17.15994942556244
 20
4.024999347276777
 30
0.0
 10
-17.16735891407387
 20
4.029424841140339
 30
0.0
 10
-17.17474957858025
 20
4.033787577457846
 30
0.0
 10
-17.28441177442179
 20
4.097827779486445
 30
0.0
 10
-17.39381406611537
 20
4.152295666870143
 30
0.0
 10
-17.49741511409325
 20
4.203570034696259
 30
0.0
 10
-17.49871828438583
 20
4.204214957116592
 30
0.0
 10
-17.50002144286234
 20
4.204859845353092
 30
0.0
  0
SPLINE
  5
14A
330
1F
100
AcDbEntity
  8
Sichtbar_(ISO)
  6
Continuous
 62
     7
100
AcDbSpline
210
0.0
220
0.0
230
1.0
 70
     8
 71
     3
 72
    22
 73
    18
 74
     0
 42
0.000000001
 43
0.0000000001
 40
0.0
 40
0.0
 40
0.0
 40
0.0
 40
0.331893560735519
 40
0.331893560735519
 40
0.5851577764610908
 40
0.5851577764610908
 40
0.8384219921866637
 40
0.8384219921866637
 40
0.9017436646135454
 40
0.9017436646135454
 40
0.9334045008269852
 40
0.9334045008269852
 40
0.9650653370404259
 40
0.9650653370404259
 40
0.9968045896934025
 40
0.9968045896934025
 40
1.0
 40
1.0
 40
1.0
 40
1.0
 10
-14.54212365039556
 20
6.808891620349136
 30
0.0
 10
-14.54889113641189
 20
6.9612536226753
 30
0.0
 10
-14.56284267267366
 20
7.11644227451101
 30
0.0
 10
-14.60425891786553
 20
7.380579897706777
 30
0.0
 10
-14.62757331394947
 20
7.491236427577071
 30
0.0
 10
-14.69207633007001
 20
7.700107075020166
 30
0.0
 10
-14.72859229723452
 20
7.799439028072693
 30
0.0
 10
-14.81705003313645
 20
7.906295473956489
 30
0.0
 10
-14.83890582352396
 20
7.928108806141873
 30
0.0
 10
-14.87707404636045
 20
7.952237823605875
 30
0.0
 10
-14.89067782117349
 20
7.958881667652337
 30
0.0
 10
-14.91942454498268
 20
7.967868660783982
 30
0.0
 10
-14.93456164454295
 20
7.970224274858983
 30
0.0
 10
-14.96608183552741
 20
7.969353615157489
 30
0.0
 10
-14.98125904093657
 20
7.966150173795147
 30
0.0
 10
-14.99713934947069
 20
7.960328541768621
 30
0.0
 10
-14.99858424607321
 20
7.959774803042086
 30
0.0
 10
-15.00002144286407
 20
7.959200698731856
 30
0.0
  0
SPLINE
  5
14B
330
1F
100
AcDbEntity
  8
Sichtbar_(ISO)
  6
Continuous
 62
     7
100
AcDbSpline
210
0.0
220
0.0
230
1.0
 70
     8
 71
     3
 72
    14
 73
    10
 74
     0
 42
0.000000001
 43
0.0000000001
 40
0.0
 40
0.0
 40
0.0
 40
0.0
 40
0.1935957662012733
 40
0.1935957662012733
 40
0.7228996491656434
 40
0.7228996491656434
 40
0.9295213348662145
 40
0.9295213348662145
 40
1.0
 40
1.0
 40
1.0
 40
1.0
 10
-14.00085026650932
 20
4.892044651014809
 30
0.0
 10
-14.0064852630626
 20
5.091662065087005
 30
0.0
 10
-14.04005486910601
 20
5.271980152339542
 30
0.0
 10
-14.17473348109209
 20
5.8104564705483
 30
0.0
 10
-14.34409643017096
 20
6.140096496841844
 30
0.0
 10
-14.48738868939736
 20
6.518844995938019
 30
0.0
 10
-14.51723046733614
 20
6.615637021585112
 30
0.0
 10
-14.53731616891307
 20
6.744062412495085
 30
0.0
 10
-14.54065895953674
 20
6.776416057080766
 30
0.0
 10
-14.54212365039557
 20
6.808891620349136
 30
0.0
  0
SPLINE
  5
14C
330
1F
100
AcDbEntity
  8
Sichtbar_(ISO)
  6
Continuous
 62
     7
100
AcDbSpline
210
0.0
220
0.0
230
1.0
 70
     8
 71
     3
 72
    16
 73
    12
 74
     0
 42
0.000000001
 43
0.0000000001
 40
0.0
 40
0.0
 40
0.0
 40
0.0
 40
0.0024207433755519
 40
0.0024207433755519
 40
0.1472564919924457
 40
0.1472564919924457
 40
0.471870090631644
 40
0.471870090631644
 40
0.9698645756815275
 40
0.9698645756815275
 40
1.0
 40
1.0
 40
1.0
 40
1.0
 10
-14.54212365039558
 20
-6.808894151865221
 30
0.0
 10
-14.54207117321329
 20
-6.807730167149465
 30
0.0
 10
-14.54201624653889
 20
-6.806565559197952
 30
0.0
 10
-14.53852572132951
 20
-6.73568209058585
 30
0.0
 10
-14.52646300833618
 20
-6.667874719026408
 30
0.0
 10
-14.46836681153092
 20
-6.44734402000418
 30
0.0
 10
-14.39660986730799
 20
-6.28519876026089
 30
0.0
 10
-14.19977352910776
 20
-5.820618253309709
 30
0.0
 10
-14.03439703094598
 20
-5.423841579844277
 30
0.0
 10
-14.00285930269471
 20
-4.945447729011354
 30
0.0
 10
-14.00159834176251
 20
-4.918547437878702
 30
0.0
 10
-14.00085026650963
 20
-4.892047182542315
 30
0.0
  0
SPLINE
  5
14D
330
1F
100
AcDbEntity
  8
Sichtbar_(ISO)
  6
Continuous
 62
     7
100
AcDbSpline
210
0.0
220
0.0
230
1.0
 70
     8
 71
     3
 72
    22
 73
    18
 74
     0
 42
0.000000001
 43
0.0000000001
 40
0.0
 40
0.0
 40
0.0
 40
0.0
 40
0.0031954103065915
 40
0.0031954103065915
 40
0.0349346629595627
 40
0.0349346629595627
 40
0.0665954991729978
 40
0.0665954991729978
 40
0.0982563353864338
 40
0.0982563353864338
 40
0.1615780078133034
 40
0.1615780078133034
 40
0.4148422235388852
 40
0.4148422235388852
 40
0.668106439264466
 40
0.668106439264466
 40
1.0
 40
1.0
 40
1.0
 40
1.0
 10
-15.00002144286406
 20
-7.959203230247864
 30
0.0
 10
-14.99858424607322
 20
-7.959777334558125
 30
0.0
 10
-14.99713934947071
 20
-7.960331073284661
 30
0.0
 10
-14.98125904093658
 20
-7.966152705311185
 30
0.0
 10
-14.96608183552741
 20
-7.96935614667349
 30
0.0
 10
-14.93456164454296
 20
-7.970226806374983
 30
0.0
 10
-14.91942454498268
 20
-7.96787119229999
 30
0.0
 10
-14.89067782117349
 20
-7.958884199168346
 30
0.0
 10
-14.87707404636045
 20
-7.952240355121894
 30
0.0
 10
-14.83890582352397
 20
-7.928111337657893
 30
0.0
 10
-14.81705003313644
 20
-7.906298005472528
 30
0.0
 10
-14.72859229723452
 20
-7.79944155958874
 30
0.0
 10
-14.69207633007002
 20
-7.700109606536202
 30
0.0
 10
-14.62757331394948
 20
-7.491238959093111
 30
0.0
 10
-14.60425891786554
 20
-7.380582429222816
 30
0.0
 10
-14.56284267267367
 20
-7.11644480602705
 30
0.0
 10
-14.54889113641189
 20
-6.96125615419134
 30
0.0
 10
-14.54212365039557
 20
-6.808894151865174
 30
0.0
  0
SPLINE
  5
14E
330
1F
100
AcDbEntity
  8
Sichtbar_(ISO)
  6
Continuous
 62
     7
100
AcDbSpline
210
0.0
220
0.0
230
1.0
 70
     8
 71
     3
 72
    10
 73
     6
 74
     0
 42
0.000000001
 43
0.0000000001
 40
0.0
 40
0.0
 40
0.0
 40
0.0
 40
0.2105524032304308
 40
0.2105524032304308
 40
0.9999999999999999
 40
0.9999999999999999
 40
0.9999999999999999
 40
0.9999999999999999
 10
-16.62515402994718
 20
-3.509363743473965
 30
0.0
 10
-16.60782920337022
 20
-3.477890696178215
 30
0.0
 10
-16.59200171513911
 20
-3.44547271133579
 30
0.0
 10
-16.52578339100751
 20
-3.287832795043822
 30
0.0
 10
-16.50002144286234
 20
-3.152463743365247
 30
0.0
 10
-16.50002144286234
 20
-3.025001265758019
 30
0.0
  0
SPLINE
  5
14F
330
1F
100
AcDbEntity
  8
Sichtbar_(ISO)
  6
Continuous
 62
     7
100
AcDbSpline
210
0.0
220
0.0
230
1.0
 70
     8
 71
     3
 72
    10
 73
     6
 74
     0
 42
0.000000001
 43
0.0000000001
 40
0.0
 40
0.0
 40
0.0
 40
0.0
 40
0.6615696258224462
 40
0.6615696258224462
 40
1.0
 40
1.0
 40
1.0
 40
1.0
 10
-17.15994942556244
 20
-4.025001878792814
 30
0.0
 10
-17.02995460389607
 20
-3.947359368828398
 30
0.0
 10
-16.89416565966314
 20
-3.850399773428009
 30
0.0
 10
-16.71869069441592
 20
-3.656276825029555
 30
0.0
 10
-16.6672134282006
 20
-3.585372544602157
 30
0.0
 10
-16.62515402994711
 20
-3.509363743473835
 30
0.0
  0
SPLINE
  5
150
330
1F
100
AcDbEntity
  8
Sichtbar_(ISO)
  6
Continuous
 62
     7
100
AcDbSpline
210
0.0
220
0.0
230
1.0
 70
     8
 71
     3
 72
    10
 73
     6
 74
     0
 42
0.000000001
 43
0.0000000001
 40
0.0
 40
0.0
 40
0.0
 40
0.0
 40
0.338430374177535
 40
0.338430374177535
 40
1.0
 40
1.0
 40
1.0
 40
1.0
 10
-16.62515402994711
 20
3.509361211957795
 30
0.0
 10
-16.6672134282006
 20
3.585370013086117
 30
0.0
 10
-16.71869069441592
 20
3.656274293513517
 30
0.0
 10
-16.89416565966315
 20
3.850397241911983
 30
0.0
 10
-17.02995460389609
 20
3.947356837312374
 30
0.0
 10
-17.15994942556244
 20
4.024999347276777
 30
0.0
  0
SPLINE
  5
151
330
1F
100
AcDbEntity
  8
Sichtbar_(ISO)
  6
Continuous
 62
     7
100
AcDbSpline
210
0.0
220
0.0
230
1.0
 70
     8
 71
     3
 72
    10
 73
     6
 74
     0
 42
0.000000001
 43
0.0000000001
 40
0.0
 40
0.0
 40
0.0
 40
0.0
 40
0.7894475967695699
 40
0.7894475967695699
 40
1.0
 40
1.0
 40
1.0
 40
1.0
 10
-16.50002144286234
 20
3.024998734241982
 30
0.0
 10
-16.50002144286234
 20
3.152461211849209
 30
0.0
 10
-16.52578339100751
 20
3.287830263527784
 30
0.0
 10
-16.59200171513911
 20
3.445470179819752
 30
0.0
 10
-16.60782920337021
 20
3.477888164662175
 30
0.0
 10
-16.62515402994718
 20
3.509361211957925
 30
0.0
  0
ARC
  5
152
330
1F
100
AcDbEntity
  8
Sichtbar_(ISO)
  6
Continuous
 62
     7
100
AcDbCircle
 10
-17.5000214429
 20
3.0249987342
 30
0.0
 40
1.0
100
AcDbArc
 50
28.9707121259
 51
90.0
  0
ARC
  5
153
330
1F
100
AcDbEntity
  8
Sichtbar_(ISO)
  6
Continuous
 62
     7
100
AcDbCircle
 10
-17.5000214429
 20
-3.0250012658
 30
0.0
 40
1.0
100
AcDbArc
 50
270.0
 51
331.0292878741
  0
ARC
  5
154
330
1F
100
AcDbEntity
  8
Sichtbar_(ISO)
  6
Continuous
 62
     7
100
AcDbCircle
 10
-15.0000214429
 20
-3.0250012658
 30
0.0
 40
1.0
100
AcDbArc
 50
270.0
 51
0.0
  0
ARC
  5
155
330
1F
100
AcDbEntity
  8
Sichtbar_(ISO)
  6
Continuous
 62
     7
100
AcDbCircle
 10
-15.0000214429
 20
3.0249987342
 30
0.0
 40
1.0
100
AcDbArc
 50
0.0
 51
90.0
  0
SPLINE
  5
156
330
1F
100
AcDbEntity
  8
Verdeckt_(ISO)
  6
HIDDEN2
 62
     7
100
AcDbSpline
210
0.0
220
0.0
230
1.0
 70
     8
 71
     3
 72
    10
 73
     6
 74
     0
 42
0.000000001
 43
0.0000000001
 40
0.0
 40
0.0
 40
0.0
 40
0.0
 40
0.9392256912197765
 40
0.9392256912197765
 40
1.0
 40
1.0
 40
1.0
 40
1.0
 10
-16.18419910241733
 20
-3.283865542126489
 30
0.0
 10
-16.1842058025063
 20
-3.684297888187224
 30
0.0
 10
-16.31117023299524
 20
-3.997487208301225
 30
0.0
 10
-16.47909910345322
 20
-4.308876818378395
 30
0.0
 10
-16.48947844590422
 20
-4.327689237571449
 30
0.0
 10
-16.50002144286232
 20
-4.3463986333491
 30
0.0
  0
SPLINE
  5
157
330
1F
100
AcDbEntity
  8
Verdeckt_(ISO)
  6
HIDDEN2
 62
     7
100
AcDbSpline
210
0.0
220
0.0
230
1.0
 70
     8
 71
     3
 72
     8
 73
     4
 74
     0
 42
0.000000001
 43
0.0000000001
 40
0.0
 40
0.0
 40
0.0
 40
0.0
 40
1.0
 40
1.0
 40
1.0
 40
1.0
 10
-14.00002144286235
 20
-2.868095697115356
 30
0.0
 10
-13.81651599731792
 20
-2.449227828366304
 30
0.0
 10
-13.70002144286235
 20
-2.010417051814918
 30
0.0
 10
-13.70002144286235
 20
-1.562720086606057
 30
0.0
  0
SPLINE
  5
158
330
1F
100
AcDbEntity
  8
Sichtbar_(ISO)
  6
Continuous
 62
     7
100
AcDbSpline
210
0.0
220
0.0
230
1.0
 70
     8
 71
     3
 72
    10
 73
     6
 74
     0
 42
0.000000001
 43
0.0000000001
 40
0.0
 40
0.0
 40
0.0
 40
0.0
 40
0.0580034332563894
 40
0.0580034332563894
 40
1.0
 40
1.0
 40
1.0
 40
1.0
 10
-14.00085026650963
 20
-4.892047182542312
 30
0.0
 10
-13.99076495426814
 20
-4.874400459386446
 30
0.0
 10
-13.98082884647837
 20
-4.856659138274183
 30
0.0
 10
-13.81224754667738
 20
-4.549026853171549
 30
0.0
 10
-13.68420676755468
 20
-4.238382290185032
 30
0.0
 10
-13.68419910241734
 20
-3.839677739591339
 30
0.0
  0
LINE
  5
159
330
1F
100
AcDbEntity
  8
Sichtbar_(ISO)
  6
Continuous
 62
     7
100
AcDbLine
 10
-14.0000214429
 20
-4.7239260741
 30
0.0
 11
-14.0000214429
 21
-3.7561519277
 31
0.0
  0
SPLINE
  5
15A
330
1F
100
AcDbEntity
  8
Sichtbar_(ISO)
  6
Continuous
 62
     7
100
AcDbSpline
210
0.0
220
0.0
230
1.0
 70
     8
 71
     3
 72
    10
 73
     6
 74
     0
 42
0.000000001
 43
0.0000000001
 40
0.0
 40
0.0
 40
0.0
 40
0.0
 40
0.4945986426263276
 40
0.4945986426263276
 40
0.9999999999999999
 40
0.9999999999999999
 40
0.9999999999999999
 40
0.9999999999999999
 10
-14.00085026650963
 20
-4.892047182542312
 30
0.0
 10
-14.00064516991143
 20
-4.864572262913711
 30
0.0
 10
-14.00044208990568
 20
-4.836970541182758
 30
0.0
 10
-14.00012844877888
 20
-4.780791190507843
 30
0.0
 10
-14.00002144286234
 20
-4.752373529394541
 30
0.0
 10
-14.00002144286234
 20
-4.723926074110869
 30
0.0
  0
SPLINE
  5
15B
330
1F
100
AcDbEntity
  8
Sichtbar_(ISO)
  6
Continuous
 62
     7
100
AcDbSpline
210
0.0
220
0.0
230
1.0
 70
     8
 71
     3
 72
     8
 73
     4
 74
     0
 42
0.000000001
 43
0.0000000001
 40
0.0
 40
0.0
 40
0.0
 40
0.0
 40
1.0
 40
1.0
 40
1.0
 40
1.0
 10
-16.20002144286234
 20
-1.562720086607003
 30
0.0
 10
-16.20002144286234
 20
-2.01041705181585
 30
0.0
 10
-16.31651599731791
 20
-2.449227828367222
 30
0.0
 10
-16.50002144286234
 20
-2.868095697116261
 30
0.0
  0
LINE
  5
15C
330
1F
100
AcDbEntity
  8
Sichtbar_(ISO)
  6
Continuous
 62
     7
100
AcDbLine
 10
-16.5000214429
 20
-2.8680956971
 30
0.0
 11
-16.5000214429
 21
-1.6073691958
 31
0.0
  0
LINE
  5
15D
330
1F
100
AcDbEntity
  8
Verdeckt_(ISO)
  6
HIDDEN2
 62
     7
100
AcDbLine
 10
-16.1841991024
 20
3.2838344385
 30
0.0
 11
-16.1841991024
 21
-3.2838655421
 31
0.0
  0
SPLINE
  5
15E
330
1F
100
AcDbEntity
  8
Verdeckt_(ISO)
  6
HIDDEN2
 62
     7
100
AcDbSpline
210
0.0
220
0.0
230
1.0
 70
     8
 71
     3
 72
    10
 73
     6
 74
     0
 42
0.000000001
 43
0.0000000001
 40
0.0
 40
0.0
 40
0.0
 40
0.0
 40
0.0607729511871982
 40
0.0607729511871982
 40
1.0
 40
1.0
 40
1.0
 40
1.0
 10
-16.50002144286232
 20
4.34639610183306
 30
0.0
 10
-16.48947844590422
 20
4.327686706055412
 30
0.0
 10
-16.47909910345324
 20
4.308874286862358
 30
0.0
 10
-16.31116648167072
 20
3.997477720724081
 30
0.0
 10
-16.18419910241732
 20
3.684280488009168
 30
0.0
 10
-16.18419910241732
 20
3.283834438519652
 30
0.0
  0
SPLINE
  5
15F
330
1F
100
AcDbEntity
  8
Sichtbar_(ISO)
  6
Continuous
 62
     7
100
AcDbSpline
210
0.0
220
0.0
230
1.0
 70
     8
 71
     3
 72
    10
 73
     6
 74
     0
 42
0.000000001
 43
0.0000000001
 40
0.0
 40
0.0
 40
0.0
 40
0.0
 40
0.9419980397295964
 40
0.9419980397295964
 40
1.0
 40
1.0
 40
1.0
 40
1.0
 10
-13.68419910241734
 20
3.839642961852836
 30
0.0
 10
-13.68419910241734
 20
4.238363048206935
 30
0.0
 10
-13.81224326550758
 20
4.549016509246588
 30
0.0
 10
-13.98082884647662
 20
4.856656606754944
 30
0.0
 10
-13.99076495426809
 20
4.874397927861698
 30
0.0
 10
-14.00085026650774
 20
4.892044651014431
 30
0.0
  0
LINE
  5
160
330
1F
100
AcDbEntity
  8
Sichtbar_(ISO)
  6
Continuous
 62
     7
100
AcDbLine
 10
-14.0000214429
 20
3.7561178514
 30
0.0
 11
-14.0000214429
 21
4.7239235426
 31
0.0
  0
SPLINE
  5
161
330
1F
100
AcDbEntity
  8
Sichtbar_(ISO)
  6
Continuous
 62
     7
100
AcDbSpline
210
0.0
220
0.0
230
1.0
 70
     8
 71
     3
 72
     8
 73
     4
 74
     0
 42
0.000000001
 43
0.0000000001
 40
0.0
 40
0.0
 40
0.0
 40
0.0
 40
1.0
 40
1.0
 40
1.0
 40
1.0
 10
-14.00002144286234
 20
4.723923542594833
 30
0.0
 10
-14.00002144286234
 20
4.780152896295295
 30
0.0
 10
-14.00043311617512
 20
4.83616282408733
 30
0.0
 10
-14.00085026650774
 20
4.892044651014431
 30
0.0
  0
LINE
  5
162
330
1F
100
AcDbEntity
  8
Sichtbar_(ISO)
  6
Continuous
 62
     7
100
AcDbLine
 10
-13.6841991024
 20
3.8396429619
 30
0.0
 11
-13.6841991024
 21
-3.8396777396
 31
0.0
  0
LINE
  5
163
330
1F
100
AcDbEntity
  8
Sichtbar_(ISO)
  6
Continuous
 62
     7
100
AcDbLine
 10
-14.0000214429
 20
-3.7561519276
 30
0.0
 11
-14.0000214429
 21
3.7561178514
 31
0.0
  0
SPLINE
  5
164
330
1F
100
AcDbEntity
  8
Sichtbar_(ISO)
  6
Continuous
 62
     7
100
AcDbSpline
210
0.0
220
0.0
230
1.0
 70
    15
 71
     3
 72
    40
 73
    36
 74
     0
 42
0.000000001
 43
0.0000000001
 40
0.0
 40
0.0
 40
0.0
 40
0.0
 40
0.083650316944163
 40
0.083650316944163
 40
0.124067022557582
 40
0.124067022557582
 40
0.1719024563368496
 40
0.1719024563368496
 40
0.2344705513383023
 40
0.2344705513383023
 40
0.3031332927117932
 40
0.3031332927117932
 40
0.3753646919257842
 40
0.3753646919257842
 40
0.4548128613048155
 40
0.4548128613048155
 40
0.4966008450531024
 40
0.4966008450531024
 40
0.5398133131555962
 40
0.5398133131555962
 40
0.6225398879562971
 40
0.6225398879562971
 40
0.6854201552414241
 40
0.6854201552414241
 40
0.7483004225265512
 40
0.7483004225265512
 40
0.811180689811678
 40
0.811180689811678
 40
0.8526431755564119
 40
0.8526431755564119
 40
0.9181350975313399
 40
0.9181350975313399
 40
0.9685134990505153
 40
0.9685134990505153
 40
1.0
 40
1.0
 40
1.0
 40
1.0
 10
-6.01738510741832
 20
2.792578814096299
 30
0.0
 41
1.0
 10
-6.489251836315018
 20
2.788928114548633
 30
0.0
 41
1.0
 10
-7.00161574124599
 20
2.654054852515178
 30
0.0
 41
1.0
 10
-7.637198428902379
 20
2.277913278520313
 30
0.0
 41
1.0
 10
-7.825224794376816
 20
2.129801941178223
 30
0.0
 41
1.0
 10
-8.175745398139647
 20
1.778361964439809
 30
0.0
 41
1.0
 10
-8.346959441542182
 20
1.54953579840816
 30
0.0
 41
1.0
 10
-8.652876176475687
 20
0.9672737637271351
 30
0.0
 41
1.0
 10
-8.758720779589318
 20
0.5968048413568955
 30
0.0
 41
1.0
 10
-8.822973589943434
 20
-0.1587752811242367
 30
0.0
 41
1.0
 10
-8.773607226142415
 20
-0.55822370367335
 30
0.0
 41
1.0
 10
-8.488975450761693
 20
-1.349896895684072
 30
0.0
 41
1.0
 10
-8.245195125405658
 20
-1.718090883093333
 30
0.0
 41
1.0
 10
-7.628729720904406
 20
-2.315298068750955
 30
0.0
 41
1.0
 10
-7.197606808701867
 20
-2.567471845928581
 30
0.0
 41
1.0
 10
-6.499748561959608
 20
-2.758443652905778
 30
0.0
 41
1.0
 10
-6.253108771342441
 20
-2.79075761823221
 30
0.0
 41
1.0
 10
-5.773626007441603
 20
-2.794467240890664
 30
0.0
 41
1.0
 10
-5.518959075369965
 20
-2.763910462501277
 30
0.0
 41
1.0
 10
-4.797480040364062
 20
-2.571816685583402
 30
0.0
 41
1.0
 10
-4.353979925693109
 20
-2.309775584222949
 30
0.0
 41
1.0
 10
-3.777113507675248
 20
-1.738318290186839
 30
0.0
 41
1.0
 10
-3.560468252481979
 20
-1.424574812211665
 30
0.0
 41
1.0
 10
-3.272144626818758
 20
-0.7330170699978651
 30
0.0
 41
1.0
 10
-3.200647738197026
 20
-0.3551111447064529
 30
0.0
 41
1.0
 10
-3.200647738197026
 20
0.3551086131904271
 30
0.0
 41
1.0
 10
-3.272144626818759
 20
0.7330145384818221
 30
0.0
 41
1.0
 10
-3.511364990886513
 20
1.30679580418877
 30
0.0
 41
1.0
 10
-3.637155040610472
 20
1.521461677946748
 30
0.0
 41
1.0
 10
-4.016186869306447
 20
2.011391707794255
 30
0.0
 41
1.0
 10
-4.296692439075988
 20
2.25397117043886
 30
0.0
 41
1.0
 10
-4.895043876966884
 20
2.585721312874633
 30
0.0
 41
1.0
 10
-5.182569626057563
 20
2.689089784708193
 30
0.0
 41
1.0
 10
-5.656374531435852
 20
2.778336808774908
 30
0.0
 41
1.0
 10
-5.839771528053706
 20
2.793952960172166
 30
0.0
 41
1.0
 10
-6.01738510741832
 20
2.792578814096299
 30
0.0
 41
1.0
  0
SPLINE
  5
165
330
1F
100
AcDbEntity
  8
Sichtbar_(ISO)
  6
Continuous
 62
     7
100
AcDbSpline
210
0.0
220
0.0
230
1.0
 70
    15
 71
     3
 72
    40
 73
    36
 74
     0
 42
0.000000001
 43
0.0000000001
 40
0.0
 40
0.0
 40
0.0
 40
0.0
 40
0.0314865009494846
 40
0.0314865009494846
 40
0.0818649024686601
 40
0.0818649024686601
 40
0.1473568244435882
 40
0.1473568244435882
 40
0.188819310188322
 40
0.188819310188322
 40
0.2516995774734489
 40
0.2516995774734489
 40
0.3145798447585759
 40
0.3145798447585759
 40
0.3774601120437029
 40
0.3774601120437029
 40
0.4601866868444038
 40
0.4601866868444038
 40
0.5033991549468976
 40
0.5033991549468976
 40
0.5451871386951845
 40
0.5451871386951845
 40
0.6246353080742159
 40
0.6246353080742159
 40
0.6968667072882069
 40
0.6968667072882069
 40
0.7655294486616977
 40
0.7655294486616977
 40
0.8280975436631505
 40
0.8280975436631505
 40
0.875932977442418
 40
0.875932977442418
 40
0.9163496830558371
 40
0.9163496830558371
 40
1.0
 40
1.0
 40
1.0
 40
1.0
 10
-5.993085680384557
 20
2.299988276652738
 30
0.0
 41
1.0
 10
-5.842492691994408
 20
2.299534154066943
 30
0.0
 41
1.0
 10
-5.687228311559261
 20
2.284015907404015
 30
0.0
 41
1.0
 10
-5.288114102110418
 20
2.201384060195755
 30
0.0
 41
1.0
 10
-5.048107625013173
 20
2.108420258598151
 30
0.0
 41
1.0
 10
-4.556105253827301
 20
1.819113446485195
 30
0.0
 41
1.0
 10
-4.331226491510565
 20
1.612344269198303
 30
0.0
 41
1.0
 10
-4.033258308302695
 20
1.208192815889299
 30
0.0
 41
1.0
 10
-3.936147630794841
 20
1.033918930926361
 30
0.0
 41
1.0
 10
-3.753185111825716
 20
0.5748261053790542
 30
0.0
 41
1.0
 10
-3.700021442862361
 20
0.278364748241783
 30
0.0
 41
1.0
 10
-3.700021442862361
 20
-0.2783672797578331
 30
0.0
 41
1.0
 10
-3.753185111825717
 20
-0.5748286368950983
 30
0.0
 41
1.0
 10
-3.973703197880935
 20
-1.128156563192713
 30
0.0
 41
1.0
 10
-4.141770774035486
 20
-1.38541386869581
 30
0.0
 41
1.0
 10
-4.602214568834326
 20
-1.865173841560297
 30
0.0
 41
1.0
 10
-4.965753250070617
 20
-2.095577917242428
 30
0.0
 41
1.0
 10
-5.570943638788655
 20
-2.269933325482597
 30
0.0
 41
1.0
 10
-5.786409977749046
 20
-2.299367564646587
 30
0.0
 41
1.0
 10
-6.192948388582889
 20
-2.30059350667965
 30
0.0
 41
1.0
 10
-6.402490140316194
 20
-2.274326569958393
 30
0.0
 41
1.0
 10
-6.993117537358211
 20
-2.11299535913818
 30
0.0
 41
1.0
 10
-7.353738727293992
 20
-1.896466923675463
 30
0.0
 41
1.0
 10
-7.859643247503491
 20
-1.395282850684749
 30
0.0
 41
1.0
 10
-8.054767517216344
 20
-1.090882792315031
 30
0.0
 41
1.0
 10
-8.280279623627528
 20
-0.4479621329623405
 30
0.0
 41
1.0
 10
-8.318517461089465
 20
-0.1277549423027668
 30
0.0
 41
1.0
 10
-8.26812195527227
 20
0.4797948544620661
 30
0.0
 41
1.0
 10
-8.18532649219993
 20
0.7789625494954504
 30
0.0
 41
1.0
 10
-7.940683353935439
 20
1.256106543852701
 30
0.0
 41
1.0
 10
-7.802407960220769
 20
1.446075550726801
 30
0.0
 41
1.0
 10
-7.515160298099218
 20
1.740647770236941
 30
0.0
 41
1.0
 10
-7.359650133779516
 20
1.866058508274301
 30
0.0
 41
1.0
 10
-6.828701939090311
 20
2.18584630797135
 30
0.0
 41
1.0
 10
-6.393166693788197
 20
2.301194745999524
 30
0.0
 41
1.0
 10
-5.993085680384557
 20
2.299988276652738
 30
0.0
 41
1.0
  0
SPLINE
  5
166
330
1F
100
AcDbEntity
  8
Verdeckt_(ISO)
  6
HIDDEN2
 62
     7
100
AcDbSpline
210
0.0
220
0.0
230
1.0
 70
    12
 71
     3
 72
    10
 73
     6
 74
     0
 42
0.000000001
 43
0.0000000001
 40
0.0
 40
0.0
 40
0.0
 40
0.0
 40
0.5
 40
0.5
 40
1.0
 40
1.0
 40
1.0
 40
1.0
 10
-3.77869313818246
 20
-1.700023544818469
 30
0.0
 41
1.0
 10
-3.838450789813078
 20
-1.778341722613312
 30
0.0
 41
1.0
 10
-3.901770688806369
 20
-1.852556031063287
 30
0.0
 41
1.0
 10
-4.033434227404169
 20
-1.991573738610598
 30
0.0
 41
1.0
 10
-4.102082795316275
 20
-2.056910260490572
 30
0.0
 41
1.0
 10
-4.175844722590606
 20
-2.119860256523288
 30
0.0
 41
1.0
  0
SPLINE
  5
167
330
1F
100
AcDbEntity
  8
Verdeckt_(ISO)
  6
HIDDEN2
 62
     7
100
AcDbSpline
210
0.0
220
0.0
230
1.0
 70
    12
 71
     3
 72
    15
 73
    11
 74
     0
 42
0.000000001
 43
0.0000000001
 40
0.0
 40
0.0
 40
0.0
 40
0.0
 40
0.2764914248443254
 40
0.2764914248443254
 40
0.5
 40
0.5
 40
0.5
 40
0.7235085751556746
 40
0.7235085751556746
 40
1.0
 40
1.0
 40
1.0
 40
1.0
 10
-3.778693138182455
 20
1.700021013302422
 30
0.0
 41
1.0
 10
-3.575372714939353
 20
1.433549948553998
 30
0.0
 41
1.0
 10
-3.420536974813527
 20
1.13020905278508
 30
0.0
 41
1.0
 10
-3.24548455566325
 20
0.5466622199680611
 30
0.0
 41
1.0
 10
-3.205370280137291
 20
0.2736407940729222
 30
0.0
 41
1.0
 10
-3.205292453749246
 20
0.0008013120709692
 30
0.0
 41
1.0
 10
-3.205214627361201
 20
-0.2720381699309839
 30
0.0
 41
1.0
 10
-3.245091244967344
 20
-0.5447750647231873
 30
0.0
 41
1.0
 10
-3.419928582661896
 20
-1.128895152642067
 30
0.0
 41
1.0
 10
-3.575131678654726
 20
-1.433236578723861
 30
0.0
 41
1.0
 10
-3.778693138182459
 20
-1.700023544818467
 30
0.0
 41
1.0
  0
SPLINE
  5
168
330
1F
100
AcDbEntity
  8
Verdeckt_(ISO)
  6
HIDDEN2
 62
     7
100
AcDbSpline
210
0.0
220
0.0
230
1.0
 70
    12
 71
     3
 72
    12
 73
     8
 74
     0
 42
0.000000001
 43
0.0000000001
 40
0.0
 40
0.0
 40
0.0
 40
0.0
 40
0.1832068253035261
 40
0.1832068253035261
 40
0.6858487789628954
 40
0.6858487789628954
 40
1.0
 40
1.0
 40
1.0
 40
1.0
 10
-4.175844722590606
 20
2.119857725007246
 30
0.0
 41
1.0
 10
-4.14881734555546
 20
2.096791987166512
 30
0.0
 41
1.0
 10
-4.122375389692412
 20
2.073296922177368
 30
0.0
 41
1.0
 10
-4.025663667218589
 20
1.983945005129811
 30
0.0
 41
1.0
 10
-3.959444945100053
 20
1.915943941550583
 30
0.0
 41
1.0
 10
-3.85518718124406
 20
1.796819510741308
 30
0.0
 41
1.0
 10
-3.816239016659298
 20
1.749228515702101
 30
0.0
 41
1.0
 10
-3.778693138182457
 20
1.700021013302421
 30
0.0
 41
1.0
  0
SPLINE
  5
169
330
1F
100
AcDbEntity
  8
Verdeckt_(ISO)
  6
HIDDEN2
 62
     7
100
AcDbSpline
210
0.0
220
0.0
230
1.0
 70
    12
 71
     3
 72
    35
 73
    31
 74
     0
 42
0.000000001
 43
0.0000000001
 40
0.0
 40
0.0
 40
0.0
 40
0.0
 40
0.06886467196764
 40
0.06886467196764
 40
0.1550930076050814
 40
0.1550930076050814
 40
0.2413213432425231
 40
0.2413213432425231
 40
0.2982219456584275
 40
0.2982219456584275
 40
0.3879010809162589
 40
0.3879010809162589
 40
0.4568850311145911
 40
0.4568850311145911
 40
0.4999999999885487
 40
0.4999999999885487
 40
0.4999999999885487
 40
0.5431149688739575
 40
0.5431149688739575
 40
0.6120989190906116
 40
0.6120989190906116
 40
0.7017780543722622
 40
0.7017780543722622
 40
0.7586786567574766
 40
0.7586786567574766
 40
0.8449069923949183
 40
0.8449069923949183
 40
0.9311353280323599
 40
0.9311353280323599
 40
1.0
 40
1.0
 40
1.0
 40
1.0
 10
-4.175844722590606
 20
-2.119860256523288
 30
0.0
 41
1.0
 10
-4.393363960584706
 20
-2.305495796136336
 30
0.0
 41
1.0
 10
-4.649599674135922
 20
-2.464061086177697
 30
0.0
 41
1.0
 10
-5.270186499857436
 20
-2.719677543902961
 30
0.0
 41
1.0
 10
-5.646572780359583
 20
-2.789935550588492
 30
0.0
 41
1.0
 10
-6.353470105365154
 20
-2.789935550588492
 30
0.0
 41
1.0
 10
-6.729856385867272
 20
-2.719677543902967
 30
0.0
 41
1.0
 10
-7.302570363802352
 20
-2.483779661025245
 30
0.0
 41
1.0
 10
-7.517223673241701
 20
-2.359544345600931
 30
0.0
 41
1.0
 10
-8.007308272542701
 20
-1.985019137659887
 30
0.0
 41
1.0
 10
-8.250842878801537
 20
-1.70753885770558
 30
0.0
 41
1.0
 10
-8.585671498323318
 20
-1.114167073301473
 30
0.0
 41
1.0
 10
-8.69076300746993
 20
-0.8286735148175791
 30
0.0
 41
1.0
 10
-8.783125728404947
 20
-0.3582653892783022
 30
0.0
 41
1.0
 10
-8.800021442853524
 20
-0.1762102161487401
 30
0.0
 41
1.0
 10
-8.800021442862361
 20
-0.0000012658984222
 30
0.0
 41
1.0
 10
-8.800021442871197
 20
0.1762076843926001
 30
0.0
 41
1.0
 10
-8.783125728432937
 20
0.3582628575694222
 30
0.0
 41
1.0
 10
-8.690763007498742
 20
0.828670983235262
 30
0.0
 41
1.0
 10
-8.585671498326292
 20
1.114164541799356
 30
0.0
 41
1.0
 10
-8.250842878697622
 20
1.707536326348742
 30
0.0
 41
1.0
 10
-8.007308272355473
 20
1.985016606353033
 30
0.0
 41
1.0
 10
-7.517223673010489
 20
2.35954181421964
 30
0.0
 41
1.0
 10
-7.302570363679554
 20
2.483777129559785
 30
0.0
 41
1.0
 10
-6.729856385867276
 20
2.719675012386923
 30
0.0
 41
1.0
 10
-6.353470105365093
 20
2.789933019072454
 30
0.0
 41
1.0
 10
-5.646572780359591
 20
2.789933019072454
 30
0.0
 41
1.0
 10
-5.270186499857442
 20
2.719675012386921
 30
0.0
 41
1.0
 10
-4.649599674135898
 20
2.464058554661646
 30
0.0
 41
1.0
 10
-4.3933639605847
 20
2.305493264620289
 30
0.0
 41
1.0
 10
-4.175844722590606
 20
2.119857725007245
 30
0.0
 41
1.0
  0
LINE
  5
16A
330
1F
100
AcDbEntity
  8
Sichtbar_(ISO)
  6
Continuous
 62
     7
100
AcDbLine
 10
-16.5000214429
 20
-2.8680956971
 30
0.0
 11
-16.5000214429
 21
-3.0250012658
 31
0.0
  0
LINE
  5
16B
330
1F
100
AcDbEntity
  8
Sichtbar_(ISO)
  6
Continuous
 62
     7
100
AcDbLine
 10
-16.5000214429
 20
3.0249987342
 30
0.0
 11
-16.5000214429
 21
2.8680931656
 31
0.0
  0
LINE
  5
16C
330
1F
100
AcDbEntity
  8
Sichtbar_(ISO)
  6
Continuous
 62
     7
100
AcDbLine
 10
-16.5000214429
 20
1.6073666643
 30
0.0
 11
-16.5000214429
 21
-1.6073691958
 31
0.0
  0
LINE
  5
16D
330
1F
100
AcDbEntity
  8
Sichtbar_(ISO)
  6
Continuous
 62
     7
100
AcDbLine
 10
-16.2000214429
 20
-1.5627200866
 30
0.0
 11
-16.2000214429
 21
1.5627175551
 31
0.0
  0
LINE
  5
16E
330
1F
100
AcDbEntity
  8
Sichtbar_(ISO)
  6
Continuous
 62
     7
100
AcDbLine
 10
-16.5000214429
 20
1.6073666643
 30
0.0
 11
-16.5000214429
 21
2.8680931656
 31
0.0
  0
SPLINE
  5
16F
330
1F
100
AcDbEntity
  8
Sichtbar_(ISO)
  6
Continuous
 62
     7
100
AcDbSpline
210
0.0
220
0.0
230
1.0
 70
     8
 71
     3
 72
     8
 73
     4
 74
     0
 42
0.000000001
 43
0.0000000001
 40
0.0
 40
0.0
 40
0.0
 40
0.0
 40
1.0
 40
1.0
 40
1.0
 40
1.0
 10
-16.50002144286234
 20
2.86809316560022
 30
0.0
 10
-16.31651599731791
 20
2.449225296851183
 30
0.0
 10
-16.20002144286234
 20
2.01041452029981
 30
0.0
 10
-16.20002144286234
 20
1.562717555090961
 30
0.0
  0
SPLINE
  5
170
330
1F
100
AcDbEntity
  8
Verdeckt_(ISO)
  6
HIDDEN2
 62
     7
100
AcDbSpline
210
0.0
220
0.0
230
1.0
 70
     8
 71
     3
 72
     8
 73
     4
 74
     0
 42
0.000000001
 43
0.0000000001
 40
0.0
 40
0.0
 40
0.0
 40
0.0
 40
1.0
 40
1.0
 40
1.0
 40
1.0
 10
-13.70002144286235
 20
1.562717555090017
 30
0.0
 10
-13.70002144286235
 20
2.010414520298878
 30
0.0
 10
-13.81651599731792
 20
2.449225296850264
 30
0.0
 10
-14.00002144286235
 20
2.868093165599317
 30
0.0
  0
LINE
  5
171
330
1F
100
AcDbEntity
  8
Verdeckt_(ISO)
  6
HIDDEN2
 62
     7
100
AcDbLine
 10
-13.7000214429
 20
-1.5627200866
 30
0.0
 11
-13.7000214429
 21
1.5627175551
 31
0.0
  0
LINE
  5
172
330
1F
100
AcDbEntity
  8
Sichtbar_(ISO)
  6
Continuous
 62
     7
100
AcDbLine
 10
-20.0000214429
 20
5.2923961717
 30
0.0
 11
-20.0000214429
 21
4.8249987342
 31
0.0
  0
LINE
  5
173
330
1F
100
AcDbEntity
  8
Sichtbar_(ISO)
  6
Continuous
 62
     7
100
AcDbLine
 10
-20.0000214429
 20
4.8249987342
 30
0.0
 11
-19.2000214429
 21
4.0249987342
 31
0.0
  0
SPLINE
  5
174
330
1F
100
AcDbEntity
  8
Sichtbar_(ISO)
  6
Continuous
 62
     7
100
AcDbSpline
210
0.0
220
0.0
230
1.0
 70
     8
 71
     3
 72
    14
 73
    10
 74
     0
 42
0.000000001
 43
0.0000000001
 40
0.0
 40
0.0
 40
0.0
 40
0.0
 40
0.1091141313354382
 40
0.1091141313354382
 40
0.3922647498908959
 40
0.3922647498908959
 40
0.6961323749454483
 40
0.6961323749454483
 40
0.9999999999999999
 40
0.9999999999999999
 40
0.9999999999999999
 40
0.9999999999999999
 10
-19.46681192375024
 20
5.74796897676437
 30
0.0
 10
-19.44996184213409
 20
5.646172919957613
 30
0.0
 10
-19.43331598432356
 20
5.544262899831319
 30
0.0
 10
-19.37541243697091
 20
5.185475839766542
 30
0.0
 10
-19.33728599364046
 20
4.94070418763992
 30
0.0
 10
-19.27409612257585
 20
4.527360414667337
 30
0.0
 10
-19.24620885621723
 20
4.339738762592275
 30
0.0
 10
-19.20920742586675
 20
4.088555326936449
 30
0.0
 10
-19.20002144286235
 20
4.024998734241978
 30
0.0
 10
-19.20002144286235
 20
4.02499873424198
 30
0.0
  0
SPLINE
  5
175
330
1F
100
AcDbEntity
  8
Verdeckt_(ISO)
  6
HIDDEN2
 62
     7
100
AcDbSpline
210
0.0
220
0.0
230
1.0
 70
     8
 71
     3
 72
    12
 73
     8
 74
     0
 42
0.000000001
 43
0.0000000001
 40
0.0
 40
0.0
 40
0.0
 40
0.0
 40
0.3752481920258451
 40
0.3752481920258451
 40
0.6918279577720747
 40
0.6918279577720747
 40
0.9999999999999999
 40
0.9999999999999999
 40
0.9999999999999999
 40
0.9999999999999999
 10
-19.20031966737915
 20
4.195744935621855
 30
0.0
 10
-19.20229623291121
 20
4.165769540885149
 30
0.0
 10
-19.20593082497617
 20
4.13627466194873
 30
0.0
 10
-19.21048221852447
 20
4.087902604899857
 30
0.0
 10
-19.21160498518018
 20
4.06950989986354
 30
0.0
 10
-19.21019757532997
 20
4.041923706978866
 30
0.0
 10
-19.207799155016
 20
4.032776446395615
 30
0.0
 10
-19.20328956293403
 20
4.028266854313659
 30
0.0
  0
SPLINE
  5
176
330
1F
100
AcDbEntity
  8
Verdeckt_(ISO)
  6
HIDDEN2
 62
     7
100
AcDbSpline
210
0.0
220
0.0
230
1.0
 70
     8
 71
     3
 72
    12
 73
     8
 74
     0
 42
0.000000001
 43
0.0000000001
 40
0.0
 40
0.0
 40
0.0
 40
0.0
 40
0.3679548159518253
 40
0.3679548159518253
 40
0.6656783379432721
 40
0.6656783379432721
 40
1.0
 40
1.0
 40
1.0
 40
1.0
 10
-19.20328956293404
 20
-4.028269385829704
 30
0.0
 10
-19.20865693174278
 20
-4.033636754638441
 30
0.0
 10
-19.2110178440803
 20
-4.045559385990954
 30
0.0
 10
-19.21117820852277
 20
-4.0783016622528
 30
0.0
 10
-19.20974398899421
 20
-4.096693859453456
 30
0.0
 10
-19.2052046199837
 20
-4.142425238932418
 30
0.0
 10
-19.20208798569468
 20
-4.168930223455166
 30
0.0
 10
-19.20031966737916
 20
-4.195747467137907
 30
0.0
  0
ARC
  5
177
330
1F
100
AcDbEntity
  8
Verdeckt_(ISO)
  6
HIDDEN2
 62
     7
100
AcDbCircle
 10
20.3999785571
 20
3.3999987342
 30
0.0
 40
0.7483314773547936
100
AcDbArc
 50
122.3115332374
 51
180.0
  0
LINE
  5
178
330
1F
100
AcDbEntity
  8
Sichtbar_(ISO)
  6
Continuous
 62
     7
100
AcDbLine
 10
19.9999785571
 20
5.0324542663
 30
0.0
 11
19.9999785571
 21
4.3999987342
 31
0.0
  0
ARC
  5
179
330
1F
100
AcDbEntity
  8
Sichtbar_(ISO)
  6
Continuous
 62
     7
100
AcDbCircle
 10
20.3999785571
 20
4.3999987342
 30
0.0
 40
0.7483314773547952
100
AcDbArc
 50
122.3115332374
 51
180.0
  0
LINE
  5
17A
330
1F
100
AcDbEntity
  8
Sichtbar_(ISO)
  6
Continuous
 62
     7
100
AcDbLine
 10
19.9999785571
 20
6.4999987342
 30
0.0
 11
19.9999785571
 21
5.0324542663
 31
0.0
  0
LINE
  5
17B
330
1F
100
AcDbEntity
  8
Sichtbar_(ISO)
  6
Continuous
 62
     7
100
AcDbLine
 10
16.9999785571
 20
4.5563130342
 30
0.0
 11
16.9999785571
 21
5.9799987342
 31
0.0
  0
SPLINE
  5
17C
330
1F
100
AcDbEntity
  8
Sichtbar_(ISO)
  6
Continuous
 62
     7
100
AcDbSpline
210
0.0
220
0.0
230
1.0
 70
     8
 71
     3
 72
    16
 73
    12
 74
     0
 42
0.000000001
 43
0.0000000001
 40
0.0
 40
0.0
 40
0.0
 40
0.0
 40
0.0222583067542957
 40
0.0222583067542957
 40
0.0534151775390351
 40
0.0534151775390351
 40
0.1964652734750039
 40
0.1964652734750039
 40
0.5982326367375018
 40
0.5982326367375018
 40
0.9999999999999999
 40
0.9999999999999999
 40
0.9999999999999999
 40
0.9999999999999999
 10
16.79997855713764
 20
3.709446132440228
 30
0.0
 10
16.80628711065151
 20
3.709446132440228
 30
0.0
 10
16.81364002391892
 20
3.71124712294317
 30
0.0
 10
16.82741135226355
 20
3.71753562657015
 30
0.0
 10
16.83575388052791
 20
3.724069642418016
 30
0.0
 10
16.87062448211395
 20
3.759025153316535
 30
0.0
 10
16.88935920077057
 20
3.803926120476218
 30
0.0
 10
16.94236431904394
 20
3.948958398552944
 30
0.0
 10
16.96353356663498
 20
4.070958642998252
 30
0.0
 10
16.99339814099547
 20
4.31757481132872
 30
0.0
 10
16.99997855713764
 20
4.442442247026046
 30
0.0
 10
16.99997855713764
 20
4.556313034199764
 30
0.0
  0
LINE
  5
17D
330
1F
100
AcDbEntity
  8
Sichtbar_(ISO)
  6
Continuous
 62
     7
100
AcDbLine
 10
15.1999785571
 20
3.7094461324
 30
0.0
 11
16.7999785571
 21
3.7094461324
 31
0.0
  0
SPLINE
  5
17E
330
1F
100
AcDbEntity
  8
Sichtbar_(ISO)
  6
Continuous
 62
     7
100
AcDbSpline
210
0.0
220
0.0
230
1.0
 70
     8
 71
     3
 72
    16
 73
    12
 74
     0
 42
0.000000001
 43
0.0000000001
 40
0.0
 40
0.0
 40
0.0
 40
0.0
 40
0.4017673632624992
 40
0.4017673632624992
 40
0.803534726524997
 40
0.803534726524997
 40
0.9465848224609659
 40
0.9465848224609659
 40
0.9777416932457075
 40
0.9777416932457075
 40
1.0
 40
1.0
 40
1.0
 40
1.0
 10
14.99997855713763
 20
4.556313034199764
 30
0.0
 10
14.99997855713763
 20
4.442442247026046
 30
0.0
 10
15.0065589732798
 20
4.31757481132872
 30
0.0
 10
15.03642354764029
 20
4.070958642998252
 30
0.0
 10
15.05759279523133
 20
3.948958398552944
 30
0.0
 10
15.11059791350471
 20
3.803926120476218
 30
0.0
 10
15.12933263216132
 20
3.759025153316535
 30
0.0
 10
15.16420323374736
 20
3.724069642418016
 30
0.0
 10
15.17254576201171
 20
3.71753562657015
 30
0.0
 10
15.18631709035636
 20
3.71124712294317
 30
0.0
 10
15.19367000362377
 20
3.709446132440228
 30
0.0
 10
15.19997855713763
 20
3.709446132440228
 30
0.0
  0
LINE
  5
17F
330
1F
100
AcDbEntity
  8
Sichtbar_(ISO)
  6
Continuous
 62
     7
100
AcDbLine
 10
14.9999785571
 20
5.9799987342
 30
0.0
 11
14.9999785571
 21
4.5563130342
 31
0.0
  0
LINE
  5
180
330
1F
100
AcDbEntity
  8
Sichtbar_(ISO)
  6
Continuous
 62
     7
100
AcDbLine
 10
14.9999785571
 20
-4.5563155657
 30
0.0
 11
14.9999785571
 21
-5.9800012658
 31
0.0
  0
SPLINE
  5
181
330
1F
100
AcDbEntity
  8
Sichtbar_(ISO)
  6
Continuous
 62
     7
100
AcDbSpline
210
0.0
220
0.0
230
1.0
 70
     8
 71
     3
 72
    16
 73
    12
 74
     0
 42
0.000000001
 43
0.0000000001
 40
0.0
 40
0.0
 40
0.0
 40
0.0
 40
0.0222583067542934
 40
0.0222583067542934
 40
0.0534151775390341
 40
0.0534151775390341
 40
0.1964652734750026
 40
0.1964652734750026
 40
0.5982326367375007
 40
0.5982326367375007
 40
0.9999999999999999
 40
0.9999999999999999
 40
0.9999999999999999
 40
0.9999999999999999
 10
15.19997855713763
 20
-3.70944866395627
 30
0.0
 10
15.19367000362377
 20
-3.70944866395627
 30
0.0
 10
15.18631709035636
 20
-3.711249654459211
 30
0.0
 10
15.17254576201171
 20
-3.717538158086191
 30
0.0
 10
15.16420323374736
 20
-3.724072173934057
 30
0.0
 10
15.12933263216132
 20
-3.759027684832577
 30
0.0
 10
15.11059791350471
 20
-3.803928651992257
 30
0.0
 10
15.05759279523133
 20
-3.948960930068984
 30
0.0
 10
15.03642354764029
 20
-4.070961174514293
 30
0.0
 10
15.0065589732798
 20
-4.31757734284476
 30
0.0
 10
14.99997855713763
 20
-4.442444778542085
 30
0.0
 10
14.99997855713763
 20
-4.556315565715804
 30
0.0
  0
LINE
  5
182
330
1F
100
AcDbEntity
  8
Sichtbar_(ISO)
  6
Continuous
 62
     7
100
AcDbLine
 10
16.7999785571
 20
-3.709448664
 30
0.0
 11
15.1999785571
 21
-3.709448664
 31
0.0
  0
SPLINE
  5
183
330
1F
100
AcDbEntity
  8
Sichtbar_(ISO)
  6
Continuous
 62
     7
100
AcDbSpline
210
0.0
220
0.0
230
1.0
 70
     8
 71
     3
 72
    16
 73
    12
 74
     0
 42
0.000000001
 43
0.0000000001
 40
0.0
 40
0.0
 40
0.0
 40
0.0
 40
0.4017673632624978
 40
0.4017673632624978
 40
0.8035347265249957
 40
0.8035347265249957
 40
0.9465848224609659
 40
0.9465848224609659
 40
0.9777416932457053
 40
0.9777416932457053
 40
1.0
 40
1.0
 40
1.0
 40
1.0
 10
16.99997855713764
 20
-4.556315565715804
 30
0.0
 10
16.99997855713764
 20
-4.442444778542085
 30
0.0
 10
16.99339814099547
 20
-4.317577342844761
 30
0.0
 10
16.96353356663498
 20
-4.070961174514293
 30
0.0
 10
16.94236431904394
 20
-3.948960930068984
 30
0.0
 10
16.88935920077057
 20
-3.803928651992257
 30
0.0
 10
16.87062448211395
 20
-3.759027684832577
 30
0.0
 10
16.83575388052791
 20
-3.724072173934057
 30
0.0
 10
16.82741135226355
 20
-3.717538158086191
 30
0.0
 10
16.81364002391892
 20
-3.711249654459211
 30
0.0
 10
16.80628711065151
 20
-3.70944866395627
 30
0.0
 10
16.79997855713764
 20
-3.70944866395627
 30
0.0
  0
LINE
  5
184
330
1F
100
AcDbEntity
  8
Sichtbar_(ISO)
  6
Continuous
 62
     7
100
AcDbLine
 10
16.9999785571
 20
-5.9800012658
 30
0.0
 11
16.9999785571
 21
-4.5563155657
 31
0.0
  0
LINE
  5
185
330
1F
100
AcDbEntity
  8
Sichtbar_(ISO)
  6
Continuous
 62
     7
100
AcDbLine
 10
19.9999785571
 20
-5.0324567978
 30
0.0
 11
19.9999785571
 21
-6.5000012658
 31
0.0
  0
ARC
  5
186
330
1F
100
AcDbEntity
  8
Sichtbar_(ISO)
  6
Continuous
 62
     7
100
AcDbCircle
 10
20.3999785571
 20
-4.4000012658
 30
0.0
 40
0.7483314773547951
100
AcDbArc
 50
180.0
 51
237.6884667626
  0
LINE
  5
187
330
1F
100
AcDbEntity
  8
Sichtbar_(ISO)
  6
Continuous
 62
     7
100
AcDbLine
 10
19.9999785571
 20
-4.4000012658
 30
0.0
 11
19.9999785571
 21
-5.0324567978
 31
0.0
  0
LINE
  5
188
330
1F
100
AcDbEntity
  8
Sichtbar_(ISO)
  6
Continuous
 62
     7
100
AcDbLine
 10
19.6516470798
 20
-4.4000012658
 30
0.0
 11
19.6516470798
 21
4.3999987342
 31
0.0
  0
LINE
  5
189
330
1F
100
AcDbEntity
  8
Sichtbar_(ISO)
  6
Continuous
 62
     7
100
AcDbLine
 10
19.9999785571
 20
4.3999987342
 30
0.0
 11
19.9999785571
 21
-4.4000012658
 31
0.0
  0
ARC
  5
18A
330
1F
100
AcDbEntity
  8
Verdeckt_(ISO)
  6
HIDDEN2
 62
     7
100
AcDbCircle
 10
20.3999785571
 20
-3.4000012658
 30
0.0
 40
0.7483314773547934
100
AcDbArc
 50
180.0
 51
237.6884667626
  0
LINE
  5
18B
330
1F
100
AcDbEntity
  8
Verdeckt_(ISO)
  6
HIDDEN2
 62
     7
100
AcDbLine
 10
18.9999785571
 20
4.4999987342
 30
0.0
 11
17.4799785571
 21
4.4999987342
 31
0.0
  0
LINE
  5
18C
330
1F
100
AcDbEntity
  8
Verdeckt_(ISO)
  6
HIDDEN2
 62
     7
100
AcDbLine
 10
12.4999785571
 20
-4.5000012658
 30
0.0
 11
14.5199785571
 21
-4.5000012658
 31
0.0
  0
ARC
  5
18D
330
1F
100
AcDbEntity
  8
Verdeckt_(ISO)
  6
HIDDEN2
 62
     7
100
AcDbCircle
 10
12.4999785571
 20
-0.0000012658
 30
0.0
 40
4.500000000000001
100
AcDbArc
 50
90.0
 51
270.0
  0
LINE
  5
18E
330
1F
100
AcDbEntity
  8
Verdeckt_(ISO)
  6
HIDDEN2
 62
     7
100
AcDbLine
 10
14.5199785571
 20
4.4999987342
 30
0.0
 11
12.4999785571
 21
4.4999987342
 31
0.0
  0
LINE
  5
18F
330
1F
100
AcDbEntity
  8
Verdeckt_(ISO)
  6
HIDDEN2
 62
     7
100
AcDbLine
 10
17.4799785571
 20
-4.5000012658
 30
0.0
 11
18.9999785571
 21
-4.5000012658
 31
0.0
  0
LINE
  5
190
330
1F
100
AcDbEntity
  8
Verdeckt_(ISO)
  6
HIDDEN2
 62
     7
100
AcDbLine
 10
14.5199785571
 20
-4.5000012658
 30
0.0
 11
14.9999785571
 21
-4.9800012658
 31
0.0
  0
SPLINE
  5
191
330
1F
100
AcDbEntity
  8
Verdeckt_(ISO)
  6
HIDDEN2
 62
     7
100
AcDbSpline
210
0.0
220
0.0
230
1.0
 70
    12
 71
     2
 72
     6
 73
     3
 74
     0
 42
0.000000001
 43
0.0000000001
 40
0.0
 40
0.0
 40
0.0
 40
1.0
 40
1.0
 40
1.0
 10
13.97925261497396
 20
-5.021261949725974
 30
0.0
 41
1.0
 10
14.51164188063162
 20
-5.005940091033888
 30
0.0
 41
1.000859250555478
 10
14.99997855713765
 20
-4.989293854407018
 30
0.0
 41
1.0
  0
ELLIPSE
  5
192
330
1F
100
AcDbEntity
  8
Verdeckt_(ISO)
  6
HIDDEN2
 62
     7
100
AcDbEllipse
 10
20.1351552733
 20
-0.0000012658
 30
0.0
 11
22.53408931776897
 21
-19.08923747312494
 31
0.0
210
0.0
220
0.0
230
1.0
 40
0.26478365
 41
4.661387108231034
 42
4.663221728984743
  0
LINE
  5
193
330
1F
100
AcDbEntity
  8
Verdeckt_(ISO)
  6
HIDDEN2
 62
     7
100
AcDbLine
 10
13.6729045201
 20
-4.5000012658
 30
0.0
 11
13.9384271999
 21
-4.9857363351
 31
0.0
  0
LINE
  5
194
330
1F
100
AcDbEntity
  8
Sichtbar_(ISO)
  6
Continuous
 62
     7
100
AcDbLine
 10
14.5199785571
 20
-5.5000012658
 30
0.0
 11
14.9999785571
 21
-5.9800012658
 31
0.0
  0
LINE
  5
195
330
1F
100
AcDbEntity
  8
Sichtbar_(ISO)
  6
Continuous
 62
     7
100
AcDbLine
 10
14.9999785571
 20
-5.9800012658
 30
0.0
 11
14.9999785571
 21
-5.981661126
 31
0.0
  0
LINE
  5
196
330
1F
100
AcDbEntity
  8
Sichtbar_(ISO)
  6
Continuous
 62
     7
100
AcDbLine
 10
13.6488236716
 20
-5.5000012658
 30
0.0
 11
14.5199785571
 21
-5.5000012658
 31
0.0
  0
LINE
  5
197
330
1F
100
AcDbEntity
  8
Sichtbar_(ISO)
  6
Continuous
 62
     7
100
AcDbLine
 10
13.921963115
 20
-5.978967071
 30
0.0
 11
13.6488236716
 21
-5.5000012658
 31
0.0
  0
ELLIPSE
  5
198
330
1F
100
AcDbEntity
  8
Sichtbar_(ISO)
  6
Continuous
 62
     7
100
AcDbEllipse
 10
18.9619501926
 20
-0.0000012658
 30
0.0
 11
22.53408931776903
 21
-19.08923747312493
 31
0.0
210
0.0
220
0.0
230
1.0
 40
0.26478365
 41
4.713033774444161
 42
4.715575036099867
  0
SPLINE
  5
199
330
1F
100
AcDbEntity
  8
Sichtbar_(ISO)
  6
Continuous
 62
     7
100
AcDbSpline
210
0.0
220
0.0
230
1.0
 70
    12
 71
     2
 72
     6
 73
     3
 74
     0
 42
0.000000001
 43
0.0000000001
 40
0.0
 40
0.0
 40
0.0
 40
1.0
 40
1.0
 40
1.0
 10
14.99997855713763
 20
-5.981661126000941
 30
0.0
 41
1.0
 10
14.51173773893477
 20
-6.005491247730701
 30
0.0
 41
1.000837443206533
 10
13.97925261497394
 20
-6.027448672879812
 30
0.0
 41
1.0
  0
LINE
  5
19A
330
1F
100
AcDbEntity
  8
Verdeckt_(ISO)
  6
HIDDEN2
 62
     7
100
AcDbLine
 10
13.9384271999
 20
-4.9857363351
 30
0.0
 11
12.4999785571
 21
-4.9857363351
 31
0.0
  0
LINE
  5
19B
330
1F
100
AcDbEntity
  8
Verdeckt_(ISO)
  6
HIDDEN2
 62
     7
100
AcDbLine
 10
12.4999785571
 20
4.9857338036
 30
0.0
 11
13.9384271999
 21
4.9857338036
 31
0.0
  0
SPLINE
  5
19C
330
1F
100
AcDbEntity
  8
Verdeckt_(ISO)
  6
HIDDEN2
 62
     7
100
AcDbSpline
210
0.0
220
0.0
230
1.0
 70
    12
 71
     3
 72
    31
 73
    27
 74
     0
 42
0.000000001
 43
0.0000000001
 40
0.0
 40
0.0
 40
0.0
 40
0.0
 40
0.1250056678265169
 40
0.1250056678265169
 40
0.2187404813489262
 40
0.2187404813489262
 40
0.2500113356530338
 40
0.2500113356530338
 40
0.3375024701802449
 40
0.3375024701802449
 40
0.4375009500693253
 40
0.4375009500693253
 40
0.5000000000000006
 40
0.5000000000000006
 40
0.5000000000000006
 40
0.5624990499306759
 40
0.5624990499306759
 40
0.6624975298197565
 40
0.6624975298197565
 40
0.7499886643469664
 40
0.7499886643469664
 40
0.781259518651036
 40
0.781259518651036
 40
0.8749943321734837
 40
0.8749943321734837
 40
1.0
 40
1.0
 40
1.0
 40
1.0
 10
12.49997855713764
 20
-4.985736335129574
 30
0.0
 41
1.0
 10
11.8681571623675
 20
-4.985736335129574
 30
0.0
 41
1.0
 10
11.19589519560567
 20
-4.859743433780735
 30
0.0
 41
1.0
 10
10.11808029100397
 20
-4.414784086642539
 30
0.0
 41
1.0
 10
9.686637623000943
 20
-4.153468270992581
 30
0.0
 41
1.0
 10
9.190369033429183
 20
-3.745359841580052
 30
0.0
 41
1.0
 10
9.072729870467905
 20
-3.638497360402909
 30
0.0
 41
1.0
 10
8.652926102815554
 20
-3.21994656755977
 30
0.0
 41
1.0
 10
8.370730687736495
 20
-2.854821242919068
 30
0.0
 41
1.0
 10
7.883268053275719
 20
-1.990944221046339
 30
0.0
 41
1.0
 10
7.695412355215538
 20
-1.481025989516482
 30
0.0
 41
1.0
 10
7.530226416489787
 20
-0.6404591788973527
 30
0.0
 41
1.0
 10
7.49997855713765
 20
-0.3150662385728991
 30
0.0
 41
1.0
 10
7.49997855713765
 20
-0.0000012657580214
 30
0.0
 41
1.0
 10
7.49997855713765
 20
0.315063707056858
 30
0.0
 41
1.0
 10
7.530226416489787
 20
0.640456647381313
 30
0.0
 41
1.0
 10
7.695412355215538
 20
1.481023458000445
 30
0.0
 41
1.0
 10
7.883268053275719
 20
1.9909416895303
 30
0.0
 41
1.0
 10
8.370730687736495
 20
2.854818711403029
 30
0.0
 41
1.0
 10
8.652926102815565
 20
3.219944036043735
 30
0.0
 41
1.0
 10
9.072729870467775
 20
3.63849482888674
 30
0.0
 41
1.0
 10
9.190369033428905
 20
3.745357310063755
 30
0.0
 41
1.0
 10
9.686637623000605
 20
4.153465739476329
 30
0.0
 41
1.0
 10
10.11808029100381
 20
4.414781555126427
 30
0.0
 41
1.0
 10
11.19589519560566
 20
4.85974090226469
 30
0.0
 41
1.0
 10
11.86815716236754
 20
4.985733803613538
 30
0.0
 41
1.0
 10
12.49997855713764
 20
4.985733803613538
 30
0.0
 41
1.0
  0
LINE
  5
19D
330
1F
100
AcDbEntity
  8
Sichtbar_(ISO)
  6
Continuous
 62
     7
100
AcDbLine
 10
12.4999785571
 20
5.4999987342
 30
0.0
 11
13.6488236716
 21
5.4999987342
 31
0.0
  0
LINE
  5
19E
330
1F
100
AcDbEntity
  8
Sichtbar_(ISO)
  6
Continuous
 62
     7
100
AcDbLine
 10
13.6488236716
 20
-5.5000012658
 30
0.0
 11
12.4999785571
 21
-5.5000012658
 31
0.0
  0
LINE
  5
19F
330
1F
100
AcDbEntity
  8
Sichtbar_(ISO)
  6
Continuous
 62
     7
100
AcDbLine
 10
12.4999785571
 20
-5.978967071
 30
0.0
 11
13.921963115
 21
-5.978967071
 31
0.0
  0
SPLINE
  5
1A0
330
1F
100
AcDbEntity
  8
Sichtbar_(ISO)
  6
Continuous
 62
     7
100
AcDbSpline
210
0.0
220
0.0
230
1.0
 70
    12
 71
     3
 72
    19
 73
    15
 74
     0
 42
0.000000001
 43
0.0000000001
 40
0.0
 40
0.0
 40
0.0
 40
0.0
 40
0.1727282203489348
 40
0.1727282203489348
 40
0.3729658957072459
 40
0.3729658957072459
 40
0.4981144428061889
 40
0.4981144428061889
 40
0.4981144428061889
 40
0.7002399539944945
 40
0.7002399539944945
 40
0.9022007101666283
 40
0.9022007101666283
 40
1.0
 40
1.0
 40
1.0
 40
1.0
 10
7.500059702051098
 20
-1.028483340149023
 30
0.0
 41
1.0
 10
7.502539824967162
 20
-1.463741560385311
 30
0.0
 41
1.0
 10
7.563649365735237
 20
-1.916852274721489
 30
0.0
 41
1.0
 10
7.831136464330791
 20
-2.864434002472104
 30
0.0
 41
1.0
 10
8.059009404810613
 20
-3.353085864394382
 30
0.0
 41
1.0
 10
8.532474367519862
 20
-4.054534540961865
 30
0.0
 41
1.0
 10
8.738668692962756
 20
-4.301942439528897
 30
0.0
 41
1.0
 10
8.958479070928444
 20
-4.521152631857189
 30
0.0
 41
1.0
 10
9.313491462528033
 20
-4.875195672780485
 30
0.0
 41
1.0
 10
9.743729828290416
 20
-5.192884465314229
 30
0.0
 41
1.0
 10
10.69792036655991
 20
-5.677012768521599
 30
0.0
 41
1.0
 10
11.22113924746178
 20
-5.843192240816885
 30
0.0
 41
1.0
 10
11.9990918910324
 20
-5.960650409352014
 30
0.0
 41
1.0
 10
12.25262951627819
 20
-5.978967070951508
 30
0.0
 41
1.0
 10
12.49997855713762
 20
-5.978967070951508
 30
0.0
 41
1.0
  0
SPLINE
  5
1A1
330
1F
100
AcDbEntity
  8
Sichtbar_(ISO)
  6
Continuous
 62
     7
100
AcDbSpline
210
0.0
220
0.0
230
1.0
 70
    12
 71
     3
 72
    19
 73
    15
 74
     0
 42
0.000000001
 43
0.0000000001
 40
0.0
 40
0.0
 40
0.0
 40
0.0
 40
0.0977992898333717
 40
0.0977992898333717
 40
0.2997600460055055
 40
0.2997600460055055
 40
0.5018855571938111
 40
0.5018855571938111
 40
0.5018855571938111
 40
0.6270341042927541
 40
0.6270341042927541
 40
0.8272717796510651
 40
0.8272717796510651
 40
1.0
 40
1.0
 40
1.0
 40
1.0
 10
12.49997855713762
 20
-5.500001265758022
 30
0.0
 41
1.0
 10
12.27120511117032
 20
-5.500001265758022
 30
0.0
 41
1.0
 10
12.03670418578126
 20
-5.482374041227663
 30
0.0
 41
1.0
 10
11.31830452523714
 20
-5.36963365096141
 30
0.0
 41
1.0
 10
10.83697289511551
 20
-5.210196073918784
 30
0.0
 41
1.0
 10
9.967386009943455
 20
-4.75202699130663
 30
0.0
 41
1.0
 10
9.579853546674382
 20
-4.453957265672395
 30
0.0
 41
1.0
 10
9.263762199129385
 20
-4.126805334477369
 30
0.0
 41
1.0
 10
9.068050274082227
 20
-3.924245110243586
 30
0.0
 41
1.0
 10
8.886091333043296
 20
-3.69728317568446
 30
0.0
 41
1.0
 10
8.471799202111553
 20
-3.059777501946972
 30
0.0
 41
1.0
 10
8.276299804555535
 20
-2.621432752729898
 30
0.0
 41
1.0
 10
8.049913811136555
 20
-1.780714198413743
 30
0.0
 41
1.0
 10
7.999978558768434
 20
-1.382067883896303
 30
0.0
 41
1.0
 10
7.999978557137625
 20
-1.000001284965752
 30
0.0
 41
1.0
  0
LINE
  5
1A2
330
1F
100
AcDbEntity
  8
Sichtbar_(ISO)
  6
Continuous
 62
     7
100
AcDbLine
 10
7.4999785571
 20
-1.0000012658
 30
0.0
 11
7.4999785571
 21
0.9999987342
 31
0.0
  0
LINE
  5
1A3
330
1F
100
AcDbEntity
  8
Sichtbar_(ISO)
  6
Continuous
 62
     7
100
AcDbLine
 10
7.9999785571
 20
0.9749987342
 30
0.0
 11
7.9999785571
 21
-0.9750012658
 31
0.0
  0
SPLINE
  5
1A4
330
1F
100
AcDbEntity
  8
Sichtbar_(ISO)
  6
Continuous
 62
     7
100
AcDbSpline
210
0.0
220
0.0
230
1.0
 70
    12
 71
     3
 72
    10
 73
     6
 74
     0
 42
0.000000001
 43
0.0000000001
 40
0.0
 40
0.0
 40
0.0
 40
0.0
 40
0.4999999999999135
 40
0.4999999999999135
 40
1.0
 40
1.0
 40
1.0
 40
1.0
 10
7.499978557137628
 20
-1.000001265758022
 30
0.0
 41
1.0
 10
7.499978557137628
 20
-1.004743985888884
 30
0.0
 41
1.0
 10
7.499985306863111
 20
-1.009488876947619
 30
0.0
 41
1.0
 10
7.500012342876611
 20
-1.018982926599585
 30
0.0
 41
1.0
 10
7.500032629164819
 20
-1.023732085192421
 30
0.0
 41
1.0
 10
7.500059702051098
 20
-1.028483340149023
 30
0.0
 41
1.0
  0
LINE
  5
1A5
330
1F
100
AcDbEntity
  8
Sichtbar_(ISO)
  6
Continuous
 62
     7
100
AcDbLine
 10
7.9999785571
 20
-1.000001285
 30
0.0
 11
7.9999785571
 21
-0.9750012658
 31
0.0
  0
SPLINE
  5
1A6
330
1F
100
AcDbEntity
  8
Sichtbar_(ISO)
  6
Continuous
 62
     7
100
AcDbSpline
210
0.0
220
0.0
230
1.0
 70
    12
 71
     3
 72
    19
 73
    15
 74
     0
 42
0.000000001
 43
0.0000000001
 40
0.0
 40
0.0
 40
0.0
 40
0.0
 40
0.1727282203489367
 40
0.1727282203489367
 40
0.3729658957072457
 40
0.3729658957072457
 40
0.4981144428061886
 40
0.4981144428061886
 40
0.4981144428061886
 40
0.7002399539944923
 40
0.7002399539944923
 40
0.902200710166899
 40
0.902200710166899
 40
1.0
 40
1.0
 40
1.0
 40
1.0
 10
7.999978557137625
 20
0.9999987534497128
 30
0.0
 41
1.0
 10
7.999978558768434
 20
1.382065352380263
 30
0.0
 41
1.0
 10
8.049913811136555
 20
1.780711666897705
 30
0.0
 41
1.0
 10
8.276299804555535
 20
2.62143022121386
 30
0.0
 41
1.0
 10
8.471799202111553
 20
3.059774970430933
 30
0.0
 41
1.0
 10
8.886091333043296
 20
3.69728064416842
 30
0.0
 41
1.0
 10
9.068050274082227
 20
3.924242578727542
 30
0.0
 41
1.0
 10
9.263762199129385
 20
4.126802802961327
 30
0.0
 41
1.0
 10
9.579853546674382
 20
4.453954734156353
 30
0.0
 41
1.0
 10
9.967386009943445
 20
4.752024459790584
 30
0.0
 41
1.0
 10
10.8369728951161
 20
5.210193542403056
 30
0.0
 41
1.0
 10
11.31830452523845
 20
5.369631119445795
 30
0.0
 41
1.0
 10
12.03670418578257
 20
5.482371509711721
 30
0.0
 41
1.0
 10
12.27120511117095
 20
5.499998734241979
 30
0.0
 41
1.0
 10
12.49997855713762
 20
5.499998734241979
 30
0.0
 41
1.0
  0
SPLINE
  5
1A7
330
1F
100
AcDbEntity
  8
Sichtbar_(ISO)
  6
Continuous
 62
     7
100
AcDbSpline
210
0.0
220
0.0
230
1.0
 70
    12
 71
     3
 72
    19
 73
    15
 74
     0
 42
0.000000001
 43
0.0000000001
 40
0.0
 40
0.0
 40
0.0
 40
0.0
 40
0.0977992898331011
 40
0.0977992898331011
 40
0.2997600460055077
 40
0.2997600460055077
 40
0.5018855571938114
 40
0.5018855571938114
 40
0.5018855571938114
 40
0.6270341042927543
 40
0.6270341042927543
 40
0.8272717796510634
 40
0.8272717796510634
 40
1.0
 40
1.0
 40
1.0
 40
1.0
 10
12.49997855713762
 20
5.97896453943547
 30
0.0
 41
1.0
 10
12.25262951627888
 20
5.97896453943547
 30
0.0
 41
1.0
 10
11.99909189103382
 20
5.960647877836071
 30
0.0
 41
1.0
 10
11.22113924746319
 20
5.843189709301283
 30
0.0
 41
1.0
 10
10.69792036656055
 20
5.677010237005884
 30
0.0
 41
1.0
 10
9.743729828290405
 20
5.192881933798179
 30
0.0
 41
1.0
 10
9.313491462528045
 20
4.875193141264445
 30
0.0
 41
1.0
 10
8.958479070928444
 20
4.521150100341148
 30
0.0
 41
1.0
 10
8.738668692962756
 20
4.301939908012855
 30
0.0
 41
1.0
 10
8.532474367519862
 20
4.054532009445827
 30
0.0
 41
1.0
 10
8.059009404810613
 20
3.353083332878346
 30
0.0
 41
1.0
 10
7.831136464330791
 20
2.864431470956065
 30
0.0
 41
1.0
 10
7.563649365735237
 20
1.91684974320545
 30
0.0
 41
1.0
 10
7.502539824967163
 20
1.463739028869272
 30
0.0
 41
1.0
 10
7.500059702051098
 20
1.028480808632985
 30
0.0
 41
1.0
  0
LINE
  5
1A8
330
1F
100
AcDbEntity
  8
Sichtbar_(ISO)
  6
Continuous
 62
     7
100
AcDbLine
 10
13.921963115
 20
5.9789645394
 30
0.0
 11
12.4999785571
 21
5.9789645394
 31
0.0
  0
SPLINE
  5
1A9
330
1F
100
AcDbEntity
  8
Sichtbar_(ISO)
  6
Continuous
 62
     7
100
AcDbSpline
210
0.0
220
0.0
230
1.0
 70
    12
 71
     3
 72
    10
 73
     6
 74
     0
 42
0.000000001
 43
0.0000000001
 40
0.0
 40
0.0
 40
0.0
 40
0.0
 40
0.5000000000000216
 40
0.5000000000000216
 40
1.0
 40
1.0
 40
1.0
 40
1.0
 10
7.500059702051098
 20
1.028480808632983
 30
0.0
 41
1.0
 10
7.500032629164821
 20
1.023729553676382
 30
0.0
 41
1.0
 10
7.500012342876615
 20
1.018980395083547
 30
0.0
 41
1.0
 10
7.499985306863114
 20
1.00948634543158
 30
0.0
 41
1.0
 10
7.499978557137633
 20
1.004741454372842
 30
0.0
 41
1.0
 10
7.499978557137633
 20
0.999998734241979
 30
0.0
 41
1.0
  0
LINE
  5
1AA
330
1F
100
AcDbEntity
  8
Sichtbar_(ISO)
  6
Continuous
 62
     7
100
AcDbLine
 10
7.9999785571
 20
0.9749987342
 30
0.0
 11
7.9999785571
 21
0.9999987534
 31
0.0
  0
LINE
  5
1AB
330
1F
100
AcDbEntity
  8
Sichtbar_(ISO)
  6
Continuous
 62
     7
100
AcDbLine
 10
14.5199785571
 20
5.4999987342
 30
0.0
 11
14.9999785571
 21
5.9799987342
 31
0.0
  0
LINE
  5
1AC
330
1F
100
AcDbEntity
  8
Sichtbar_(ISO)
  6
Continuous
 62
     7
100
AcDbLine
 10
14.9999785571
 20
5.9816585945
 30
0.0
 11
14.9999785571
 21
5.9799987342
 31
0.0
  0
SPLINE
  5
1AD
330
1F
100
AcDbEntity
  8
Sichtbar_(ISO)
  6
Continuous
 62
     7
100
AcDbSpline
210
0.0
220
0.0
230
1.0
 70
    12
 71
     2
 72
     6
 73
     3
 74
     0
 42
0.000000001
 43
0.0000000001
 40
0.0
 40
0.0
 40
0.0
 40
1.0
 40
1.0
 40
1.0
 10
13.97925261497394
 20
6.027446141363774
 30
0.0
 41
1.0
 10
14.51173773893478
 20
6.005488716214662
 30
0.0
 41
1.000837443208952
 10
14.99997855713763
 20
5.9816585944849
 30
0.0
 41
1.0
  0
ELLIPSE
  5
1AE
330
1F
100
AcDbEntity
  8
Sichtbar_(ISO)
  6
Continuous
 62
     7
100
AcDbEllipse
 10
18.9619501926
 20
-0.0000012658
 30
0.0
 11
-22.53408931776903
 21
-19.08923747312493
 31
0.0
210
0.0
220
0.0
230
1.0
 40
0.26478365
 41
4.709202924669508
 42
4.711744186325214
  0
LINE
  5
1AF
330
1F
100
AcDbEntity
  8
Sichtbar_(ISO)
  6
Continuous
 62
     7
100
AcDbLine
 10
13.6488236716
 20
5.4999987342
 30
0.0
 11
13.921963115
 21
5.9789645394
 31
0.0
  0
LINE
  5
1B0
330
1F
100
AcDbEntity
  8
Sichtbar_(ISO)
  6
Continuous
 62
     7
100
AcDbLine
 10
14.5199785571
 20
5.4999987342
 30
0.0
 11
13.6488236716
 21
5.4999987342
 31
0.0
  0
LINE
  5
1B1
330
1F
100
AcDbEntity
  8
Verdeckt_(ISO)
  6
HIDDEN2
 62
     7
100
AcDbLine
 10
14.5199785571
 20
4.4999987342
 30
0.0
 11
14.9999785571
 21
4.9799987342
 31
0.0
  0
LINE
  5
1B2
330
1F
100
AcDbEntity
  8
Verdeckt_(ISO)
  6
HIDDEN2
 62
     7
100
AcDbLine
 10
13.9384271999
 20
4.9857338036
 30
0.0
 11
13.6729045201
 21
4.4999987342
 31
0.0
  0
ELLIPSE
  5
1B3
330
1F
100
AcDbEntity
  8
Verdeckt_(ISO)
  6
HIDDEN2
 62
     7
100
AcDbEllipse
 10
20.1351552733
 20
-0.0000012658
 30
0.0
 11
-22.53408931776897
 21
-19.08923747312494
 31
0.0
210
0.0
220
0.0
230
1.0
 40
0.26478365
 41
-1.521629075394953
 42
-1.519794454641241
  0
SPLINE
  5
1B4
330
1F
100
AcDbEntity
  8
Verdeckt_(ISO)
  6
HIDDEN2
 62
     7
100
AcDbSpline
210
0.0
220
0.0
230
1.0
 70
    12
 71
     2
 72
     6
 73
     3
 74
     0
 42
0.000000001
 43
0.0000000001
 40
0.0
 40
0.0
 40
0.0
 40
1.0
 40
1.0
 40
1.0
 10
14.99997855713765
 20
4.989291322890977
 30
0.0
 41
1.0
 10
14.51164188063177
 20
5.005937559517841
 30
0.0
 41
1.000859250570782
 10
13.97925261497396
 20
5.021259418209933
 30
0.0
 41
1.0
  0
SPLINE
  5
1B5
330
1F
100
AcDbEntity
  8
Sichtbar_(ISO)
  6
Continuous
 62
     7
100
AcDbSpline
210
0.0
220
0.0
230
1.0
 70
    12
 71
     3
 72
    22
 73
    18
 74
     0
 42
0.000000001
 43
0.0000000001
 40
0.0
 40
0.0
 40
0.0
 40
0.0
 40
0.124991079202773
 40
0.124991079202773
 40
0.2499821584055459
 40
0.2499821584055459
 40
0.3749910792027729
 40
0.3749910792027729
 40
0.4999999999999991
 40
0.4999999999999991
 40
0.625008920797226
 40
0.625008920797226
 40
0.7500178415944535
 40
0.7500178415944535
 40
0.8750089207972259
 40
0.8750089207972259
 40
1.0
 40
1.0
 40
1.00000000000766
 40
1.00000000000766
 10
12.82497855713763
 20
-20.00000126575802
 30
0.0
 41
1.0
 10
12.82497855713763
 20
-20.00000126575802
 30
0.0
 41
1.0
 10
12.67738041159616
 20
-19.9554097212322
 30
0.0
 41
1.0
 10
12.08316039377809
 20
-19.79502986153656
 30
0.0
 41
1.0
 10
11.63701833822439
 20
-19.68150955803222
 30
0.0
 41
1.0
 10
10.60963875831766
 20
-19.4672837674538
 30
0.0
 41
1.0
 10
9.958475892745884
 20
-19.35221674841097
 30
0.0
 41
1.0
 10
8.522988557749375
 20
-19.18821880823611
 30
0.0
 41
1.0
 10
7.738158667169688
 20
-19.14199925393376
 30
0.0
 41
1.0
 10
6.26179844710557
 20
-19.14199925393376
 30
0.0
 41
1.0
 10
5.476968556525866
 20
-19.18821880823612
 30
0.0
 41
1.0
 10
4.041481221529382
 20
-19.35221674841097
 30
0.0
 41
1.0
 10
3.390318355957605
 20
-19.4672837674538
 30
0.0
 41
1.0
 10
2.362938776050923
 20
-19.68150955803221
 30
0.0
 41
1.0
 10
1.916796720497172
 20
-19.79502986153656
 30
0.0
 41
1.0
 10
1.322576702679127
 20
-19.9554097212322
 30
0.0
 41
1.0
 10
1.174978557137642
 20
-20.00000126575802
 30
0.0
 41
1.0
 10
1.174978557137642
 20
-20.00000126575802
 30
0.0
 41
1.0
  0
SPLINE
  5
1B6
330
1F
100
AcDbEntity
  8
Verdeckt_(ISO)
  6
HIDDEN2
 62
     7
100
AcDbSpline
210
0.0
220
0.0
230
1.0
 70
    12
 71
     3
 72
    22
 73
    18
 74
     0
 42
0.000000001
 43
0.0000000001
 40
-0.000000000000794
 40
-0.000000000000794
 40
0.0
 40
0.0
 40
0.1249910792020794
 40
0.1249910792020794
 40
0.249982158404951
 40
0.249982158404951
 40
0.3749910792022778
 40
0.3749910792022778
 40
0.4999999999996039
 40
0.4999999999996039
 40
0.6250089207969295
 40
0.6250089207969295
 40
0.7500178415942556
 40
0.7500178415942556
 40
0.8750089207971278
 40
0.8750089207971278
 40
1.0
 40
1.0
 40
1.0
 40
1.0
 10
1.974978557137641
 20
-19.20000126575801
 30
0.0
 41
1.0
 10
1.974978557139117
 20
-19.20000126575762
 30
0.0
 41
1.0
 10
2.091189104289435
 20
-19.16833266608265
 30
0.0
 41
1.0
 10
2.57320830362287
 20
-19.05197455137858
 30
0.0
 41
1.0
 10
2.940606490869678
 20
-18.96848846262829
 30
0.0
 41
1.0
 10
3.811170512443256
 20
-18.80805648076086
 30
0.0
 41
1.0
 10
4.373898029156286
 20
-18.72042325639976
 30
0.0
 41
1.0
 10
5.638348563866158
 20
-18.59441878717586
 30
0.0
 41
1.0
 10
6.339849144041316
 20
-18.55844580554478
 30
0.0
 41
1.0
 10
7.660107970233956
 20
-18.55844580554478
 30
0.0
 41
1.0
 10
8.361608550409114
 20
-18.59441878717586
 30
0.0
 41
1.0
 10
9.626059085118984
 20
-18.72042325639976
 30
0.0
 41
1.0
 10
10.18878660183201
 20
-18.80805648076086
 30
0.0
 41
1.0
 10
11.05935062340559
 20
-18.96848846262829
 30
0.0
 41
1.0
 10
11.4267488106524
 20
-19.05197455137858
 30
0.0
 41
1.0
 10
11.90876800998737
 20
-19.16833266608302
 30
0.0
 41
1.0
 10
12.02497855713763
 20
-19.20000126575801
 30
0.0
 41
1.0
 10
12.02497855713763
 20
-19.20000126575801
 30
0.0
 41
1.0
  0
LINE
  5
1B7
330
1F
100
AcDbEntity
  8
Verdeckt_(ISO)
  6
HIDDEN2
 62
     7
100
AcDbLine
 10
12.0249785571
 20
-19.2000012658
 30
0.0
 11
12.8249785571
 21
-20.0000012658
 31
0.0
  0
LINE
  5
1B8
330
1F
100
AcDbEntity
  8
Verdeckt_(ISO)
  6
HIDDEN2
 62
     7
100
AcDbLine
 10
1.1749785571
 20
-20.0000012658
 30
0.0
 11
1.9749785571
 21
-19.2000012658
 31
0.0
  0
SPLINE
  5
1B9
330
1F
100
AcDbEntity
  8
Verdeckt_(ISO)
  6
HIDDEN2
 62
     7
100
AcDbSpline
210
0.0
220
0.0
230
1.0
 70
     8
 71
     3
 72
    22
 73
    18
 74
     0
 42
0.000000001
 43
0.0000000001
 40
0.0
 40
0.0
 40
0.0
 40
0.0
 40
0.1267723768351491
 40
0.1267723768351491
 40
0.2535447536702981
 40
0.2535447536702981
 40
0.3767723768351482
 40
0.3767723768351482
 40
0.4999999999999994
 40
0.4999999999999994
 40
0.6232276231648507
 40
0.6232276231648507
 40
0.7464552463297007
 40
0.7464552463297007
 40
0.8732276231648497
 40
0.8732276231648497
 40
1.0
 40
1.0
 40
1.0
 40
1.0
 10
1.499978557137639
 20
19.69615379448614
 30
0.0
 10
1.499978557137639
 20
19.58070709904212
 30
0.0
 10
1.663083652365142
 20
19.42413749998841
 30
0.0
 10
2.287337059600282
 20
19.08590647933388
 30
0.0
 10
2.747556868238341
 20
18.90625162660534
 30
0.0
 10
3.750289239200636
 20
18.61319648309274
 30
0.0
 10
4.357206432489495
 20
18.47811822826296
 30
0.0
 10
5.658876606848058
 20
18.29497980462455
 30
0.0
 10
6.353737248858661
 20
18.24821564141107
 30
0.0
 10
7.64621986541664
 20
18.24821564141107
 30
0.0
 10
8.341080507427234
 20
18.29497980462455
 30
0.0
 10
9.642750681785806
 20
18.47811822826296
 30
0.0
 10
10.24966787507465
 20
18.61319648309274
 30
0.0
 10
11.25240024603695
 20
18.90625162660534
 30
0.0
 10
11.712620054675
 20
19.08590647933388
 30
0.0
 10
12.33687346191014
 20
19.42413749998841
 30
0.0
 10
12.49997855713765
 20
19.58070709904212
 30
0.0
 10
12.49997855713765
 20
19.69615379448614
 30
0.0
  0
SPLINE
  5
1BA
330
1F
100
AcDbEntity
  8
Verdeckt_(ISO)
  6
HIDDEN2
 62
     7
100
AcDbSpline
210
0.0
220
0.0
230
1.0
 70
     8
 71
     3
 72
    10
 73
     6
 74
     0
 42
0.000000001
 43
0.0000000001
 40
0.0
 40
0.0
 40
0.0
 40
0.0
 40
0.5208249059754513
 40
0.5208249059754513
 40
1.0
 40
1.0
 40
1.0
 40
1.0
 10
12.49997855713765
 20
19.69615379448614
 30
0.0
 10
12.49997855713765
 20
19.81160048993016
 30
0.0
 10
12.33687346191014
 20
19.89633894350023
 30
0.0
 10
11.73758049408828
 20
19.98664297069073
 30
0.0
 10
11.32505976013281
 20
19.99989618018091
 30
0.0
 10
10.86493496794859
 20
19.99998635785648
 30
0.0
  0
SPLINE
  5
1BB
330
1F
100
AcDbEntity
  8
Verdeckt_(ISO)
  6
HIDDEN2
 62
     7
100
AcDbSpline
210
0.0
220
0.0
230
1.0
 70
     8
 71
     3
 72
    10
 73
     6
 74
     0
 42
0.000000001
 43
0.0000000001
 40
0.0
 40
0.0
 40
0.0
 40
0.0
 40
0.4791750940245529
 40
0.4791750940245529
 40
1.0
 40
1.0
 40
1.0
 40
1.0
 10
3.135022146326701
 20
19.99998635785648
 30
0.0
 10
2.674897354142479
 20
19.99989618018091
 30
0.0
 10
2.262376620187006
 20
19.98664297069073
 30
0.0
 10
1.663083652365144
 20
19.89633894350023
 30
0.0
 10
1.499978557137641
 20
19.81160048993016
 30
0.0
 10
1.499978557137639
 20
19.69615379448614
 30
0.0
  0
ELLIPSE
  5
1BC
330
1F
100
AcDbEntity
  8
Verdeckt_(ISO)
  6
HIDDEN2
 62
     7
100
AcDbEllipse
 10
6.9999785571
 20
13.984268827
 30
0.0
 11
4.500000000000001
 21
0.0
 31
0.0
210
0.0
220
0.0
230
1.0
 40
0.1736481777
 41
0.0
 42
6.283185307179586
  0
ELLIPSE
  5
1BD
330
1F
100
AcDbEntity
  8
Verdeckt_(ISO)
  6
HIDDEN2
 62
     7
100
AcDbEllipse
 10
6.9999785571
 20
13.984268827
 30
0.0
 11
1.75
 21
0.0
 31
0.0
210
0.0
220
0.0
230
1.0
 40
0.1736481777
 41
0.0
 42
6.283185307179586
  0
ELLIPSE
  5
1BE
330
1F
100
AcDbEntity
  8
Verdeckt_(ISO)
  6
HIDDEN2
 62
     7
100
AcDbEllipse
 10
6.9999785571
 20
18.7113460415
 30
0.0
 11
4.500000000000004
 21
0.0
 31
0.0
210
0.0
220
0.0
230
1.0
 40
0.1736481777
 41
0.0
 42
6.283185307179586
  0
LINE
  5
1BF
330
1F
100
AcDbEntity
  8
Verdeckt_(ISO)
  6
HIDDEN2
 62
     7
100
AcDbLine
 10
2.4999785571
 20
13.984268827
 30
0.0
 11
2.4999785571
 21
18.7113460415
 31
0.0
  0
LINE
  5
1C0
330
1F
100
AcDbEntity
  8
Verdeckt_(ISO)
  6
HIDDEN2
 62
     7
100
AcDbLine
 10
11.4999785571
 20
13.984268827
 30
0.0
 11
11.4999785571
 21
18.7113460415
 31
0.0
  0
LINE
  5
1C1
330
1F
100
AcDbEntity
  8
Verdeckt_(ISO)
  6
HIDDEN2
 62
     7
100
AcDbLine
 10
2.5704861351
 20
18.5735611765
 30
0.0
 11
1.6091162854
 21
19.5054914202
 31
0.0
  0
LINE
  5
1C2
330
1F
100
AcDbEntity
  8
Verdeckt_(ISO)
  6
HIDDEN2
 62
     7
100
AcDbLine
 10
11.4294709791
 20
18.5735611765
 30
0.0
 11
12.3908408289
 21
19.5054914202
 31
0.0
  0
LINE
  5
1C3
330
1F
100
AcDbEntity
  8
Verdeckt_(ISO)
  6
HIDDEN2
 62
     7
100
AcDbLine
 10
6.9999785571
 20
13.356997587
 30
0.0
 11
5.4690496545
 21
13.8370507361
 31
0.0
  0
LINE
  5
1C4
330
1F
100
AcDbEntity
  8
Verdeckt_(ISO)
  6
HIDDEN2
 62
     7
100
AcDbLine
 10
6.9999785571
 20
13.356997587
 30
0.0
 11
8.5309074598
 21
13.8370507361
 31
0.0
  0
SPLINE
  5
1C5
330
1F
100
AcDbEntity
  8
Sichtbar_(ISO)
  6
Continuous
 62
     7
100
AcDbSpline
210
0.0
220
0.0
230
1.0
 70
     8
 71
     3
 72
    19
 73
    15
 74
     0
 42
0.000000001
 43
0.0000000001
 40
0.0
 40
0.0
 40
0.0
 40
0.0
 40
0.0197547240609346
 40
0.0197547240609346
 40
0.2598773620304681
 40
0.2598773620304681
 40
0.5000000000000017
 40
0.5000000000000017
 40
0.5000000000000017
 40
0.7401226379695357
 40
0.7401226379695357
 40
0.9802452759390675
 40
0.9802452759390675
 40
1.0
 40
1.0
 40
1.0
 40
1.0
 10
10.86493496794859
 20
19.99998635785648
 30
0.0
 10
10.82494100476602
 20
19.99999419608363
 30
0.0
 10
10.78458739031689
 20
19.99990258688464
 30
0.0
 10
10.24966787507465
 20
19.99753480747464
 30
0.0
 10
9.642750681785795
 20
19.98223334311933
 30
0.0
 10
8.341080507427234
 20
19.9564798016003
 30
0.0
 10
7.646219865416635
 20
19.9473229279061
 30
0.0
 10
6.999978557137645
 20
19.9473229279061
 30
0.0
 10
6.353737248858656
 20
19.9473229279061
 30
0.0
 10
5.658876606848055
 20
19.9564798016003
 30
0.0
 10
4.357206432489493
 20
19.98223334311933
 30
0.0
 10
3.750289239200639
 20
19.99753480747464
 30
0.0
 10
3.215369723958399
 20
19.99990258688464
 30
0.0
 10
3.175016109509267
 20
19.99999419608363
 30
0.0
 10
3.135022146326701
 20
19.99998635785648
 30
0.0
  0
LINE
  5
1C6
330
1F
100
AcDbEntity
  8
Verdeckt_(ISO)
  6
HIDDEN2
 62
     7
100
AcDbLine
 10
11.9749785571
 20
-14.7000012658
 30
0.0
 11
2.0249785571
 21
-14.7000012658
 31
0.0
  0
LINE
  5
1C7
330
1F
100
AcDbEntity
  8
Verdeckt_(ISO)
  6
HIDDEN2
 62
     7
100
AcDbLine
 10
1.9749785571
 20
-19.2000012658
 30
0.0
 11
1.9749785571
 21
-14.7500012658
 31
0.0
  0
LINE
  5
1C8
330
1F
100
AcDbEntity
  8
Verdeckt_(ISO)
  6
HIDDEN2
 62
     7
100
AcDbLine
 10
12.0249785571
 20
-19.2000012658
 30
0.0
 11
12.0249785571
 21
-14.7500012658
 31
0.0
  0
ARC
  5
1C9
330
1F
100
AcDbEntity
  8
Verdeckt_(ISO)
  6
HIDDEN2
 62
     7
100
AcDbCircle
 10
11.9749785571
 20
-14.7500012658
 30
0.0
 40
0.05
100
AcDbArc
 50
0.0
 51
90.0
  0
ARC
  5
1CA
330
1F
100
AcDbEntity
  8
Verdeckt_(ISO)
  6
HIDDEN2
 62
     7
100
AcDbCircle
 10
2.0249785571
 20
-14.7500012658
 30
0.0
 40
0.05
100
AcDbArc
 50
90.0
 51
180.0
  0
LINE
  5
1CB
330
1F
100
AcDbEntity
  8
Verdeckt_(ISO)
  6
HIDDEN2
 62
     7
100
AcDbLine
 10
6.9999785571
 20
-14.0630533558
 30
0.0
 11
8.7499785571
 21
-14.7000012658
 31
0.0
  0
LINE
  5
1CC
330
1F
100
AcDbEntity
  8
Verdeckt_(ISO)
  6
HIDDEN2
 62
     7
100
AcDbLine
 10
6.9999785571
 20
-14.0630533558
 30
0.0
 11
5.2499785571
 21
-14.7000012658
 31
0.0
  0
LINE
  5
1CD
330
1F
100
AcDbEntity
  8
Verdeckt_(ISO)
  6
HIDDEN2
 62
     7
100
AcDbLine
 10
39.3699163849
 20
10.7499987342
 30
0.0
 11
39.3699163849
 21
2.9999987342
 31
0.0
  0
LINE
  5
1CE
330
1F
100
AcDbEntity
  8
Verdeckt_(ISO)
  6
HIDDEN2
 62
     7
100
AcDbLine
 10
45.4529163849
 20
2.9999987342
 30
0.0
 11
45.4529163849
 21
10.7499987342
 31
0.0
  0
LINE
  5
1CF
330
1F
100
AcDbEntity
  8
Verdeckt_(ISO)
  6
HIDDEN2
 62
     7
100
AcDbLine
 10
8.4584785571
 20
-6.0415012658
 30
0.0
 11
13.9999785571
 21
-6.0415012658
 31
0.0
  0
LINE
  5
1D0
330
1F
100
AcDbEntity
  8
Verdeckt_(ISO)
  6
HIDDEN2
 62
     7
100
AcDbLine
 10
13.9999785571
 20
6.0414987342
 30
0.0
 11
8.4584785571
 21
6.0414987342
 31
0.0
  0
CIRCLE
  5
1D2
330
1F
100
AcDbEntity
  8
_Konvertierung
  6
Continuous
 62
     7
100
AcDbCircle
 10
48.8340546293
 20
12.2499987342
 30
0.0
 40
0.01
  0
CIRCLE
  5
1D3
330
1F
100
AcDbEntity
  8
_Konvertierung
  6
Continuous
 62
     7
100
AcDbCircle
 10
48.8340546293
 20
-12.2500012658
 30
0.0
 40
0.01
  0
CIRCLE
  5
1D4
330
1F
100
AcDbEntity
  8
_Konvertierung
  6
Continuous
 62
     7
100
AcDbCircle
 10
0.6999785571
 20
-20.0000012658
 30
0.0
 40
0.01
  0
CIRCLE
  5
1D5
330
1F
100
AcDbEntity
  8
_Konvertierung
  6
Continuous
 62
     7
100
AcDbCircle
 10
0.6999785571
 20
19.9999987342
 30
0.0
 40
0.01
  0
CIRCLE
  5
1D6
330
1F
100
AcDbEntity
  8
_Konvertierung
  6
Continuous
 62
     7
100
AcDbCircle
 10
-0.0000214429
 20
19.2999987342
 30
0.0
 40
0.01
  0
CIRCLE
  5
1D7
330
1F
100
AcDbEntity
  8
_Konvertierung
  6
Continuous
 62
     7
100
AcDbCircle
 10
19.9999785571
 20
-5.5000012658
 30
0.0
 40
0.01
  0
CIRCLE
  5
1D8
330
1F
100
AcDbEntity
  8
_Konvertierung
  6
Continuous
 62
     7
100
AcDbCircle
 10
-0.0000214429
 20
19.2999987342
 30
0.0
 40
0.01
  0
CIRCLE
  5
1D9
330
1F
100
AcDbEntity
  8
_Konvertierung
  6
Continuous
 62
     7
100
AcDbCircle
 10
59.9114163849
 20
3.5885609065
 30
0.0
 40
0.01
  0
CIRCLE
  5
1DA
330
1F
100
AcDbEntity
  8
_Konvertierung
  6
Continuous
 62
     7
100
AcDbCircle
 10
58.9999785571
 20
-3.0000012658
 30
0.0
 40
0.01
  0
CIRCLE
  5
1DB
330
1F
100
AcDbEntity
  8
_Konvertierung
  6
Continuous
 62
     7
100
AcDbCircle
 10
39.9114163849
 20
2.9999987342
 30
0.0
 40
0.01
  0
LINE
  5
1DE
330
1F
100
AcDbEntity
  8
Mittelpunktmarkierung_(ISO)
  6
CENTER2
 62
     7
100
AcDbLine
 10
-0.7004742149
 20
-0.0000448859
 30
0.0
 11
-11.2859310172
 21
-0.0000448859
 31
0.0
  0
LINE
  5
1DF
330
1F
100
AcDbEntity
  8
Mittelpunktmarkierung_(ISO)
  6
CENTER2
 62
     7
100
AcDbLine
 10
-5.993202616
 20
5.2926835153
 30
0.0
 11
-5.993202616
 21
-5.292773287
 31
0.0
  0
CIRCLE
  5
1E0
330
1F
100
AcDbEntity
  8
_Konvertierung
  6
Continuous
 62
     7
100
AcDbCircle
 10
-20.0000214429
 20
13.1556460846
 30
0.0
 40
0.01
  0
CIRCLE
  5
1E1
330
1F
100
AcDbEntity
  8
_Konvertierung
  6
Continuous
 62
     7
100
AcDbCircle
 10
-0.0000214429
 20
19.2999987342
 30
0.0
 40
0.01
  0
LINE
  5
1E3
330
1F
100
AcDbEntity
  8
Mittellinie_(ISO)
  6
CENTER2
 62
     7
100
AcDbLine
 10
61.5317286645
 20
-0.0000012658
 30
0.0
 11
-19.9376159831
 21
-0.0000012658
 31
0.0
  0
LINE
  5
1E4
330
1F
100
AcDbEntity
  8
Mittelpunktmarkierung_(ISO)
  6
CENTER2
 62
     7
100
AcDbLine
 10
41.2499785571
 20
-0.0000012658
 30
0.0
 11
11.7499785571
 21
-0.0000012658
 31
0.0
  0
LINE
  5
1E5
330
1F
100
AcDbEntity
  8
Mittelpunktmarkierung_(ISO)
  6
CENTER2
 62
     7
100
AcDbLine
 10
26.4999785571
 20
14.7499987342
 30
0.0
 11
26.4999785571
 21
-14.7500012658
 31
0.0
  0
LINE
  5
1E6
330
1F
100
AcDbEntity
  8
Mittelpunktmarkierung_(ISO)
  6
CENTER2
 62
     7
100
AcDbLine
 10
28.4114163849
 20
-0.0000012658
 30
0.0
 11
19.4114163849
 21
-0.0000012658
 31
0.0
  0
LINE
  5
1E7
330
1F
100
AcDbEntity
  8
Mittelpunktmarkierung_(ISO)
  6
CENTER2
 62
     7
100
AcDbLine
 10
23.9114163849
 20
4.4999987342
 30
0.0
 11
23.9114163849
 21
-4.5000012658
 31
0.0
  0
LINE
  5
1E8
330
1F
100
AcDbEntity
  8
Mittellinie_(ISO)
  6
CENTER2
 62
     7
100
AcDbLine
 10
42.4114163849
 20
13.2499987342
 30
0.0
 11
42.4114163849
 21
0.4999987342
 31
0.0
  0
MTEXT
  5
1EA
330
1F
100
AcDbEntity
  8
6
100
AcDbMText
 10
-19.3890286905
 20
-35.8717632152
 30
0.0
 40
4.57
 41
78.3798213208
 46
7.6741609434
 71
     7
 72
     1
  1
{\fsimplex|b0||i0||c0|p34;\C7;\H4.57;\W0.94;HSK-A40 DIN 69893-1}
 73
     1
 44
1.0
1001
ACAD
1000
ACAD_MTEXT_DEFINED_HEIGHT_BEGIN
1070
    46
1040
7.6741609434
1000
ACAD_MTEXT_DEFINED_HEIGHT_END
  0
MTEXT
  5
1EB
330
1F
100
AcDbEntity
  8
6
100
AcDbMText
 10
-19.2310896472
 20
-55.3041214331
 30
0.0
 40
4.57
 41
52.4256703774
 46
7.6741609434
 71
     7
 72
     1
  1
{\fsimplex|b0||i0||c0|p34;\C7;\H4.57;\W0.94;HSK A40-6-60}
 73
     1
 44
1.0
1001
ACAD
1000
ACAD_MTEXT_DEFINED_HEIGHT_BEGIN
1070
    46
1040
7.6741609434
1000
ACAD_MTEXT_DEFINED_HEIGHT_END
  0
DIMENSION
  5
1FE
330
1F
100
AcDbEntity
  8
Bemaßung_(ISO)
  6
Continuous
 62
     7
100
AcDbDimension
  2
DMBLK121
 10
79.9138014121
 20
12.2499987342
 30
0.0
 11
79.9138014121
 21
-0.0000009454
 31
0.0
 70
   161
  1
\A1;n <>
 71
     5
 42
-1.0
 73
     0
 74
     0
 75
     0
  3
Standard_(DIN)
100
AcDbAlignedDimension
 13
48.8340546293
 23
12.2499987342
 33
0.0
 14
48.8340546293
 24
-12.2500012658
 34
0.0
  0
DIMENSION
  5
209
330
1F
100
AcDbEntity
  8
Bemaßung_(ISO)
  6
Continuous
 62
     7
100
AcDbDimension
  2
DMBLK122
 10
-27.4375022829
 20
-20.0000012658
 30
0.0
 11
-27.4375022829
 21
-0.0000017128
 31
0.0
 70
   161
  1
\A1;n <>
 71
     5
 42
-1.0
 73
     0
 74
     0
 75
     0
  3
Standard_(DIN)
100
AcDbAlignedDimension
 13
0.6999785571
 23
-20.0000012658
 33
0.0
 14
0.6999785571
 24
19.9999987342
 34
0.0
1001
ACAD
1000
DSTYLE
1002
{
1070
   144
1041
1.0
1070
   271
1070
     0
1070
     0
1002
}
  0
DIMENSION
  5
214
330
1F
100
AcDbEntity
  8
Bemaßung_(ISO)
  6
Continuous
 62
     7
100
AcDbDimension
  2
DMBLK123
 10
19.9999785571
 20
25.0861699172
 30
0.0
 11
9.9999783336
 21
25.0861699172
 31
0.0
 70
   160
  1
\A1;<>
 71
     5
 42
-1.0
 73
     0
 74
     0
 75
     0
  3
Standard_(DIN)
100
AcDbAlignedDimension
 13
-0.0000214429
 23
19.2999987342
 33
0.0
 14
19.9999785571
 24
-5.5000012658
 34
0.0
100
AcDbRotatedDimension
1001
ACAD
1000
DSTYLE
1002
{
1070
   144
1041
1.0
1070
   271
1070
     0
1070
     0
1002
}
  0
DIMENSION
  5
21E
330
1F
100
AcDbEntity
  8
Bemaßung_(ISO)
  6
Continuous
 62
     7
100
AcDbDimension
  2
DMBLK124
 10
59.9114163849
 20
35.7925443389
 30
0.0
 11
29.9556972235
 21
35.7925443389
 31
0.0
 70
   160
  1
\A1;<>
 71
     5
 42
-1.0
 73
     0
 74
     0
 75
     0
  3
Standard_(DIN)
100
AcDbAlignedDimension
 13
-0.0000214429
 23
19.2999987342
 33
0.0
 14
59.9114163849
 24
3.5885609065
 34
0.0
100
AcDbRotatedDimension
1001
ACAD
1000
DSTYLE
1002
{
1070
   144
1041
1.0
1070
   271
1070
     0
1070
     0
1002
}
  0
DIMENSION
  5
228
330
1F
100
AcDbEntity
  8
Bemaßung_(ISO)
  6
Continuous
 62
     7
100
AcDbDimension
  2
DMBLK125
 10
66.2375391386
 20
2.9999987342
 30
0.0
 11
66.2375391386
 21
-17.0558912969
 31
0.0
 70
   160
  1
\A1;n <>
 71
     5
 42
-1.0
 73
     0
 74
     0
 75
     0
  3
Standard_(DIN)
100
AcDbAlignedDimension
 13
58.9999785571
 23
-3.0000012658
 33
0.0
 14
39.9114163849
 24
2.9999987342
 34
0.0
 50
90.0
100
AcDbRotatedDimension
1001
ACAD
1000
DSTYLE
1002
{
1070
   144
1041
1.0
1070
   172
1070
     1
1070
   271
1070
     0
1070
     0
1002
}
  0
DIMENSION
  5
233
330
1F
100
AcDbEntity
  8
Bemaßung_(ISO)
  6
Continuous
 62
     7
100
AcDbDimension
  2
DMBLK126
 10
-0.0000214429
 20
25.0861704562
 30
0.0
 11
-10.0000216664
 21
25.0861704562
 31
0.0
 70
   160
  1
\A1;<>
 71
     5
 42
-1.0
 73
     0
 74
     0
 75
     0
  3
Standard_(DIN)
100
AcDbAlignedDimension
 13
-20.0000214429
 23
13.1556460846
 33
0.0
 14
-0.0000214429
 24
19.2999987342
 34
0.0
100
AcDbRotatedDimension
1001
ACAD
1000
DSTYLE
1002
{
1070
   144
1041
1.0
1070
   271
1070
     0
1070
     0
1002
}
  0
ENDSEC
  0
SECTION
  2
OBJECTS
  0
DICTIONARY
  5
C
330
0
100
AcDbDictionary
281
     1
  3
ACAD_DETAILVIEWSTYLE
350
278
  3
ACAD_GROUP
350
D
  3
ACAD_LAYOUT
350
1A
  3
ACAD_MATERIAL
350
43
  3
ACAD_MLEADERSTYLE
350
6B
  3
ACAD_MLINESTYLE
350
17
  3
ACAD_PLOTSETTINGS
350
19
  3
ACAD_PLOTSTYLENAME
350
E
  3
ACAD_SCALELIST
350
47
  3
ACAD_SECTIONVIEWSTYLE
350
279
  3
ACAD_TABLESTYLE
350
69
  3
ACAD_VISUALSTYLE
350
2A
  3
ACDB_RECOMPOSE_DATA
350
275
  3
AcDbVariableDictionary
350
23D
  0
SUN
  5
6D
330
29
100
AcDbSun
 90
        1
290
     0
 63
     7
421
 16777215
 40
1.0
291
     1
 91
  2455826
 92
 54000000
292
     0
 70
     2
 71
   256
280
     1
  0
DICTIONARY
  5
278
102
{ACAD_REACTORS
330
C
102
}
330
C
100
AcDbDictionary
281
     1
  0
DICTIONARY
  5
D
102
{ACAD_REACTORS
330
C
102
}
330
C
100
AcDbDictionary
281
     1
  0
DICTIONARY
  5
1A
102
{ACAD_REACTORS
330
C
102
}
330
C
100
AcDbDictionary
281
     1
  3
Layout1
350
1E
  3
Model
350
22
  0
DICTIONARY
  5
43
102
{ACAD_REACTORS
330
C
102
}
330
C
100
AcDbDictionary
281
     1
  3
ByBlock
350
45
  3
ByLayer
350
44
  3
Global
350
46
  0
DICTIONARY
  5
6B
102
{ACAD_REACTORS
330
C
102
}
330
C
100
AcDbDictionary
281
     1
  3
Standard
350
6C
  0
DICTIONARY
  5
17
102
{ACAD_REACTORS
330
C
102
}
330
C
100
AcDbDictionary
281
     1
  3
Standard
350
18
  0
DICTIONARY
  5
19
102
{ACAD_REACTORS
330
C
102
}
330
C
100
AcDbDictionary
281
     1
  0
ACDBDICTIONARYWDFLT
  5
E
102
{ACAD_REACTORS
330
C
102
}
330
C
100
AcDbDictionary
281
     1
  3
Normal
350
F
100
AcDbDictionaryWithDefault
340
F
  0
DICTIONARY
  5
47
102
{ACAD_REACTORS
330
C
102
}
330
C
100
AcDbDictionary
281
     1
  3
A0
350
48
  3
A1
350
49
  3
A2
350
4A
  3
A3
350
4B
  3
A4
350
4C
  3
A5
350
4D
  3
A6
350
4E
  3
A7
350
4F
  3
A8
350
50
  3
A9
350
51
  3
B0
350
52
  3
B1
350
53
  3
B2
350
54
  3
B3
350
55
  3
B4
350
56
  3
B5
350
57
  3
B6
350
58
  3
B7
350
59
  3
B8
350
5A
  3
B9
350
5B
  3
C0
350
5C
  3
C1
350
5D
  3
C2
350
5E
  3
C3
350
5F
  3
C4
350
60
  3
C5
350
61
  3
C6
350
62
  3
C7
350
63
  3
C8
350
64
  3
C9
350
65
  3
D0
350
66
  3
D1
350
67
  3
D2
350
68
  0
DICTIONARY
  5
279
102
{ACAD_REACTORS
330
C
102
}
330
C
100
AcDbDictionary
281
     1
  0
DICTIONARY
  5
69
102
{ACAD_REACTORS
330
C
102
}
330
C
100
AcDbDictionary
281
     1
  3
Standard
350
6A
  0
DICTIONARY
  5
2A
102
{ACAD_REACTORS
330
C
102
}
330
C
100
AcDbDictionary
281
     1
  3
2dWireframe
350
2F
  3
Basic
350
32
  3
Brighten
350
36
  3
ColorChange
350
3A
  3
Conceptual
350
34
  3
Dim
350
35
  3
EdgeColorOff
350
3D
  3
Facepattern
350
39
  3
Flat
350
2B
  3
FlatWithEdges
350
2C
  3
Gouraud
350
2D
  3
GouraudWithEdges
350
2E
  3
Hidden
350
31
  3
JitterOff
350
3B
  3
Linepattern
350
38
  3
OverhangOff
350
3C
  3
Realistic
350
33
  3
Shaded
350
42
  3
Shaded with edges
350
41
  3
Shades of Gray
350
3E
  3
Sketchy
350
3F
  3
Thicken
350
37
  3
Wireframe
350
30
  3
X-Ray
350
40
  0
XRECORD
  5
275
102
{ACAD_REACTORS
330
C
102
}
330
C
100
AcDbXrecord
280
     1
 90
        1
330
6A
  0
DICTIONARY
  5
23D
102
{ACAD_REACTORS
330
C
102
}
330
C
100
AcDbDictionary
281
     1
  3
CANNOSCALE
350
23E
  3
CENTEREXE
350
27A
  3
CENTERLTYPEFILE
350
27B
  3
CMLEADERSTYLE
350
277
  3
CTABLESTYLE
350
276
  3
XCLIPFRAME
350
23F
  0
LAYOUT
  5
1E
102
{ACAD_REACTORS
330
1A
102
}
330
1A
100
AcDbPlotSettings
  1

  2
none_device
  4

  6

 40
0.0
 41
0.0
 42
0.0
 43
0.0
 44
0.0
 45
0.0
 46
0.0
 47
0.0
 48
0.0
 49
0.0
140
0.0
141
0.0
142
1.0
143
1.0
 70
   688
 72
     1
 73
     0
 74
     5
  7

 75
    16
 76
     0
 77
     2
 78
   300
147
1.0
148
0.0
149
0.0
100
AcDbLayout
  1
Layout1
 70
     1
 71
     1
 10
0.0
 20
0.0
 11
594.0
 21
420.0
 12
0.0
 22
0.0
 32
0.0
 14
0.0
 24
0.0
 34
0.0
 15
594.0
 25
420.0
 35
0.0
146
0.0
 13
0.0
 23
0.0
 33
0.0
 16
1.0
 26
0.0
 36
0.0
 17
0.0
 27
1.0
 37
0.0
 76
     0
330
1B
  0
LAYOUT
  5
22
102
{ACAD_REACTORS
330
1A
102
}
330
1A
100
AcDbPlotSettings
  1

  2
none_device
  4
Letter_(8.50_x_11.00_Inches)
  6

 40
6.35
 41
6.35
 42
6.35000508
 43
6.35000508
 44
215.9
 45
279.4
 46
0.0
 47
0.0
 48
0.0
 49
0.0
140
0.0
141
0.0
142
1.0
143
1.0
 70
  1712
 72
     1
 73
     0
 74
     0
  7

 75
     0
 76
     0
 77
     2
 78
   300
147
1.0
148
0.0
149
0.0
100
AcDbLayout
  1
Model
 70
     1
 71
     0
 10
0.0
 20
0.0
 11
594.0
 21
420.0
 12
0.0
 22
0.0
 32
0.0
 14
0.0
 24
0.0
 34
0.0
 15
594.0
 25
420.0
 35
0.0
146
0.0
 13
0.0
 23
0.0
 33
0.0
 16
1.0
 26
0.0
 36
0.0
 17
0.0
 27
1.0
 37
0.0
 76
     0
330
1F
331
29
  0
MATERIAL
  5
45
102
{ACAD_REACTORS
330
43
102
}
330
43
100
AcDbMaterial
  1
ByBlock
 72
     1
 94
      127
  0
MATERIAL
  5
44
102
{ACAD_REACTORS
330
43
102
}
330
43
100
AcDbMaterial
  1
ByLayer
 72
     1
 94
      127
  0
MATERIAL
  5
46
102
{ACAD_REACTORS
330
43
102
}
330
43
100
AcDbMaterial
  1
Global
 72
     1
 94
      127
  0
MLEADERSTYLE
  5
6C
102
{ACAD_REACTORS
330
6B
102
}
102
{ACAD_XDICTIONARY
360
273
102
}
330
6B
100
AcDbMLeaderStyle
170
     2
171
     1
172
     0
 90
        2
 40
0.0
 41
0.0
173
     1
 91
-1056964608
340
14
 92
       -2
290
     1
 42
2.0
291
     1
 43
8.0
  3
Standard
341
0
 44
4.0
300

342
11
174
     1
178
     6
175
     1
176
     0
 93
-1056964608
 45
4.0
292
     0
297
     0
 46
4.0
343
0
 94
-1056964608
 47
1.0
 49
1.0
140
1.0
293
     1
141
0.0
294
     1
177
     0
142
1.0
295
     0
296
     0
143
3.75
1001
ACAD_MLEADERVER
1070
     2
  0
MLINESTYLE
  5
18
102
{ACAD_REACTORS
330
17
102
}
330
17
100
AcDbMlineStyle
  2
Standard
 70
     0
  3

 62
   256
 51
90.0
 52
90.0
 71
     2
 49
0.5
 62
   256
  6
BYLAYER
 49
-0.5
 62
   256
  6
BYLAYER
  0
ACDBPLACEHOLDER
  5
F
102
{ACAD_REACTORS
330
E
102
}
330
E
  0
SCALE
  5
48
102
{ACAD_REACTORS
330
47
102
}
330
47
100
AcDbScale
 70
     0
300
1:1
140
1.0
141
1.0
290
     1
  0
SCALE
  5
49
102
{ACAD_REACTORS
330
47
102
}
330
47
100
AcDbScale
 70
     0
300
1:2
140
1.0
141
2.0
290
     0
  0
SCALE
  5
4A
102
{ACAD_REACTORS
330
47
102
}
330
47
100
AcDbScale
 70
     0
300
1:4
140
1.0
141
4.0
290
     0
  0
SCALE
  5
4B
102
{ACAD_REACTORS
330
47
102
}
330
47
100
AcDbScale
 70
     0
300
1:5
140
1.0
141
5.0
290
     0
  0
SCALE
  5
4C
102
{ACAD_REACTORS
330
47
102
}
330
47
100
AcDbScale
 70
     0
300
1:8
140
1.0
141
8.0
290
     0
  0
SCALE
  5
4D
102
{ACAD_REACTORS
330
47
102
}
330
47
100
AcDbScale
 70
     0
300
1:10
140
1.0
141
10.0
290
     0
  0
SCALE
  5
4E
102
{ACAD_REACTORS
330
47
102
}
330
47
100
AcDbScale
 70
     0
300
1:16
140
1.0
141
16.0
290
     0
  0
SCALE
  5
4F
102
{ACAD_REACTORS
330
47
102
}
330
47
100
AcDbScale
 70
     0
300
1:20
140
1.0
141
20.0
290
     0
  0
SCALE
  5
50
102
{ACAD_REACTORS
330
47
102
}
330
47
100
AcDbScale
 70
     0
300
1:30
140
1.0
141
30.0
290
     0
  0
SCALE
  5
51
102
{ACAD_REACTORS
330
47
102
}
330
47
100
AcDbScale
 70
     0
300
1:40
140
1.0
141
40.0
290
     0
  0
SCALE
  5
52
102
{ACAD_REACTORS
330
47
102
}
330
47
100
AcDbScale
 70
     0
300
1:50
140
1.0
141
50.0
290
     0
  0
SCALE
  5
53
102
{ACAD_REACTORS
330
47
102
}
330
47
100
AcDbScale
 70
     0
300
1:100
140
1.0
141
100.0
290
     0
  0
SCALE
  5
54
102
{ACAD_REACTORS
330
47
102
}
330
47
100
AcDbScale
 70
     0
300
2:1
140
2.0
141
1.0
290
     0
  0
SCALE
  5
55
102
{ACAD_REACTORS
330
47
102
}
330
47
100
AcDbScale
 70
     0
300
4:1
140
4.0
141
1.0
290
     0
  0
SCALE
  5
56
102
{ACAD_REACTORS
330
47
102
}
330
47
100
AcDbScale
 70
     0
300
8:1
140
8.0
141
1.0
290
     0
  0
SCALE
  5
57
102
{ACAD_REACTORS
330
47
102
}
330
47
100
AcDbScale
 70
     0
300
10:1
140
10.0
141
1.0
290
     0
  0
SCALE
  5
58
102
{ACAD_REACTORS
330
47
102
}
330
47
100
AcDbScale
 70
     0
300
100:1
140
100.0
141
1.0
290
     0
  0
SCALE
  5
59
102
{ACAD_REACTORS
330
47
102
}
330
47
100
AcDbScale
 70
     0
300
1/128" = 1'-0"
140
0.0078125
141
12.0
290
     0
  0
SCALE
  5
5A
102
{ACAD_REACTORS
330
47
102
}
330
47
100
AcDbScale
 70
     0
300
1/64" = 1'-0"
140
0.015625
141
12.0
290
     0
  0
SCALE
  5
5B
102
{ACAD_REACTORS
330
47
102
}
330
47
100
AcDbScale
 70
     0
300
1/32" = 1'-0"
140
0.03125
141
12.0
290
     0
  0
SCALE
  5
5C
102
{ACAD_REACTORS
330
47
102
}
330
47
100
AcDbScale
 70
     0
300
1/16" = 1'-0"
140
0.0625
141
12.0
290
     0
  0
SCALE
  5
5D
102
{ACAD_REACTORS
330
47
102
}
330
47
100
AcDbScale
 70
     0
300
3/32" = 1'-0"
140
0.09375
141
12.0
290
     0
  0
SCALE
  5
5E
102
{ACAD_REACTORS
330
47
102
}
330
47
100
AcDbScale
 70
     0
300
1/8" = 1'-0"
140
0.125
141
12.0
290
     0
  0
SCALE
  5
5F
102
{ACAD_REACTORS
330
47
102
}
330
47
100
AcDbScale
 70
     0
300
3/16" = 1'-0"
140
0.1875
141
12.0
290
     0
  0
SCALE
  5
60
102
{ACAD_REACTORS
330
47
102
}
330
47
100
AcDbScale
 70
     0
300
1/4" = 1'-0"
140
0.25
141
12.0
290
     0
  0
SCALE
  5
61
102
{ACAD_REACTORS
330
47
102
}
330
47
100
AcDbScale
 70
     0
300
3/8" = 1'-0"
140
0.375
141
12.0
290
     0
  0
SCALE
  5
62
102
{ACAD_REACTORS
330
47
102
}
330
47
100
AcDbScale
 70
     0
300
1/2" = 1'-0"
140
0.5
141
12.0
290
     0
  0
SCALE
  5
63
102
{ACAD_REACTORS
330
47
102
}
330
47
100
AcDbScale
 70
     0
300
3/4" = 1'-0"
140
0.75
141
12.0
290
     0
  0
SCALE
  5
64
102
{ACAD_REACTORS
330
47
102
}
330
47
100
AcDbScale
 70
     0
300
1" = 1'-0"
140
1.0
141
12.0
290
     0
  0
SCALE
  5
65
102
{ACAD_REACTORS
330
47
102
}
330
47
100
AcDbScale
 70
     0
300
1-1/2" = 1'-0"
140
1.5
141
12.0
290
     0
  0
SCALE
  5
66
102
{ACAD_REACTORS
330
47
102
}
330
47
100
AcDbScale
 70
     0
300
3" = 1'-0"
140
3.0
141
12.0
290
     0
  0
SCALE
  5
67
102
{ACAD_REACTORS
330
47
102
}
330
47
100
AcDbScale
 70
     0
300
6" = 1'-0"
140
6.0
141
12.0
290
     0
  0
SCALE
  5
68
102
{ACAD_REACTORS
330
47
102
}
330
47
100
AcDbScale
 70
     0
300
1'-0" = 1'-0"
140
12.0
141
12.0
290
     0
  0
TABLESTYLE
  5
6A
102
{ACAD_REACTORS
330
69
102
}
102
{ACAD_XDICTIONARY
360
270
102
}
330
69
100
AcDbTableStyle
  3
Standard
 70
     0
 71
     0
 40
0.06
 41
0.06
280
     0
281
     0
  7
Standard
140
4.5
170
     2
 62
     0
 63
   257
283
     0
 90
        4
 91
        0
  1

274
    -2
284
     1
 64
     0
275
    -2
285
     1
 65
     0
276
    -2
286
     1
 66
     0
277
    -2
287
     1
 67
     0
278
    -2
288
     1
 68
     0
279
    -2
289
     1
 69
     0
  7
Standard
140
6.0
170
     5
 62
     0
 63
   257
283
     0
 90
        4
 91
        0
  1

274
    -2
284
     1
 64
     0
275
    -2
285
     1
 65
     0
276
    -2
286
     1
 66
     0
277
    -2
287
     1
 67
     0
278
    -2
288
     1
 68
     0
279
    -2
289
     1
 69
     0
  7
Standard
140
4.5
170
     5
 62
     0
 63
   257
283
     0
 90
        4
 91
        0
  1

274
    -2
284
     1
 64
     0
275
    -2
285
     1
 65
     0
276
    -2
286
     1
 66
     0
277
    -2
287
     1
 67
     0
278
    -2
288
     1
 68
     0
279
    -2
289
     1
 69
     0
  0
VISUALSTYLE
  5
2F
102
{ACAD_REACTORS
330
2A
102
}
102
{ACAD_XDICTIONARY
360
248
102
}
330
2A
100
AcDbVisualStyle
  2
2dWireframe
 70
     4
 71
     0
 72
     2
 73
     0
 90
        0
 40
0.6
 41
30.0
 62
     5
 63
     7
421
 16777215
 74
     1
 91
        4
 64
     7
 65
   257
 75
     1
175
     1
 42
1.0
 92
        0
 66
   257
 43
1.0
 76
     1
 77
     6
 78
     2
 67
     7
 79
     5
170
     0
171
     0
290
     0
174
     0
 93
        1
 44
0.0
173
     0
291
     0
 45
0.0
  0
VISUALSTYLE
  5
32
102
{ACAD_REACTORS
330
2A
102
}
102
{ACAD_XDICTIONARY
360
24E
102
}
330
2A
100
AcDbVisualStyle
  2
Basic
 70
     7
 71
     1
 72
     0
 73
     1
 90
        0
 40
0.6
 41
30.0
 62
     5
 63
     7
421
 16777215
 74
     0
 91
        4
 64
     7
 65
   257
 75
     1
175
     1
 42
1.0
 92
        8
 66
     7
 43
1.0
 76
     1
 77
     6
 78
     2
 67
     7
 79
     5
170
     0
171
     0
290
     0
174
     0
 93
        1
 44
0.0
173
     0
291
     1
 45
0.0
  0
VISUALSTYLE
  5
36
102
{ACAD_REACTORS
330
2A
102
}
102
{ACAD_XDICTIONARY
360
256
102
}
330
2A
100
AcDbVisualStyle
  2
Brighten
 70
    12
 71
     2
 72
     2
 73
     0
 90
        0
 40
0.6
 41
30.0
 62
     5
 63
     7
421
 16777215
 74
     1
 91
        4
 64
     7
 65
   257
 75
     1
175
     1
 42
1.0
 92
        8
 66
     7
 43
1.0
 76
     1
 77
     6
 78
     2
 67
     7
 79
     5
170
     0
171
     0
290
     0
174
     0
 93
        1
 44
50.0
173
     0
291
     1
 45
0.0
  0
VISUALSTYLE
  5
3A
102
{ACAD_REACTORS
330
2A
102
}
102
{ACAD_XDICTIONARY
360
25E
102
}
330
2A
100
AcDbVisualStyle
  2
ColorChange
 70
    16
 71
     2
 72
     2
 73
     3
 90
        0
 40
0.6
 41
30.0
 62
     5
 63
     8
421
  8421504
 74
     1
 91
        4
 64
     7
 65
   257
 75
     1
175
     1
 42
1.0
 92
        8
 66
     8
424
  8421504
 43
1.0
 76
     1
 77
     6
 78
     2
 67
     7
 79
     5
170
     0
171
     0
290
     0
174
     0
 93
        1
 44
0.0
173
     0
291
     1
 45
0.0
  0
VISUALSTYLE
  5
34
102
{ACAD_REACTORS
330
2A
102
}
102
{ACAD_XDICTIONARY
360
252
102
}
330
2A
100
AcDbVisualStyle
  2
Conceptual
 70
     9
 71
     3
 72
     2
 73
     0
 90
        0
 40
0.6
 41
30.0
 62
     5
 63
     7
421
 16777215
 74
     2
 91
        2
 64
     7
 65
   257
 75
     1
175
     1
 42
179.0
 92
        8
 66
     7
 43
1.0
 76
     1
 77
     6
 78
     2
 67
     7
 79
     3
170
     0
171
     0
290
     0
174
     0
 93
        1
 44
0.0
173
     0
291
     0
 45
0.0
  0
VISUALSTYLE
  5
35
102
{ACAD_REACTORS
330
2A
102
}
102
{ACAD_XDICTIONARY
360
254
102
}
330
2A
100
AcDbVisualStyle
  2
Dim
 70
    11
 71
     2
 72
     2
 73
     0
 90
        0
 40
0.6
 41
30.0
 62
     5
 63
     7
421
 16777215
 74
     1
 91
        4
 64
     7
 65
   257
 75
     1
175
     1
 42
1.0
 92
        8
 66
     7
 43
1.0
 76
     1
 77
     6
 78
     2
 67
     7
 79
     5
170
     0
171
     0
290
     0
174
     0
 93
        1
 44
-50.0
173
     0
291
     1
 45
0.0
  0
VISUALSTYLE
  5
3D
102
{ACAD_REACTORS
330
2A
102
}
102
{ACAD_XDICTIONARY
360
264
102
}
330
2A
100
AcDbVisualStyle
  2
EdgeColorOff
 70
    22
 71
     2
 72
     2
 73
     0
 90
        0
 40
0.6
 41
30.0
 62
     5
 63
     7
421
 16777215
 74
     1
 91
        4
 64
     7
 65
   257
 75
     1
175
     1
 42
1.0
 92
        8
 66
     7
 43
1.0
 76
     1
 77
     6
 78
     2
 67
     7
 79
     5
170
     0
171
     0
290
     0
174
     0
 93
        1
 44
0.0
173
     0
291
     1
 45
0.0
  0
VISUALSTYLE
  5
39
102
{ACAD_REACTORS
330
2A
102
}
102
{ACAD_XDICTIONARY
360
25C
102
}
330
2A
100
AcDbVisualStyle
  2
Facepattern
 70
    15
 71
     2
 72
     2
 73
     0
 90
        0
 40
0.6
 41
30.0
 62
     5
 63
     7
421
 16777215
 74
     1
 91
        4
 64
     7
 65
   257
 75
     1
175
     1
 42
1.0
 92
        8
 66
     7
 43
1.0
 76
     1
 77
     6
 78
     2
 67
     7
 79
     5
170
     0
171
     0
290
     0
174
     0
 93
        1
 44
0.0
173
     0
291
     1
 45
0.0
  0
VISUALSTYLE
  5
2B
102
{ACAD_REACTORS
330
2A
102
}
102
{ACAD_XDICTIONARY
360
240
102
}
330
2A
100
AcDbVisualStyle
  2
Flat
 70
     0
 71
     2
 72
     1
 73
     1
 90
        2
 40
0.6
 41
30.0
 62
     5
 63
     7
421
 16777215
 74
     0
 91
        0
 64
     7
 65
   257
 75
     1
175
     1
 42
1.0
 92
        8
 66
     7
 43
1.0
 76
     1
 77
     6
 78
     2
 67
     7
 79
     5
170
     0
171
     0
290
     0
174
     0
 93
       13
 44
0.0
173
     0
291
     1
 45
0.0
  0
VISUALSTYLE
  5
2C
102
{ACAD_REACTORS
330
2A
102
}
102
{ACAD_XDICTIONARY
360
242
102
}
330
2A
100
AcDbVisualStyle
  2
FlatWithEdges
 70
     1
 71
     2
 72
     1
 73
     1
 90
        2
 40
0.6
 41
30.0
 62
     5
 63
     7
421
 16777215
 74
     1
 91
        0
 64
     7
 65
   257
 75
     1
175
     1
 42
1.0
 92
        0
 66
   257
 43
1.0
 76
     1
 77
     6
 78
     2
 67
     7
 79
     5
170
     0
171
     0
290
     0
174
     0
 93
       13
 44
0.0
173
     0
291
     1
 45
0.0
  0
VISUALSTYLE
  5
2D
102
{ACAD_REACTORS
330
2A
102
}
102
{ACAD_XDICTIONARY
360
244
102
}
330
2A
100
AcDbVisualStyle
  2
Gouraud
 70
     2
 71
     2
 72
     2
 73
     1
 90
        2
 40
0.6
 41
30.0
 62
     5
 63
     7
421
 16777215
 74
     0
 91
        0
 64
     7
 65
   257
 75
     1
175
     1
 42
1.0
 92
        0
 66
     7
 43
1.0
 76
     1
 77
     6
 78
     2
 67
     7
 79
     5
170
     0
171
     0
290
     0
174
     0
 93
       13
 44
0.0
173
     0
291
     1
 45
0.0
  0
VISUALSTYLE
  5
2E
102
{ACAD_REACTORS
330
2A
102
}
102
{ACAD_XDICTIONARY
360
246
102
}
330
2A
100
AcDbVisualStyle
  2
GouraudWithEdges
 70
     3
 71
     2
 72
     2
 73
     1
 90
        2
 40
0.6
 41
30.0
 62
     5
 63
     7
421
 16777215
 74
     1
 91
        0
 64
     7
 65
   257
 75
     1
175
     1
 42
1.0
 92
        0
 66
   257
 43
1.0
 76
     1
 77
     6
 78
     2
 67
     7
 79
     5
170
     0
171
     0
290
     0
174
     0
 93
       13
 44
0.0
173
     0
291
     1
 45
0.0
  0
VISUALSTYLE
  5
31
102
{ACAD_REACTORS
330
2A
102
}
102
{ACAD_XDICTIONARY
360
24C
102
}
330
2A
100
AcDbVisualStyle
  2
Hidden
 70
     6
 71
     1
 72
     2
 73
     2
 90
        0
 40
0.6
 41
30.0
 62
     5
 63
     7
421
 16777215
 74
     2
 91
        2
 64
     7
 65
   257
 75
     2
175
     1
 42
40.0
 92
        0
 66
   257
 43
1.0
 76
     1
 77
     6
 78
     2
 67
     7
 79
     3
170
     0
171
     0
290
     0
174
     0
 93
        1
 44
0.0
173
     0
291
     0
 45
0.0
  0
VISUALSTYLE
  5
3B
102
{ACAD_REACTORS
330
2A
102
}
102
{ACAD_XDICTIONARY
360
260
102
}
330
2A
100
AcDbVisualStyle
  2
JitterOff
 70
    20
 71
     2
 72
     2
 73
     0
 90
        0
 40
0.6
 41
30.0
 62
     5
 63
     7
421
 16777215
 74
     1
 91
        4
 64
     7
 65
   257
 75
     1
175
     1
 42
1.0
 92
       10
 66
     7
 43
1.0
 76
     1
 77
     6
 78
     2
 67
     7
 79
     5
170
     0
171
     0
290
     0
174
     0
 93
        1
 44
0.0
173
     0
291
     1
 45
0.0
  0
VISUALSTYLE
  5
38
102
{ACAD_REACTORS
330
2A
102
}
102
{ACAD_XDICTIONARY
360
25A
102
}
330
2A
100
AcDbVisualStyle
  2
Linepattern
 70
    14
 71
     2
 72
     2
 73
     0
 90
        0
 40
0.6
 41
30.0
 62
     5
 63
     7
421
 16777215
 74
     1
 91
        4
 64
     7
 65
   257
 75
     7
175
     7
 42
1.0
 92
        8
 66
     7
 43
1.0
 76
     1
 77
     6
 78
     2
 67
     7
 79
     5
170
     0
171
     0
290
     0
174
     0
 93
        1
 44
0.0
173
     0
291
     1
 45
0.0
  0
VISUALSTYLE
  5
3C
102
{ACAD_REACTORS
330
2A
102
}
102
{ACAD_XDICTIONARY
360
262
102
}
330
2A
100
AcDbVisualStyle
  2
OverhangOff
 70
    21
 71
     2
 72
     2
 73
     0
 90
        0
 40
0.6
 41
30.0
 62
     5
 63
     7
421
 16777215
 74
     1
 91
        4
 64
     7
 65
   257
 75
     1
175
     1
 42
1.0
 92
        9
 66
     7
 43
1.0
 76
     1
 77
     6
 78
     2
 67
     7
 79
     5
170
     0
171
     0
290
     0
174
     0
 93
        1
 44
0.0
173
     0
291
     1
 45
0.0
  0
VISUALSTYLE
  5
33
102
{ACAD_REACTORS
330
2A
102
}
102
{ACAD_XDICTIONARY
360
250
102
}
330
2A
100
AcDbVisualStyle
  2
Realistic
 70
     8
 71
     2
 72
     3
 73
     0
 90
        2
 40
0.6
 41
30.0
 62
     5
 63
     7
421
 16777215
 74
     0
 91
        0
 64
     7
 65
   257
 75
     1
175
     1
 42
1.0
 92
        8
 66
   257
 43
1.0
 76
     1
 77
     6
 78
     2
 67
     7
 79
     3
170
     0
171
     0
290
     0
174
     0
 93
       13
 44
0.0
173
     0
291
     0
 45
0.0
  0
VISUALSTYLE
  5
42
102
{ACAD_REACTORS
330
2A
102
}
102
{ACAD_XDICTIONARY
360
26E
102
}
330
2A
100
AcDbVisualStyle
  2
Shaded
 70
    27
 71
     2
 72
     2
 73
     1
 90
        2
 40
0.6
 41
30.0
 62
     5
 63
     7
421
 16777215
 74
     0
 91
        4
 64
     7
 65
   257
 75
     1
175
     1
 42
1.0
 92
        8
 66
   257
 43
1.0
 76
     1
 77
     6
 78
     2
 67
     8
425
  7895160
 79
     3
170
     0
171
     0
290
     0
174
     0
 93
        5
 44
0.0
173
     0
291
     0
 45
0.0
  0
VISUALSTYLE
  5
41
102
{ACAD_REACTORS
330
2A
102
}
102
{ACAD_XDICTIONARY
360
26C
102
}
330
2A
100
AcDbVisualStyle
  2
Shaded with edges
 70
    26
 71
     2
 72
     2
 73
     1
 90
        2
 40
0.6
 41
30.0
 62
     5
 63
     7
421
 16777215
 74
     1
 91
       10
 64
     7
 65
   257
 75
     2
175
     1
 42
1.0
 92
        8
 66
   257
 43
1.0
 76
     1
 77
     6
 78
     2
 67
     7
 79
     3
170
     0
171
     0
290
     0
174
     0
 93
        5
 44
0.0
173
     0
291
     0
 45
0.0
  0
VISUALSTYLE
  5
3E
102
{ACAD_REACTORS
330
2A
102
}
102
{ACAD_XDICTIONARY
360
266
102
}
330
2A
100
AcDbVisualStyle
  2
Shades of Gray
 70
    23
 71
     2
 72
     2
 73
     3
 90
        0
 40
0.6
 41
30.0
 62
     5
 63
     7
421
 16777215
 74
     2
 91
        2
 64
     7
 65
     7
 75
     1
175
     1
 42
40.0
 92
        8
 66
     7
 43
1.0
 76
     1
 77
     6
 78
     2
 67
     7
 79
     3
170
     0
171
     0
290
     0
174
     0
 93
        1
 44
0.0
173
     0
291
     0
 45
0.0
  0
VISUALSTYLE
  5
3F
102
{ACAD_REACTORS
330
2A
102
}
102
{ACAD_XDICTIONARY
360
268
102
}
330
2A
100
AcDbVisualStyle
  2
Sketchy
 70
    24
 71
     1
 72
     2
 73
     2
 90
        0
 40
0.6
 41
30.0
 62
     5
 63
     7
421
 16777215
 74
     2
 91
        2
 64
     7
 65
     7
 75
     1
175
     1
 42
40.0
 92
       11
 66
     7
 43
1.0
 76
     1
 77
     6
 78
     2
 67
     7
 79
     6
170
     0
171
     0
290
     0
174
     0
 93
        1
 44
0.0
173
     0
291
     0
 45
0.0
  0
VISUALSTYLE
  5
37
102
{ACAD_REACTORS
330
2A
102
}
102
{ACAD_XDICTIONARY
360
258
102
}
330
2A
100
AcDbVisualStyle
  2
Thicken
 70
    13
 71
     2
 72
     2
 73
     0
 90
        0
 40
0.6
 41
30.0
 62
     5
 63
     7
421
 16777215
 74
     1
 91
        4
 64
     7
 65
   257
 75
     1
175
     1
 42
1.0
 92
       12
 66
     7
 43
1.0
 76
     1
 77
     6
 78
     2
 67
     7
 79
     5
170
     0
171
     0
290
     0
174
     0
 93
        1
 44
0.0
173
     0
291
     1
 45
0.0
  0
VISUALSTYLE
  5
30
102
{ACAD_REACTORS
330
2A
102
}
102
{ACAD_XDICTIONARY
360
24A
102
}
330
2A
100
AcDbVisualStyle
  2
Wireframe
 70
     5
 71
     0
 72
     2
 73
     0
 90
        0
 40
0.6
 41
30.0
 62
     5
 63
     7
421
 16777215
 74
     1
 91
        4
 64
     7
 65
   257
 75
     1
175
     1
 42
1.0
 92
        0
 66
   257
 43
1.0
 76
     1
 77
     6
 78
     2
 67
     7
 79
     3
170
     0
171
     0
290
     0
174
     0
 93
        1
 44
0.0
173
     0
291
     0
 45
0.0
  0
VISUALSTYLE
  5
40
102
{ACAD_REACTORS
330
2A
102
}
102
{ACAD_XDICTIONARY
360
26A
102
}
330
2A
100
AcDbVisualStyle
  2
X-Ray
 70
    25
 71
     2
 72
     2
 73
     1
 90
        1
 40
0.5
 41
30.0
 62
     5
 63
     7
421
 16777215
 74
     1
 91
        0
 64
     7
 65
   257
 75
     1
175
     1
 42
1.0
 92
        8
 66
     7
 43
1.0
 76
     1
 77
     6
 78
     2
 67
     7
 79
     3
170
     0
171
     0
290
     0
174
     0
 93
       13
 44
0.0
173
     0
291
     0
 45
0.0
  0
DICTIONARYVAR
  5
23E
102
{ACAD_REACTORS
330
23D
102
}
330
23D
100
DictionaryVariables
280
     0
  1
1:1
  0
DICTIONARYVAR
  5
27A
102
{ACAD_REACTORS
330
23D
102
}
330
23D
100
DictionaryVariables
280
     0
  1
3.500000
  0
DICTIONARYVAR
  5
27B
102
{ACAD_REACTORS
330
23D
102
}
330
23D
100
DictionaryVariables
280
     0
  1
acadiso.lin
  0
DICTIONARYVAR
  5
277
102
{ACAD_REACTORS
330
23D
102
}
330
23D
100
DictionaryVariables
280
     0
  1
Standard
  0
DICTIONARYVAR
  5
276
102
{ACAD_REACTORS
330
23D
102
}
330
23D
100
DictionaryVariables
280
     0
  1
Standard
  0
DICTIONARYVAR
  5
23F
102
{ACAD_REACTORS
330
23D
102
}
330
23D
100
DictionaryVariables
280
     0
  1
2
  0
DICTIONARY
  5
273
330
6C
100
AcDbDictionary
280
     1
281
     1
  3
ACAD_XREC_ROUNDTRIP
360
274
  0
DICTIONARY
  5
270
330
6A
100
AcDbDictionary
280
     1
281
     1
  3
ACAD_ROUNDTRIP_2008_TABLESTYLE_CELLSTYLEMAP
360
271
  0
DICTIONARY
  5
248
330
2F
100
AcDbDictionary
280
     1
281
     1
  3
ACAD_XREC_ROUNDTRIP
360
249
  0
DICTIONARY
  5
24E
330
32
100
AcDbDictionary
280
     1
281
     1
  3
ACAD_XREC_ROUNDTRIP
360
24F
  0
DICTIONARY
  5
256
330
36
100
AcDbDictionary
280
     1
281
     1
  3
ACAD_XREC_ROUNDTRIP
360
257
  0
DICTIONARY
  5
25E
330
3A
100
AcDbDictionary
280
     1
281
     1
  3
ACAD_XREC_ROUNDTRIP
360
25F
  0
DICTIONARY
  5
252
330
34
100
AcDbDictionary
280
     1
281
     1
  3
ACAD_XREC_ROUNDTRIP
360
253
  0
DICTIONARY
  5
254
330
35
100
AcDbDictionary
280
     1
281
     1
  3
ACAD_XREC_ROUNDTRIP
360
255
  0
DICTIONARY
  5
264
330
3D
100
AcDbDictionary
280
     1
281
     1
  3
ACAD_XREC_ROUNDTRIP
360
265
  0
DICTIONARY
  5
25C
330
39
100
AcDbDictionary
280
     1
281
     1
  3
ACAD_XREC_ROUNDTRIP
360
25D
  0
DICTIONARY
  5
240
330
2B
100
AcDbDictionary
280
     1
281
     1
  3
ACAD_XREC_ROUNDTRIP
360
241
  0
DICTIONARY
  5
242
330
2C
100
AcDbDictionary
280
     1
281
     1
  3
ACAD_XREC_ROUNDTRIP
360
243
  0
DICTIONARY
  5
244
330
2D
100
AcDbDictionary
280
     1
281
     1
  3
ACAD_XREC_ROUNDTRIP
360
245
  0
DICTIONARY
  5
246
330
2E
100
AcDbDictionary
280
     1
281
     1
  3
ACAD_XREC_ROUNDTRIP
360
247
  0
DICTIONARY
  5
24C
330
31
100
AcDbDictionary
280
     1
281
     1
  3
ACAD_XREC_ROUNDTRIP
360
24D
  0
DICTIONARY
  5
260
330
3B
100
AcDbDictionary
280
     1
281
     1
  3
ACAD_XREC_ROUNDTRIP
360
261
  0
DICTIONARY
  5
25A
330
38
100
AcDbDictionary
280
     1
281
     1
  3
ACAD_XREC_ROUNDTRIP
360
25B
  0
DICTIONARY
  5
262
330
3C
100
AcDbDictionary
280
     1
281
     1
  3
ACAD_XREC_ROUNDTRIP
360
263
  0
DICTIONARY
  5
250
330
33
100
AcDbDictionary
280
     1
281
     1
  3
ACAD_XREC_ROUNDTRIP
360
251
  0
DICTIONARY
  5
26E
330
42
100
AcDbDictionary
280
     1
281
     1
  3
ACAD_XREC_ROUNDTRIP
360
26F
  0
DICTIONARY
  5
26C
330
41
100
AcDbDictionary
280
     1
281
     1
  3
ACAD_XREC_ROUNDTRIP
360
26D
  0
DICTIONARY
  5
266
330
3E
100
AcDbDictionary
280
     1
281
     1
  3
ACAD_XREC_ROUNDTRIP
360
267
  0
DICTIONARY
  5
268
330
3F
100
AcDbDictionary
280
     1
281
     1
  3
ACAD_XREC_ROUNDTRIP
360
269
  0
DICTIONARY
  5
258
330
37
100
AcDbDictionary
280
     1
281
     1
  3
ACAD_XREC_ROUNDTRIP
360
259
  0
DICTIONARY
  5
24A
330
30
100
AcDbDictionary
280
     1
281
     1
  3
ACAD_XREC_ROUNDTRIP
360
24B
  0
DICTIONARY
  5
26A
330
40
100
AcDbDictionary
280
     1
281
     1
  3
ACAD_XREC_ROUNDTRIP
360
26B
  0
XRECORD
  5
274
102
{ACAD_REACTORS
330
273
102
}
330
273
100
AcDbXrecord
280
     1
102
ACAD_ROUNDTRIP_2010_MLEADER_STYLE
  0
CELLSTYLEMAP
  5
271
102
{ACAD_REACTORS
330
270
102
}
330
270
100
AcDbCellStyleMap
 90
        3
300
CELLSTYLE
  1
TABLEFORMAT_BEGIN
 90
        5
170
     1
 91
        0
 92
    32768
 62
   257
 93
        1
300
CONTENTFORMAT
  1
CONTENTFORMAT_BEGIN
 90
        0
 91
        0
 92
        4
 93
        0
300

 40
0.0
140
1.0
 94
        5
 62
     0
340
11
144
6.0
309
CONTENTFORMAT_END
171
     1
301
MARGIN
  1
CELLMARGIN_BEGIN
 40
1.5
 40
1.5
 40
1.5
 40
1.5
 40
1.5
 40
1.5
309
CELLMARGIN_END
 94
        6
 95
        1
302
GRIDFORMAT
  1
GRIDFORMAT_BEGIN
 90
        0
 91
        1
 62
     0
 92
       -2
340
14
 93
        0
 40
0.045
309
GRIDFORMAT_END
 95
        2
302
GRIDFORMAT
  1
GRIDFORMAT_BEGIN
 90
        0
 91
        1
 62
     0
 92
       -2
340
14
 93
        0
 40
0.045
309
GRIDFORMAT_END
 95
        4
302
GRIDFORMAT
  1
GRIDFORMAT_BEGIN
 90
        0
 91
        1
 62
     0
 92
       -2
340
14
 93
        0
 40
0.045
309
GRIDFORMAT_END
 95
        8
302
GRIDFORMAT
  1
GRIDFORMAT_BEGIN
 90
        0
 91
        1
 62
     0
 92
       -2
340
14
 93
        0
 40
0.045
309
GRIDFORMAT_END
 95
       16
302
GRIDFORMAT
  1
GRIDFORMAT_BEGIN
 90
        0
 91
        1
 62
     0
 92
       -2
340
14
 93
        0
 40
0.045
309
GRIDFORMAT_END
 95
       32
302
GRIDFORMAT
  1
GRIDFORMAT_BEGIN
 90
        0
 91
        1
 62
     0
 92
       -2
340
14
 93
        0
 40
0.045
309
GRIDFORMAT_END
309
TABLEFORMAT_END
  1
CELLSTYLE_BEGIN
 90
        1
 91
        1
300
_TITLE
309
CELLSTYLE_END
300
CELLSTYLE
  1
TABLEFORMAT_BEGIN
 90
        5
170
     1
 91
        0
 92
        0
 62
   257
 93
        1
300
CONTENTFORMAT
  1
CONTENTFORMAT_BEGIN
 90
        0
 91
        0
 92
        4
 93
        0
300

 40
0.0
140
1.0
 94
        5
 62
     0
340
11
144
4.5
309
CONTENTFORMAT_END
171
     1
301
MARGIN
  1
CELLMARGIN_BEGIN
 40
1.5
 40
1.5
 40
1.5
 40
1.5
 40
1.5
 40
1.5
309
CELLMARGIN_END
 94
        6
 95
        1
302
GRIDFORMAT
  1
GRIDFORMAT_BEGIN
 90
        0
 91
        1
 62
     0
 92
       -2
340
14
 93
        0
 40
0.045
309
GRIDFORMAT_END
 95
        2
302
GRIDFORMAT
  1
GRIDFORMAT_BEGIN
 90
        0
 91
        1
 62
     0
 92
       -2
340
14
 93
        0
 40
0.045
309
GRIDFORMAT_END
 95
        4
302
GRIDFORMAT
  1
GRIDFORMAT_BEGIN
 90
        0
 91
        1
 62
     0
 92
       -2
340
14
 93
        0
 40
0.045
309
GRIDFORMAT_END
 95
        8
302
GRIDFORMAT
  1
GRIDFORMAT_BEGIN
 90
        0
 91
        1
 62
     0
 92
       -2
340
14
 93
        0
 40
0.045
309
GRIDFORMAT_END
 95
       16
302
GRIDFORMAT
  1
GRIDFORMAT_BEGIN
 90
        0
 91
        1
 62
     0
 92
       -2
340
14
 93
        0
 40
0.045
309
GRIDFORMAT_END
 95
       32
302
GRIDFORMAT
  1
GRIDFORMAT_BEGIN
 90
        0
 91
        1
 62
     0
 92
       -2
340
14
 93
        0
 40
0.045
309
GRIDFORMAT_END
309
TABLEFORMAT_END
  1
CELLSTYLE_BEGIN
 90
        2
 91
        1
300
_HEADER
309
CELLSTYLE_END
300
CELLSTYLE
  1
TABLEFORMAT_BEGIN
 90
        5
170
     1
 91
        0
 92
        0
 62
   257
 93
        1
300
CONTENTFORMAT
  1
CONTENTFORMAT_BEGIN
 90
        0
 91
        0
 92
        4
 93
        0
300

 40
0.0
140
1.0
 94
        2
 62
     0
340
11
144
4.5
309
CONTENTFORMAT_END
171
     1
301
MARGIN
  1
CELLMARGIN_BEGIN
 40
1.5
 40
1.5
 40
1.5
 40
1.5
 40
1.5
 40
1.5
309
CELLMARGIN_END
 94
        6
 95
        1
302
GRIDFORMAT
  1
GRIDFORMAT_BEGIN
 90
        0
 91
        1
 62
     0
 92
       -2
340
14
 93
        0
 40
0.045
309
GRIDFORMAT_END
 95
        2
302
GRIDFORMAT
  1
GRIDFORMAT_BEGIN
 90
        0
 91
        1
 62
     0
 92
       -2
340
14
 93
        0
 40
0.045
309
GRIDFORMAT_END
 95
        4
302
GRIDFORMAT
  1
GRIDFORMAT_BEGIN
 90
        0
 91
        1
 62
     0
 92
       -2
340
14
 93
        0
 40
0.045
309
GRIDFORMAT_END
 95
        8
302
GRIDFORMAT
  1
GRIDFORMAT_BEGIN
 90
        0
 91
        1
 62
     0
 92
       -2
340
14
 93
        0
 40
0.045
309
GRIDFORMAT_END
 95
       16
302
GRIDFORMAT
  1
GRIDFORMAT_BEGIN
 90
        0
 91
        1
 62
     0
 92
       -2
340
14
 93
        0
 40
0.045
309
GRIDFORMAT_END
 95
       32
302
GRIDFORMAT
  1
GRIDFORMAT_BEGIN
 90
        0
 91
        1
 62
     0
 92
       -2
340
14
 93
        0
 40
0.045
309
GRIDFORMAT_END
309
TABLEFORMAT_END
  1
CELLSTYLE_BEGIN
 90
        3
 91
        2
300
_DATA
309
CELLSTYLE_END
  0
XRECORD
  5
249
102
{ACAD_REACTORS
330
248
102
}
330
248
100
AcDbXrecord
280
     1
102
RTVSPropertyOp0
 70
     1
102
RTVSPropertyOp1
 70
     1
102
RTVSPropertyOp2
 70
     1
102
RTVSPropertyOp3
 70
     1
102
RTVSPropertyOp4
 70
     1
102
RTVSPropertyOp5
 70
     1
102
RTVSPropertyOp6
 70
     1
102
RTVSPropertyOp7
 70
     1
102
RTVSPropertyOp8
 70
     1
102
RTVSPropertyOp9
 70
     1
102
RTVSPropertyOp10
 70
     1
102
RTVSPropertyOp11
 70
     1
102
RTVSPropertyOp12
 70
     1
102
RTVSPropertyOp13
 70
     1
102
RTVSPropertyOp14
 70
     1
102
RTVSPropertyOp15
 70
     1
102
RTVSPropertyOp16
 70
     1
102
RTVSPropertyOp17
 70
     1
102
RTVSPropertyOp18
 70
     1
102
RTVSPropertyOp19
 70
     1
102
RTVSPropertyOp20
 70
     1
102
RTVSPropertyOp21
 70
     1
102
RTVSPropertyOp22
 70
     1
102
RTVSPropertyOp23
 70
     1
102
RTVSPropertyOp24
 70
     1
102
RTVSPropertyOp25
 70
     1
102
RTVSPropertyOp26
 70
     1
102
RTVSPropertyOp27
 70
     1
102
RTVSPropertyOp28
 70
     1
102
RTVSPropertyOp29
 70
     1
102
RTVSPropertyOp30
 70
     1
102
RTVSPropertyOp31
 70
     1
102
RTVSPropertyOp32
 70
     1
102
RTVSPropertyOp33
 70
     1
102
RTVSPropertyOp34
 70
     1
102
RTVSPropertyOp35
 70
     1
102
RTVSPropertyOp36
 70
     1
102
RTVSPropertyOp37
 70
     1
102
RTVSPropertyOp38
 70
     1
102
RTVSPropertyOp39
 70
     1
102
RTVSPropertyOp40
 70
     1
102
RTVSPropertyOp41
 70
     1
102
RTVSPropertyOp42
 70
     1
102
RTVSPropertyOp43
 70
     1
102
RTVSPropertyOp44
 70
     1
102
RTVSPropertyOp45
 70
     1
102
RTVSPropertyOp46
 70
     1
102
RTVSPropertyOp47
 70
     1
102
RTVSPropertyOp48
 70
     1
102
RTVSPropertyOp49
 70
     1
102
RTVSPropertyOp50
 70
     1
102
RTVSPropertyOp51
 70
     0
102
RTVSPropertyOp52
 70
     0
102
RTVSPropertyOp53
 70
     1
102
RTVSPropertyOp54
 70
     1
102
RTVSPropertyOp55
 70
     1
102
RTVSPropertyOp56
 70
     1
102
RTVSPropertyOp57
 70
     1
102
RTVSPost2010Prop28
280
     1
102
RTVSPost2010PropOp28
 70
     1
102
RTVSPost2010Prop29
280
     1
102
RTVSPost2010PropOp29
 70
     1
102
RTVSPost2010Prop30
280
     0
102
RTVSPost2010PropOp30
 70
     1
102
RTVSPost2010Prop31
280
     0
102
RTVSPost2010PropOp31
 70
     1
102
RTVSPost2010Prop32
280
     0
102
RTVSPost2010PropOp32
 70
     1
102
RTVSPost2010Prop33
280
     0
102
RTVSPost2010PropOp33
 70
     1
102
RTVSPost2010Prop34
280
     0
102
RTVSPost2010PropOp34
 70
     1
102
RTVSPost2010Prop35
280
     0
102
RTVSPost2010PropOp35
 70
     1
102
RTVSPost2010Prop36
280
     0
102
RTVSPost2010PropOp36
 70
     1
102
RTVSPost2010Prop37
 90
       50
102
RTVSPost2010PropOp37
 70
     1
102
RTVSPost2010Prop38
140
0.0
102
RTVSPost2010PropOp38
 70
     1
102
RTVSPost2010Prop39
140
1.0
102
RTVSPost2010PropOp39
 70
     1
102
RTVSPost2010Prop40
 90
        0
102
RTVSPost2010PropOp40
 70
     1
102
RTVSPost2010Prop41ColorIndex
 90
       18
102
RTVSPost2010Prop41ColorRGB
 90
        0
102
RTVSPost2010PropOp41
 70
     1
102
RTVSPost2010Prop42
 90
       50
102
RTVSPost2010PropOp42
 70
     1
102
RTVSPost2010Prop43
 90
        3
102
RTVSPost2010PropOp43
 70
     1
102
RTVSPost2010Prop44ColorIndex
 90
        5
102
RTVSPost2010Prop44ColorRGB
 90
      255
102
RTVSPost2010PropOp44
 70
     1
102
RTVSPost2010Prop45
280
     0
102
RTVSPost2010PropOp45
 70
     1
102
RTVSPost2010Prop46
 90
       50
102
RTVSPost2010PropOp46
 70
     1
102
RTVSPost2010Prop47
 90
       50
102
RTVSPost2010PropOp47
 70
     1
102
RTVSPost2010Prop48
 90
       50
102
RTVSPost2010PropOp48
 70
     1
102
RTVSPost2010Prop49
280
     0
102
RTVSPost2010PropOp49
 70
     1
102
RTVSPost2010Prop50
 90
       50
102
RTVSPost2010PropOp50
 70
     1
102
RTVSPost2010Prop51ColorIndex
 90
      256
102
RTVSPost2010Prop51ColorRGB
 90
-16777216
102
RTVSPost2010PropOp51
 70
     0
102
RTVSPost2010Prop52
140
1.0
102
RTVSPost2010PropOp52
 70
     0
102
RTVSPost2010Prop53
 90
        2
102
RTVSPost2010PropOp53
 70
     1
102
RTVSPost2010Prop54
  1
strokes_ogs.tif
102
RTVSPost2010PropOp54
 70
     1
102
RTVSPost2010Prop55
280
     0
102
RTVSPost2010PropOp55
 70
     1
102
RTVSPost2010Prop56
140
1.0
102
RTVSPost2010PropOp56
 70
     1
102
RTVSPost2010Prop57
140
1.0
102
RTVSPost2010PropOp57
 70
     1
  0
XRECORD
  5
24F
102
{ACAD_REACTORS
330
24E
102
}
330
24E
100
AcDbXrecord
280
     1
102
RTVSPropertyOp0
 70
     1
102
RTVSPropertyOp1
 70
     1
102
RTVSPropertyOp2
 70
     1
102
RTVSPropertyOp3
 70
     1
102
RTVSPropertyOp4
 70
     1
102
RTVSPropertyOp5
 70
     1
102
RTVSPropertyOp6
 70
     1
102
RTVSPropertyOp7
 70
     1
102
RTVSPropertyOp8
 70
     1
102
RTVSPropertyOp9
 70
     1
102
RTVSPropertyOp10
 70
     1
102
RTVSPropertyOp11
 70
     1
102
RTVSPropertyOp12
 70
     1
102
RTVSPropertyOp13
 70
     1
102
RTVSPropertyOp14
 70
     1
102
RTVSPropertyOp15
 70
     1
102
RTVSPropertyOp16
 70
     1
102
RTVSPropertyOp17
 70
     1
102
RTVSPropertyOp18
 70
     1
102
RTVSPropertyOp19
 70
     1
102
RTVSPropertyOp20
 70
     1
102
RTVSPropertyOp21
 70
     1
102
RTVSPropertyOp22
 70
     1
102
RTVSPropertyOp23
 70
     1
102
RTVSPropertyOp24
 70
     1
102
RTVSPropertyOp25
 70
     1
102
RTVSPropertyOp26
 70
     1
102
RTVSPropertyOp27
 70
     1
102
RTVSPropertyOp28
 70
     1
102
RTVSPropertyOp29
 70
     1
102
RTVSPropertyOp30
 70
     1
102
RTVSPropertyOp31
 70
     1
102
RTVSPropertyOp32
 70
     1
102
RTVSPropertyOp33
 70
     1
102
RTVSPropertyOp34
 70
     1
102
RTVSPropertyOp35
 70
     1
102
RTVSPropertyOp36
 70
     1
102
RTVSPropertyOp37
 70
     1
102
RTVSPropertyOp38
 70
     1
102
RTVSPropertyOp39
 70
     1
102
RTVSPropertyOp40
 70
     1
102
RTVSPropertyOp41
 70
     1
102
RTVSPropertyOp42
 70
     1
102
RTVSPropertyOp43
 70
     1
102
RTVSPropertyOp44
 70
     1
102
RTVSPropertyOp45
 70
     1
102
RTVSPropertyOp46
 70
     1
102
RTVSPropertyOp47
 70
     1
102
RTVSPropertyOp48
 70
     1
102
RTVSPropertyOp49
 70
     1
102
RTVSPropertyOp50
 70
     1
102
RTVSPropertyOp51
 70
     0
102
RTVSPropertyOp52
 70
     0
102
RTVSPropertyOp53
 70
     1
102
RTVSPropertyOp54
 70
     1
102
RTVSPropertyOp55
 70
     1
102
RTVSPropertyOp56
 70
     1
102
RTVSPropertyOp57
 70
     1
102
RTVSPost2010Prop28
280
     0
102
RTVSPost2010PropOp28
 70
     1
102
RTVSPost2010Prop29
280
     1
102
RTVSPost2010PropOp29
 70
     1
102
RTVSPost2010Prop30
280
     1
102
RTVSPost2010PropOp30
 70
     1
102
RTVSPost2010Prop31
280
     0
102
RTVSPost2010PropOp31
 70
     1
102
RTVSPost2010Prop32
280
     0
102
RTVSPost2010PropOp32
 70
     1
102
RTVSPost2010Prop33
280
     0
102
RTVSPost2010PropOp33
 70
     1
102
RTVSPost2010Prop34
280
     0
102
RTVSPost2010PropOp34
 70
     1
102
RTVSPost2010Prop35
280
     0
102
RTVSPost2010PropOp35
 70
     1
102
RTVSPost2010Prop36
280
     0
102
RTVSPost2010PropOp36
 70
     1
102
RTVSPost2010Prop37
 90
       50
102
RTVSPost2010PropOp37
 70
     1
102
RTVSPost2010Prop38
140
0.0
102
RTVSPost2010PropOp38
 70
     1
102
RTVSPost2010Prop39
140
1.0
102
RTVSPost2010PropOp39
 70
     1
102
RTVSPost2010Prop40
 90
        0
102
RTVSPost2010PropOp40
 70
     1
102
RTVSPost2010Prop41ColorIndex
 90
       18
102
RTVSPost2010Prop41ColorRGB
 90
        0
102
RTVSPost2010PropOp41
 70
     1
102
RTVSPost2010Prop42
 90
       50
102
RTVSPost2010PropOp42
 70
     1
102
RTVSPost2010Prop43
 90
        3
102
RTVSPost2010PropOp43
 70
     1
102
RTVSPost2010Prop44ColorIndex
 90
        5
102
RTVSPost2010Prop44ColorRGB
 90
      255
102
RTVSPost2010PropOp44
 70
     1
102
RTVSPost2010Prop45
280
     0
102
RTVSPost2010PropOp45
 70
     1
102
RTVSPost2010Prop46
 90
       50
102
RTVSPost2010PropOp46
 70
     1
102
RTVSPost2010Prop47
 90
       50
102
RTVSPost2010PropOp47
 70
     1
102
RTVSPost2010Prop48
 90
       50
102
RTVSPost2010PropOp48
 70
     1
102
RTVSPost2010Prop49
280
     0
102
RTVSPost2010PropOp49
 70
     1
102
RTVSPost2010Prop50
 90
       50
102
RTVSPost2010PropOp50
 70
     1
102
RTVSPost2010Prop51ColorIndex
 90
      256
102
RTVSPost2010Prop51ColorRGB
 90
-16777216
102
RTVSPost2010PropOp51
 70
     0
102
RTVSPost2010Prop52
140
1.0
102
RTVSPost2010PropOp52
 70
     0
102
RTVSPost2010Prop53
 90
        2
102
RTVSPost2010PropOp53
 70
     1
102
RTVSPost2010Prop54
  1
strokes_ogs.tif
102
RTVSPost2010PropOp54
 70
     1
102
RTVSPost2010Prop55
280
     0
102
RTVSPost2010PropOp55
 70
     1
102
RTVSPost2010Prop56
140
1.0
102
RTVSPost2010PropOp56
 70
     1
102
RTVSPost2010Prop57
140
1.0
102
RTVSPost2010PropOp57
 70
     1
  0
XRECORD
  5
257
102
{ACAD_REACTORS
330
256
102
}
330
256
100
AcDbXrecord
280
     1
102
RTVSPropertyOp0
 70
     1
102
RTVSPropertyOp1
 70
     1
102
RTVSPropertyOp2
 70
     1
102
RTVSPropertyOp3
 70
     1
102
RTVSPropertyOp4
 70
     1
102
RTVSPropertyOp5
 70
     1
102
RTVSPropertyOp6
 70
     1
102
RTVSPropertyOp7
 70
     1
102
RTVSPropertyOp8
 70
     1
102
RTVSPropertyOp9
 70
     1
102
RTVSPropertyOp10
 70
     1
102
RTVSPropertyOp11
 70
     1
102
RTVSPropertyOp12
 70
     1
102
RTVSPropertyOp13
 70
     1
102
RTVSPropertyOp14
 70
     1
102
RTVSPropertyOp15
 70
     1
102
RTVSPropertyOp16
 70
     1
102
RTVSPropertyOp17
 70
     1
102
RTVSPropertyOp18
 70
     1
102
RTVSPropertyOp19
 70
     1
102
RTVSPropertyOp20
 70
     1
102
RTVSPropertyOp21
 70
     1
102
RTVSPropertyOp22
 70
     1
102
RTVSPropertyOp23
 70
     1
102
RTVSPropertyOp24
 70
     1
102
RTVSPropertyOp25
 70
     1
102
RTVSPropertyOp26
 70
     1
102
RTVSPropertyOp27
 70
     1
102
RTVSPropertyOp28
 70
     1
102
RTVSPropertyOp29
 70
     1
102
RTVSPropertyOp30
 70
     1
102
RTVSPropertyOp31
 70
     1
102
RTVSPropertyOp32
 70
     1
102
RTVSPropertyOp33
 70
     1
102
RTVSPropertyOp34
 70
     1
102
RTVSPropertyOp35
 70
     1
102
RTVSPropertyOp36
 70
     1
102
RTVSPropertyOp37
 70
     1
102
RTVSPropertyOp38
 70
     1
102
RTVSPropertyOp39
 70
     1
102
RTVSPropertyOp40
 70
     1
102
RTVSPropertyOp41
 70
     1
102
RTVSPropertyOp42
 70
     1
102
RTVSPropertyOp43
 70
     1
102
RTVSPropertyOp44
 70
     1
102
RTVSPropertyOp45
 70
     1
102
RTVSPropertyOp46
 70
     1
102
RTVSPropertyOp47
 70
     1
102
RTVSPropertyOp48
 70
     1
102
RTVSPropertyOp49
 70
     1
102
RTVSPropertyOp50
 70
     1
102
RTVSPropertyOp51
 70
     0
102
RTVSPropertyOp52
 70
     0
102
RTVSPropertyOp53
 70
     1
102
RTVSPropertyOp54
 70
     1
102
RTVSPropertyOp55
 70
     1
102
RTVSPropertyOp56
 70
     1
102
RTVSPropertyOp57
 70
     1
102
RTVSPost2010Prop28
280
     0
102
RTVSPost2010PropOp28
 70
     1
102
RTVSPost2010Prop29
280
     1
102
RTVSPost2010PropOp29
 70
     1
102
RTVSPost2010Prop30
280
     1
102
RTVSPost2010PropOp30
 70
     1
102
RTVSPost2010Prop31
280
     0
102
RTVSPost2010PropOp31
 70
     1
102
RTVSPost2010Prop32
280
     0
102
RTVSPost2010PropOp32
 70
     1
102
RTVSPost2010Prop33
280
     0
102
RTVSPost2010PropOp33
 70
     1
102
RTVSPost2010Prop34
280
     0
102
RTVSPost2010PropOp34
 70
     1
102
RTVSPost2010Prop35
280
     0
102
RTVSPost2010PropOp35
 70
     1
102
RTVSPost2010Prop36
280
     0
102
RTVSPost2010PropOp36
 70
     1
102
RTVSPost2010Prop37
 90
       50
102
RTVSPost2010PropOp37
 70
     1
102
RTVSPost2010Prop38
140
0.0
102
RTVSPost2010PropOp38
 70
     1
102
RTVSPost2010Prop39
140
1.0
102
RTVSPost2010PropOp39
 70
     1
102
RTVSPost2010Prop40
 90
        0
102
RTVSPost2010PropOp40
 70
     1
102
RTVSPost2010Prop41ColorIndex
 90
       18
102
RTVSPost2010Prop41ColorRGB
 90
        0
102
RTVSPost2010PropOp41
 70
     1
102
RTVSPost2010Prop42
 90
       50
102
RTVSPost2010PropOp42
 70
     1
102
RTVSPost2010Prop43
 90
        3
102
RTVSPost2010PropOp43
 70
     1
102
RTVSPost2010Prop44ColorIndex
 90
        5
102
RTVSPost2010Prop44ColorRGB
 90
      255
102
RTVSPost2010PropOp44
 70
     1
102
RTVSPost2010Prop45
280
     0
102
RTVSPost2010PropOp45
 70
     1
102
RTVSPost2010Prop46
 90
       50
102
RTVSPost2010PropOp46
 70
     1
102
RTVSPost2010Prop47
 90
       50
102
RTVSPost2010PropOp47
 70
     1
102
RTVSPost2010Prop48
 90
       50
102
RTVSPost2010PropOp48
 70
     1
102
RTVSPost2010Prop49
280
     0
102
RTVSPost2010PropOp49
 70
     1
102
RTVSPost2010Prop50
 90
       50
102
RTVSPost2010PropOp50
 70
     1
102
RTVSPost2010Prop51ColorIndex
 90
      256
102
RTVSPost2010Prop51ColorRGB
 90
-16777216
102
RTVSPost2010PropOp51
 70
     0
102
RTVSPost2010Prop52
140
1.0
102
RTVSPost2010PropOp52
 70
     0
102
RTVSPost2010Prop53
 90
        2
102
RTVSPost2010PropOp53
 70
     1
102
RTVSPost2010Prop54
  1
strokes_ogs.tif
102
RTVSPost2010PropOp54
 70
     1
102
RTVSPost2010Prop55
280
     0
102
RTVSPost2010PropOp55
 70
     1
102
RTVSPost2010Prop56
140
1.0
102
RTVSPost2010PropOp56
 70
     1
102
RTVSPost2010Prop57
140
1.0
102
RTVSPost2010PropOp57
 70
     1
  0
XRECORD
  5
25F
102
{ACAD_REACTORS
330
25E
102
}
330
25E
100
AcDbXrecord
280
     1
102
RTVSPropertyOp0
 70
     1
102
RTVSPropertyOp1
 70
     1
102
RTVSPropertyOp2
 70
     1
102
RTVSPropertyOp3
 70
     1
102
RTVSPropertyOp4
 70
     1
102
RTVSPropertyOp5
 70
     1
102
RTVSPropertyOp6
 70
     1
102
RTVSPropertyOp7
 70
     1
102
RTVSPropertyOp8
 70
     1
102
RTVSPropertyOp9
 70
     1
102
RTVSPropertyOp10
 70
     1
102
RTVSPropertyOp11
 70
     1
102
RTVSPropertyOp12
 70
     1
102
RTVSPropertyOp13
 70
     1
102
RTVSPropertyOp14
 70
     1
102
RTVSPropertyOp15
 70
     1
102
RTVSPropertyOp16
 70
     1
102
RTVSPropertyOp17
 70
     1
102
RTVSPropertyOp18
 70
     1
102
RTVSPropertyOp19
 70
     1
102
RTVSPropertyOp20
 70
     1
102
RTVSPropertyOp21
 70
     1
102
RTVSPropertyOp22
 70
     1
102
RTVSPropertyOp23
 70
     1
102
RTVSPropertyOp24
 70
     1
102
RTVSPropertyOp25
 70
     1
102
RTVSPropertyOp26
 70
     1
102
RTVSPropertyOp27
 70
     1
102
RTVSPropertyOp28
 70
     1
102
RTVSPropertyOp29
 70
     1
102
RTVSPropertyOp30
 70
     1
102
RTVSPropertyOp31
 70
     1
102
RTVSPropertyOp32
 70
     1
102
RTVSPropertyOp33
 70
     1
102
RTVSPropertyOp34
 70
     1
102
RTVSPropertyOp35
 70
     1
102
RTVSPropertyOp36
 70
     1
102
RTVSPropertyOp37
 70
     1
102
RTVSPropertyOp38
 70
     1
102
RTVSPropertyOp39
 70
     1
102
RTVSPropertyOp40
 70
     1
102
RTVSPropertyOp41
 70
     1
102
RTVSPropertyOp42
 70
     1
102
RTVSPropertyOp43
 70
     1
102
RTVSPropertyOp44
 70
     1
102
RTVSPropertyOp45
 70
     1
102
RTVSPropertyOp46
 70
     1
102
RTVSPropertyOp47
 70
     1
102
RTVSPropertyOp48
 70
     1
102
RTVSPropertyOp49
 70
     1
102
RTVSPropertyOp50
 70
     1
102
RTVSPropertyOp51
 70
     0
102
RTVSPropertyOp52
 70
     0
102
RTVSPropertyOp53
 70
     1
102
RTVSPropertyOp54
 70
     1
102
RTVSPropertyOp55
 70
     1
102
RTVSPropertyOp56
 70
     1
102
RTVSPropertyOp57
 70
     1
102
RTVSPost2010Prop28
280
     0
102
RTVSPost2010PropOp28
 70
     1
102
RTVSPost2010Prop29
280
     1
102
RTVSPost2010PropOp29
 70
     1
102
RTVSPost2010Prop30
280
     1
102
RTVSPost2010PropOp30
 70
     1
102
RTVSPost2010Prop31
280
     0
102
RTVSPost2010PropOp31
 70
     1
102
RTVSPost2010Prop32
280
     0
102
RTVSPost2010PropOp32
 70
     1
102
RTVSPost2010Prop33
280
     0
102
RTVSPost2010PropOp33
 70
     1
102
RTVSPost2010Prop34
280
     0
102
RTVSPost2010PropOp34
 70
     1
102
RTVSPost2010Prop35
280
     0
102
RTVSPost2010PropOp35
 70
     1
102
RTVSPost2010Prop36
280
     0
102
RTVSPost2010PropOp36
 70
     1
102
RTVSPost2010Prop37
 90
       50
102
RTVSPost2010PropOp37
 70
     1
102
RTVSPost2010Prop38
140
0.0
102
RTVSPost2010PropOp38
 70
     1
102
RTVSPost2010Prop39
140
1.0
102
RTVSPost2010PropOp39
 70
     1
102
RTVSPost2010Prop40
 90
        0
102
RTVSPost2010PropOp40
 70
     1
102
RTVSPost2010Prop41ColorIndex
 90
       18
102
RTVSPost2010Prop41ColorRGB
 90
        0
102
RTVSPost2010PropOp41
 70
     1
102
RTVSPost2010Prop42
 90
       50
102
RTVSPost2010PropOp42
 70
     1
102
RTVSPost2010Prop43
 90
        3
102
RTVSPost2010PropOp43
 70
     1
102
RTVSPost2010Prop44ColorIndex
 90
        5
102
RTVSPost2010Prop44ColorRGB
 90
      255
102
RTVSPost2010PropOp44
 70
     1
102
RTVSPost2010Prop45
280
     0
102
RTVSPost2010PropOp45
 70
     1
102
RTVSPost2010Prop46
 90
       50
102
RTVSPost2010PropOp46
 70
     1
102
RTVSPost2010Prop47
 90
       50
102
RTVSPost2010PropOp47
 70
     1
102
RTVSPost2010Prop48
 90
       50
102
RTVSPost2010PropOp48
 70
     1
102
RTVSPost2010Prop49
280
     0
102
RTVSPost2010PropOp49
 70
     1
102
RTVSPost2010Prop50
 90
       50
102
RTVSPost2010PropOp50
 70
     1
102
RTVSPost2010Prop51ColorIndex
 90
      256
102
RTVSPost2010Prop51ColorRGB
 90
-16777216
102
RTVSPost2010PropOp51
 70
     0
102
RTVSPost2010Prop52
140
1.0
102
RTVSPost2010PropOp52
 70
     0
102
RTVSPost2010Prop53
 90
        2
102
RTVSPost2010PropOp53
 70
     1
102
RTVSPost2010Prop54
  1
strokes_ogs.tif
102
RTVSPost2010PropOp54
 70
     1
102
RTVSPost2010Prop55
280
     0
102
RTVSPost2010PropOp55
 70
     1
102
RTVSPost2010Prop56
140
1.0
102
RTVSPost2010PropOp56
 70
     1
102
RTVSPost2010Prop57
140
1.0
102
RTVSPost2010PropOp57
 70
     1
  0
XRECORD
  5
253
102
{ACAD_REACTORS
330
252
102
}
330
252
100
AcDbXrecord
280
     1
102
RTVSPropertyOp0
 70
     1
102
RTVSPropertyOp1
 70
     1
102
RTVSPropertyOp2
 70
     1
102
RTVSPropertyOp3
 70
     1
102
RTVSPropertyOp4
 70
     1
102
RTVSPropertyOp5
 70
     1
102
RTVSPropertyOp6
 70
     1
102
RTVSPropertyOp7
 70
     1
102
RTVSPropertyOp8
 70
     1
102
RTVSPropertyOp9
 70
     1
102
RTVSPropertyOp10
 70
     1
102
RTVSPropertyOp11
 70
     1
102
RTVSPropertyOp12
 70
     1
102
RTVSPropertyOp13
 70
     1
102
RTVSPropertyOp14
 70
     1
102
RTVSPropertyOp15
 70
     1
102
RTVSPropertyOp16
 70
     1
102
RTVSPropertyOp17
 70
     1
102
RTVSPropertyOp18
 70
     1
102
RTVSPropertyOp19
 70
     1
102
RTVSPropertyOp20
 70
     1
102
RTVSPropertyOp21
 70
     1
102
RTVSPropertyOp22
 70
     1
102
RTVSPropertyOp23
 70
     1
102
RTVSPropertyOp24
 70
     1
102
RTVSPropertyOp25
 70
     1
102
RTVSPropertyOp26
 70
     1
102
RTVSPropertyOp27
 70
     1
102
RTVSPropertyOp28
 70
     1
102
RTVSPropertyOp29
 70
     1
102
RTVSPropertyOp30
 70
     1
102
RTVSPropertyOp31
 70
     1
102
RTVSPropertyOp32
 70
     1
102
RTVSPropertyOp33
 70
     1
102
RTVSPropertyOp34
 70
     1
102
RTVSPropertyOp35
 70
     1
102
RTVSPropertyOp36
 70
     1
102
RTVSPropertyOp37
 70
     1
102
RTVSPropertyOp38
 70
     1
102
RTVSPropertyOp39
 70
     1
102
RTVSPropertyOp40
 70
     1
102
RTVSPropertyOp41
 70
     1
102
RTVSPropertyOp42
 70
     1
102
RTVSPropertyOp43
 70
     1
102
RTVSPropertyOp44
 70
     1
102
RTVSPropertyOp45
 70
     1
102
RTVSPropertyOp46
 70
     1
102
RTVSPropertyOp47
 70
     1
102
RTVSPropertyOp48
 70
     1
102
RTVSPropertyOp49
 70
     1
102
RTVSPropertyOp50
 70
     1
102
RTVSPropertyOp51
 70
     0
102
RTVSPropertyOp52
 70
     0
102
RTVSPropertyOp53
 70
     1
102
RTVSPropertyOp54
 70
     1
102
RTVSPropertyOp55
 70
     1
102
RTVSPropertyOp56
 70
     1
102
RTVSPropertyOp57
 70
     1
102
RTVSPost2010Prop28
280
     0
102
RTVSPost2010PropOp28
 70
     1
102
RTVSPost2010Prop29
280
     1
102
RTVSPost2010PropOp29
 70
     1
102
RTVSPost2010Prop30
280
     1
102
RTVSPost2010PropOp30
 70
     1
102
RTVSPost2010Prop31
280
     0
102
RTVSPost2010PropOp31
 70
     1
102
RTVSPost2010Prop32
280
     0
102
RTVSPost2010PropOp32
 70
     1
102
RTVSPost2010Prop33
280
     0
102
RTVSPost2010PropOp33
 70
     1
102
RTVSPost2010Prop34
280
     0
102
RTVSPost2010PropOp34
 70
     1
102
RTVSPost2010Prop35
280
     0
102
RTVSPost2010PropOp35
 70
     1
102
RTVSPost2010Prop36
280
     0
102
RTVSPost2010PropOp36
 70
     1
102
RTVSPost2010Prop37
 90
       50
102
RTVSPost2010PropOp37
 70
     1
102
RTVSPost2010Prop38
140
0.0
102
RTVSPost2010PropOp38
 70
     1
102
RTVSPost2010Prop39
140
1.0
102
RTVSPost2010PropOp39
 70
     1
102
RTVSPost2010Prop40
 90
        0
102
RTVSPost2010PropOp40
 70
     1
102
RTVSPost2010Prop41ColorIndex
 90
       18
102
RTVSPost2010Prop41ColorRGB
 90
        0
102
RTVSPost2010PropOp41
 70
     1
102
RTVSPost2010Prop42
 90
       50
102
RTVSPost2010PropOp42
 70
     1
102
RTVSPost2010Prop43
 90
        3
102
RTVSPost2010PropOp43
 70
     1
102
RTVSPost2010Prop44ColorIndex
 90
        5
102
RTVSPost2010Prop44ColorRGB
 90
      255
102
RTVSPost2010PropOp44
 70
     1
102
RTVSPost2010Prop45
280
     0
102
RTVSPost2010PropOp45
 70
     1
102
RTVSPost2010Prop46
 90
       50
102
RTVSPost2010PropOp46
 70
     1
102
RTVSPost2010Prop47
 90
       50
102
RTVSPost2010PropOp47
 70
     1
102
RTVSPost2010Prop48
 90
       50
102
RTVSPost2010PropOp48
 70
     1
102
RTVSPost2010Prop49
280
     0
102
RTVSPost2010PropOp49
 70
     1
102
RTVSPost2010Prop50
 90
       50
102
RTVSPost2010PropOp50
 70
     1
102
RTVSPost2010Prop51ColorIndex
 90
      256
102
RTVSPost2010Prop51ColorRGB
 90
-16777216
102
RTVSPost2010PropOp51
 70
     0
102
RTVSPost2010Prop52
140
1.0
102
RTVSPost2010PropOp52
 70
     0
102
RTVSPost2010Prop53
 90
        2
102
RTVSPost2010PropOp53
 70
     1
102
RTVSPost2010Prop54
  1
strokes_ogs.tif
102
RTVSPost2010PropOp54
 70
     1
102
RTVSPost2010Prop55
280
     0
102
RTVSPost2010PropOp55
 70
     1
102
RTVSPost2010Prop56
140
1.0
102
RTVSPost2010PropOp56
 70
     1
102
RTVSPost2010Prop57
140
1.0
102
RTVSPost2010PropOp57
 70
     1
  0
XRECORD
  5
255
102
{ACAD_REACTORS
330
254
102
}
330
254
100
AcDbXrecord
280
     1
102
RTVSPropertyOp0
 70
     1
102
RTVSPropertyOp1
 70
     1
102
RTVSPropertyOp2
 70
     1
102
RTVSPropertyOp3
 70
     1
102
RTVSPropertyOp4
 70
     1
102
RTVSPropertyOp5
 70
     1
102
RTVSPropertyOp6
 70
     1
102
RTVSPropertyOp7
 70
     1
102
RTVSPropertyOp8
 70
     1
102
RTVSPropertyOp9
 70
     1
102
RTVSPropertyOp10
 70
     1
102
RTVSPropertyOp11
 70
     1
102
RTVSPropertyOp12
 70
     1
102
RTVSPropertyOp13
 70
     1
102
RTVSPropertyOp14
 70
     1
102
RTVSPropertyOp15
 70
     1
102
RTVSPropertyOp16
 70
     1
102
RTVSPropertyOp17
 70
     1
102
RTVSPropertyOp18
 70
     1
102
RTVSPropertyOp19
 70
     1
102
RTVSPropertyOp20
 70
     1
102
RTVSPropertyOp21
 70
     1
102
RTVSPropertyOp22
 70
     1
102
RTVSPropertyOp23
 70
     1
102
RTVSPropertyOp24
 70
     1
102
RTVSPropertyOp25
 70
     1
102
RTVSPropertyOp26
 70
     1
102
RTVSPropertyOp27
 70
     1
102
RTVSPropertyOp28
 70
     1
102
RTVSPropertyOp29
 70
     1
102
RTVSPropertyOp30
 70
     1
102
RTVSPropertyOp31
 70
     1
102
RTVSPropertyOp32
 70
     1
102
RTVSPropertyOp33
 70
     1
102
RTVSPropertyOp34
 70
     1
102
RTVSPropertyOp35
 70
     1
102
RTVSPropertyOp36
 70
     1
102
RTVSPropertyOp37
 70
     1
102
RTVSPropertyOp38
 70
     1
102
RTVSPropertyOp39
 70
     1
102
RTVSPropertyOp40
 70
     1
102
RTVSPropertyOp41
 70
     1
102
RTVSPropertyOp42
 70
     1
102
RTVSPropertyOp43
 70
     1
102
RTVSPropertyOp44
 70
     1
102
RTVSPropertyOp45
 70
     1
102
RTVSPropertyOp46
 70
     1
102
RTVSPropertyOp47
 70
     1
102
RTVSPropertyOp48
 70
     1
102
RTVSPropertyOp49
 70
     1
102
RTVSPropertyOp50
 70
     1
102
RTVSPropertyOp51
 70
     0
102
RTVSPropertyOp52
 70
     0
102
RTVSPropertyOp53
 70
     1
102
RTVSPropertyOp54
 70
     1
102
RTVSPropertyOp55
 70
     1
102
RTVSPropertyOp56
 70
     1
102
RTVSPropertyOp57
 70
     1
102
RTVSPost2010Prop28
280
     0
102
RTVSPost2010PropOp28
 70
     1
102
RTVSPost2010Prop29
280
     1
102
RTVSPost2010PropOp29
 70
     1
102
RTVSPost2010Prop30
280
     1
102
RTVSPost2010PropOp30
 70
     1
102
RTVSPost2010Prop31
280
     0
102
RTVSPost2010PropOp31
 70
     1
102
RTVSPost2010Prop32
280
     0
102
RTVSPost2010PropOp32
 70
     1
102
RTVSPost2010Prop33
280
     0
102
RTVSPost2010PropOp33
 70
     1
102
RTVSPost2010Prop34
280
     0
102
RTVSPost2010PropOp34
 70
     1
102
RTVSPost2010Prop35
280
     0
102
RTVSPost2010PropOp35
 70
     1
102
RTVSPost2010Prop36
280
     0
102
RTVSPost2010PropOp36
 70
     1
102
RTVSPost2010Prop37
 90
       50
102
RTVSPost2010PropOp37
 70
     1
102
RTVSPost2010Prop38
140
0.0
102
RTVSPost2010PropOp38
 70
     1
102
RTVSPost2010Prop39
140
1.0
102
RTVSPost2010PropOp39
 70
     1
102
RTVSPost2010Prop40
 90
        0
102
RTVSPost2010PropOp40
 70
     1
102
RTVSPost2010Prop41ColorIndex
 90
       18
102
RTVSPost2010Prop41ColorRGB
 90
        0
102
RTVSPost2010PropOp41
 70
     1
102
RTVSPost2010Prop42
 90
       50
102
RTVSPost2010PropOp42
 70
     1
102
RTVSPost2010Prop43
 90
        3
102
RTVSPost2010PropOp43
 70
     1
102
RTVSPost2010Prop44ColorIndex
 90
        5
102
RTVSPost2010Prop44ColorRGB
 90
      255
102
RTVSPost2010PropOp44
 70
     1
102
RTVSPost2010Prop45
280
     0
102
RTVSPost2010PropOp45
 70
     1
102
RTVSPost2010Prop46
 90
       50
102
RTVSPost2010PropOp46
 70
     1
102
RTVSPost2010Prop47
 90
       50
102
RTVSPost2010PropOp47
 70
     1
102
RTVSPost2010Prop48
 90
       50
102
RTVSPost2010PropOp48
 70
     1
102
RTVSPost2010Prop49
280
     0
102
RTVSPost2010PropOp49
 70
     1
102
RTVSPost2010Prop50
 90
       50
102
RTVSPost2010PropOp50
 70
     1
102
RTVSPost2010Prop51ColorIndex
 90
      256
102
RTVSPost2010Prop51ColorRGB
 90
-16777216
102
RTVSPost2010PropOp51
 70
     0
102
RTVSPost2010Prop52
140
1.0
102
RTVSPost2010PropOp52
 70
     0
102
RTVSPost2010Prop53
 90
        2
102
RTVSPost2010PropOp53
 70
     1
102
RTVSPost2010Prop54
  1
strokes_ogs.tif
102
RTVSPost2010PropOp54
 70
     1
102
RTVSPost2010Prop55
280
     0
102
RTVSPost2010PropOp55
 70
     1
102
RTVSPost2010Prop56
140
1.0
102
RTVSPost2010PropOp56
 70
     1
102
RTVSPost2010Prop57
140
1.0
102
RTVSPost2010PropOp57
 70
     1
  0
XRECORD
  5
265
102
{ACAD_REACTORS
330
264
102
}
330
264
100
AcDbXrecord
280
     1
102
RTVSPropertyOp0
 70
     0
102
RTVSPropertyOp1
 70
     0
102
RTVSPropertyOp2
 70
     0
102
RTVSPropertyOp3
 70
     0
102
RTVSPropertyOp4
 70
     0
102
RTVSPropertyOp5
 70
     0
102
RTVSPropertyOp6
 70
     0
102
RTVSPropertyOp7
 70
     0
102
RTVSPropertyOp8
 70
     0
102
RTVSPropertyOp9
 70
     0
102
RTVSPropertyOp10
 70
     0
102
RTVSPropertyOp11
 70
     0
102
RTVSPropertyOp12
 70
     0
102
RTVSPropertyOp13
 70
     0
102
RTVSPropertyOp14
 70
     2
102
RTVSPropertyOp15
 70
     0
102
RTVSPropertyOp16
 70
     0
102
RTVSPropertyOp17
 70
     0
102
RTVSPropertyOp18
 70
     0
102
RTVSPropertyOp19
 70
     0
102
RTVSPropertyOp20
 70
     0
102
RTVSPropertyOp21
 70
     0
102
RTVSPropertyOp22
 70
     0
102
RTVSPropertyOp23
 70
     0
102
RTVSPropertyOp24
 70
     0
102
RTVSPropertyOp25
 70
     0
102
RTVSPropertyOp26
 70
     0
102
RTVSPropertyOp27
 70
     0
102
RTVSPropertyOp28
 70
     0
102
RTVSPropertyOp29
 70
     0
102
RTVSPropertyOp30
 70
     0
102
RTVSPropertyOp31
 70
     0
102
RTVSPropertyOp32
 70
     0
102
RTVSPropertyOp33
 70
     0
102
RTVSPropertyOp34
 70
     0
102
RTVSPropertyOp35
 70
     0
102
RTVSPropertyOp36
 70
     0
102
RTVSPropertyOp37
 70
     0
102
RTVSPropertyOp38
 70
     0
102
RTVSPropertyOp39
 70
     0
102
RTVSPropertyOp40
 70
     0
102
RTVSPropertyOp41
 70
     0
102
RTVSPropertyOp42
 70
     0
102
RTVSPropertyOp43
 70
     0
102
RTVSPropertyOp44
 70
     0
102
RTVSPropertyOp45
 70
     0
102
RTVSPropertyOp46
 70
     0
102
RTVSPropertyOp47
 70
     0
102
RTVSPropertyOp48
 70
     0
102
RTVSPropertyOp49
 70
     0
102
RTVSPropertyOp50
 70
     0
102
RTVSPropertyOp51
 70
     0
102
RTVSPropertyOp52
 70
     0
102
RTVSPropertyOp53
 70
     0
102
RTVSPropertyOp54
 70
     0
102
RTVSPropertyOp55
 70
     0
102
RTVSPropertyOp56
 70
     0
102
RTVSPropertyOp57
 70
     0
102
RTVSPost2010Prop28
280
     0
102
RTVSPost2010PropOp28
 70
     0
102
RTVSPost2010Prop29
280
     1
102
RTVSPost2010PropOp29
 70
     0
102
RTVSPost2010Prop30
280
     1
102
RTVSPost2010PropOp30
 70
     0
102
RTVSPost2010Prop31
280
     0
102
RTVSPost2010PropOp31
 70
     0
102
RTVSPost2010Prop32
280
     0
102
RTVSPost2010PropOp32
 70
     0
102
RTVSPost2010Prop33
280
     0
102
RTVSPost2010PropOp33
 70
     0
102
RTVSPost2010Prop34
280
     0
102
RTVSPost2010PropOp34
 70
     0
102
RTVSPost2010Prop35
280
     0
102
RTVSPost2010PropOp35
 70
     0
102
RTVSPost2010Prop36
280
     0
102
RTVSPost2010PropOp36
 70
     0
102
RTVSPost2010Prop37
 90
       50
102
RTVSPost2010PropOp37
 70
     0
102
RTVSPost2010Prop38
140
0.0
102
RTVSPost2010PropOp38
 70
     0
102
RTVSPost2010Prop39
140
1.0
102
RTVSPost2010PropOp39
 70
     0
102
RTVSPost2010Prop40
 90
        0
102
RTVSPost2010PropOp40
 70
     0
102
RTVSPost2010Prop41ColorIndex
 90
       18
102
RTVSPost2010Prop41ColorRGB
 90
        0
102
RTVSPost2010PropOp41
 70
     0
102
RTVSPost2010Prop42
 90
       50
102
RTVSPost2010PropOp42
 70
     0
102
RTVSPost2010Prop43
 90
        3
102
RTVSPost2010PropOp43
 70
     0
102
RTVSPost2010Prop44ColorIndex
 90
        5
102
RTVSPost2010Prop44ColorRGB
 90
      255
102
RTVSPost2010PropOp44
 70
     0
102
RTVSPost2010Prop45
280
     0
102
RTVSPost2010PropOp45
 70
     0
102
RTVSPost2010Prop46
 90
       50
102
RTVSPost2010PropOp46
 70
     0
102
RTVSPost2010Prop47
 90
       50
102
RTVSPost2010PropOp47
 70
     0
102
RTVSPost2010Prop48
 90
       50
102
RTVSPost2010PropOp48
 70
     0
102
RTVSPost2010Prop49
280
     0
102
RTVSPost2010PropOp49
 70
     0
102
RTVSPost2010Prop50
 90
       50
102
RTVSPost2010PropOp50
 70
     0
102
RTVSPost2010Prop51ColorIndex
 90
      256
102
RTVSPost2010Prop51ColorRGB
 90
-16777216
102
RTVSPost2010PropOp51
 70
     0
102
RTVSPost2010Prop52
140
1.0
102
RTVSPost2010PropOp52
 70
     0
102
RTVSPost2010Prop53
 90
        2
102
RTVSPost2010PropOp53
 70
     0
102
RTVSPost2010Prop54
  1
strokes_ogs.tif
102
RTVSPost2010PropOp54
 70
     0
102
RTVSPost2010Prop55
280
     0
102
RTVSPost2010PropOp55
 70
     0
102
RTVSPost2010Prop56
140
1.0
102
RTVSPost2010PropOp56
 70
     0
102
RTVSPost2010Prop57
140
1.0
102
RTVSPost2010PropOp57
 70
     0
  0
XRECORD
  5
25D
102
{ACAD_REACTORS
330
25C
102
}
330
25C
100
AcDbXrecord
280
     1
102
RTVSPropertyOp0
 70
     1
102
RTVSPropertyOp1
 70
     1
102
RTVSPropertyOp2
 70
     1
102
RTVSPropertyOp3
 70
     1
102
RTVSPropertyOp4
 70
     1
102
RTVSPropertyOp5
 70
     1
102
RTVSPropertyOp6
 70
     1
102
RTVSPropertyOp7
 70
     1
102
RTVSPropertyOp8
 70
     1
102
RTVSPropertyOp9
 70
     1
102
RTVSPropertyOp10
 70
     1
102
RTVSPropertyOp11
 70
     1
102
RTVSPropertyOp12
 70
     1
102
RTVSPropertyOp13
 70
     1
102
RTVSPropertyOp14
 70
     1
102
RTVSPropertyOp15
 70
     1
102
RTVSPropertyOp16
 70
     1
102
RTVSPropertyOp17
 70
     1
102
RTVSPropertyOp18
 70
     1
102
RTVSPropertyOp19
 70
     1
102
RTVSPropertyOp20
 70
     1
102
RTVSPropertyOp21
 70
     1
102
RTVSPropertyOp22
 70
     1
102
RTVSPropertyOp23
 70
     1
102
RTVSPropertyOp24
 70
     1
102
RTVSPropertyOp25
 70
     1
102
RTVSPropertyOp26
 70
     1
102
RTVSPropertyOp27
 70
     1
102
RTVSPropertyOp28
 70
     1
102
RTVSPropertyOp29
 70
     1
102
RTVSPropertyOp30
 70
     1
102
RTVSPropertyOp31
 70
     1
102
RTVSPropertyOp32
 70
     1
102
RTVSPropertyOp33
 70
     1
102
RTVSPropertyOp34
 70
     1
102
RTVSPropertyOp35
 70
     1
102
RTVSPropertyOp36
 70
     1
102
RTVSPropertyOp37
 70
     1
102
RTVSPropertyOp38
 70
     1
102
RTVSPropertyOp39
 70
     1
102
RTVSPropertyOp40
 70
     1
102
RTVSPropertyOp41
 70
     1
102
RTVSPropertyOp42
 70
     1
102
RTVSPropertyOp43
 70
     1
102
RTVSPropertyOp44
 70
     1
102
RTVSPropertyOp45
 70
     1
102
RTVSPropertyOp46
 70
     1
102
RTVSPropertyOp47
 70
     1
102
RTVSPropertyOp48
 70
     1
102
RTVSPropertyOp49
 70
     1
102
RTVSPropertyOp50
 70
     1
102
RTVSPropertyOp51
 70
     0
102
RTVSPropertyOp52
 70
     0
102
RTVSPropertyOp53
 70
     1
102
RTVSPropertyOp54
 70
     1
102
RTVSPropertyOp55
 70
     1
102
RTVSPropertyOp56
 70
     1
102
RTVSPropertyOp57
 70
     1
102
RTVSPost2010Prop28
280
     0
102
RTVSPost2010PropOp28
 70
     1
102
RTVSPost2010Prop29
280
     1
102
RTVSPost2010PropOp29
 70
     1
102
RTVSPost2010Prop30
280
     1
102
RTVSPost2010PropOp30
 70
     1
102
RTVSPost2010Prop31
280
     0
102
RTVSPost2010PropOp31
 70
     1
102
RTVSPost2010Prop32
280
     0
102
RTVSPost2010PropOp32
 70
     1
102
RTVSPost2010Prop33
280
     0
102
RTVSPost2010PropOp33
 70
     1
102
RTVSPost2010Prop34
280
     0
102
RTVSPost2010PropOp34
 70
     1
102
RTVSPost2010Prop35
280
     0
102
RTVSPost2010PropOp35
 70
     1
102
RTVSPost2010Prop36
280
     0
102
RTVSPost2010PropOp36
 70
     1
102
RTVSPost2010Prop37
 90
       50
102
RTVSPost2010PropOp37
 70
     1
102
RTVSPost2010Prop38
140
0.0
102
RTVSPost2010PropOp38
 70
     1
102
RTVSPost2010Prop39
140
1.0
102
RTVSPost2010PropOp39
 70
     1
102
RTVSPost2010Prop40
 90
        0
102
RTVSPost2010PropOp40
 70
     1
102
RTVSPost2010Prop41ColorIndex
 90
       18
102
RTVSPost2010Prop41ColorRGB
 90
        0
102
RTVSPost2010PropOp41
 70
     1
102
RTVSPost2010Prop42
 90
       50
102
RTVSPost2010PropOp42
 70
     1
102
RTVSPost2010Prop43
 90
        3
102
RTVSPost2010PropOp43
 70
     1
102
RTVSPost2010Prop44ColorIndex
 90
        5
102
RTVSPost2010Prop44ColorRGB
 90
      255
102
RTVSPost2010PropOp44
 70
     1
102
RTVSPost2010Prop45
280
     0
102
RTVSPost2010PropOp45
 70
     1
102
RTVSPost2010Prop46
 90
       50
102
RTVSPost2010PropOp46
 70
     1
102
RTVSPost2010Prop47
 90
       50
102
RTVSPost2010PropOp47
 70
     1
102
RTVSPost2010Prop48
 90
       50
102
RTVSPost2010PropOp48
 70
     1
102
RTVSPost2010Prop49
280
     0
102
RTVSPost2010PropOp49
 70
     1
102
RTVSPost2010Prop50
 90
       50
102
RTVSPost2010PropOp50
 70
     1
102
RTVSPost2010Prop51ColorIndex
 90
      256
102
RTVSPost2010Prop51ColorRGB
 90
-16777216
102
RTVSPost2010PropOp51
 70
     0
102
RTVSPost2010Prop52
140
1.0
102
RTVSPost2010PropOp52
 70
     0
102
RTVSPost2010Prop53
 90
        2
102
RTVSPost2010PropOp53
 70
     1
102
RTVSPost2010Prop54
  1
strokes_ogs.tif
102
RTVSPost2010PropOp54
 70
     1
102
RTVSPost2010Prop55
280
     0
102
RTVSPost2010PropOp55
 70
     1
102
RTVSPost2010Prop56
140
1.0
102
RTVSPost2010PropOp56
 70
     1
102
RTVSPost2010Prop57
140
1.0
102
RTVSPost2010PropOp57
 70
     1
  0
XRECORD
  5
241
102
{ACAD_REACTORS
330
240
102
}
330
240
100
AcDbXrecord
280
     1
102
RTVSPropertyOp0
 70
     1
102
RTVSPropertyOp1
 70
     1
102
RTVSPropertyOp2
 70
     1
102
RTVSPropertyOp3
 70
     1
102
RTVSPropertyOp4
 70
     1
102
RTVSPropertyOp5
 70
     1
102
RTVSPropertyOp6
 70
     1
102
RTVSPropertyOp7
 70
     1
102
RTVSPropertyOp8
 70
     1
102
RTVSPropertyOp9
 70
     1
102
RTVSPropertyOp10
 70
     1
102
RTVSPropertyOp11
 70
     1
102
RTVSPropertyOp12
 70
     1
102
RTVSPropertyOp13
 70
     1
102
RTVSPropertyOp14
 70
     1
102
RTVSPropertyOp15
 70
     1
102
RTVSPropertyOp16
 70
     1
102
RTVSPropertyOp17
 70
     1
102
RTVSPropertyOp18
 70
     1
102
RTVSPropertyOp19
 70
     1
102
RTVSPropertyOp20
 70
     1
102
RTVSPropertyOp21
 70
     1
102
RTVSPropertyOp22
 70
     1
102
RTVSPropertyOp23
 70
     1
102
RTVSPropertyOp24
 70
     1
102
RTVSPropertyOp25
 70
     1
102
RTVSPropertyOp26
 70
     1
102
RTVSPropertyOp27
 70
     1
102
RTVSPropertyOp28
 70
     1
102
RTVSPropertyOp29
 70
     1
102
RTVSPropertyOp30
 70
     1
102
RTVSPropertyOp31
 70
     1
102
RTVSPropertyOp32
 70
     1
102
RTVSPropertyOp33
 70
     1
102
RTVSPropertyOp34
 70
     1
102
RTVSPropertyOp35
 70
     1
102
RTVSPropertyOp36
 70
     1
102
RTVSPropertyOp37
 70
     1
102
RTVSPropertyOp38
 70
     1
102
RTVSPropertyOp39
 70
     1
102
RTVSPropertyOp40
 70
     1
102
RTVSPropertyOp41
 70
     1
102
RTVSPropertyOp42
 70
     1
102
RTVSPropertyOp43
 70
     1
102
RTVSPropertyOp44
 70
     1
102
RTVSPropertyOp45
 70
     1
102
RTVSPropertyOp46
 70
     1
102
RTVSPropertyOp47
 70
     1
102
RTVSPropertyOp48
 70
     1
102
RTVSPropertyOp49
 70
     1
102
RTVSPropertyOp50
 70
     1
102
RTVSPropertyOp51
 70
     0
102
RTVSPropertyOp52
 70
     0
102
RTVSPropertyOp53
 70
     1
102
RTVSPropertyOp54
 70
     1
102
RTVSPropertyOp55
 70
     1
102
RTVSPropertyOp56
 70
     1
102
RTVSPropertyOp57
 70
     1
102
RTVSPost2010Prop28
280
     0
102
RTVSPost2010PropOp28
 70
     1
102
RTVSPost2010Prop29
280
     1
102
RTVSPost2010PropOp29
 70
     1
102
RTVSPost2010Prop30
280
     1
102
RTVSPost2010PropOp30
 70
     1
102
RTVSPost2010Prop31
280
     0
102
RTVSPost2010PropOp31
 70
     1
102
RTVSPost2010Prop32
280
     0
102
RTVSPost2010PropOp32
 70
     1
102
RTVSPost2010Prop33
280
     0
102
RTVSPost2010PropOp33
 70
     1
102
RTVSPost2010Prop34
280
     0
102
RTVSPost2010PropOp34
 70
     1
102
RTVSPost2010Prop35
280
     0
102
RTVSPost2010PropOp35
 70
     1
102
RTVSPost2010Prop36
280
     0
102
RTVSPost2010PropOp36
 70
     1
102
RTVSPost2010Prop37
 90
       50
102
RTVSPost2010PropOp37
 70
     1
102
RTVSPost2010Prop38
140
0.0
102
RTVSPost2010PropOp38
 70
     1
102
RTVSPost2010Prop39
140
1.0
102
RTVSPost2010PropOp39
 70
     1
102
RTVSPost2010Prop40
 90
        0
102
RTVSPost2010PropOp40
 70
     1
102
RTVSPost2010Prop41ColorIndex
 90
       18
102
RTVSPost2010Prop41ColorRGB
 90
        0
102
RTVSPost2010PropOp41
 70
     1
102
RTVSPost2010Prop42
 90
       50
102
RTVSPost2010PropOp42
 70
     1
102
RTVSPost2010Prop43
 90
        3
102
RTVSPost2010PropOp43
 70
     1
102
RTVSPost2010Prop44ColorIndex
 90
        5
102
RTVSPost2010Prop44ColorRGB
 90
      255
102
RTVSPost2010PropOp44
 70
     1
102
RTVSPost2010Prop45
280
     0
102
RTVSPost2010PropOp45
 70
     1
102
RTVSPost2010Prop46
 90
       50
102
RTVSPost2010PropOp46
 70
     1
102
RTVSPost2010Prop47
 90
       50
102
RTVSPost2010PropOp47
 70
     1
102
RTVSPost2010Prop48
 90
       50
102
RTVSPost2010PropOp48
 70
     1
102
RTVSPost2010Prop49
280
     0
102
RTVSPost2010PropOp49
 70
     1
102
RTVSPost2010Prop50
 90
       50
102
RTVSPost2010PropOp50
 70
     1
102
RTVSPost2010Prop51ColorIndex
 90
      256
102
RTVSPost2010Prop51ColorRGB
 90
-16777216
102
RTVSPost2010PropOp51
 70
     0
102
RTVSPost2010Prop52
140
1.0
102
RTVSPost2010PropOp52
 70
     0
102
RTVSPost2010Prop53
 90
        2
102
RTVSPost2010PropOp53
 70
     1
102
RTVSPost2010Prop54
  1
strokes_ogs.tif
102
RTVSPost2010PropOp54
 70
     1
102
RTVSPost2010Prop55
280
     0
102
RTVSPost2010PropOp55
 70
     1
102
RTVSPost2010Prop56
140
1.0
102
RTVSPost2010PropOp56
 70
     1
102
RTVSPost2010Prop57
140
1.0
102
RTVSPost2010PropOp57
 70
     1
  0
XRECORD
  5
243
102
{ACAD_REACTORS
330
242
102
}
330
242
100
AcDbXrecord
280
     1
102
RTVSPropertyOp0
 70
     1
102
RTVSPropertyOp1
 70
     1
102
RTVSPropertyOp2
 70
     1
102
RTVSPropertyOp3
 70
     1
102
RTVSPropertyOp4
 70
     1
102
RTVSPropertyOp5
 70
     1
102
RTVSPropertyOp6
 70
     1
102
RTVSPropertyOp7
 70
     1
102
RTVSPropertyOp8
 70
     1
102
RTVSPropertyOp9
 70
     1
102
RTVSPropertyOp10
 70
     1
102
RTVSPropertyOp11
 70
     1
102
RTVSPropertyOp12
 70
     1
102
RTVSPropertyOp13
 70
     1
102
RTVSPropertyOp14
 70
     1
102
RTVSPropertyOp15
 70
     1
102
RTVSPropertyOp16
 70
     1
102
RTVSPropertyOp17
 70
     1
102
RTVSPropertyOp18
 70
     1
102
RTVSPropertyOp19
 70
     1
102
RTVSPropertyOp20
 70
     1
102
RTVSPropertyOp21
 70
     1
102
RTVSPropertyOp22
 70
     1
102
RTVSPropertyOp23
 70
     1
102
RTVSPropertyOp24
 70
     1
102
RTVSPropertyOp25
 70
     1
102
RTVSPropertyOp26
 70
     1
102
RTVSPropertyOp27
 70
     1
102
RTVSPropertyOp28
 70
     1
102
RTVSPropertyOp29
 70
     1
102
RTVSPropertyOp30
 70
     1
102
RTVSPropertyOp31
 70
     1
102
RTVSPropertyOp32
 70
     1
102
RTVSPropertyOp33
 70
     1
102
RTVSPropertyOp34
 70
     1
102
RTVSPropertyOp35
 70
     1
102
RTVSPropertyOp36
 70
     1
102
RTVSPropertyOp37
 70
     1
102
RTVSPropertyOp38
 70
     1
102
RTVSPropertyOp39
 70
     1
102
RTVSPropertyOp40
 70
     1
102
RTVSPropertyOp41
 70
     1
102
RTVSPropertyOp42
 70
     1
102
RTVSPropertyOp43
 70
     1
102
RTVSPropertyOp44
 70
     1
102
RTVSPropertyOp45
 70
     1
102
RTVSPropertyOp46
 70
     1
102
RTVSPropertyOp47
 70
     1
102
RTVSPropertyOp48
 70
     1
102
RTVSPropertyOp49
 70
     1
102
RTVSPropertyOp50
 70
     1
102
RTVSPropertyOp51
 70
     0
102
RTVSPropertyOp52
 70
     0
102
RTVSPropertyOp53
 70
     1
102
RTVSPropertyOp54
 70
     1
102
RTVSPropertyOp55
 70
     1
102
RTVSPropertyOp56
 70
     1
102
RTVSPropertyOp57
 70
     1
102
RTVSPost2010Prop28
280
     0
102
RTVSPost2010PropOp28
 70
     1
102
RTVSPost2010Prop29
280
     1
102
RTVSPost2010PropOp29
 70
     1
102
RTVSPost2010Prop30
280
     1
102
RTVSPost2010PropOp30
 70
     1
102
RTVSPost2010Prop31
280
     0
102
RTVSPost2010PropOp31
 70
     1
102
RTVSPost2010Prop32
280
     0
102
RTVSPost2010PropOp32
 70
     1
102
RTVSPost2010Prop33
280
     0
102
RTVSPost2010PropOp33
 70
     1
102
RTVSPost2010Prop34
280
     0
102
RTVSPost2010PropOp34
 70
     1
102
RTVSPost2010Prop35
280
     0
102
RTVSPost2010PropOp35
 70
     1
102
RTVSPost2010Prop36
280
     0
102
RTVSPost2010PropOp36
 70
     1
102
RTVSPost2010Prop37
 90
       50
102
RTVSPost2010PropOp37
 70
     1
102
RTVSPost2010Prop38
140
0.0
102
RTVSPost2010PropOp38
 70
     1
102
RTVSPost2010Prop39
140
1.0
102
RTVSPost2010PropOp39
 70
     1
102
RTVSPost2010Prop40
 90
        0
102
RTVSPost2010PropOp40
 70
     1
102
RTVSPost2010Prop41ColorIndex
 90
       18
102
RTVSPost2010Prop41ColorRGB
 90
        0
102
RTVSPost2010PropOp41
 70
     1
102
RTVSPost2010Prop42
 90
       50
102
RTVSPost2010PropOp42
 70
     1
102
RTVSPost2010Prop43
 90
        3
102
RTVSPost2010PropOp43
 70
     1
102
RTVSPost2010Prop44ColorIndex
 90
        5
102
RTVSPost2010Prop44ColorRGB
 90
      255
102
RTVSPost2010PropOp44
 70
     1
102
RTVSPost2010Prop45
280
     0
102
RTVSPost2010PropOp45
 70
     1
102
RTVSPost2010Prop46
 90
       50
102
RTVSPost2010PropOp46
 70
     1
102
RTVSPost2010Prop47
 90
       50
102
RTVSPost2010PropOp47
 70
     1
102
RTVSPost2010Prop48
 90
       50
102
RTVSPost2010PropOp48
 70
     1
102
RTVSPost2010Prop49
280
     0
102
RTVSPost2010PropOp49
 70
     1
102
RTVSPost2010Prop50
 90
       50
102
RTVSPost2010PropOp50
 70
     1
102
RTVSPost2010Prop51ColorIndex
 90
      256
102
RTVSPost2010Prop51ColorRGB
 90
-16777216
102
RTVSPost2010PropOp51
 70
     0
102
RTVSPost2010Prop52
140
1.0
102
RTVSPost2010PropOp52
 70
     0
102
RTVSPost2010Prop53
 90
        2
102
RTVSPost2010PropOp53
 70
     1
102
RTVSPost2010Prop54
  1
strokes_ogs.tif
102
RTVSPost2010PropOp54
 70
     1
102
RTVSPost2010Prop55
280
     0
102
RTVSPost2010PropOp55
 70
     1
102
RTVSPost2010Prop56
140
1.0
102
RTVSPost2010PropOp56
 70
     1
102
RTVSPost2010Prop57
140
1.0
102
RTVSPost2010PropOp57
 70
     1
  0
XRECORD
  5
245
102
{ACAD_REACTORS
330
244
102
}
330
244
100
AcDbXrecord
280
     1
102
RTVSPropertyOp0
 70
     1
102
RTVSPropertyOp1
 70
     1
102
RTVSPropertyOp2
 70
     1
102
RTVSPropertyOp3
 70
     1
102
RTVSPropertyOp4
 70
     1
102
RTVSPropertyOp5
 70
     1
102
RTVSPropertyOp6
 70
     1
102
RTVSPropertyOp7
 70
     1
102
RTVSPropertyOp8
 70
     1
102
RTVSPropertyOp9
 70
     1
102
RTVSPropertyOp10
 70
     1
102
RTVSPropertyOp11
 70
     1
102
RTVSPropertyOp12
 70
     1
102
RTVSPropertyOp13
 70
     1
102
RTVSPropertyOp14
 70
     1
102
RTVSPropertyOp15
 70
     1
102
RTVSPropertyOp16
 70
     1
102
RTVSPropertyOp17
 70
     1
102
RTVSPropertyOp18
 70
     1
102
RTVSPropertyOp19
 70
     1
102
RTVSPropertyOp20
 70
     1
102
RTVSPropertyOp21
 70
     1
102
RTVSPropertyOp22
 70
     1
102
RTVSPropertyOp23
 70
     1
102
RTVSPropertyOp24
 70
     1
102
RTVSPropertyOp25
 70
     1
102
RTVSPropertyOp26
 70
     1
102
RTVSPropertyOp27
 70
     1
102
RTVSPropertyOp28
 70
     1
102
RTVSPropertyOp29
 70
     1
102
RTVSPropertyOp30
 70
     1
102
RTVSPropertyOp31
 70
     1
102
RTVSPropertyOp32
 70
     1
102
RTVSPropertyOp33
 70
     1
102
RTVSPropertyOp34
 70
     1
102
RTVSPropertyOp35
 70
     1
102
RTVSPropertyOp36
 70
     1
102
RTVSPropertyOp37
 70
     1
102
RTVSPropertyOp38
 70
     1
102
RTVSPropertyOp39
 70
     1
102
RTVSPropertyOp40
 70
     1
102
RTVSPropertyOp41
 70
     1
102
RTVSPropertyOp42
 70
     1
102
RTVSPropertyOp43
 70
     1
102
RTVSPropertyOp44
 70
     1
102
RTVSPropertyOp45
 70
     1
102
RTVSPropertyOp46
 70
     1
102
RTVSPropertyOp47
 70
     1
102
RTVSPropertyOp48
 70
     1
102
RTVSPropertyOp49
 70
     1
102
RTVSPropertyOp50
 70
     1
102
RTVSPropertyOp51
 70
     0
102
RTVSPropertyOp52
 70
     0
102
RTVSPropertyOp53
 70
     1
102
RTVSPropertyOp54
 70
     1
102
RTVSPropertyOp55
 70
     1
102
RTVSPropertyOp56
 70
     1
102
RTVSPropertyOp57
 70
     1
102
RTVSPost2010Prop28
280
     0
102
RTVSPost2010PropOp28
 70
     1
102
RTVSPost2010Prop29
280
     1
102
RTVSPost2010PropOp29
 70
     1
102
RTVSPost2010Prop30
280
     1
102
RTVSPost2010PropOp30
 70
     1
102
RTVSPost2010Prop31
280
     0
102
RTVSPost2010PropOp31
 70
     1
102
RTVSPost2010Prop32
280
     0
102
RTVSPost2010PropOp32
 70
     1
102
RTVSPost2010Prop33
280
     0
102
RTVSPost2010PropOp33
 70
     1
102
RTVSPost2010Prop34
280
     0
102
RTVSPost2010PropOp34
 70
     1
102
RTVSPost2010Prop35
280
     0
102
RTVSPost2010PropOp35
 70
     1
102
RTVSPost2010Prop36
280
     0
102
RTVSPost2010PropOp36
 70
     1
102
RTVSPost2010Prop37
 90
       50
102
RTVSPost2010PropOp37
 70
     1
102
RTVSPost2010Prop38
140
0.0
102
RTVSPost2010PropOp38
 70
     1
102
RTVSPost2010Prop39
140
1.0
102
RTVSPost2010PropOp39
 70
     1
102
RTVSPost2010Prop40
 90
        0
102
RTVSPost2010PropOp40
 70
     1
102
RTVSPost2010Prop41ColorIndex
 90
       18
102
RTVSPost2010Prop41ColorRGB
 90
        0
102
RTVSPost2010PropOp41
 70
     1
102
RTVSPost2010Prop42
 90
       50
102
RTVSPost2010PropOp42
 70
     1
102
RTVSPost2010Prop43
 90
        3
102
RTVSPost2010PropOp43
 70
     1
102
RTVSPost2010Prop44ColorIndex
 90
        5
102
RTVSPost2010Prop44ColorRGB
 90
      255
102
RTVSPost2010PropOp44
 70
     1
102
RTVSPost2010Prop45
280
     0
102
RTVSPost2010PropOp45
 70
     1
102
RTVSPost2010Prop46
 90
       50
102
RTVSPost2010PropOp46
 70
     1
102
RTVSPost2010Prop47
 90
       50
102
RTVSPost2010PropOp47
 70
     1
102
RTVSPost2010Prop48
 90
       50
102
RTVSPost2010PropOp48
 70
     1
102
RTVSPost2010Prop49
280
     0
102
RTVSPost2010PropOp49
 70
     1
102
RTVSPost2010Prop50
 90
       50
102
RTVSPost2010PropOp50
 70
     1
102
RTVSPost2010Prop51ColorIndex
 90
      256
102
RTVSPost2010Prop51ColorRGB
 90
-16777216
102
RTVSPost2010PropOp51
 70
     0
102
RTVSPost2010Prop52
140
1.0
102
RTVSPost2010PropOp52
 70
     0
102
RTVSPost2010Prop53
 90
        2
102
RTVSPost2010PropOp53
 70
     1
102
RTVSPost2010Prop54
  1
strokes_ogs.tif
102
RTVSPost2010PropOp54
 70
     1
102
RTVSPost2010Prop55
280
     0
102
RTVSPost2010PropOp55
 70
     1
102
RTVSPost2010Prop56
140
1.0
102
RTVSPost2010PropOp56
 70
     1
102
RTVSPost2010Prop57
140
1.0
102
RTVSPost2010PropOp57
 70
     1
  0
XRECORD
  5
247
102
{ACAD_REACTORS
330
246
102
}
330
246
100
AcDbXrecord
280
     1
102
RTVSPropertyOp0
 70
     1
102
RTVSPropertyOp1
 70
     1
102
RTVSPropertyOp2
 70
     1
102
RTVSPropertyOp3
 70
     1
102
RTVSPropertyOp4
 70
     1
102
RTVSPropertyOp5
 70
     1
102
RTVSPropertyOp6
 70
     1
102
RTVSPropertyOp7
 70
     1
102
RTVSPropertyOp8
 70
     1
102
RTVSPropertyOp9
 70
     1
102
RTVSPropertyOp10
 70
     1
102
RTVSPropertyOp11
 70
     1
102
RTVSPropertyOp12
 70
     1
102
RTVSPropertyOp13
 70
     1
102
RTVSPropertyOp14
 70
     1
102
RTVSPropertyOp15
 70
     1
102
RTVSPropertyOp16
 70
     1
102
RTVSPropertyOp17
 70
     1
102
RTVSPropertyOp18
 70
     1
102
RTVSPropertyOp19
 70
     1
102
RTVSPropertyOp20
 70
     1
102
RTVSPropertyOp21
 70
     1
102
RTVSPropertyOp22
 70
     1
102
RTVSPropertyOp23
 70
     1
102
RTVSPropertyOp24
 70
     1
102
RTVSPropertyOp25
 70
     1
102
RTVSPropertyOp26
 70
     1
102
RTVSPropertyOp27
 70
     1
102
RTVSPropertyOp28
 70
     1
102
RTVSPropertyOp29
 70
     1
102
RTVSPropertyOp30
 70
     1
102
RTVSPropertyOp31
 70
     1
102
RTVSPropertyOp32
 70
     1
102
RTVSPropertyOp33
 70
     1
102
RTVSPropertyOp34
 70
     1
102
RTVSPropertyOp35
 70
     1
102
RTVSPropertyOp36
 70
     1
102
RTVSPropertyOp37
 70
     1
102
RTVSPropertyOp38
 70
     1
102
RTVSPropertyOp39
 70
     1
102
RTVSPropertyOp40
 70
     1
102
RTVSPropertyOp41
 70
     1
102
RTVSPropertyOp42
 70
     1
102
RTVSPropertyOp43
 70
     1
102
RTVSPropertyOp44
 70
     1
102
RTVSPropertyOp45
 70
     1
102
RTVSPropertyOp46
 70
     1
102
RTVSPropertyOp47
 70
     1
102
RTVSPropertyOp48
 70
     1
102
RTVSPropertyOp49
 70
     1
102
RTVSPropertyOp50
 70
     1
102
RTVSPropertyOp51
 70
     0
102
RTVSPropertyOp52
 70
     0
102
RTVSPropertyOp53
 70
     1
102
RTVSPropertyOp54
 70
     1
102
RTVSPropertyOp55
 70
     1
102
RTVSPropertyOp56
 70
     1
102
RTVSPropertyOp57
 70
     1
102
RTVSPost2010Prop28
280
     0
102
RTVSPost2010PropOp28
 70
     1
102
RTVSPost2010Prop29
280
     1
102
RTVSPost2010PropOp29
 70
     1
102
RTVSPost2010Prop30
280
     1
102
RTVSPost2010PropOp30
 70
     1
102
RTVSPost2010Prop31
280
     0
102
RTVSPost2010PropOp31
 70
     1
102
RTVSPost2010Prop32
280
     0
102
RTVSPost2010PropOp32
 70
     1
102
RTVSPost2010Prop33
280
     0
102
RTVSPost2010PropOp33
 70
     1
102
RTVSPost2010Prop34
280
     0
102
RTVSPost2010PropOp34
 70
     1
102
RTVSPost2010Prop35
280
     0
102
RTVSPost2010PropOp35
 70
     1
102
RTVSPost2010Prop36
280
     0
102
RTVSPost2010PropOp36
 70
     1
102
RTVSPost2010Prop37
 90
       50
102
RTVSPost2010PropOp37
 70
     1
102
RTVSPost2010Prop38
140
0.0
102
RTVSPost2010PropOp38
 70
     1
102
RTVSPost2010Prop39
140
1.0
102
RTVSPost2010PropOp39
 70
     1
102
RTVSPost2010Prop40
 90
        0
102
RTVSPost2010PropOp40
 70
     1
102
RTVSPost2010Prop41ColorIndex
 90
       18
102
RTVSPost2010Prop41ColorRGB
 90
        0
102
RTVSPost2010PropOp41
 70
     1
102
RTVSPost2010Prop42
 90
       50
102
RTVSPost2010PropOp42
 70
     1
102
RTVSPost2010Prop43
 90
        3
102
RTVSPost2010PropOp43
 70
     1
102
RTVSPost2010Prop44ColorIndex
 90
        5
102
RTVSPost2010Prop44ColorRGB
 90
      255
102
RTVSPost2010PropOp44
 70
     1
102
RTVSPost2010Prop45
280
     0
102
RTVSPost2010PropOp45
 70
     1
102
RTVSPost2010Prop46
 90
       50
102
RTVSPost2010PropOp46
 70
     1
102
RTVSPost2010Prop47
 90
       50
102
RTVSPost2010PropOp47
 70
     1
102
RTVSPost2010Prop48
 90
       50
102
RTVSPost2010PropOp48
 70
     1
102
RTVSPost2010Prop49
280
     0
102
RTVSPost2010PropOp49
 70
     1
102
RTVSPost2010Prop50
 90
       50
102
RTVSPost2010PropOp50
 70
     1
102
RTVSPost2010Prop51ColorIndex
 90
      256
102
RTVSPost2010Prop51ColorRGB
 90
-16777216
102
RTVSPost2010PropOp51
 70
     0
102
RTVSPost2010Prop52
140
1.0
102
RTVSPost2010PropOp52
 70
     0
102
RTVSPost2010Prop53
 90
        2
102
RTVSPost2010PropOp53
 70
     1
102
RTVSPost2010Prop54
  1
strokes_ogs.tif
102
RTVSPost2010PropOp54
 70
     1
102
RTVSPost2010Prop55
280
     0
102
RTVSPost2010PropOp55
 70
     1
102
RTVSPost2010Prop56
140
1.0
102
RTVSPost2010PropOp56
 70
     1
102
RTVSPost2010Prop57
140
1.0
102
RTVSPost2010PropOp57
 70
     1
  0
XRECORD
  5
24D
102
{ACAD_REACTORS
330
24C
102
}
330
24C
100
AcDbXrecord
280
     1
102
RTVSPropertyOp0
 70
     1
102
RTVSPropertyOp1
 70
     1
102
RTVSPropertyOp2
 70
     1
102
RTVSPropertyOp3
 70
     1
102
RTVSPropertyOp4
 70
     1
102
RTVSPropertyOp5
 70
     1
102
RTVSPropertyOp6
 70
     1
102
RTVSPropertyOp7
 70
     1
102
RTVSPropertyOp8
 70
     1
102
RTVSPropertyOp9
 70
     1
102
RTVSPropertyOp10
 70
     1
102
RTVSPropertyOp11
 70
     1
102
RTVSPropertyOp12
 70
     1
102
RTVSPropertyOp13
 70
     1
102
RTVSPropertyOp14
 70
     1
102
RTVSPropertyOp15
 70
     1
102
RTVSPropertyOp16
 70
     1
102
RTVSPropertyOp17
 70
     1
102
RTVSPropertyOp18
 70
     1
102
RTVSPropertyOp19
 70
     1
102
RTVSPropertyOp20
 70
     1
102
RTVSPropertyOp21
 70
     1
102
RTVSPropertyOp22
 70
     1
102
RTVSPropertyOp23
 70
     1
102
RTVSPropertyOp24
 70
     1
102
RTVSPropertyOp25
 70
     1
102
RTVSPropertyOp26
 70
     1
102
RTVSPropertyOp27
 70
     1
102
RTVSPropertyOp28
 70
     1
102
RTVSPropertyOp29
 70
     1
102
RTVSPropertyOp30
 70
     1
102
RTVSPropertyOp31
 70
     1
102
RTVSPropertyOp32
 70
     1
102
RTVSPropertyOp33
 70
     1
102
RTVSPropertyOp34
 70
     1
102
RTVSPropertyOp35
 70
     1
102
RTVSPropertyOp36
 70
     1
102
RTVSPropertyOp37
 70
     1
102
RTVSPropertyOp38
 70
     1
102
RTVSPropertyOp39
 70
     1
102
RTVSPropertyOp40
 70
     1
102
RTVSPropertyOp41
 70
     1
102
RTVSPropertyOp42
 70
     1
102
RTVSPropertyOp43
 70
     1
102
RTVSPropertyOp44
 70
     1
102
RTVSPropertyOp45
 70
     1
102
RTVSPropertyOp46
 70
     1
102
RTVSPropertyOp47
 70
     1
102
RTVSPropertyOp48
 70
     1
102
RTVSPropertyOp49
 70
     1
102
RTVSPropertyOp50
 70
     1
102
RTVSPropertyOp51
 70
     0
102
RTVSPropertyOp52
 70
     0
102
RTVSPropertyOp53
 70
     1
102
RTVSPropertyOp54
 70
     1
102
RTVSPropertyOp55
 70
     1
102
RTVSPropertyOp56
 70
     1
102
RTVSPropertyOp57
 70
     1
102
RTVSPost2010Prop28
280
     0
102
RTVSPost2010PropOp28
 70
     1
102
RTVSPost2010Prop29
280
     1
102
RTVSPost2010PropOp29
 70
     1
102
RTVSPost2010Prop30
280
     1
102
RTVSPost2010PropOp30
 70
     1
102
RTVSPost2010Prop31
280
     0
102
RTVSPost2010PropOp31
 70
     1
102
RTVSPost2010Prop32
280
     0
102
RTVSPost2010PropOp32
 70
     1
102
RTVSPost2010Prop33
280
     0
102
RTVSPost2010PropOp33
 70
     1
102
RTVSPost2010Prop34
280
     0
102
RTVSPost2010PropOp34
 70
     1
102
RTVSPost2010Prop35
280
     0
102
RTVSPost2010PropOp35
 70
     1
102
RTVSPost2010Prop36
280
     0
102
RTVSPost2010PropOp36
 70
     1
102
RTVSPost2010Prop37
 90
       50
102
RTVSPost2010PropOp37
 70
     1
102
RTVSPost2010Prop38
140
0.0
102
RTVSPost2010PropOp38
 70
     1
102
RTVSPost2010Prop39
140
1.0
102
RTVSPost2010PropOp39
 70
     1
102
RTVSPost2010Prop40
 90
        0
102
RTVSPost2010PropOp40
 70
     1
102
RTVSPost2010Prop41ColorIndex
 90
       18
102
RTVSPost2010Prop41ColorRGB
 90
        0
102
RTVSPost2010PropOp41
 70
     1
102
RTVSPost2010Prop42
 90
       50
102
RTVSPost2010PropOp42
 70
     1
102
RTVSPost2010Prop43
 90
        3
102
RTVSPost2010PropOp43
 70
     1
102
RTVSPost2010Prop44ColorIndex
 90
        5
102
RTVSPost2010Prop44ColorRGB
 90
      255
102
RTVSPost2010PropOp44
 70
     1
102
RTVSPost2010Prop45
280
     0
102
RTVSPost2010PropOp45
 70
     1
102
RTVSPost2010Prop46
 90
       50
102
RTVSPost2010PropOp46
 70
     1
102
RTVSPost2010Prop47
 90
       50
102
RTVSPost2010PropOp47
 70
     1
102
RTVSPost2010Prop48
 90
       50
102
RTVSPost2010PropOp48
 70
     1
102
RTVSPost2010Prop49
280
     0
102
RTVSPost2010PropOp49
 70
     1
102
RTVSPost2010Prop50
 90
       50
102
RTVSPost2010PropOp50
 70
     1
102
RTVSPost2010Prop51ColorIndex
 90
      256
102
RTVSPost2010Prop51ColorRGB
 90
-16777216
102
RTVSPost2010PropOp51
 70
     0
102
RTVSPost2010Prop52
140
1.0
102
RTVSPost2010PropOp52
 70
     0
102
RTVSPost2010Prop53
 90
        2
102
RTVSPost2010PropOp53
 70
     1
102
RTVSPost2010Prop54
  1
strokes_ogs.tif
102
RTVSPost2010PropOp54
 70
     1
102
RTVSPost2010Prop55
280
     0
102
RTVSPost2010PropOp55
 70
     1
102
RTVSPost2010Prop56
140
1.0
102
RTVSPost2010PropOp56
 70
     1
102
RTVSPost2010Prop57
140
1.0
102
RTVSPost2010PropOp57
 70
     1
  0
XRECORD
  5
261
102
{ACAD_REACTORS
330
260
102
}
330
260
100
AcDbXrecord
280
     1
102
RTVSPropertyOp0
 70
     0
102
RTVSPropertyOp1
 70
     0
102
RTVSPropertyOp2
 70
     0
102
RTVSPropertyOp3
 70
     0
102
RTVSPropertyOp4
 70
     0
102
RTVSPropertyOp5
 70
     0
102
RTVSPropertyOp6
 70
     0
102
RTVSPropertyOp7
 70
     0
102
RTVSPropertyOp8
 70
     0
102
RTVSPropertyOp9
 70
     0
102
RTVSPropertyOp10
 70
     0
102
RTVSPropertyOp11
 70
     0
102
RTVSPropertyOp12
 70
     0
102
RTVSPropertyOp13
 70
     0
102
RTVSPropertyOp14
 70
     2
102
RTVSPropertyOp15
 70
     0
102
RTVSPropertyOp16
 70
     0
102
RTVSPropertyOp17
 70
     0
102
RTVSPropertyOp18
 70
     0
102
RTVSPropertyOp19
 70
     0
102
RTVSPropertyOp20
 70
     0
102
RTVSPropertyOp21
 70
     0
102
RTVSPropertyOp22
 70
     0
102
RTVSPropertyOp23
 70
     0
102
RTVSPropertyOp24
 70
     0
102
RTVSPropertyOp25
 70
     0
102
RTVSPropertyOp26
 70
     0
102
RTVSPropertyOp27
 70
     0
102
RTVSPropertyOp28
 70
     0
102
RTVSPropertyOp29
 70
     0
102
RTVSPropertyOp30
 70
     0
102
RTVSPropertyOp31
 70
     0
102
RTVSPropertyOp32
 70
     0
102
RTVSPropertyOp33
 70
     0
102
RTVSPropertyOp34
 70
     0
102
RTVSPropertyOp35
 70
     0
102
RTVSPropertyOp36
 70
     0
102
RTVSPropertyOp37
 70
     0
102
RTVSPropertyOp38
 70
     0
102
RTVSPropertyOp39
 70
     0
102
RTVSPropertyOp40
 70
     0
102
RTVSPropertyOp41
 70
     0
102
RTVSPropertyOp42
 70
     0
102
RTVSPropertyOp43
 70
     0
102
RTVSPropertyOp44
 70
     0
102
RTVSPropertyOp45
 70
     0
102
RTVSPropertyOp46
 70
     0
102
RTVSPropertyOp47
 70
     0
102
RTVSPropertyOp48
 70
     0
102
RTVSPropertyOp49
 70
     0
102
RTVSPropertyOp50
 70
     0
102
RTVSPropertyOp51
 70
     0
102
RTVSPropertyOp52
 70
     0
102
RTVSPropertyOp53
 70
     0
102
RTVSPropertyOp54
 70
     0
102
RTVSPropertyOp55
 70
     0
102
RTVSPropertyOp56
 70
     0
102
RTVSPropertyOp57
 70
     0
102
RTVSPost2010Prop28
280
     0
102
RTVSPost2010PropOp28
 70
     0
102
RTVSPost2010Prop29
280
     1
102
RTVSPost2010PropOp29
 70
     0
102
RTVSPost2010Prop30
280
     1
102
RTVSPost2010PropOp30
 70
     0
102
RTVSPost2010Prop31
280
     0
102
RTVSPost2010PropOp31
 70
     0
102
RTVSPost2010Prop32
280
     0
102
RTVSPost2010PropOp32
 70
     0
102
RTVSPost2010Prop33
280
     0
102
RTVSPost2010PropOp33
 70
     0
102
RTVSPost2010Prop34
280
     0
102
RTVSPost2010PropOp34
 70
     0
102
RTVSPost2010Prop35
280
     0
102
RTVSPost2010PropOp35
 70
     0
102
RTVSPost2010Prop36
280
     0
102
RTVSPost2010PropOp36
 70
     0
102
RTVSPost2010Prop37
 90
       50
102
RTVSPost2010PropOp37
 70
     0
102
RTVSPost2010Prop38
140
0.0
102
RTVSPost2010PropOp38
 70
     0
102
RTVSPost2010Prop39
140
1.0
102
RTVSPost2010PropOp39
 70
     0
102
RTVSPost2010Prop40
 90
        0
102
RTVSPost2010PropOp40
 70
     0
102
RTVSPost2010Prop41ColorIndex
 90
       18
102
RTVSPost2010Prop41ColorRGB
 90
        0
102
RTVSPost2010PropOp41
 70
     0
102
RTVSPost2010Prop42
 90
       50
102
RTVSPost2010PropOp42
 70
     0
102
RTVSPost2010Prop43
 90
        3
102
RTVSPost2010PropOp43
 70
     0
102
RTVSPost2010Prop44ColorIndex
 90
        5
102
RTVSPost2010Prop44ColorRGB
 90
      255
102
RTVSPost2010PropOp44
 70
     0
102
RTVSPost2010Prop45
280
     0
102
RTVSPost2010PropOp45
 70
     0
102
RTVSPost2010Prop46
 90
       50
102
RTVSPost2010PropOp46
 70
     0
102
RTVSPost2010Prop47
 90
       50
102
RTVSPost2010PropOp47
 70
     0
102
RTVSPost2010Prop48
 90
       50
102
RTVSPost2010PropOp48
 70
     0
102
RTVSPost2010Prop49
280
     0
102
RTVSPost2010PropOp49
 70
     0
102
RTVSPost2010Prop50
 90
       50
102
RTVSPost2010PropOp50
 70
     0
102
RTVSPost2010Prop51ColorIndex
 90
      256
102
RTVSPost2010Prop51ColorRGB
 90
-16777216
102
RTVSPost2010PropOp51
 70
     0
102
RTVSPost2010Prop52
140
1.0
102
RTVSPost2010PropOp52
 70
     0
102
RTVSPost2010Prop53
 90
        2
102
RTVSPost2010PropOp53
 70
     0
102
RTVSPost2010Prop54
  1
strokes_ogs.tif
102
RTVSPost2010PropOp54
 70
     0
102
RTVSPost2010Prop55
280
     0
102
RTVSPost2010PropOp55
 70
     0
102
RTVSPost2010Prop56
140
1.0
102
RTVSPost2010PropOp56
 70
     0
102
RTVSPost2010Prop57
140
1.0
102
RTVSPost2010PropOp57
 70
     0
  0
XRECORD
  5
25B
102
{ACAD_REACTORS
330
25A
102
}
330
25A
100
AcDbXrecord
280
     1
102
RTVSPropertyOp0
 70
     1
102
RTVSPropertyOp1
 70
     1
102
RTVSPropertyOp2
 70
     1
102
RTVSPropertyOp3
 70
     1
102
RTVSPropertyOp4
 70
     1
102
RTVSPropertyOp5
 70
     1
102
RTVSPropertyOp6
 70
     1
102
RTVSPropertyOp7
 70
     1
102
RTVSPropertyOp8
 70
     1
102
RTVSPropertyOp9
 70
     1
102
RTVSPropertyOp10
 70
     1
102
RTVSPropertyOp11
 70
     1
102
RTVSPropertyOp12
 70
     1
102
RTVSPropertyOp13
 70
     1
102
RTVSPropertyOp14
 70
     1
102
RTVSPropertyOp15
 70
     1
102
RTVSPropertyOp16
 70
     1
102
RTVSPropertyOp17
 70
     1
102
RTVSPropertyOp18
 70
     1
102
RTVSPropertyOp19
 70
     1
102
RTVSPropertyOp20
 70
     1
102
RTVSPropertyOp21
 70
     1
102
RTVSPropertyOp22
 70
     1
102
RTVSPropertyOp23
 70
     1
102
RTVSPropertyOp24
 70
     1
102
RTVSPropertyOp25
 70
     1
102
RTVSPropertyOp26
 70
     1
102
RTVSPropertyOp27
 70
     1
102
RTVSPropertyOp28
 70
     1
102
RTVSPropertyOp29
 70
     1
102
RTVSPropertyOp30
 70
     1
102
RTVSPropertyOp31
 70
     1
102
RTVSPropertyOp32
 70
     1
102
RTVSPropertyOp33
 70
     1
102
RTVSPropertyOp34
 70
     1
102
RTVSPropertyOp35
 70
     1
102
RTVSPropertyOp36
 70
     1
102
RTVSPropertyOp37
 70
     1
102
RTVSPropertyOp38
 70
     1
102
RTVSPropertyOp39
 70
     1
102
RTVSPropertyOp40
 70
     1
102
RTVSPropertyOp41
 70
     1
102
RTVSPropertyOp42
 70
     1
102
RTVSPropertyOp43
 70
     1
102
RTVSPropertyOp44
 70
     1
102
RTVSPropertyOp45
 70
     1
102
RTVSPropertyOp46
 70
     1
102
RTVSPropertyOp47
 70
     1
102
RTVSPropertyOp48
 70
     1
102
RTVSPropertyOp49
 70
     1
102
RTVSPropertyOp50
 70
     1
102
RTVSPropertyOp51
 70
     0
102
RTVSPropertyOp52
 70
     0
102
RTVSPropertyOp53
 70
     1
102
RTVSPropertyOp54
 70
     1
102
RTVSPropertyOp55
 70
     1
102
RTVSPropertyOp56
 70
     1
102
RTVSPropertyOp57
 70
     1
102
RTVSPost2010Prop28
280
     0
102
RTVSPost2010PropOp28
 70
     1
102
RTVSPost2010Prop29
280
     1
102
RTVSPost2010PropOp29
 70
     1
102
RTVSPost2010Prop30
280
     1
102
RTVSPost2010PropOp30
 70
     1
102
RTVSPost2010Prop31
280
     0
102
RTVSPost2010PropOp31
 70
     1
102
RTVSPost2010Prop32
280
     0
102
RTVSPost2010PropOp32
 70
     1
102
RTVSPost2010Prop33
280
     0
102
RTVSPost2010PropOp33
 70
     1
102
RTVSPost2010Prop34
280
     0
102
RTVSPost2010PropOp34
 70
     1
102
RTVSPost2010Prop35
280
     0
102
RTVSPost2010PropOp35
 70
     1
102
RTVSPost2010Prop36
280
     0
102
RTVSPost2010PropOp36
 70
     1
102
RTVSPost2010Prop37
 90
       50
102
RTVSPost2010PropOp37
 70
     1
102
RTVSPost2010Prop38
140
0.0
102
RTVSPost2010PropOp38
 70
     1
102
RTVSPost2010Prop39
140
1.0
102
RTVSPost2010PropOp39
 70
     1
102
RTVSPost2010Prop40
 90
        0
102
RTVSPost2010PropOp40
 70
     1
102
RTVSPost2010Prop41ColorIndex
 90
       18
102
RTVSPost2010Prop41ColorRGB
 90
        0
102
RTVSPost2010PropOp41
 70
     1
102
RTVSPost2010Prop42
 90
       50
102
RTVSPost2010PropOp42
 70
     1
102
RTVSPost2010Prop43
 90
        3
102
RTVSPost2010PropOp43
 70
     1
102
RTVSPost2010Prop44ColorIndex
 90
        5
102
RTVSPost2010Prop44ColorRGB
 90
      255
102
RTVSPost2010PropOp44
 70
     1
102
RTVSPost2010Prop45
280
     0
102
RTVSPost2010PropOp45
 70
     1
102
RTVSPost2010Prop46
 90
       50
102
RTVSPost2010PropOp46
 70
     1
102
RTVSPost2010Prop47
 90
       50
102
RTVSPost2010PropOp47
 70
     1
102
RTVSPost2010Prop48
 90
       50
102
RTVSPost2010PropOp48
 70
     1
102
RTVSPost2010Prop49
280
     0
102
RTVSPost2010PropOp49
 70
     1
102
RTVSPost2010Prop50
 90
       50
102
RTVSPost2010PropOp50
 70
     1
102
RTVSPost2010Prop51ColorIndex
 90
      256
102
RTVSPost2010Prop51ColorRGB
 90
-16777216
102
RTVSPost2010PropOp51
 70
     0
102
RTVSPost2010Prop52
140
1.0
102
RTVSPost2010PropOp52
 70
     0
102
RTVSPost2010Prop53
 90
        2
102
RTVSPost2010PropOp53
 70
     1
102
RTVSPost2010Prop54
  1
strokes_ogs.tif
102
RTVSPost2010PropOp54
 70
     1
102
RTVSPost2010Prop55
280
     0
102
RTVSPost2010PropOp55
 70
     1
102
RTVSPost2010Prop56
140
1.0
102
RTVSPost2010PropOp56
 70
     1
102
RTVSPost2010Prop57
140
1.0
102
RTVSPost2010PropOp57
 70
     1
  0
XRECORD
  5
263
102
{ACAD_REACTORS
330
262
102
}
330
262
100
AcDbXrecord
280
     1
102
RTVSPropertyOp0
 70
     0
102
RTVSPropertyOp1
 70
     0
102
RTVSPropertyOp2
 70
     0
102
RTVSPropertyOp3
 70
     0
102
RTVSPropertyOp4
 70
     0
102
RTVSPropertyOp5
 70
     0
102
RTVSPropertyOp6
 70
     0
102
RTVSPropertyOp7
 70
     0
102
RTVSPropertyOp8
 70
     0
102
RTVSPropertyOp9
 70
     0
102
RTVSPropertyOp10
 70
     0
102
RTVSPropertyOp11
 70
     0
102
RTVSPropertyOp12
 70
     0
102
RTVSPropertyOp13
 70
     0
102
RTVSPropertyOp14
 70
     2
102
RTVSPropertyOp15
 70
     0
102
RTVSPropertyOp16
 70
     0
102
RTVSPropertyOp17
 70
     0
102
RTVSPropertyOp18
 70
     0
102
RTVSPropertyOp19
 70
     0
102
RTVSPropertyOp20
 70
     0
102
RTVSPropertyOp21
 70
     0
102
RTVSPropertyOp22
 70
     0
102
RTVSPropertyOp23
 70
     0
102
RTVSPropertyOp24
 70
     0
102
RTVSPropertyOp25
 70
     0
102
RTVSPropertyOp26
 70
     0
102
RTVSPropertyOp27
 70
     0
102
RTVSPropertyOp28
 70
     0
102
RTVSPropertyOp29
 70
     0
102
RTVSPropertyOp30
 70
     0
102
RTVSPropertyOp31
 70
     0
102
RTVSPropertyOp32
 70
     0
102
RTVSPropertyOp33
 70
     0
102
RTVSPropertyOp34
 70
     0
102
RTVSPropertyOp35
 70
     0
102
RTVSPropertyOp36
 70
     0
102
RTVSPropertyOp37
 70
     0
102
RTVSPropertyOp38
 70
     0
102
RTVSPropertyOp39
 70
     0
102
RTVSPropertyOp40
 70
     0
102
RTVSPropertyOp41
 70
     0
102
RTVSPropertyOp42
 70
     0
102
RTVSPropertyOp43
 70
     0
102
RTVSPropertyOp44
 70
     0
102
RTVSPropertyOp45
 70
     0
102
RTVSPropertyOp46
 70
     0
102
RTVSPropertyOp47
 70
     0
102
RTVSPropertyOp48
 70
     0
102
RTVSPropertyOp49
 70
     0
102
RTVSPropertyOp50
 70
     0
102
RTVSPropertyOp51
 70
     0
102
RTVSPropertyOp52
 70
     0
102
RTVSPropertyOp53
 70
     0
102
RTVSPropertyOp54
 70
     0
102
RTVSPropertyOp55
 70
     0
102
RTVSPropertyOp56
 70
     0
102
RTVSPropertyOp57
 70
     0
102
RTVSPost2010Prop28
280
     0
102
RTVSPost2010PropOp28
 70
     0
102
RTVSPost2010Prop29
280
     1
102
RTVSPost2010PropOp29
 70
     0
102
RTVSPost2010Prop30
280
     1
102
RTVSPost2010PropOp30
 70
     0
102
RTVSPost2010Prop31
280
     0
102
RTVSPost2010PropOp31
 70
     0
102
RTVSPost2010Prop32
280
     0
102
RTVSPost2010PropOp32
 70
     0
102
RTVSPost2010Prop33
280
     0
102
RTVSPost2010PropOp33
 70
     0
102
RTVSPost2010Prop34
280
     0
102
RTVSPost2010PropOp34
 70
     0
102
RTVSPost2010Prop35
280
     0
102
RTVSPost2010PropOp35
 70
     0
102
RTVSPost2010Prop36
280
     0
102
RTVSPost2010PropOp36
 70
     0
102
RTVSPost2010Prop37
 90
       50
102
RTVSPost2010PropOp37
 70
     0
102
RTVSPost2010Prop38
140
0.0
102
RTVSPost2010PropOp38
 70
     0
102
RTVSPost2010Prop39
140
1.0
102
RTVSPost2010PropOp39
 70
     0
102
RTVSPost2010Prop40
 90
        0
102
RTVSPost2010PropOp40
 70
     0
102
RTVSPost2010Prop41ColorIndex
 90
       18
102
RTVSPost2010Prop41ColorRGB
 90
        0
102
RTVSPost2010PropOp41
 70
     0
102
RTVSPost2010Prop42
 90
       50
102
RTVSPost2010PropOp42
 70
     0
102
RTVSPost2010Prop43
 90
        3
102
RTVSPost2010PropOp43
 70
     0
102
RTVSPost2010Prop44ColorIndex
 90
        5
102
RTVSPost2010Prop44ColorRGB
 90
      255
102
RTVSPost2010PropOp44
 70
     0
102
RTVSPost2010Prop45
280
     0
102
RTVSPost2010PropOp45
 70
     0
102
RTVSPost2010Prop46
 90
       50
102
RTVSPost2010PropOp46
 70
     0
102
RTVSPost2010Prop47
 90
       50
102
RTVSPost2010PropOp47
 70
     0
102
RTVSPost2010Prop48
 90
       50
102
RTVSPost2010PropOp48
 70
     0
102
RTVSPost2010Prop49
280
     0
102
RTVSPost2010PropOp49
 70
     0
102
RTVSPost2010Prop50
 90
       50
102
RTVSPost2010PropOp50
 70
     0
102
RTVSPost2010Prop51ColorIndex
 90
      256
102
RTVSPost2010Prop51ColorRGB
 90
-16777216
102
RTVSPost2010PropOp51
 70
     0
102
RTVSPost2010Prop52
140
1.0
102
RTVSPost2010PropOp52
 70
     0
102
RTVSPost2010Prop53
 90
        2
102
RTVSPost2010PropOp53
 70
     0
102
RTVSPost2010Prop54
  1
strokes_ogs.tif
102
RTVSPost2010PropOp54
 70
     0
102
RTVSPost2010Prop55
280
     0
102
RTVSPost2010PropOp55
 70
     0
102
RTVSPost2010Prop56
140
1.0
102
RTVSPost2010PropOp56
 70
     0
102
RTVSPost2010Prop57
140
1.0
102
RTVSPost2010PropOp57
 70
     0
  0
XRECORD
  5
251
102
{ACAD_REACTORS
330
250
102
}
330
250
100
AcDbXrecord
280
     1
102
RTVSPropertyOp0
 70
     1
102
RTVSPropertyOp1
 70
     1
102
RTVSPropertyOp2
 70
     1
102
RTVSPropertyOp3
 70
     1
102
RTVSPropertyOp4
 70
     1
102
RTVSPropertyOp5
 70
     1
102
RTVSPropertyOp6
 70
     1
102
RTVSPropertyOp7
 70
     1
102
RTVSPropertyOp8
 70
     1
102
RTVSPropertyOp9
 70
     1
102
RTVSPropertyOp10
 70
     1
102
RTVSPropertyOp11
 70
     1
102
RTVSPropertyOp12
 70
     1
102
RTVSPropertyOp13
 70
     1
102
RTVSPropertyOp14
 70
     1
102
RTVSPropertyOp15
 70
     1
102
RTVSPropertyOp16
 70
     1
102
RTVSPropertyOp17
 70
     1
102
RTVSPropertyOp18
 70
     1
102
RTVSPropertyOp19
 70
     1
102
RTVSPropertyOp20
 70
     1
102
RTVSPropertyOp21
 70
     1
102
RTVSPropertyOp22
 70
     1
102
RTVSPropertyOp23
 70
     1
102
RTVSPropertyOp24
 70
     1
102
RTVSPropertyOp25
 70
     1
102
RTVSPropertyOp26
 70
     1
102
RTVSPropertyOp27
 70
     1
102
RTVSPropertyOp28
 70
     1
102
RTVSPropertyOp29
 70
     1
102
RTVSPropertyOp30
 70
     1
102
RTVSPropertyOp31
 70
     1
102
RTVSPropertyOp32
 70
     1
102
RTVSPropertyOp33
 70
     1
102
RTVSPropertyOp34
 70
     1
102
RTVSPropertyOp35
 70
     1
102
RTVSPropertyOp36
 70
     1
102
RTVSPropertyOp37
 70
     1
102
RTVSPropertyOp38
 70
     1
102
RTVSPropertyOp39
 70
     1
102
RTVSPropertyOp40
 70
     1
102
RTVSPropertyOp41
 70
     1
102
RTVSPropertyOp42
 70
     1
102
RTVSPropertyOp43
 70
     1
102
RTVSPropertyOp44
 70
     1
102
RTVSPropertyOp45
 70
     1
102
RTVSPropertyOp46
 70
     1
102
RTVSPropertyOp47
 70
     1
102
RTVSPropertyOp48
 70
     1
102
RTVSPropertyOp49
 70
     1
102
RTVSPropertyOp50
 70
     1
102
RTVSPropertyOp51
 70
     0
102
RTVSPropertyOp52
 70
     0
102
RTVSPropertyOp53
 70
     1
102
RTVSPropertyOp54
 70
     1
102
RTVSPropertyOp55
 70
     1
102
RTVSPropertyOp56
 70
     1
102
RTVSPropertyOp57
 70
     1
102
RTVSPost2010Prop28
280
     0
102
RTVSPost2010PropOp28
 70
     1
102
RTVSPost2010Prop29
280
     1
102
RTVSPost2010PropOp29
 70
     1
102
RTVSPost2010Prop30
280
     1
102
RTVSPost2010PropOp30
 70
     1
102
RTVSPost2010Prop31
280
     0
102
RTVSPost2010PropOp31
 70
     1
102
RTVSPost2010Prop32
280
     0
102
RTVSPost2010PropOp32
 70
     1
102
RTVSPost2010Prop33
280
     0
102
RTVSPost2010PropOp33
 70
     1
102
RTVSPost2010Prop34
280
     0
102
RTVSPost2010PropOp34
 70
     1
102
RTVSPost2010Prop35
280
     0
102
RTVSPost2010PropOp35
 70
     1
102
RTVSPost2010Prop36
280
     0
102
RTVSPost2010PropOp36
 70
     1
102
RTVSPost2010Prop37
 90
       50
102
RTVSPost2010PropOp37
 70
     1
102
RTVSPost2010Prop38
140
0.0
102
RTVSPost2010PropOp38
 70
     1
102
RTVSPost2010Prop39
140
1.0
102
RTVSPost2010PropOp39
 70
     1
102
RTVSPost2010Prop40
 90
        0
102
RTVSPost2010PropOp40
 70
     1
102
RTVSPost2010Prop41ColorIndex
 90
       18
102
RTVSPost2010Prop41ColorRGB
 90
        0
102
RTVSPost2010PropOp41
 70
     1
102
RTVSPost2010Prop42
 90
       50
102
RTVSPost2010PropOp42
 70
     1
102
RTVSPost2010Prop43
 90
        3
102
RTVSPost2010PropOp43
 70
     1
102
RTVSPost2010Prop44ColorIndex
 90
        5
102
RTVSPost2010Prop44ColorRGB
 90
      255
102
RTVSPost2010PropOp44
 70
     1
102
RTVSPost2010Prop45
280
     0
102
RTVSPost2010PropOp45
 70
     1
102
RTVSPost2010Prop46
 90
       50
102
RTVSPost2010PropOp46
 70
     1
102
RTVSPost2010Prop47
 90
       50
102
RTVSPost2010PropOp47
 70
     1
102
RTVSPost2010Prop48
 90
       50
102
RTVSPost2010PropOp48
 70
     1
102
RTVSPost2010Prop49
280
     0
102
RTVSPost2010PropOp49
 70
     1
102
RTVSPost2010Prop50
 90
       50
102
RTVSPost2010PropOp50
 70
     1
102
RTVSPost2010Prop51ColorIndex
 90
      256
102
RTVSPost2010Prop51ColorRGB
 90
-16777216
102
RTVSPost2010PropOp51
 70
     0
102
RTVSPost2010Prop52
140
1.0
102
RTVSPost2010PropOp52
 70
     0
102
RTVSPost2010Prop53
 90
        2
102
RTVSPost2010PropOp53
 70
     1
102
RTVSPost2010Prop54
  1
strokes_ogs.tif
102
RTVSPost2010PropOp54
 70
     1
102
RTVSPost2010Prop55
280
     0
102
RTVSPost2010PropOp55
 70
     1
102
RTVSPost2010Prop56
140
1.0
102
RTVSPost2010PropOp56
 70
     1
102
RTVSPost2010Prop57
140
1.0
102
RTVSPost2010PropOp57
 70
     1
  0
XRECORD
  5
26F
102
{ACAD_REACTORS
330
26E
102
}
330
26E
100
AcDbXrecord
280
     1
102
RTVSPropertyOp0
 70
     1
102
RTVSPropertyOp1
 70
     1
102
RTVSPropertyOp2
 70
     1
102
RTVSPropertyOp3
 70
     1
102
RTVSPropertyOp4
 70
     1
102
RTVSPropertyOp5
 70
     1
102
RTVSPropertyOp6
 70
     1
102
RTVSPropertyOp7
 70
     1
102
RTVSPropertyOp8
 70
     1
102
RTVSPropertyOp9
 70
     1
102
RTVSPropertyOp10
 70
     1
102
RTVSPropertyOp11
 70
     1
102
RTVSPropertyOp12
 70
     1
102
RTVSPropertyOp13
 70
     1
102
RTVSPropertyOp14
 70
     1
102
RTVSPropertyOp15
 70
     1
102
RTVSPropertyOp16
 70
     1
102
RTVSPropertyOp17
 70
     1
102
RTVSPropertyOp18
 70
     1
102
RTVSPropertyOp19
 70
     1
102
RTVSPropertyOp20
 70
     1
102
RTVSPropertyOp21
 70
     1
102
RTVSPropertyOp22
 70
     1
102
RTVSPropertyOp23
 70
     1
102
RTVSPropertyOp24
 70
     1
102
RTVSPropertyOp25
 70
     1
102
RTVSPropertyOp26
 70
     1
102
RTVSPropertyOp27
 70
     1
102
RTVSPropertyOp28
 70
     1
102
RTVSPropertyOp29
 70
     1
102
RTVSPropertyOp30
 70
     1
102
RTVSPropertyOp31
 70
     1
102
RTVSPropertyOp32
 70
     1
102
RTVSPropertyOp33
 70
     1
102
RTVSPropertyOp34
 70
     1
102
RTVSPropertyOp35
 70
     1
102
RTVSPropertyOp36
 70
     1
102
RTVSPropertyOp37
 70
     1
102
RTVSPropertyOp38
 70
     1
102
RTVSPropertyOp39
 70
     1
102
RTVSPropertyOp40
 70
     1
102
RTVSPropertyOp41
 70
     1
102
RTVSPropertyOp42
 70
     1
102
RTVSPropertyOp43
 70
     1
102
RTVSPropertyOp44
 70
     1
102
RTVSPropertyOp45
 70
     1
102
RTVSPropertyOp46
 70
     1
102
RTVSPropertyOp47
 70
     1
102
RTVSPropertyOp48
 70
     1
102
RTVSPropertyOp49
 70
     1
102
RTVSPropertyOp50
 70
     1
102
RTVSPropertyOp51
 70
     0
102
RTVSPropertyOp52
 70
     0
102
RTVSPropertyOp53
 70
     1
102
RTVSPropertyOp54
 70
     1
102
RTVSPropertyOp55
 70
     1
102
RTVSPropertyOp56
 70
     1
102
RTVSPropertyOp57
 70
     1
102
RTVSPost2010Prop28
280
     0
102
RTVSPost2010PropOp28
 70
     1
102
RTVSPost2010Prop29
280
     1
102
RTVSPost2010PropOp29
 70
     1
102
RTVSPost2010Prop30
280
     1
102
RTVSPost2010PropOp30
 70
     1
102
RTVSPost2010Prop31
280
     0
102
RTVSPost2010PropOp31
 70
     1
102
RTVSPost2010Prop32
280
     0
102
RTVSPost2010PropOp32
 70
     1
102
RTVSPost2010Prop33
280
     0
102
RTVSPost2010PropOp33
 70
     1
102
RTVSPost2010Prop34
280
     0
102
RTVSPost2010PropOp34
 70
     1
102
RTVSPost2010Prop35
280
     0
102
RTVSPost2010PropOp35
 70
     1
102
RTVSPost2010Prop36
280
     0
102
RTVSPost2010PropOp36
 70
     1
102
RTVSPost2010Prop37
 90
       50
102
RTVSPost2010PropOp37
 70
     1
102
RTVSPost2010Prop38
140
0.0
102
RTVSPost2010PropOp38
 70
     1
102
RTVSPost2010Prop39
140
1.0
102
RTVSPost2010PropOp39
 70
     1
102
RTVSPost2010Prop40
 90
        0
102
RTVSPost2010PropOp40
 70
     1
102
RTVSPost2010Prop41ColorIndex
 90
       18
102
RTVSPost2010Prop41ColorRGB
 90
        0
102
RTVSPost2010PropOp41
 70
     1
102
RTVSPost2010Prop42
 90
       50
102
RTVSPost2010PropOp42
 70
     1
102
RTVSPost2010Prop43
 90
        3
102
RTVSPost2010PropOp43
 70
     1
102
RTVSPost2010Prop44ColorIndex
 90
        5
102
RTVSPost2010Prop44ColorRGB
 90
      255
102
RTVSPost2010PropOp44
 70
     1
102
RTVSPost2010Prop45
280
     0
102
RTVSPost2010PropOp45
 70
     1
102
RTVSPost2010Prop46
 90
       50
102
RTVSPost2010PropOp46
 70
     1
102
RTVSPost2010Prop47
 90
       50
102
RTVSPost2010PropOp47
 70
     1
102
RTVSPost2010Prop48
 90
       50
102
RTVSPost2010PropOp48
 70
     1
102
RTVSPost2010Prop49
280
     0
102
RTVSPost2010PropOp49
 70
     1
102
RTVSPost2010Prop50
 90
       50
102
RTVSPost2010PropOp50
 70
     1
102
RTVSPost2010Prop51ColorIndex
 90
      256
102
RTVSPost2010Prop51ColorRGB
 90
-16777216
102
RTVSPost2010PropOp51
 70
     0
102
RTVSPost2010Prop52
140
1.0
102
RTVSPost2010PropOp52
 70
     0
102
RTVSPost2010Prop53
 90
        2
102
RTVSPost2010PropOp53
 70
     1
102
RTVSPost2010Prop54
  1
strokes_ogs.tif
102
RTVSPost2010PropOp54
 70
     1
102
RTVSPost2010Prop55
280
     0
102
RTVSPost2010PropOp55
 70
     1
102
RTVSPost2010Prop56
140
1.0
102
RTVSPost2010PropOp56
 70
     1
102
RTVSPost2010Prop57
140
1.0
102
RTVSPost2010PropOp57
 70
     1
  0
XRECORD
  5
26D
102
{ACAD_REACTORS
330
26C
102
}
330
26C
100
AcDbXrecord
280
     1
102
RTVSPropertyOp0
 70
     1
102
RTVSPropertyOp1
 70
     1
102
RTVSPropertyOp2
 70
     1
102
RTVSPropertyOp3
 70
     1
102
RTVSPropertyOp4
 70
     1
102
RTVSPropertyOp5
 70
     1
102
RTVSPropertyOp6
 70
     1
102
RTVSPropertyOp7
 70
     1
102
RTVSPropertyOp8
 70
     1
102
RTVSPropertyOp9
 70
     1
102
RTVSPropertyOp10
 70
     1
102
RTVSPropertyOp11
 70
     1
102
RTVSPropertyOp12
 70
     1
102
RTVSPropertyOp13
 70
     1
102
RTVSPropertyOp14
 70
     1
102
RTVSPropertyOp15
 70
     1
102
RTVSPropertyOp16
 70
     1
102
RTVSPropertyOp17
 70
     1
102
RTVSPropertyOp18
 70
     1
102
RTVSPropertyOp19
 70
     1
102
RTVSPropertyOp20
 70
     1
102
RTVSPropertyOp21
 70
     1
102
RTVSPropertyOp22
 70
     1
102
RTVSPropertyOp23
 70
     1
102
RTVSPropertyOp24
 70
     1
102
RTVSPropertyOp25
 70
     1
102
RTVSPropertyOp26
 70
     1
102
RTVSPropertyOp27
 70
     1
102
RTVSPropertyOp28
 70
     1
102
RTVSPropertyOp29
 70
     1
102
RTVSPropertyOp30
 70
     1
102
RTVSPropertyOp31
 70
     1
102
RTVSPropertyOp32
 70
     1
102
RTVSPropertyOp33
 70
     1
102
RTVSPropertyOp34
 70
     1
102
RTVSPropertyOp35
 70
     1
102
RTVSPropertyOp36
 70
     1
102
RTVSPropertyOp37
 70
     1
102
RTVSPropertyOp38
 70
     1
102
RTVSPropertyOp39
 70
     1
102
RTVSPropertyOp40
 70
     1
102
RTVSPropertyOp41
 70
     1
102
RTVSPropertyOp42
 70
     1
102
RTVSPropertyOp43
 70
     1
102
RTVSPropertyOp44
 70
     1
102
RTVSPropertyOp45
 70
     1
102
RTVSPropertyOp46
 70
     1
102
RTVSPropertyOp47
 70
     1
102
RTVSPropertyOp48
 70
     1
102
RTVSPropertyOp49
 70
     1
102
RTVSPropertyOp50
 70
     1
102
RTVSPropertyOp51
 70
     0
102
RTVSPropertyOp52
 70
     0
102
RTVSPropertyOp53
 70
     1
102
RTVSPropertyOp54
 70
     1
102
RTVSPropertyOp55
 70
     1
102
RTVSPropertyOp56
 70
     1
102
RTVSPropertyOp57
 70
     1
102
RTVSPost2010Prop28
280
     0
102
RTVSPost2010PropOp28
 70
     1
102
RTVSPost2010Prop29
280
     1
102
RTVSPost2010PropOp29
 70
     1
102
RTVSPost2010Prop30
280
     1
102
RTVSPost2010PropOp30
 70
     1
102
RTVSPost2010Prop31
280
     0
102
RTVSPost2010PropOp31
 70
     1
102
RTVSPost2010Prop32
280
     0
102
RTVSPost2010PropOp32
 70
     1
102
RTVSPost2010Prop33
280
     0
102
RTVSPost2010PropOp33
 70
     1
102
RTVSPost2010Prop34
280
     0
102
RTVSPost2010PropOp34
 70
     1
102
RTVSPost2010Prop35
280
     0
102
RTVSPost2010PropOp35
 70
     1
102
RTVSPost2010Prop36
280
     0
102
RTVSPost2010PropOp36
 70
     1
102
RTVSPost2010Prop37
 90
       50
102
RTVSPost2010PropOp37
 70
     1
102
RTVSPost2010Prop38
140
0.0
102
RTVSPost2010PropOp38
 70
     1
102
RTVSPost2010Prop39
140
1.0
102
RTVSPost2010PropOp39
 70
     1
102
RTVSPost2010Prop40
 90
        0
102
RTVSPost2010PropOp40
 70
     1
102
RTVSPost2010Prop41ColorIndex
 90
       18
102
RTVSPost2010Prop41ColorRGB
 90
        0
102
RTVSPost2010PropOp41
 70
     1
102
RTVSPost2010Prop42
 90
       50
102
RTVSPost2010PropOp42
 70
     1
102
RTVSPost2010Prop43
 90
        3
102
RTVSPost2010PropOp43
 70
     1
102
RTVSPost2010Prop44ColorIndex
 90
        5
102
RTVSPost2010Prop44ColorRGB
 90
      255
102
RTVSPost2010PropOp44
 70
     1
102
RTVSPost2010Prop45
280
     0
102
RTVSPost2010PropOp45
 70
     1
102
RTVSPost2010Prop46
 90
       50
102
RTVSPost2010PropOp46
 70
     1
102
RTVSPost2010Prop47
 90
       50
102
RTVSPost2010PropOp47
 70
     1
102
RTVSPost2010Prop48
 90
       50
102
RTVSPost2010PropOp48
 70
     1
102
RTVSPost2010Prop49
280
     0
102
RTVSPost2010PropOp49
 70
     1
102
RTVSPost2010Prop50
 90
       50
102
RTVSPost2010PropOp50
 70
     1
102
RTVSPost2010Prop51ColorIndex
 90
      256
102
RTVSPost2010Prop51ColorRGB
 90
-16777216
102
RTVSPost2010PropOp51
 70
     0
102
RTVSPost2010Prop52
140
1.0
102
RTVSPost2010PropOp52
 70
     0
102
RTVSPost2010Prop53
 90
        2
102
RTVSPost2010PropOp53
 70
     1
102
RTVSPost2010Prop54
  1
strokes_ogs.tif
102
RTVSPost2010PropOp54
 70
     1
102
RTVSPost2010Prop55
280
     0
102
RTVSPost2010PropOp55
 70
     1
102
RTVSPost2010Prop56
140
1.0
102
RTVSPost2010PropOp56
 70
     1
102
RTVSPost2010Prop57
140
1.0
102
RTVSPost2010PropOp57
 70
     1
  0
XRECORD
  5
267
102
{ACAD_REACTORS
330
266
102
}
330
266
100
AcDbXrecord
280
     1
102
RTVSPropertyOp0
 70
     1
102
RTVSPropertyOp1
 70
     1
102
RTVSPropertyOp2
 70
     1
102
RTVSPropertyOp3
 70
     1
102
RTVSPropertyOp4
 70
     1
102
RTVSPropertyOp5
 70
     1
102
RTVSPropertyOp6
 70
     1
102
RTVSPropertyOp7
 70
     1
102
RTVSPropertyOp8
 70
     1
102
RTVSPropertyOp9
 70
     1
102
RTVSPropertyOp10
 70
     1
102
RTVSPropertyOp11
 70
     1
102
RTVSPropertyOp12
 70
     1
102
RTVSPropertyOp13
 70
     1
102
RTVSPropertyOp14
 70
     1
102
RTVSPropertyOp15
 70
     1
102
RTVSPropertyOp16
 70
     1
102
RTVSPropertyOp17
 70
     1
102
RTVSPropertyOp18
 70
     1
102
RTVSPropertyOp19
 70
     1
102
RTVSPropertyOp20
 70
     1
102
RTVSPropertyOp21
 70
     1
102
RTVSPropertyOp22
 70
     1
102
RTVSPropertyOp23
 70
     1
102
RTVSPropertyOp24
 70
     1
102
RTVSPropertyOp25
 70
     1
102
RTVSPropertyOp26
 70
     1
102
RTVSPropertyOp27
 70
     1
102
RTVSPropertyOp28
 70
     1
102
RTVSPropertyOp29
 70
     1
102
RTVSPropertyOp30
 70
     1
102
RTVSPropertyOp31
 70
     1
102
RTVSPropertyOp32
 70
     1
102
RTVSPropertyOp33
 70
     1
102
RTVSPropertyOp34
 70
     1
102
RTVSPropertyOp35
 70
     1
102
RTVSPropertyOp36
 70
     1
102
RTVSPropertyOp37
 70
     1
102
RTVSPropertyOp38
 70
     1
102
RTVSPropertyOp39
 70
     1
102
RTVSPropertyOp40
 70
     1
102
RTVSPropertyOp41
 70
     1
102
RTVSPropertyOp42
 70
     1
102
RTVSPropertyOp43
 70
     1
102
RTVSPropertyOp44
 70
     1
102
RTVSPropertyOp45
 70
     1
102
RTVSPropertyOp46
 70
     1
102
RTVSPropertyOp47
 70
     1
102
RTVSPropertyOp48
 70
     1
102
RTVSPropertyOp49
 70
     1
102
RTVSPropertyOp50
 70
     1
102
RTVSPropertyOp51
 70
     0
102
RTVSPropertyOp52
 70
     0
102
RTVSPropertyOp53
 70
     1
102
RTVSPropertyOp54
 70
     1
102
RTVSPropertyOp55
 70
     1
102
RTVSPropertyOp56
 70
     1
102
RTVSPropertyOp57
 70
     1
102
RTVSPost2010Prop28
280
     0
102
RTVSPost2010PropOp28
 70
     1
102
RTVSPost2010Prop29
280
     1
102
RTVSPost2010PropOp29
 70
     1
102
RTVSPost2010Prop30
280
     1
102
RTVSPost2010PropOp30
 70
     1
102
RTVSPost2010Prop31
280
     0
102
RTVSPost2010PropOp31
 70
     1
102
RTVSPost2010Prop32
280
     0
102
RTVSPost2010PropOp32
 70
     1
102
RTVSPost2010Prop33
280
     0
102
RTVSPost2010PropOp33
 70
     1
102
RTVSPost2010Prop34
280
     0
102
RTVSPost2010PropOp34
 70
     1
102
RTVSPost2010Prop35
280
     0
102
RTVSPost2010PropOp35
 70
     1
102
RTVSPost2010Prop36
280
     0
102
RTVSPost2010PropOp36
 70
     1
102
RTVSPost2010Prop37
 90
       50
102
RTVSPost2010PropOp37
 70
     1
102
RTVSPost2010Prop38
140
0.0
102
RTVSPost2010PropOp38
 70
     1
102
RTVSPost2010Prop39
140
1.0
102
RTVSPost2010PropOp39
 70
     1
102
RTVSPost2010Prop40
 90
        0
102
RTVSPost2010PropOp40
 70
     1
102
RTVSPost2010Prop41ColorIndex
 90
       18
102
RTVSPost2010Prop41ColorRGB
 90
        0
102
RTVSPost2010PropOp41
 70
     1
102
RTVSPost2010Prop42
 90
       50
102
RTVSPost2010PropOp42
 70
     1
102
RTVSPost2010Prop43
 90
        3
102
RTVSPost2010PropOp43
 70
     1
102
RTVSPost2010Prop44ColorIndex
 90
        5
102
RTVSPost2010Prop44ColorRGB
 90
      255
102
RTVSPost2010PropOp44
 70
     1
102
RTVSPost2010Prop45
280
     0
102
RTVSPost2010PropOp45
 70
     1
102
RTVSPost2010Prop46
 90
       50
102
RTVSPost2010PropOp46
 70
     1
102
RTVSPost2010Prop47
 90
       50
102
RTVSPost2010PropOp47
 70
     1
102
RTVSPost2010Prop48
 90
       50
102
RTVSPost2010PropOp48
 70
     1
102
RTVSPost2010Prop49
280
     0
102
RTVSPost2010PropOp49
 70
     1
102
RTVSPost2010Prop50
 90
       50
102
RTVSPost2010PropOp50
 70
     1
102
RTVSPost2010Prop51ColorIndex
 90
      256
102
RTVSPost2010Prop51ColorRGB
 90
-16777216
102
RTVSPost2010PropOp51
 70
     0
102
RTVSPost2010Prop52
140
1.0
102
RTVSPost2010PropOp52
 70
     0
102
RTVSPost2010Prop53
 90
        2
102
RTVSPost2010PropOp53
 70
     1
102
RTVSPost2010Prop54
  1
strokes_ogs.tif
102
RTVSPost2010PropOp54
 70
     1
102
RTVSPost2010Prop55
280
     0
102
RTVSPost2010PropOp55
 70
     1
102
RTVSPost2010Prop56
140
1.0
102
RTVSPost2010PropOp56
 70
     1
102
RTVSPost2010Prop57
140
1.0
102
RTVSPost2010PropOp57
 70
     1
  0
XRECORD
  5
269
102
{ACAD_REACTORS
330
268
102
}
330
268
100
AcDbXrecord
280
     1
102
RTVSPropertyOp0
 70
     1
102
RTVSPropertyOp1
 70
     1
102
RTVSPropertyOp2
 70
     1
102
RTVSPropertyOp3
 70
     1
102
RTVSPropertyOp4
 70
     1
102
RTVSPropertyOp5
 70
     1
102
RTVSPropertyOp6
 70
     1
102
RTVSPropertyOp7
 70
     1
102
RTVSPropertyOp8
 70
     1
102
RTVSPropertyOp9
 70
     1
102
RTVSPropertyOp10
 70
     1
102
RTVSPropertyOp11
 70
     1
102
RTVSPropertyOp12
 70
     1
102
RTVSPropertyOp13
 70
     1
102
RTVSPropertyOp14
 70
     1
102
RTVSPropertyOp15
 70
     1
102
RTVSPropertyOp16
 70
     1
102
RTVSPropertyOp17
 70
     1
102
RTVSPropertyOp18
 70
     1
102
RTVSPropertyOp19
 70
     1
102
RTVSPropertyOp20
 70
     1
102
RTVSPropertyOp21
 70
     1
102
RTVSPropertyOp22
 70
     1
102
RTVSPropertyOp23
 70
     1
102
RTVSPropertyOp24
 70
     1
102
RTVSPropertyOp25
 70
     1
102
RTVSPropertyOp26
 70
     1
102
RTVSPropertyOp27
 70
     1
102
RTVSPropertyOp28
 70
     1
102
RTVSPropertyOp29
 70
     1
102
RTVSPropertyOp30
 70
     1
102
RTVSPropertyOp31
 70
     1
102
RTVSPropertyOp32
 70
     1
102
RTVSPropertyOp33
 70
     1
102
RTVSPropertyOp34
 70
     1
102
RTVSPropertyOp35
 70
     1
102
RTVSPropertyOp36
 70
     1
102
RTVSPropertyOp37
 70
     1
102
RTVSPropertyOp38
 70
     1
102
RTVSPropertyOp39
 70
     1
102
RTVSPropertyOp40
 70
     1
102
RTVSPropertyOp41
 70
     1
102
RTVSPropertyOp42
 70
     1
102
RTVSPropertyOp43
 70
     1
102
RTVSPropertyOp44
 70
     1
102
RTVSPropertyOp45
 70
     1
102
RTVSPropertyOp46
 70
     1
102
RTVSPropertyOp47
 70
     1
102
RTVSPropertyOp48
 70
     1
102
RTVSPropertyOp49
 70
     1
102
RTVSPropertyOp50
 70
     1
102
RTVSPropertyOp51
 70
     0
102
RTVSPropertyOp52
 70
     0
102
RTVSPropertyOp53
 70
     1
102
RTVSPropertyOp54
 70
     1
102
RTVSPropertyOp55
 70
     1
102
RTVSPropertyOp56
 70
     1
102
RTVSPropertyOp57
 70
     1
102
RTVSPost2010Prop28
280
     0
102
RTVSPost2010PropOp28
 70
     1
102
RTVSPost2010Prop29
280
     1
102
RTVSPost2010PropOp29
 70
     1
102
RTVSPost2010Prop30
280
     1
102
RTVSPost2010PropOp30
 70
     1
102
RTVSPost2010Prop31
280
     0
102
RTVSPost2010PropOp31
 70
     1
102
RTVSPost2010Prop32
280
     0
102
RTVSPost2010PropOp32
 70
     1
102
RTVSPost2010Prop33
280
     0
102
RTVSPost2010PropOp33
 70
     1
102
RTVSPost2010Prop34
280
     0
102
RTVSPost2010PropOp34
 70
     1
102
RTVSPost2010Prop35
280
     0
102
RTVSPost2010PropOp35
 70
     1
102
RTVSPost2010Prop36
280
     0
102
RTVSPost2010PropOp36
 70
     1
102
RTVSPost2010Prop37
 90
       50
102
RTVSPost2010PropOp37
 70
     1
102
RTVSPost2010Prop38
140
0.0
102
RTVSPost2010PropOp38
 70
     1
102
RTVSPost2010Prop39
140
1.0
102
RTVSPost2010PropOp39
 70
     1
102
RTVSPost2010Prop40
 90
        0
102
RTVSPost2010PropOp40
 70
     1
102
RTVSPost2010Prop41ColorIndex
 90
       18
102
RTVSPost2010Prop41ColorRGB
 90
        0
102
RTVSPost2010PropOp41
 70
     1
102
RTVSPost2010Prop42
 90
       50
102
RTVSPost2010PropOp42
 70
     1
102
RTVSPost2010Prop43
 90
        3
102
RTVSPost2010PropOp43
 70
     1
102
RTVSPost2010Prop44ColorIndex
 90
        5
102
RTVSPost2010Prop44ColorRGB
 90
      255
102
RTVSPost2010PropOp44
 70
     1
102
RTVSPost2010Prop45
280
     0
102
RTVSPost2010PropOp45
 70
     1
102
RTVSPost2010Prop46
 90
       50
102
RTVSPost2010PropOp46
 70
     1
102
RTVSPost2010Prop47
 90
       50
102
RTVSPost2010PropOp47
 70
     1
102
RTVSPost2010Prop48
 90
       50
102
RTVSPost2010PropOp48
 70
     1
102
RTVSPost2010Prop49
280
     0
102
RTVSPost2010PropOp49
 70
     1
102
RTVSPost2010Prop50
 90
       50
102
RTVSPost2010PropOp50
 70
     1
102
RTVSPost2010Prop51ColorIndex
 90
      256
102
RTVSPost2010Prop51ColorRGB
 90
-16777216
102
RTVSPost2010PropOp51
 70
     0
102
RTVSPost2010Prop52
140
1.0
102
RTVSPost2010PropOp52
 70
     0
102
RTVSPost2010Prop53
 90
        2
102
RTVSPost2010PropOp53
 70
     1
102
RTVSPost2010Prop54
  1
strokes_ogs.tif
102
RTVSPost2010PropOp54
 70
     1
102
RTVSPost2010Prop55
280
     0
102
RTVSPost2010PropOp55
 70
     1
102
RTVSPost2010Prop56
140
1.0
102
RTVSPost2010PropOp56
 70
     1
102
RTVSPost2010Prop57
140
1.0
102
RTVSPost2010PropOp57
 70
     1
  0
XRECORD
  5
259
102
{ACAD_REACTORS
330
258
102
}
330
258
100
AcDbXrecord
280
     1
102
RTVSPropertyOp0
 70
     1
102
RTVSPropertyOp1
 70
     1
102
RTVSPropertyOp2
 70
     1
102
RTVSPropertyOp3
 70
     1
102
RTVSPropertyOp4
 70
     1
102
RTVSPropertyOp5
 70
     1
102
RTVSPropertyOp6
 70
     1
102
RTVSPropertyOp7
 70
     1
102
RTVSPropertyOp8
 70
     1
102
RTVSPropertyOp9
 70
     1
102
RTVSPropertyOp10
 70
     1
102
RTVSPropertyOp11
 70
     1
102
RTVSPropertyOp12
 70
     1
102
RTVSPropertyOp13
 70
     1
102
RTVSPropertyOp14
 70
     1
102
RTVSPropertyOp15
 70
     1
102
RTVSPropertyOp16
 70
     1
102
RTVSPropertyOp17
 70
     1
102
RTVSPropertyOp18
 70
     1
102
RTVSPropertyOp19
 70
     1
102
RTVSPropertyOp20
 70
     1
102
RTVSPropertyOp21
 70
     1
102
RTVSPropertyOp22
 70
     1
102
RTVSPropertyOp23
 70
     1
102
RTVSPropertyOp24
 70
     1
102
RTVSPropertyOp25
 70
     1
102
RTVSPropertyOp26
 70
     1
102
RTVSPropertyOp27
 70
     1
102
RTVSPropertyOp28
 70
     1
102
RTVSPropertyOp29
 70
     1
102
RTVSPropertyOp30
 70
     1
102
RTVSPropertyOp31
 70
     1
102
RTVSPropertyOp32
 70
     1
102
RTVSPropertyOp33
 70
     1
102
RTVSPropertyOp34
 70
     1
102
RTVSPropertyOp35
 70
     1
102
RTVSPropertyOp36
 70
     1
102
RTVSPropertyOp37
 70
     1
102
RTVSPropertyOp38
 70
     1
102
RTVSPropertyOp39
 70
     1
102
RTVSPropertyOp40
 70
     1
102
RTVSPropertyOp41
 70
     1
102
RTVSPropertyOp42
 70
     1
102
RTVSPropertyOp43
 70
     1
102
RTVSPropertyOp44
 70
     1
102
RTVSPropertyOp45
 70
     1
102
RTVSPropertyOp46
 70
     1
102
RTVSPropertyOp47
 70
     1
102
RTVSPropertyOp48
 70
     1
102
RTVSPropertyOp49
 70
     1
102
RTVSPropertyOp50
 70
     1
102
RTVSPropertyOp51
 70
     0
102
RTVSPropertyOp52
 70
     0
102
RTVSPropertyOp53
 70
     1
102
RTVSPropertyOp54
 70
     1
102
RTVSPropertyOp55
 70
     1
102
RTVSPropertyOp56
 70
     1
102
RTVSPropertyOp57
 70
     1
102
RTVSPost2010Prop28
280
     0
102
RTVSPost2010PropOp28
 70
     1
102
RTVSPost2010Prop29
280
     1
102
RTVSPost2010PropOp29
 70
     1
102
RTVSPost2010Prop30
280
     1
102
RTVSPost2010PropOp30
 70
     1
102
RTVSPost2010Prop31
280
     0
102
RTVSPost2010PropOp31
 70
     1
102
RTVSPost2010Prop32
280
     0
102
RTVSPost2010PropOp32
 70
     1
102
RTVSPost2010Prop33
280
     0
102
RTVSPost2010PropOp33
 70
     1
102
RTVSPost2010Prop34
280
     0
102
RTVSPost2010PropOp34
 70
     1
102
RTVSPost2010Prop35
280
     0
102
RTVSPost2010PropOp35
 70
     1
102
RTVSPost2010Prop36
280
     0
102
RTVSPost2010PropOp36
 70
     1
102
RTVSPost2010Prop37
 90
       50
102
RTVSPost2010PropOp37
 70
     1
102
RTVSPost2010Prop38
140
0.0
102
RTVSPost2010PropOp38
 70
     1
102
RTVSPost2010Prop39
140
1.0
102
RTVSPost2010PropOp39
 70
     1
102
RTVSPost2010Prop40
 90
        0
102
RTVSPost2010PropOp40
 70
     1
102
RTVSPost2010Prop41ColorIndex
 90
       18
102
RTVSPost2010Prop41ColorRGB
 90
        0
102
RTVSPost2010PropOp41
 70
     1
102
RTVSPost2010Prop42
 90
       50
102
RTVSPost2010PropOp42
 70
     1
102
RTVSPost2010Prop43
 90
        3
102
RTVSPost2010PropOp43
 70
     1
102
RTVSPost2010Prop44ColorIndex
 90
        5
102
RTVSPost2010Prop44ColorRGB
 90
      255
102
RTVSPost2010PropOp44
 70
     1
102
RTVSPost2010Prop45
280
     0
102
RTVSPost2010PropOp45
 70
     1
102
RTVSPost2010Prop46
 90
       50
102
RTVSPost2010PropOp46
 70
     1
102
RTVSPost2010Prop47
 90
       50
102
RTVSPost2010PropOp47
 70
     1
102
RTVSPost2010Prop48
 90
       50
102
RTVSPost2010PropOp48
 70
     1
102
RTVSPost2010Prop49
280
     0
102
RTVSPost2010PropOp49
 70
     1
102
RTVSPost2010Prop50
 90
       50
102
RTVSPost2010PropOp50
 70
     1
102
RTVSPost2010Prop51ColorIndex
 90
      256
102
RTVSPost2010Prop51ColorRGB
 90
-16777216
102
RTVSPost2010PropOp51
 70
     0
102
RTVSPost2010Prop52
140
1.0
102
RTVSPost2010PropOp52
 70
     0
102
RTVSPost2010Prop53
 90
        2
102
RTVSPost2010PropOp53
 70
     1
102
RTVSPost2010Prop54
  1
strokes_ogs.tif
102
RTVSPost2010PropOp54
 70
     1
102
RTVSPost2010Prop55
280
     0
102
RTVSPost2010PropOp55
 70
     1
102
RTVSPost2010Prop56
140
1.0
102
RTVSPost2010PropOp56
 70
     1
102
RTVSPost2010Prop57
140
1.0
102
RTVSPost2010PropOp57
 70
     1
  0
XRECORD
  5
24B
102
{ACAD_REACTORS
330
24A
102
}
330
24A
100
AcDbXrecord
280
     1
102
RTVSPropertyOp0
 70
     1
102
RTVSPropertyOp1
 70
     1
102
RTVSPropertyOp2
 70
     1
102
RTVSPropertyOp3
 70
     1
102
RTVSPropertyOp4
 70
     1
102
RTVSPropertyOp5
 70
     1
102
RTVSPropertyOp6
 70
     1
102
RTVSPropertyOp7
 70
     1
102
RTVSPropertyOp8
 70
     1
102
RTVSPropertyOp9
 70
     1
102
RTVSPropertyOp10
 70
     1
102
RTVSPropertyOp11
 70
     1
102
RTVSPropertyOp12
 70
     1
102
RTVSPropertyOp13
 70
     1
102
RTVSPropertyOp14
 70
     1
102
RTVSPropertyOp15
 70
     1
102
RTVSPropertyOp16
 70
     1
102
RTVSPropertyOp17
 70
     1
102
RTVSPropertyOp18
 70
     1
102
RTVSPropertyOp19
 70
     1
102
RTVSPropertyOp20
 70
     1
102
RTVSPropertyOp21
 70
     1
102
RTVSPropertyOp22
 70
     1
102
RTVSPropertyOp23
 70
     1
102
RTVSPropertyOp24
 70
     1
102
RTVSPropertyOp25
 70
     1
102
RTVSPropertyOp26
 70
     1
102
RTVSPropertyOp27
 70
     1
102
RTVSPropertyOp28
 70
     1
102
RTVSPropertyOp29
 70
     1
102
RTVSPropertyOp30
 70
     1
102
RTVSPropertyOp31
 70
     1
102
RTVSPropertyOp32
 70
     1
102
RTVSPropertyOp33
 70
     1
102
RTVSPropertyOp34
 70
     1
102
RTVSPropertyOp35
 70
     1
102
RTVSPropertyOp36
 70
     1
102
RTVSPropertyOp37
 70
     1
102
RTVSPropertyOp38
 70
     1
102
RTVSPropertyOp39
 70
     1
102
RTVSPropertyOp40
 70
     1
102
RTVSPropertyOp41
 70
     1
102
RTVSPropertyOp42
 70
     1
102
RTVSPropertyOp43
 70
     1
102
RTVSPropertyOp44
 70
     1
102
RTVSPropertyOp45
 70
     1
102
RTVSPropertyOp46
 70
     1
102
RTVSPropertyOp47
 70
     1
102
RTVSPropertyOp48
 70
     1
102
RTVSPropertyOp49
 70
     1
102
RTVSPropertyOp50
 70
     1
102
RTVSPropertyOp51
 70
     0
102
RTVSPropertyOp52
 70
     0
102
RTVSPropertyOp53
 70
     1
102
RTVSPropertyOp54
 70
     1
102
RTVSPropertyOp55
 70
     1
102
RTVSPropertyOp56
 70
     1
102
RTVSPropertyOp57
 70
     1
102
RTVSPost2010Prop28
280
     0
102
RTVSPost2010PropOp28
 70
     1
102
RTVSPost2010Prop29
280
     1
102
RTVSPost2010PropOp29
 70
     1
102
RTVSPost2010Prop30
280
     1
102
RTVSPost2010PropOp30
 70
     1
102
RTVSPost2010Prop31
280
     0
102
RTVSPost2010PropOp31
 70
     1
102
RTVSPost2010Prop32
280
     0
102
RTVSPost2010PropOp32
 70
     1
102
RTVSPost2010Prop33
280
     0
102
RTVSPost2010PropOp33
 70
     1
102
RTVSPost2010Prop34
280
     0
102
RTVSPost2010PropOp34
 70
     1
102
RTVSPost2010Prop35
280
     0
102
RTVSPost2010PropOp35
 70
     1
102
RTVSPost2010Prop36
280
     0
102
RTVSPost2010PropOp36
 70
     1
102
RTVSPost2010Prop37
 90
       50
102
RTVSPost2010PropOp37
 70
     1
102
RTVSPost2010Prop38
140
0.0
102
RTVSPost2010PropOp38
 70
     1
102
RTVSPost2010Prop39
140
1.0
102
RTVSPost2010PropOp39
 70
     1
102
RTVSPost2010Prop40
 90
        0
102
RTVSPost2010PropOp40
 70
     1
102
RTVSPost2010Prop41ColorIndex
 90
       18
102
RTVSPost2010Prop41ColorRGB
 90
        0
102
RTVSPost2010PropOp41
 70
     1
102
RTVSPost2010Prop42
 90
       50
102
RTVSPost2010PropOp42
 70
     1
102
RTVSPost2010Prop43
 90
        3
102
RTVSPost2010PropOp43
 70
     1
102
RTVSPost2010Prop44ColorIndex
 90
        5
102
RTVSPost2010Prop44ColorRGB
 90
      255
102
RTVSPost2010PropOp44
 70
     1
102
RTVSPost2010Prop45
280
     0
102
RTVSPost2010PropOp45
 70
     1
102
RTVSPost2010Prop46
 90
       50
102
RTVSPost2010PropOp46
 70
     1
102
RTVSPost2010Prop47
 90
       50
102
RTVSPost2010PropOp47
 70
     1
102
RTVSPost2010Prop48
 90
       50
102
RTVSPost2010PropOp48
 70
     1
102
RTVSPost2010Prop49
280
     0
102
RTVSPost2010PropOp49
 70
     1
102
RTVSPost2010Prop50
 90
       50
102
RTVSPost2010PropOp50
 70
     1
102
RTVSPost2010Prop51ColorIndex
 90
      256
102
RTVSPost2010Prop51ColorRGB
 90
-16777216
102
RTVSPost2010PropOp51
 70
     0
102
RTVSPost2010Prop52
140
1.0
102
RTVSPost2010PropOp52
 70
     0
102
RTVSPost2010Prop53
 90
        2
102
RTVSPost2010PropOp53
 70
     1
102
RTVSPost2010Prop54
  1
strokes_ogs.tif
102
RTVSPost2010PropOp54
 70
     1
102
RTVSPost2010Prop55
280
     0
102
RTVSPost2010PropOp55
 70
     1
102
RTVSPost2010Prop56
140
1.0
102
RTVSPost2010PropOp56
 70
     1
102
RTVSPost2010Prop57
140
1.0
102
RTVSPost2010PropOp57
 70
     1
  0
XRECORD
  5
26B
102
{ACAD_REACTORS
330
26A
102
}
330
26A
100
AcDbXrecord
280
     1
102
RTVSPropertyOp0
 70
     1
102
RTVSPropertyOp1
 70
     1
102
RTVSPropertyOp2
 70
     1
102
RTVSPropertyOp3
 70
     1
102
RTVSPropertyOp4
 70
     1
102
RTVSPropertyOp5
 70
     1
102
RTVSPropertyOp6
 70
     1
102
RTVSPropertyOp7
 70
     1
102
RTVSPropertyOp8
 70
     1
102
RTVSPropertyOp9
 70
     1
102
RTVSPropertyOp10
 70
     1
102
RTVSPropertyOp11
 70
     1
102
RTVSPropertyOp12
 70
     1
102
RTVSPropertyOp13
 70
     1
102
RTVSPropertyOp14
 70
     1
102
RTVSPropertyOp15
 70
     1
102
RTVSPropertyOp16
 70
     1
102
RTVSPropertyOp17
 70
     1
102
RTVSPropertyOp18
 70
     1
102
RTVSPropertyOp19
 70
     1
102
RTVSPropertyOp20
 70
     1
102
RTVSPropertyOp21
 70
     1
102
RTVSPropertyOp22
 70
     1
102
RTVSPropertyOp23
 70
     1
102
RTVSPropertyOp24
 70
     1
102
RTVSPropertyOp25
 70
     1
102
RTVSPropertyOp26
 70
     1
102
RTVSPropertyOp27
 70
     1
102
RTVSPropertyOp28
 70
     1
102
RTVSPropertyOp29
 70
     1
102
RTVSPropertyOp30
 70
     1
102
RTVSPropertyOp31
 70
     1
102
RTVSPropertyOp32
 70
     1
102
RTVSPropertyOp33
 70
     1
102
RTVSPropertyOp34
 70
     1
102
RTVSPropertyOp35
 70
     1
102
RTVSPropertyOp36
 70
     1
102
RTVSPropertyOp37
 70
     1
102
RTVSPropertyOp38
 70
     1
102
RTVSPropertyOp39
 70
     1
102
RTVSPropertyOp40
 70
     1
102
RTVSPropertyOp41
 70
     1
102
RTVSPropertyOp42
 70
     1
102
RTVSPropertyOp43
 70
     1
102
RTVSPropertyOp44
 70
     1
102
RTVSPropertyOp45
 70
     1
102
RTVSPropertyOp46
 70
     1
102
RTVSPropertyOp47
 70
     1
102
RTVSPropertyOp48
 70
     1
102
RTVSPropertyOp49
 70
     1
102
RTVSPropertyOp50
 70
     1
102
RTVSPropertyOp51
 70
     0
102
RTVSPropertyOp52
 70
     0
102
RTVSPropertyOp53
 70
     1
102
RTVSPropertyOp54
 70
     1
102
RTVSPropertyOp55
 70
     1
102
RTVSPropertyOp56
 70
     1
102
RTVSPropertyOp57
 70
     1
102
RTVSPost2010Prop28
280
     0
102
RTVSPost2010PropOp28
 70
     1
102
RTVSPost2010Prop29
280
     1
102
RTVSPost2010PropOp29
 70
     1
102
RTVSPost2010Prop30
280
     1
102
RTVSPost2010PropOp30
 70
     1
102
RTVSPost2010Prop31
280
     0
102
RTVSPost2010PropOp31
 70
     1
102
RTVSPost2010Prop32
280
     0
102
RTVSPost2010PropOp32
 70
     1
102
RTVSPost2010Prop33
280
     0
102
RTVSPost2010PropOp33
 70
     1
102
RTVSPost2010Prop34
280
     0
102
RTVSPost2010PropOp34
 70
     1
102
RTVSPost2010Prop35
280
     0
102
RTVSPost2010PropOp35
 70
     1
102
RTVSPost2010Prop36
280
     0
102
RTVSPost2010PropOp36
 70
     1
102
RTVSPost2010Prop37
 90
       50
102
RTVSPost2010PropOp37
 70
     1
102
RTVSPost2010Prop38
140
0.0
102
RTVSPost2010PropOp38
 70
     1
102
RTVSPost2010Prop39
140
1.0
102
RTVSPost2010PropOp39
 70
     1
102
RTVSPost2010Prop40
 90
        0
102
RTVSPost2010PropOp40
 70
     1
102
RTVSPost2010Prop41ColorIndex
 90
       18
102
RTVSPost2010Prop41ColorRGB
 90
        0
102
RTVSPost2010PropOp41
 70
     1
102
RTVSPost2010Prop42
 90
       50
102
RTVSPost2010PropOp42
 70
     1
102
RTVSPost2010Prop43
 90
        3
102
RTVSPost2010PropOp43
 70
     1
102
RTVSPost2010Prop44ColorIndex
 90
        5
102
RTVSPost2010Prop44ColorRGB
 90
      255
102
RTVSPost2010PropOp44
 70
     1
102
RTVSPost2010Prop45
280
     0
102
RTVSPost2010PropOp45
 70
     1
102
RTVSPost2010Prop46
 90
       50
102
RTVSPost2010PropOp46
 70
     1
102
RTVSPost2010Prop47
 90
       50
102
RTVSPost2010PropOp47
 70
     1
102
RTVSPost2010Prop48
 90
       50
102
RTVSPost2010PropOp48
 70
     1
102
RTVSPost2010Prop49
280
     0
102
RTVSPost2010PropOp49
 70
     1
102
RTVSPost2010Prop50
 90
       50
102
RTVSPost2010PropOp50
 70
     1
102
RTVSPost2010Prop51ColorIndex
 90
      256
102
RTVSPost2010Prop51ColorRGB
 90
-16777216
102
RTVSPost2010PropOp51
 70
     0
102
RTVSPost2010Prop52
140
1.0
102
RTVSPost2010PropOp52
 70
     0
102
RTVSPost2010Prop53
 90
        2
102
RTVSPost2010PropOp53
 70
     1
102
RTVSPost2010Prop54
  1
strokes_ogs.tif
102
RTVSPost2010PropOp54
 70
     1
102
RTVSPost2010Prop55
280
     0
102
RTVSPost2010PropOp55
 70
     1
102
RTVSPost2010Prop56
140
1.0
102
RTVSPost2010PropOp56
 70
     1
102
RTVSPost2010Prop57
140
1.0
102
RTVSPost2010PropOp57
 70
     1
  0
ENDSEC
  0
EOF
