  0
SECTION
  2
HEADER
  9
$ACADVER
  1
AC1021
  9
$ACADMAINTVER
 70
    25
  9
$DWGCODEPAGE
  3
ANSI_1252
  9
$INSBASE
 10
0.0
 20
0.0
 30
0.0
  9
$EXTMIN
 10
0.0
 20
0.0
 30
0.0
  9
$EXTMAX
 10
594.0
 20
420.0
 30
0.0
  9
$LIMMIN
 10
0.0
 20
0.0
  9
$LIMMAX
 10
594.0
 20
420.0
  9
$ORTHOMODE
 70
     0
  9
$REGENMODE
 70
     1
  9
$FILLMODE
 70
     1
  9
$QTEXTMODE
 70
     0
  9
$MIRRTEXT
 70
     1
  9
$LTSCALE
 40
1.0
  9
$ATTMODE
 70
     1
  9
$TEXTSIZE
 40
4.57
  9
$TRACEWID
 40
1.0
  9
$TEXTSTYLE
  7
Standard
  9
$CLAYER
  8
0
  9
$CELTYPE
  6
ByLayer
  9
$CECOLOR
 62
   256
  9
$CELTSCALE
 40
1.0
  9
$DISPSILH
 70
     0
  9
$DIMSCALE
 40
1.0
  9
$DIMASZ
 40
2.5
  9
$DIMEXO
 40
0.625
  9
$DIMDLI
 40
3.75
  9
$DIMRND
 40
0.0
  9
$DIMDLE
 40
0.0
  9
$DIMEXE
 40
1.25
  9
$DIMTP
 40
0.0
  9
$DIMTM
 40
0.0
  9
$DIMTXT
 40
2.5
  9
$DIMCEN
 40
2.5
  9
$DIMTSZ
 40
0.0
  9
$DIMTOL
 70
     0
  9
$DIMLIM
 70
     0
  9
$DIMTIH
 70
     0
  9
$DIMTOH
 70
     0
  9
$DIMSE1
 70
     0
  9
$DIMSE2
 70
     0
  9
$DIMTAD
 70
     1
  9
$DIMZIN
 70
     8
  9
$DIMBLK
  1

  9
$DIMASO
 70
     1
  9
$DIMSHO
 70
     1
  9
$DIMPOST
  1

  9
$DIMAPOST
  1

  9
$DIMALT
 70
     0
  9
$DIMALTD
 70
     3
  9
$DIMALTF
 40
0.0393700787
  9
$DIMLFAC
 40
1.0
  9
$DIMTOFL
 70
     1
  9
$DIMTVP
 40
0.0
  9
$DIMTIX
 70
     0
  9
$DIMSOXD
 70
     0
  9
$DIMSAH
 70
     0
  9
$DIMBLK1
  1

  9
$DIMBLK2
  1

  9
$DIMSTYLE
  2
ISO-25
  9
$DIMCLRD
 70
     0
  9
$DIMCLRE
 70
     0
  9
$DIMCLRT
 70
     0
  9
$DIMTFAC
 40
1.0
  9
$DIMGAP
 40
0.625
  9
$DIMJUST
 70
     0
  9
$DIMSD1
 70
     0
  9
$DIMSD2
 70
     0
  9
$DIMTOLJ
 70
     0
  9
$DIMTZIN
 70
     8
  9
$DIMALTZ
 70
     0
  9
$DIMALTTZ
 70
     0
  9
$DIMUPT
 70
     0
  9
$DIMDEC
 70
     2
  9
$DIMTDEC
 70
     2
  9
$DIMALTU
 70
     2
  9
$DIMALTTD
 70
     3
  9
$DIMTXSTY
  7
Standard
  9
$DIMAUNIT
 70
     0
  9
$DIMADEC
 70
     0
  9
$DIMALTRND
 40
0.0
  9
$DIMAZIN
 70
     0
  9
$DIMDSEP
 70
    44
  9
$DIMATFIT
 70
     3
  9
$DIMFRAC
 70
     0
  9
$DIMLDRBLK
  1

  9
$DIMLUNIT
 70
     2
  9
$DIMLWD
 70
    -2
  9
$DIMLWE
 70
    -2
  9
$DIMTMOVE
 70
     0
  9
$DIMFXL
 40
1.0
  9
$DIMFXLON
 70
     0
  9
$DIMJOGANG
 40
0.7853981634
  9
$DIMTFILL
 70
     0
  9
$DIMTFILLCLR
 70
     0
  9
$DIMARCSYM
 70
     0
  9
$DIMLTYPE
  6

  9
$DIMLTEX1
  6

  9
$DIMLTEX2
  6

  9
$LUNITS
 70
     2
  9
$LUPREC
 70
     4
  9
$SKETCHINC
 40
1.0
  9
$FILLETRAD
 40
10.0
  9
$AUNITS
 70
     0
  9
$AUPREC
 70
     0
  9
$MENU
  1
.
  9
$ELEVATION
 40
0.0
  9
$PELEVATION
 40
0.0
  9
$THICKNESS
 40
0.0
  9
$LIMCHECK
 70
     0
  9
$CHAMFERA
 40
0.0
  9
$CHAMFERB
 40
0.0
  9
$CHAMFERC
 40
0.0
  9
$CHAMFERD
 40
0.0
  9
$SKPOLY
 70
     0
  9
$TDCREATE
 40
2460686.378637894
  9
$TDUCREATE
 40
2460686.336971227
  9
$TDUPDATE
 40
2460686.378640243
  9
$TDUUPDATE
 40
2460686.336973576
  9
$TDINDWG
 40
0.0000000116
  9
$TDUSRTIMER
 40
0.0000000116
  9
$USRTIMER
 70
     1
  9
$ANGBASE
 50
0.0
  9
$ANGDIR
 70
     0
  9
$PDMODE
 70
     0
  9
$PDSIZE
 40
0.0
  9
$PLINEWID
 40
0.0
  9
$SPLFRAME
 70
     0
  9
$SPLINETYPE
 70
     6
  9
$SPLINESEGS
 70
     8
  9
$HANDSEED
  5
278
  9
$SURFTAB1
 70
     6
  9
$SURFTAB2
 70
     6
  9
$SURFTYPE
 70
     6
  9
$SURFU
 70
     6
  9
$SURFV
 70
     6
  9
$UCSBASE
  2

  9
$UCSNAME
  2

  9
$UCSORG
 10
0.0
 20
0.0
 30
0.0
  9
$UCSXDIR
 10
1.0
 20
0.0
 30
0.0
  9
$UCSYDIR
 10
0.0
 20
1.0
 30
0.0
  9
$UCSORTHOREF
  2

  9
$UCSORTHOVIEW
 70
     0
  9
$UCSORGTOP
 10
0.0
 20
0.0
 30
0.0
  9
$UCSORGBOTTOM
 10
0.0
 20
0.0
 30
0.0
  9
$UCSORGLEFT
 10
0.0
 20
0.0
 30
0.0
  9
$UCSORGRIGHT
 10
0.0
 20
0.0
 30
0.0
  9
$UCSORGFRONT
 10
0.0
 20
0.0
 30
0.0
  9
$UCSORGBACK
 10
0.0
 20
0.0
 30
0.0
  9
$PUCSBASE
  2

  9
$PUCSNAME
  2

  9
$PUCSORG
 10
0.0
 20
0.0
 30
0.0
  9
$PUCSXDIR
 10
1.0
 20
0.0
 30
0.0
  9
$PUCSYDIR
 10
0.0
 20
1.0
 30
0.0
  9
$PUCSORTHOREF
  2

  9
$PUCSORTHOVIEW
 70
     0
  9
$PUCSORGTOP
 10
0.0
 20
0.0
 30
0.0
  9
$PUCSORGBOTTOM
 10
0.0
 20
0.0
 30
0.0
  9
$PUCSORGLEFT
 10
0.0
 20
0.0
 30
0.0
  9
$PUCSORGRIGHT
 10
0.0
 20
0.0
 30
0.0
  9
$PUCSORGFRONT
 10
0.0
 20
0.0
 30
0.0
  9
$PUCSORGBACK
 10
0.0
 20
0.0
 30
0.0
  9
$USERI1
 70
     0
  9
$USERI2
 70
     0
  9
$USERI3
 70
     0
  9
$USERI4
 70
     0
  9
$USERI5
 70
     0
  9
$USERR1
 40
0.0
  9
$USERR2
 40
0.0
  9
$USERR3
 40
0.0
  9
$USERR4
 40
0.0
  9
$USERR5
 40
0.0
  9
$WORLDVIEW
 70
     1
  9
$SHADEDGE
 70
     3
  9
$SHADEDIF
 70
    70
  9
$TILEMODE
 70
     1
  9
$MAXACTVP
 70
    64
  9
$PINSBASE
 10
0.0
 20
0.0
 30
0.0
  9
$PLIMCHECK
 70
     0
  9
$PEXTMIN
 10
0.0
 20
0.0
 30
0.0
  9
$PEXTMAX
 10
594.0
 20
420.0
 30
0.0
  9
$PLIMMIN
 10
0.0
 20
0.0
  9
$PLIMMAX
 10
594.0
 20
420.0
  9
$UNITMODE
 70
     0
  9
$VISRETAIN
 70
     1
  9
$PLINEGEN
 70
     0
  9
$PSLTSCALE
 70
     1
  9
$TREEDEPTH
 70
  3020
  9
$CMLSTYLE
  2
Standard
  9
$CMLJUST
 70
     0
  9
$CMLSCALE
 40
20.0
  9
$PROXYGRAPHICS
 70
     1
  9
$MEASUREMENT
 70
     1
  9
$CELWEIGHT
370
    -1
  9
$ENDCAPS
280
     0
  9
$JOINSTYLE
280
     0
  9
$LWDISPLAY
290
     0
  9
$INSUNITS
 70
     4
  9
$HYPERLINKBASE
  1

  9
$STYLESHEET
  1

  9
$XEDIT
290
     1
  9
$CEPSNTYPE
380
     0
  9
$PSTYLEMODE
290
     1
  9
$FINGERPRINTGUID
  2
{e879a9d6-ad4e-4c59-8701-33e964e8e778}
  9
$VERSIONGUID
  2
{FAEB1C32-E019-11D5-929B-00C0DF256EC4}
  9
$EXTNAMES
290
     1
  9
$PSVPSCALE
 40
0.0
  9
$OLESTARTUP
290
     0
  9
$SORTENTS
280
   127
  9
$INDEXCTL
280
     0
  9
$HIDETEXT
280
     1
  9
$XCLIPFRAME
290
     0
  9
$HALOGAP
280
     0
  9
$OBSCOLOR
 70
   257
  9
$OBSLTYPE
280
     0
  9
$INTERSECTIONDISPLAY
280
     0
  9
$INTERSECTIONCOLOR
 70
   257
  9
$DIMASSOC
280
     2
  9
$PROJECTNAME
  1

  9
$CAMERADISPLAY
290
     0
  9
$LENSLENGTH
 40
50.0
  9
$CAMERAHEIGHT
 40
0.0
  9
$STEPSPERSEC
 40
2.0
  9
$STEPSIZE
 40
6.0
  9
$3DDWFPREC
 40
2.0
  9
$PSOLWIDTH
 40
5.0
  9
$PSOLHEIGHT
 40
80.0
  9
$LOFTANG1
 40
1.5707963268
  9
$LOFTANG2
 40
1.5707963268
  9
$LOFTMAG1
 40
0.0
  9
$LOFTMAG2
 40
0.0
  9
$LOFTPARAM
 70
     7
  9
$LOFTNORMALS
280
     1
  9
$LATITUDE
 40
37.795
  9
$LONGITUDE
 40
-122.394
  9
$NORTHDIRECTION
 40
0.0
  9
$TIMEZONE
 70
 -8000
  9
$LIGHTGLYPHDISPLAY
280
     1
  9
$TILEMODELIGHTSYNCH
280
     1
  9
$CMATERIAL
347
44
  9
$SOLIDHIST
280
     0
  9
$SHOWHIST
280
     1
  9
$DWFFRAME
280
     2
  9
$DGNFRAME
280
     2
  9
$REALWORLDSCALE
290
     1
  9
$INTERFERECOLOR
 62
   256
  9
$CSHADOW
280
     0
  9
$SHADOWPLANELOCATION
 40
0.0
  0
ENDSEC
  0
SECTION
  2
CLASSES
  0
CLASS
  1
ACDBDICTIONARYWDFLT
  2
AcDbDictionaryWithDefault
  3
ObjectDBX Classes
 90
        0
 91
        3
280
     0
281
     0
  0
CLASS
  1
VISUALSTYLE
  2
AcDbVisualStyle
  3
ObjectDBX Classes
 90
     4095
 91
        3
280
     0
281
     0
  0
CLASS
  1
MATERIAL
  2
AcDbMaterial
  3
ObjectDBX Classes
 90
     1153
 91
        3
280
     0
281
     0
  0
CLASS
  1
SCALE
  2
AcDbScale
  3
ObjectDBX Classes
 90
     1153
 91
        3
280
     0
281
     0
  0
CLASS
  1
TABLESTYLE
  2
AcDbTableStyle
  3
ObjectDBX Classes
 90
     4095
 91
        3
280
     0
281
     0
  0
CLASS
  1
MLEADERSTYLE
  2
AcDbMLeaderStyle
  3
ACDB_MLEADERSTYLE_CLASS
 90
     4095
 91
        3
280
     0
281
     0
  0
CLASS
  1
SUN
  2
AcDbSun
  3
SCENEOE
 90
     1153
 91
        3
280
     0
281
     0
  0
CLASS
  1
DICTIONARYVAR
  2
AcDbDictionaryVar
  3
ObjectDBX Classes
 90
        0
 91
        3
280
     0
281
     0
  0
CLASS
  1
CELLSTYLEMAP
  2
AcDbCellStyleMap
  3
ObjectDBX Classes
 90
     1152
 91
        3
280
     0
281
     0
  0
ENDSEC
  0
SECTION
  2
TABLES
  0
TABLE
  2
VPORT
  5
8
330
0
100
AcDbSymbolTable
 70
     1
  0
VPORT
  5
29
330
8
100
AcDbSymbolTableRecord
100
AcDbViewportTableRecord
  2
*Active
 70
     0
 10
0.0
 20
0.0
 11
1.0
 21
1.0
 12
344.1869158879
 22
148.5
 13
0.0
 23
0.0
 14
10.0
 24
10.0
 15
10.0
 25
10.0
 16
0.0
 26
0.0
 36
1.0
 17
0.0
 27
0.0
 37
0.0
 40
297.0
 41
1.9729729729
 42
50.0
 43
0.0
 44
0.0
 50
0.0
 51
0.0
 71
     0
 72
   100
 73
     1
 74
     3
 75
     0
 76
     0
 77
     0
 78
     0
281
     0
 65
     1
110
0.0
120
0.0
130
0.0
111
1.0
121
0.0
131
0.0
112
0.0
122
1.0
132
0.0
 79
     0
146
0.0
348
2F
 60
     3
 61
     5
292
     1
282
     1
141
0.0
142
0.0
 63
   250
361
6D
  0
ENDTAB
  0
TABLE
  2
LTYPE
  5
5
330
0
100
AcDbSymbolTable
 70
     3
  0
LTYPE
  5
14
330
5
100
AcDbSymbolTableRecord
100
AcDbLinetypeTableRecord
  2
ByBlock
 70
     0
  3

 72
    65
 73
     0
 40
0.0
  0
LTYPE
  5
15
330
5
100
AcDbSymbolTableRecord
100
AcDbLinetypeTableRecord
  2
ByLayer
 70
     0
  3

 72
    65
 73
     0
 40
0.0
  0
LTYPE
  5
16
330
5
100
AcDbSymbolTableRecord
100
AcDbLinetypeTableRecord
  2
Continuous
 70
     0
  3
Solid line
 72
    65
 73
     0
 40
0.0
  0
LTYPE
  5
6F
330
5
100
AcDbSymbolTableRecord
100
AcDbLinetypeTableRecord
  2
HIDDEN2
 70
     0
  3
Hidden (.5x) _ _ _ _ _ _ _ _ _ _ _ _ _ _ _ _ _ 
 72
    65
 73
     2
 40
4.7625
 49
3.175
 74
     4
 75
     0
340
0
 46
0.0
 50
0.0
 44
0.0
 45
0.0
 49
-1.5875
 74
     4
 75
     0
340
0
 46
0.0
 50
0.0
 44
0.0
 45
0.0
  0
LTYPE
  5
1D0
330
5
100
AcDbSymbolTableRecord
100
AcDbLinetypeTableRecord
  2
CENTER2
 70
     0
  3
Center (.5x) ___ _ ___ _ ___ _ ___ _ ___ _ ___
 72
    65
 73
     4
 40
28.575
 49
19.05
 74
     4
 75
     0
340
0
 46
0.0
 50
0.0
 44
0.0
 45
0.0
 49
-3.175
 74
     4
 75
     0
340
0
 46
0.0
 50
0.0
 44
0.0
 45
0.0
 49
3.175
 74
     4
 75
     0
340
0
 46
0.0
 50
0.0
 44
0.0
 45
0.0
 49
-3.175
 74
     4
 75
     0
340
0
 46
0.0
 50
0.0
 44
0.0
 45
0.0
  0
ENDTAB
  0
TABLE
  2
LAYER
  5
2
330
0
100
AcDbSymbolTable
 70
     8
  0
LAYER
  5
10
330
2
100
AcDbSymbolTableRecord
100
AcDbLayerTableRecord
  2
0
 70
     0
 62
     7
  6
Continuous
370
    -3
390
F
347
46
  0
LAYER
  5
6E
330
2
100
AcDbSymbolTableRecord
100
AcDbLayerTableRecord
  2
Verdeckt_(ISO)
 70
     0
 62
     7
  6
Continuous
370
    -3
390
F
347
46
  0
LAYER
  5
7E
330
2
100
AcDbSymbolTableRecord
100
AcDbLayerTableRecord
  2
Sichtbar_(ISO)
 70
     0
 62
     7
  6
Continuous
370
    -3
390
F
347
46
  0
LAYER
  5
1CF
330
2
100
AcDbSymbolTableRecord
100
AcDbLayerTableRecord
  2
Mittellinie_(ISO)
 70
     0
 62
     7
  6
Continuous
370
    -3
390
F
347
46
  0
LAYER
  5
1D3
330
2
100
AcDbSymbolTableRecord
100
AcDbLayerTableRecord
  2
Mittelpunktmarkierung_(ISO)
 70
     0
 62
     7
  6
Continuous
370
    -3
390
F
347
46
  0
LAYER
  5
1D8
330
2
100
AcDbSymbolTableRecord
100
AcDbLayerTableRecord
  2
_Konvertierung
 70
     1
 62
    -7
  6
Continuous
370
    -3
390
F
347
46
  0
LAYER
  5
1E5
330
2
100
AcDbSymbolTableRecord
100
AcDbLayerTableRecord
  2
6
 70
     0
 62
     7
  6
Continuous
370
    -3
390
F
347
46
  0
LAYER
  5
1E8
330
2
100
AcDbSymbolTableRecord
100
AcDbLayerTableRecord
  2
Bemaßung_(ISO)
 70
     0
 62
     7
  6
Continuous
370
    -3
390
F
347
46
  0
ENDTAB
  0
TABLE
  2
STYLE
  5
3
330
0
100
AcDbSymbolTable
 70
     2
  0
STYLE
  5
11
330
3
100
AcDbSymbolTableRecord
100
AcDbTextStyleTableRecord
  2
Standard
 70
     0
 40
0.0
 41
1.0
 50
0.0
 71
     0
 42
4.57
  3
txt
  4

  0
STYLE
  5
1F8
330
3
100
AcDbSymbolTableRecord
100
AcDbTextStyleTableRecord
  2
SEACAD_Arial
 70
     0
 40
0.0
 41
1.0
 50
0.0
 71
     0
 42
4.57
  3
arial.ttf
  4

1001
ACAD
1000
Arial
1071
        0
  0
ENDTAB
  0
TABLE
  2
VIEW
  5
6
330
0
100
AcDbSymbolTable
 70
     0
  0
ENDTAB
  0
TABLE
  2
UCS
  5
7
330
0
100
AcDbSymbolTable
 70
     0
  0
ENDTAB
  0
TABLE
  2
APPID
  5
9
330
0
100
AcDbSymbolTable
 70
     2
  0
APPID
  5
12
330
9
100
AcDbSymbolTableRecord
100
AcDbRegAppTableRecord
  2
ACAD
 70
     0
  0
APPID
  5
26E
330
9
100
AcDbSymbolTableRecord
100
AcDbRegAppTableRecord
  2
ACAD_MLEADERVER
 70
     0
  0
ENDTAB
  0
TABLE
  2
DIMSTYLE
  5
A
330
0
100
AcDbSymbolTable
 70
     3
100
AcDbDimStyleTable
  0
DIMSTYLE
105
27
330
A
100
AcDbSymbolTableRecord
100
AcDbDimStyleTableRecord
  2
ISO-25
 70
     0
 41
2.5
 42
0.625
 43
3.75
 44
1.25
 73
     0
 74
     0
 77
     1
 78
     8
140
2.5
141
2.5
143
0.0393700787
147
0.625
171
     3
172
     1
178
     0
271
     2
272
     2
274
     3
278
    44
283
     0
284
     8
340
11
  0
DIMSTYLE
105
1E9
330
A
100
AcDbSymbolTableRecord
100
AcDbDimStyleTableRecord
  2
Standard
 70
     0
178
     0
340
11
  0
DIMSTYLE
105
1F9
102
{ACAD_REACTORS
330
1FA
330
205
330
20F
330
219
330
223
330
22E
102
}
330
A
100
AcDbSymbolTableRecord
100
AcDbDimStyleTableRecord
  2
Standard_(DIN)
 70
     0
 41
2.5
 42
1.75
 44
1.75
 73
     0
 74
     0
 77
     1
140
3.5
141
1.75
143
1.0
147
0.875
173
     1
178
     0
271
     0
272
     2
278
    44
340
1F8
343
1F3
344
1F3
  0
ENDTAB
  0
TABLE
  2
BLOCK_RECORD
  5
1
330
0
100
AcDbSymbolTable
 70
     9
  0
BLOCK_RECORD
  5
1F
330
1
100
AcDbSymbolTableRecord
100
AcDbBlockTableRecord
  2
*Model_Space
340
22
 70
     0
280
     1
281
     0
  0
BLOCK_RECORD
  5
1B
330
1
100
AcDbSymbolTableRecord
100
AcDbBlockTableRecord
  2
*Paper_Space
340
1E
 70
     0
280
     1
281
     0
  0
BLOCK_RECORD
  5
1EA
330
1
100
AcDbSymbolTableRecord
100
AcDbBlockTableRecord
  2
_Oblique
340
0
 70
     0
280
     1
281
     0
  0
BLOCK_RECORD
  5
1EE
330
1
100
AcDbSymbolTableRecord
100
AcDbBlockTableRecord
  2
_Dot
340
0
 70
     0
280
     1
281
     0
  0
BLOCK_RECORD
  5
1F3
330
1
100
AcDbSymbolTableRecord
100
AcDbBlockTableRecord
  2
_SE_FILLED
340
0
 70
     0
280
     1
281
     0
  0
BLOCK_RECORD
  5
1FB
330
1
100
AcDbSymbolTableRecord
100
AcDbBlockTableRecord
  2
DMBLK133
340
0
 70
     0
280
     1
281
     0
  0
BLOCK_RECORD
  5
206
330
1
100
AcDbSymbolTableRecord
100
AcDbBlockTableRecord
  2
DMBLK134
340
0
 70
     0
280
     1
281
     0
  0
BLOCK_RECORD
  5
210
330
1
100
AcDbSymbolTableRecord
100
AcDbBlockTableRecord
  2
DMBLK135
340
0
 70
     0
280
     1
281
     0
  0
BLOCK_RECORD
  5
21A
330
1
100
AcDbSymbolTableRecord
100
AcDbBlockTableRecord
  2
DMBLK136
340
0
 70
     0
280
     1
281
     0
  0
BLOCK_RECORD
  5
224
330
1
100
AcDbSymbolTableRecord
100
AcDbBlockTableRecord
  2
DMBLK137
340
0
 70
     0
280
     1
281
     0
  0
BLOCK_RECORD
  5
22F
330
1
100
AcDbSymbolTableRecord
100
AcDbBlockTableRecord
  2
DMBLK138
340
0
 70
     0
280
     1
281
     0
  0
ENDTAB
  0
ENDSEC
  0
SECTION
  2
BLOCKS
  0
BLOCK
  5
20
330
1F
100
AcDbEntity
  8
0
100
AcDbBlockBegin
  2
*Model_Space
 70
     0
 10
0.0
 20
0.0
 30
0.0
  3
*Model_Space
  1

  0
ENDBLK
  5
21
330
1F
100
AcDbEntity
  8
0
100
AcDbBlockEnd
  0
BLOCK
  5
1C
330
1B
100
AcDbEntity
 67
     1
  8
0
100
AcDbBlockBegin
  2
*Paper_Space
 70
     0
 10
0.0
 20
0.0
 30
0.0
  3
*Paper_Space
  1

  0
ENDBLK
  5
1D
330
1B
100
AcDbEntity
 67
     1
  8
0
100
AcDbBlockEnd
  0
BLOCK
  5
1EB
330
1EA
100
AcDbEntity
  8
0
100
AcDbBlockBegin
  2
_Oblique
 70
     0
 10
0.0
 20
0.0
 30
0.0
  3
_Oblique
  1

  0
LINE
  5
1ED
330
1EA
100
AcDbEntity
  8
0
  6
ByBlock
 62
     0
370
    -2
100
AcDbLine
 10
-0.5
 20
-0.5
 30
0.0
 11
0.5
 21
0.5
 31
0.0
  0
ENDBLK
  5
1EC
330
1EA
100
AcDbEntity
  8
0
100
AcDbBlockEnd
  0
BLOCK
  5
1EF
330
1EE
100
AcDbEntity
  8
0
100
AcDbBlockBegin
  2
_Dot
 70
     0
 10
0.0
 20
0.0
 30
0.0
  3
_Dot
  1

  0
LWPOLYLINE
  5
1F1
330
1EE
100
AcDbEntity
  8
0
  6
ByBlock
 62
     0
100
AcDbPolyline
 90
        2
 70
     1
 43
0.5
 10
-0.25
 20
0.0
 42
1.0
 10
0.25
 20
0.0
 42
1.0
  0
LINE
  5
1F2
330
1EE
100
AcDbEntity
  8
0
  6
ByBlock
 62
     0
370
    -2
100
AcDbLine
 10
-0.5
 20
0.0
 30
0.0
 11
-1.0
 21
0.0
 31
0.0
  0
ENDBLK
  5
1F0
330
1EE
100
AcDbEntity
  8
0
100
AcDbBlockEnd
  0
BLOCK
  5
1F6
330
1F3
100
AcDbEntity
  8
0
100
AcDbBlockBegin
  2
_SE_FILLED
 70
     0
 10
0.0
 20
0.0
 30
0.0
  3
_SE_FILLED
  1

  0
SOLID
  5
1F4
330
1F3
100
AcDbEntity
  8
0
 62
     0
100
AcDbTrace
 10
0.0
 20
0.0
 30
0.0
 11
-1.0
 21
-0.1665
 31
0.0
 12
-1.0
 22
0.1665
 32
0.0
 13
0.0
 23
0.0
 33
0.0
  0
LINE
  5
1F5
330
1F3
100
AcDbEntity
  8
0
 62
     0
100
AcDbLine
 10
0.0
 20
0.0
 30
0.0
 11
-1.0
 21
0.0
 31
0.0
  0
ENDBLK
  5
1F7
330
1F3
100
AcDbEntity
  8
0
100
AcDbBlockEnd
  0
BLOCK
  5
203
330
1FB
100
AcDbEntity
  8
0
100
AcDbBlockBegin
  2
DMBLK133
 70
     0
 10
0.0
 20
0.0
 30
0.0
  3
DMBLK133
  1

  0
HATCH
  5
1FC
330
1FB
100
AcDbEntity
  8
Bemaßung_(ISO)
  6
Continuous
 62
     7
100
AcDbHatch
 10
0.0
 20
0.0
 30
0.0
210
0.0
220
0.0
230
1.0
  2
SOLID
 70
     1
 71
     0
 91
        1
 92
        1
 93
        3
 72
     1
 10
-30.01276236673453
 20
17.49999733285063
 11
-29.17942905202765
 21
17.49999733285063
 72
     1
 10
-29.17942905202765
 20
17.49999733285063
 11
-29.59609570938109
 21
19.99999727697128
 72
     1
 10
-29.59609570938109
 20
19.99999727697128
 11
-30.01276236673453
 21
17.49999733285063
 97
        0
 75
     0
 76
     1
 98
        0
  0
HATCH
  5
1FD
330
1FB
100
AcDbEntity
  8
Bemaßung_(ISO)
  6
Continuous
 62
     7
100
AcDbHatch
 10
0.0
 20
0.0
 30
0.0
210
0.0
220
0.0
230
1.0
  2
SOLID
 70
     1
 71
     0
 91
        1
 92
        1
 93
        3
 72
     1
 10
-30.01276236673453
 20
-17.5000018848384
 11
-29.59609570938109
 21
-20.00000182895905
 72
     1
 10
-29.59609570938109
 20
-20.00000182895905
 11
-29.17942905202765
 21
-17.5000018848384
 72
     1
 10
-29.17942905202765
 20
-17.5000018848384
 11
-30.01276236673453
 21
-17.5000018848384
 97
        0
 75
     0
 76
     1
 98
        0
  0
LINE
  5
1FE
330
1FB
100
AcDbEntity
  8
Bemaßung_(ISO)
  6
Continuous
 62
     7
100
AcDbLine
 10
-1.0499954599
 20
19.999997277
 30
0.0
 11
-31.3460957634
 21
19.999997277
 31
0.0
  0
LINE
  5
1FF
330
1FB
100
AcDbEntity
  8
Bemaßung_(ISO)
  6
Continuous
 62
     7
100
AcDbLine
 10
-1.0499954599
 20
-20.000002723
 30
0.0
 11
-31.3460957634
 21
-20.000002723
 31
0.0
  0
LINE
  5
200
330
1FB
100
AcDbEntity
  8
Bemaßung_(ISO)
  6
Continuous
 62
     7
100
AcDbLine
 10
-29.5960957094
 20
19.999997277
 30
0.0
 11
-29.5960957094
 21
-20.000001829
 31
0.0
  0
TEXT
  5
201
330
1FB
100
AcDbEntity
  8
Bemaßung_(ISO)
  6
Continuous
 62
     7
100
AcDbText
 10
-30.4710957094
 20
-0.1445674934
 30
0.0
 40
3.5
  1
40
 50
90.0
  7
SEACAD_Arial
 11
-33.9710957094
 21
-0.1445674934
 31
0.0
100
AcDbText
 73
     3
  0
TEXT
  5
202
330
1FB
100
AcDbEntity
  8
Bemaßung_(ISO)
  6
Continuous
 62
     7
100
AcDbText
 10
-30.4710957094
 20
-5.3336979282
 30
0.0
 40
3.5
  1
n
 50
90.0
  7
SEACAD_Arial
 11
-33.9710957094
 21
-5.3336979282
 31
0.0
100
AcDbText
 73
     3
  0
ENDBLK
  5
204
330
1FB
100
AcDbEntity
  8
0
100
AcDbBlockEnd
  0
BLOCK
  5
20D
330
206
100
AcDbEntity
  8
0
100
AcDbBlockBegin
  2
DMBLK134
 70
     0
 10
0.0
 20
0.0
 30
0.0
  3
DMBLK134
  1

  0
HATCH
  5
207
330
206
100
AcDbEntity
  8
Bemaßung_(ISO)
  6
Continuous
 62
     7
100
AcDbHatch
 10
0.0
 20
0.0
 30
0.0
210
0.0
220
0.0
230
1.0
  2
SOLID
 70
     1
 71
     0
 91
        1
 92
        1
 93
        3
 72
     1
 10
-17.49999546172975
 20
29.7166633184265
 11
-19.99999540585039
 21
29.29999666107306
 72
     1
 10
-19.99999540585039
 20
29.29999666107306
 11
-17.49999546172975
 21
28.88333000371962
 72
     1
 10
-17.49999546172975
 20
28.88333000371962
 11
-17.49999546172975
 21
29.7166633184265
 97
        0
 75
     0
 76
     1
 98
        0
  0
HATCH
  5
208
330
206
100
AcDbEntity
  8
Bemaßung_(ISO)
  6
Continuous
 62
     7
100
AcDbHatch
 10
0.0
 20
0.0
 30
0.0
210
0.0
220
0.0
230
1.0
  2
SOLID
 70
     1
 71
     0
 91
        1
 92
        1
 93
        3
 72
     1
 10
-2.499995797005873
 20
29.7166633184265
 11
-2.499995797005873
 21
28.88333000371962
 72
     1
 10
-2.499995797005873
 20
28.88333000371962
 11
0.0000041471147729
 21
29.29999666107306
 72
     1
 10
0.0000041471147731
 20
29.29999666107306
 11
-2.499995797005873
 21
29.7166633184265
 97
        0
 75
     0
 76
     1
 98
        0
  0
LINE
  5
209
330
206
100
AcDbEntity
  8
Bemaßung_(ISO)
  6
Continuous
 62
     7
100
AcDbLine
 10
-19.9999954059
 20
14.9056446814
 30
0.0
 11
-19.9999954059
 21
31.0499967151
 31
0.0
  0
LINE
  5
20A
330
206
100
AcDbEntity
  8
Bemaßung_(ISO)
  6
Continuous
 62
     7
100
AcDbLine
 10
0.0000045941
 20
21.049997331
 30
0.0
 11
0.0000045941
 21
31.0499967151
 31
0.0
  0
LINE
  5
20B
330
206
100
AcDbEntity
  8
Bemaßung_(ISO)
  6
Continuous
 62
     7
100
AcDbLine
 10
-19.9999954059
 20
29.2999966611
 30
0.0
 11
0.0000041471
 21
29.2999966611
 31
0.0
  0
TEXT
  5
20C
330
206
100
AcDbEntity
  8
Bemaßung_(ISO)
  6
Continuous
 62
     7
100
AcDbText
 10
-12.7391260642
 20
30.1749966611
 30
0.0
 40
3.5
  1
20
  7
SEACAD_Arial
 11
-12.7391260642
 21
33.6749966611
 31
0.0
100
AcDbText
 73
     3
  0
ENDBLK
  5
20E
330
206
100
AcDbEntity
  8
0
100
AcDbBlockEnd
  0
BLOCK
  5
217
330
210
100
AcDbEntity
  8
0
100
AcDbBlockBegin
  2
DMBLK135
 70
     0
 10
0.0
 20
0.0
 30
0.0
  3
DMBLK135
  1

  0
HATCH
  5
211
330
210
100
AcDbEntity
  8
Bemaßung_(ISO)
  6
Continuous
 62
     7
100
AcDbHatch
 10
0.0
 20
0.0
 30
0.0
210
0.0
220
0.0
230
1.0
  2
SOLID
 70
     1
 71
     0
 91
        1
 92
        1
 93
        3
 72
     1
 10
2.500004538270253
 20
29.7166637108073
 11
0.0000045941496074
 21
29.29999705345386
 72
     1
 10
0.0000045941496076
 20
29.29999705345386
 11
2.500004538270253
 21
28.88333039610042
 72
     1
 10
2.500004538270253
 20
28.88333039610042
 11
2.500004538270253
 21
29.7166637108073
 97
        0
 75
     0
 76
     1
 98
        0
  0
HATCH
  5
212
330
210
100
AcDbEntity
  8
Bemaßung_(ISO)
  6
Continuous
 62
     7
100
AcDbHatch
 10
0.0
 20
0.0
 30
0.0
210
0.0
220
0.0
230
1.0
  2
SOLID
 70
     1
 71
     0
 91
        1
 92
        1
 93
        3
 72
     1
 10
17.50000420299412
 20
29.7166637108073
 11
17.50000420299412
 21
28.88333039610042
 72
     1
 10
17.50000420299412
 20
28.88333039610042
 11
20.00000414711477
 21
29.29999705345386
 72
     1
 10
20.00000414711477
 20
29.29999705345386
 11
17.50000420299412
 21
29.7166637108073
 97
        0
 75
     0
 76
     1
 98
        0
  0
LINE
  5
213
330
210
100
AcDbEntity
  8
Bemaßung_(ISO)
  6
Continuous
 62
     7
100
AcDbLine
 10
0.0000045941
 20
21.049997331
 30
0.0
 11
0.0000045941
 21
31.0499971075
 31
0.0
  0
LINE
  5
214
330
210
100
AcDbEntity
  8
Bemaßung_(ISO)
  6
Continuous
 62
     7
100
AcDbLine
 10
20.0000045941
 20
20.749997331
 30
0.0
 11
20.0000045941
 21
31.0499971075
 31
0.0
  0
LINE
  5
215
330
210
100
AcDbEntity
  8
Bemaßung_(ISO)
  6
Continuous
 62
     7
100
AcDbLine
 10
0.0000045941
 20
29.2999970535
 30
0.0
 11
20.0000041471
 21
29.2999970535
 31
0.0
  0
TEXT
  5
216
330
210
100
AcDbEntity
  8
Bemaßung_(ISO)
  6
Continuous
 62
     7
100
AcDbText
 10
7.2608739358
 20
30.1749970535
 30
0.0
 40
3.5
  1
20
  7
SEACAD_Arial
 11
7.2608739358
 21
33.6749970535
 31
0.0
100
AcDbText
 73
     3
  0
ENDBLK
  5
218
330
210
100
AcDbEntity
  8
0
100
AcDbBlockEnd
  0
BLOCK
  5
221
330
21A
100
AcDbEntity
  8
0
100
AcDbBlockBegin
  2
DMBLK136
 70
     0
 10
0.0
 20
0.0
 30
0.0
  3
DMBLK136
  1

  0
HATCH
  5
21B
330
21A
100
AcDbEntity
  8
Bemaßung_(ISO)
  6
Continuous
 62
     7
100
AcDbHatch
 10
0.0
 20
0.0
 30
0.0
210
0.0
220
0.0
230
1.0
  2
SOLID
 70
     1
 71
     0
 91
        1
 92
        1
 93
        3
 72
     1
 10
2.500004538270253
 20
40.24172080311629
 11
0.0000045941496074
 21
39.82505414576286
 72
     1
 10
0.0000045941496076
 20
39.82505414576286
 11
2.500004538270253
 21
39.40838748840942
 72
     1
 10
2.500004538270253
 20
39.40838748840942
 11
2.500004538270253
 21
40.24172080311629
 97
        0
 75
     0
 76
     1
 98
        0
  0
HATCH
  5
21C
330
21A
100
AcDbEntity
  8
Bemaßung_(ISO)
  6
Continuous
 62
     7
100
AcDbHatch
 10
0.0
 20
0.0
 30
0.0
210
0.0
220
0.0
230
1.0
  2
SOLID
 70
     1
 71
     0
 91
        1
 92
        1
 93
        3
 72
     1
 10
57.50000330892446
 20
40.24172080311629
 11
57.50000330892446
 21
39.40838748840942
 72
     1
 10
57.50000330892446
 20
39.40838748840942
 11
60.0000032530451
 21
39.82505414576286
 72
     1
 10
60.0000032530451
 20
39.82505414576286
 11
57.50000330892446
 21
40.24172080311629
 97
        0
 75
     0
 76
     1
 98
        0
  0
LINE
  5
21D
330
21A
100
AcDbEntity
  8
Bemaßung_(ISO)
  6
Continuous
 62
     7
100
AcDbLine
 10
0.0000045941
 20
21.049997331
 30
0.0
 11
0.0000045941
 21
41.5750541998
 31
0.0
  0
LINE
  5
21E
330
21A
100
AcDbEntity
  8
Bemaßung_(ISO)
  6
Continuous
 62
     7
100
AcDbLine
 10
60.0000045941
 20
12.7258568094
 30
0.0
 11
60.0000045941
 21
41.5750541998
 31
0.0
  0
LINE
  5
21F
330
21A
100
AcDbEntity
  8
Bemaßung_(ISO)
  6
Continuous
 62
     7
100
AcDbLine
 10
0.0000045941
 20
39.8250541458
 30
0.0
 11
60.000003253
 21
39.8250541458
 31
0.0
  0
TEXT
  5
220
330
21A
100
AcDbEntity
  8
Bemaßung_(ISO)
  6
Continuous
 62
     7
100
AcDbText
 10
27.2608734888
 20
40.7000541458
 30
0.0
 40
3.5
  1
60
  7
SEACAD_Arial
 11
27.2608734888
 21
44.2000541458
 31
0.0
100
AcDbText
 73
     3
  0
ENDBLK
  5
222
330
21A
100
AcDbEntity
  8
0
100
AcDbBlockEnd
  0
BLOCK
  5
22C
330
224
100
AcDbEntity
  8
0
100
AcDbBlockBegin
  2
DMBLK137
 70
     0
 10
0.0
 20
0.0
 30
0.0
  3
DMBLK137
  1

  0
HATCH
  5
225
330
224
100
AcDbEntity
  8
Bemaßung_(ISO)
  6
Continuous
 62
     7
100
AcDbHatch
 10
0.0
 20
0.0
 30
0.0
210
0.0
220
0.0
230
1.0
  2
SOLID
 70
     1
 71
     0
 91
        1
 92
        1
 93
        3
 72
     1
 10
69.41667102798563
 20
2.499997332850628
 11
69.00000437063218
 21
4.999997276971273
 72
     1
 10
69.00000437063218
 20
4.999997276971273
 11
68.58333771327874
 21
2.499997332850628
 72
     1
 10
68.58333771327874
 20
2.499997332850628
 11
69.41667102798563
 21
2.499997332850628
 97
        0
 75
     0
 76
     1
 98
        0
  0
HATCH
  5
226
330
224
100
AcDbEntity
  8
Bemaßung_(ISO)
  6
Continuous
 62
     7
100
AcDbHatch
 10
0.0
 20
0.0
 30
0.0
210
0.0
220
0.0
230
1.0
  2
SOLID
 70
     1
 71
     0
 91
        1
 92
        1
 93
        3
 72
     1
 10
69.41667102798563
 20
-2.500002555390664
 11
68.58333771327874
 21
-2.500002555390664
 72
     1
 10
68.58333771327874
 20
-2.500002555390664
 11
69.00000437063218
 21
-5.000002499511309
 72
     1
 10
69.00000437063218
 20
-5.000002499511309
 11
69.41667102798563
 21
-2.500002555390664
 97
        0
 75
     0
 76
     1
 98
        0
  0
LINE
  5
227
330
224
100
AcDbEntity
  8
Bemaßung_(ISO)
  6
Continuous
 62
     7
100
AcDbLine
 10
60.7500046482
 20
4.999997277
 30
0.0
 11
70.7500044246
 21
4.999997277
 31
0.0
  0
LINE
  5
228
330
224
100
AcDbEntity
  8
Bemaßung_(ISO)
  6
Continuous
 62
     7
100
AcDbLine
 10
60.7500046482
 20
-5.000002723
 30
0.0
 11
70.7500044246
 21
-5.000002723
 31
0.0
  0
LINE
  5
229
330
224
100
AcDbEntity
  8
Bemaßung_(ISO)
  6
Continuous
 62
     7
100
AcDbLine
 10
69.0000043706
 20
4.999997277
 30
0.0
 11
69.0000043706
 21
-5.0000024995
 31
0.0
  0
TEXT
  5
22A
330
224
100
AcDbEntity
  8
Bemaßung_(ISO)
  6
Continuous
 62
     7
100
AcDbText
 10
68.1250043706
 20
-0.1445678287
 30
0.0
 40
3.5
  1
10
 50
90.0
  7
SEACAD_Arial
 11
64.6250043706
 21
-0.1445678287
 31
0.0
100
AcDbText
 73
     3
  0
TEXT
  5
22B
330
224
100
AcDbEntity
  8
Bemaßung_(ISO)
  6
Continuous
 62
     7
100
AcDbText
 10
68.1250043706
 20
-5.3336982634
 30
0.0
 40
3.5
  1
n
 50
90.0
  7
SEACAD_Arial
 11
64.6250043706
 21
-5.3336982634
 31
0.0
100
AcDbText
 73
     3
  0
ENDBLK
  5
22D
330
224
100
AcDbEntity
  8
0
100
AcDbBlockEnd
  0
BLOCK
  5
237
330
22F
100
AcDbEntity
  8
0
100
AcDbBlockBegin
  2
DMBLK138
 70
     0
 10
0.0
 20
0.0
 30
0.0
  3
DMBLK138
  1

  0
HATCH
  5
230
330
22F
100
AcDbEntity
  8
Bemaßung_(ISO)
  6
Continuous
 62
     7
100
AcDbHatch
 10
0.0
 20
0.0
 30
0.0
210
0.0
220
0.0
230
1.0
  2
SOLID
 70
     1
 71
     0
 91
        1
 92
        1
 93
        3
 72
     1
 10
83.25074917141339
 20
14.74999733285063
 11
82.83408251405994
 21
17.24999727697127
 72
     1
 10
82.83408251405994
 20
17.24999727697127
 11
82.4174158567065
 21
14.74999733285063
 72
     1
 10
82.4174158567065
 20
14.74999733285063
 11
83.25074917141339
 21
14.74999733285063
 97
        0
 75
     0
 76
     1
 98
        0
  0
HATCH
  5
231
330
22F
100
AcDbEntity
  8
Bemaßung_(ISO)
  6
Continuous
 62
     7
100
AcDbHatch
 10
0.0
 20
0.0
 30
0.0
210
0.0
220
0.0
230
1.0
  2
SOLID
 70
     1
 71
     0
 91
        1
 92
        1
 93
        3
 72
     1
 10
83.25074917141339
 20
-14.75000191464073
 11
82.4174158567065
 21
-14.75000191464073
 72
     1
 10
82.4174158567065
 20
-14.75000191464073
 11
82.83408251405994
 21
-17.25000185876138
 72
     1
 10
82.83408251405994
 20
-17.25000185876138
 11
83.25074917141339
 21
-14.75000191464073
 97
        0
 75
     0
 76
     1
 98
        0
  0
LINE
  5
232
330
22F
100
AcDbEntity
  8
Bemaßung_(ISO)
  6
Continuous
 62
     7
100
AcDbLine
 10
50.5840807203
 20
17.249997277
 30
0.0
 11
84.5840825681
 21
17.249997277
 31
0.0
  0
LINE
  5
233
330
22F
100
AcDbEntity
  8
Bemaßung_(ISO)
  6
Continuous
 62
     7
100
AcDbLine
 10
50.5840807203
 20
-17.250002723
 30
0.0
 11
84.5840825681
 21
-17.250002723
 31
0.0
  0
LINE
  5
234
330
22F
100
AcDbEntity
  8
Bemaßung_(ISO)
  6
Continuous
 62
     7
100
AcDbLine
 10
82.8340825141
 20
17.249997277
 30
0.0
 11
82.8340825141
 21
-17.2500018588
 31
0.0
  0
TEXT
  5
235
330
22F
100
AcDbEntity
  8
Bemaßung_(ISO)
  6
Continuous
 62
     7
100
AcDbText
 10
81.9590825141
 20
-2.1989153344
 30
0.0
 40
3.5
  1
34,5
 50
90.0
  7
SEACAD_Arial
 11
78.4590825141
 21
-2.1989153344
 31
0.0
100
AcDbText
 73
     3
  0
TEXT
  5
236
330
22F
100
AcDbEntity
  8
Bemaßung_(ISO)
  6
Continuous
 62
     7
100
AcDbText
 10
81.9590825141
 20
-7.3880457692
 30
0.0
 40
3.5
  1
n
 50
90.0
  7
SEACAD_Arial
 11
78.4590825141
 21
-7.3880457692
 31
0.0
100
AcDbText
 73
     3
  0
ENDBLK
  5
238
330
22F
100
AcDbEntity
  8
0
100
AcDbBlockEnd
  0
ENDSEC
  0
SECTION
  2
ENTITIES
  0
SPLINE
  5
70
330
1F
100
AcDbEntity
  8
Verdeckt_(ISO)
  6
HIDDEN2
 62
     7
100
AcDbSpline
210
0.0
220
0.0
230
1.0
 70
    12
 71
     3
 72
    16
 73
    12
 74
     0
 42
0.000000001
 43
0.0000000001
 40
0.0
 40
0.0
 40
0.0
 40
0.0
 40
0.1792895411337826
 40
0.1792895411337826
 40
0.422616496465992
 40
0.422616496465992
 40
0.683189566360176
 40
0.683189566360176
 40
0.9816854543941249
 40
0.9816854543941249
 40
1.0
 40
1.0
 40
1.0
 40
1.0
 10
59.70000476458288
 20
-1.399477235013192
 30
0.0
 41
1.0
 10
59.7000050513877
 20
-1.398671557346462
 30
0.0
 41
1.0
 10
59.70001166605715
 20
-1.324311062323443
 30
0.0
 41
1.0
 10
59.70003599551137
 20
-0.9938377450935576
 30
0.0
 41
1.0
 10
59.70005473277531
 20
-0.6838159253800155
 30
0.0
 41
1.0
 10
59.70006974703757
 20
0.0337739071786772
 30
0.0
 41
1.0
 10
59.70006264566634
 20
0.4419287726085838
 30
0.0
 41
1.0
 10
59.70003009824157
 20
1.129684548685682
 30
0.0
 41
1.0
 10
59.70000702981572
 20
1.37259638080186
 30
0.0
 41
1.0
 10
59.70000466712042
 20
1.399227058070164
 30
0.0
 41
1.0
 10
59.70000461136336
 20
1.399947486918156
 30
0.0
 41
1.0
 10
59.70000463136937
 20
1.39986593773037
 30
0.0
 41
1.0
  0
ELLIPSE
  5
71
330
1F
100
AcDbEntity
  8
Verdeckt_(ISO)
  6
HIDDEN2
 62
     7
100
AcDbEllipse
 10
23.7511452988
 20
-0.000002723
 30
0.0
 11
7.000000000000000E-16
 21
-1.400000000000002
 31
0.0
210
0.0
220
0.0
230
1.0
 40
0.0348994967
 41
2.737176093381201
 42
3.505563335732994
  0
ELLIPSE
  5
72
330
1F
100
AcDbEntity
  8
Verdeckt_(ISO)
  6
HIDDEN2
 62
     7
100
AcDbEllipse
 10
23.7511452988
 20
-0.000002723
 30
0.0
 11
1.700000000000000E-15
 21
1.400000000000002
 31
0.0
210
0.0
220
0.0
230
1.0
 40
0.0348994967
 41
2.777621971446675
 42
3.546009213798483
  0
LINE
  5
73
330
1F
100
AcDbEntity
  8
Verdeckt_(ISO)
  6
HIDDEN2
 62
     7
100
AcDbLine
 10
59.7000045942
 20
1.399997277
 30
0.0
 11
59.8000045941
 21
1.499997277
 31
0.0
  0
LINE
  5
74
330
1F
100
AcDbEntity
  8
Verdeckt_(ISO)
  6
HIDDEN2
 62
     7
100
AcDbLine
 10
59.8000045941
 20
-1.500002723
 30
0.0
 11
59.7000045942
 21
-1.400002723
 31
0.0
  0
LINE
  5
75
330
1F
100
AcDbEntity
  8
Verdeckt_(ISO)
  6
HIDDEN2
 62
     7
100
AcDbLine
 10
23.7511452988
 20
1.399997277
 30
0.0
 11
59.7000045942
 21
1.399997277
 31
0.0
  0
LINE
  5
76
330
1F
100
AcDbEntity
  8
Verdeckt_(ISO)
  6
HIDDEN2
 62
     7
100
AcDbLine
 10
23.7511452988
 20
-1.400002723
 30
0.0
 11
59.7000045942
 21
-1.400002723
 31
0.0
  0
LINE
  5
77
330
1F
100
AcDbEntity
  8
Verdeckt_(ISO)
  6
HIDDEN2
 62
     7
100
AcDbLine
 10
59.8000045941
 20
9.549997277
 30
0.0
 11
59.8000045941
 21
-9.550002723
 31
0.0
  0
LINE
  5
78
330
1F
100
AcDbEntity
  8
Verdeckt_(ISO)
  6
HIDDEN2
 62
     7
100
AcDbLine
 10
60.0000045941
 20
-6.250002723
 30
0.0
 11
59.8000045941
 21
-6.450002723
 31
0.0
  0
LINE
  5
79
330
1F
100
AcDbEntity
  8
Verdeckt_(ISO)
  6
HIDDEN2
 62
     7
100
AcDbLine
 10
60.0000045941
 20
6.249997277
 30
0.0
 11
59.8000045941
 21
6.449997277
 31
0.0
  0
LINE
  5
7A
330
1F
100
AcDbEntity
  8
Verdeckt_(ISO)
  6
HIDDEN2
 62
     7
100
AcDbLine
 10
59.8000045941
 20
9.549997277
 30
0.0
 11
60.0000045941
 21
9.749997277
 31
0.0
  0
LINE
  5
7B
330
1F
100
AcDbEntity
  8
Verdeckt_(ISO)
  6
HIDDEN2
 62
     7
100
AcDbLine
 10
59.8000045941
 20
-9.550002723
 30
0.0
 11
60.0000045941
 21
-9.750002723
 31
0.0
  0
CIRCLE
  5
7C
330
1F
100
AcDbEntity
  8
Verdeckt_(ISO)
  6
HIDDEN2
 62
     7
100
AcDbCircle
 10
23.0000045941
 20
-0.000002723
 30
0.0
 40
2.0
  0
CIRCLE
  5
7D
330
1F
100
AcDbEntity
  8
Verdeckt_(ISO)
  6
HIDDEN2
 62
     7
100
AcDbCircle
 10
23.0000045941
 20
-0.000002723
 30
0.0
 40
1.500000000000004
  0
SPLINE
  5
7F
330
1F
100
AcDbEntity
  8
Sichtbar_(ISO)
  6
Continuous
 62
     7
100
AcDbSpline
210
0.0
220
0.0
230
1.0
 70
     8
 71
     3
 72
    21
 73
    17
 74
     0
 42
0.000000001
 43
0.0000000001
 40
0.0
 40
0.0
 40
0.0
 40
0.0
 40
0.0880577560634344
 40
0.0880577560634344
 40
0.3264772203573075
 40
0.3264772203573075
 40
0.3264772203573075
 40
0.5648966846511806
 40
0.5648966846511806
 40
0.6841064167981171
 40
0.6841064167981171
 40
0.8033161489450537
 40
0.8033161489450537
 40
0.9016580744725271
 40
0.9016580744725271
 40
0.9999999999999999
 40
0.9999999999999999
 40
1.000000000006688
 40
1.000000000006688
 10
35.399345312579
 20
-16.53685071257685
 30
0.0
 10
35.78832186023053
 20
-16.45278135503057
 30
0.0
 10
36.20886364571782
 20
-16.3716337147635
 30
0.0
 10
37.84780441364411
 20
-16.1043272415594
 30
0.0
 10
39.20942418946392
 20
-15.98564890946938
 30
0.0
 10
40.5000045941496
 20
-15.98564890946938
 30
0.0
 10
41.79058499883526
 20
-15.98564890946938
 30
0.0
 10
43.15220477465508
 20
-16.10432724155939
 30
0.0
 10
44.94753085959929
 20
-16.39713970520015
 30
0.0
 10
45.50636390961152
 20
-16.51146883906117
 30
0.0
 10
46.49617778075607
 20
-16.74219891058808
 30
0.0
 10
46.92729863969688
 20
-16.85830924749352
 30
0.0
 10
47.56090234322924
 20
-17.04018797998824
 30
0.0
 10
47.81239955499194
 20
-17.11792669024767
 30
0.0
 10
48.14469513063595
 20
-17.22322713053653
 30
0.0
 10
48.22512595241963
 20
-17.2500027230287
 30
0.0
 10
48.22512595241963
 20
-17.2500027230287
 30
0.0
  0
SPLINE
  5
80
330
1F
100
AcDbEntity
  8
Sichtbar_(ISO)
  6
Continuous
 62
     7
100
AcDbSpline
210
0.0
220
0.0
230
1.0
 70
     8
 71
     3
 72
    14
 73
    10
 74
     0
 42
0.000000001
 43
0.0000000001
 40
0.0
 40
0.0
 40
0.0
 40
0.0
 40
0.2126783062250052
 40
0.2126783062250052
 40
0.5101674275702884
 40
0.5101674275702884
 40
0.7826935274531633
 40
0.7826935274531633
 40
1.0
 40
1.0
 40
1.0
 40
1.0
 10
35.00086743334231
 20
-16.36227145831195
 30
0.0
 10
35.00457700972396
 20
-16.39174305585714
 30
0.0
 10
35.01592811154174
 20
-16.41977851202558
 30
0.0
 10
35.05059727472789
 20
-16.47140515702279
 30
0.0
 10
35.08586957519103
 20
-16.50033820884142
 30
0.0
 10
35.15898842091655
 20
-16.53406725039927
 30
0.0
 10
35.20922361314696
 20
-16.54644284877855
 30
0.0
 10
35.29824711927843
 20
-16.55106533563127
 30
0.0
 10
35.35081536609329
 20
-16.54733947198263
 30
0.0
 10
35.399345312579
 20
-16.53685071257685
 30
0.0
  0
SPLINE
  5
81
330
1F
100
AcDbEntity
  8
Sichtbar_(ISO)
  6
Continuous
 62
     7
100
AcDbSpline
210
0.0
220
0.0
230
1.0
 70
     8
 71
     3
 72
     8
 73
     4
 74
     0
 42
0.000000001
 43
0.0000000001
 40
0.0
 40
0.0
 40
0.0
 40
0.0
 40
1.0
 40
1.0
 40
1.0
 40
1.0
 10
34.99914175495732
 20
-16.34856970848246
 30
0.0
 10
34.99971547841499
 20
-16.35312226594516
 30
0.0
 10
35.00029078445527
 20
-16.35769013667157
 30
0.0
 10
35.00086743334231
 20
-16.36227145831195
 30
0.0
  0
SPLINE
  5
82
330
1F
100
AcDbEntity
  8
Sichtbar_(ISO)
  6
Continuous
 62
     7
100
AcDbSpline
210
0.0
220
0.0
230
1.0
 70
     8
 71
     3
 72
    10
 73
     6
 74
     0
 42
0.000000001
 43
0.0000000001
 40
0.0
 40
0.0
 40
0.0
 40
0.0
 40
0.5649611199968588
 40
0.5649611199968588
 40
1.0
 40
1.0
 40
1.0
 40
1.0
 10
34.60066387572063
 20
-16.18670231862434
 30
0.0
 10
34.71650291282854
 20
-16.15774579538729
 30
0.0
 10
34.82248854088732
 20
-16.16884584419365
 30
0.0
 10
34.94396863376989
 20
-16.23035445380161
 30
0.0
 10
34.99045413713651
 20
-16.27963252487366
 30
0.0
 10
34.99914175495732
 20
-16.34856970848246
 30
0.0
  0
SPLINE
  5
83
330
1F
100
AcDbEntity
  8
Sichtbar_(ISO)
  6
Continuous
 62
     7
100
AcDbSpline
210
0.0
220
0.0
230
1.0
 70
     8
 71
     3
 72
    12
 73
     8
 74
     0
 42
0.000000001
 43
0.0000000001
 40
0.0
 40
0.0
 40
0.0
 40
0.0
 40
0.4257703981278975
 40
0.4257703981278975
 40
0.8515407962557949
 40
0.8515407962557949
 40
1.0
 40
1.0
 40
1.0
 40
1.0
 10
33.4579878375663
 20
-16.50000272302871
 30
0.0
 10
33.4579878375663
 20
-16.50000272302871
 30
0.0
 10
33.53074580678685
 20
-16.47792907977185
 30
0.0
 10
33.83039370453622
 20
-16.39134295596052
 30
0.0
 10
34.05687396299922
 20
-16.32749959951477
 30
0.0
 10
34.40356637902875
 20
-16.23662401352886
 30
0.0
 10
34.49928328779233
 20
-16.2120446334728
 30
0.0
 10
34.60066387572063
 20
-16.18670231862434
 30
0.0
  0
ARC
  5
84
330
1F
100
AcDbEntity
  8
Verdeckt_(ISO)
  6
HIDDEN2
 62
     7
100
AcDbCircle
 10
40.5000045941
 20
-23.600002723
 30
0.0
 40
10.0
100
AcDbArc
 50
39.4199844671
 51
134.7650846713
  0
SPLINE
  5
85
330
1F
100
AcDbEntity
  8
Sichtbar_(ISO)
  6
Continuous
 62
     7
100
AcDbSpline
210
0.0
220
0.0
230
1.0
 70
     8
 71
     3
 72
     8
 73
     4
 74
     0
 42
0.000000001
 43
0.0000000001
 40
0.0
 40
0.0
 40
0.0
 40
0.0
 40
1.0
 40
1.0
 40
1.0
 40
1.0
 10
35.00086743334231
 20
16.85125743575454
 30
0.0
 10
35.00026954339766
 20
16.84626459729909
 30
0.0
 10
34.99969421126547
 20
16.84145994717003
 30
0.0
 10
34.99914175495732
 20
16.83684618144321
 30
0.0
  0
SPLINE
  5
86
330
1F
100
AcDbEntity
  8
Sichtbar_(ISO)
  6
Continuous
 62
     7
100
AcDbSpline
210
0.0
220
0.0
230
1.0
 70
     8
 71
     3
 72
    14
 73
    10
 74
     0
 42
0.000000001
 43
0.0000000001
 40
0.0
 40
0.0
 40
0.0
 40
0.0
 40
0.1878378347433653
 40
0.1878378347433653
 40
0.4238434534808098
 40
0.4238434534808098
 40
0.8917574938311488
 40
0.8917574938311488
 40
1.0
 40
1.0
 40
1.0
 40
1.0
 10
35.399345312579
 20
17.033283193503
 30
0.0
 10
35.34803321116534
 20
17.0447540467165
 30
0.0
 10
35.30341476962612
 20
17.04757169204448
 30
0.0
 10
35.21955694853545
 20
17.04447063342878
 30
0.0
 10
35.18095741255223
 20
17.03596119133224
 30
0.0
 10
35.08755683729477
 20
17.00169702892082
 30
0.0
 10
35.03378204510131
 20
16.9581647323963
 30
0.0
 10
35.00585996465964
 20
16.88031357480146
 30
0.0
 10
35.00258314954421
 20
16.86558497865418
 30
0.0
 10
35.00086743334231
 20
16.85125743575454
 30
0.0
  0
SPLINE
  5
87
330
1F
100
AcDbEntity
  8
Sichtbar_(ISO)
  6
Continuous
 62
     7
100
AcDbSpline
210
0.0
220
0.0
230
1.0
 70
     8
 71
     3
 72
    21
 73
    17
 74
     0
 42
0.000000001
 43
0.0000000001
 40
0.0
 40
0.0
 40
0.0
 40
0.0
 40
0.152647125038022
 40
0.152647125038022
 40
0.3052942500760441
 40
0.3052942500760441
 40
0.4525892564139381
 40
0.4525892564139381
 40
0.5998842627518316
 40
0.5998842627518316
 40
0.5998842627518316
 40
0.7471792690897251
 40
0.7471792690897251
 40
0.8944742754276186
 40
0.8944742754276186
 40
1.0
 40
1.0
 40
1.0
 40
1.0
 10
46.5000045941496
 20
17.24999727697127
 30
0.0
 10
46.5000045941496
 20
17.24999727697127
 30
0.0
 10
46.31449684293052
 20
17.20043835124545
 30
0.0
 10
45.61690652705329
 20
17.03455542779371
 30
0.0
 10
45.10607551691079
 20
16.92113215237847
 30
0.0
 10
44.00814040152289
 20
16.72266726049801
 30
0.0
 10
43.35016126799643
 20
16.62317469023578
 30
0.0
 10
41.94393180842242
 20
16.48504664949955
 30
0.0
 10
41.19548823799688
 20
16.44814954421763
 30
0.0
 10
40.5000045941496
 20
16.44814954421763
 30
0.0
 10
39.80452095030229
 20
16.44814954421763
 30
0.0
 10
39.05607737987678
 20
16.48504664949955
 30
0.0
 10
37.64984792030276
 20
16.62317469023578
 30
0.0
 10
36.99186878677629
 20
16.72266726049801
 30
0.0
 10
36.06642107760959
 20
16.88995299256597
 30
0.0
 10
35.70132585316593
 20
16.96577524978262
 30
0.0
 10
35.399345312579
 20
17.033283193503
 30
0.0
  0
SPLINE
  5
88
330
1F
100
AcDbEntity
  8
Sichtbar_(ISO)
  6
Continuous
 62
     7
100
AcDbSpline
210
0.0
220
0.0
230
1.0
 70
     8
 71
     3
 72
    14
 73
    10
 74
     0
 42
0.000000001
 43
0.0000000001
 40
0.0
 40
0.0
 40
0.0
 40
0.0
 40
0.3396983974894766
 40
0.3396983974894766
 40
0.6974566632859623
 40
0.6974566632859623
 40
0.9346468682593883
 40
0.9346468682593883
 40
1.0
 40
1.0
 40
1.0
 40
1.0
 10
34.99914175495732
 20
16.83684618144321
 30
0.0
 10
34.99733707016576
 20
16.82177459535927
 30
0.0
 10
34.99414368307471
 20
16.809035300172
 30
0.0
 10
34.98737952517807
 20
16.78815698665389
 30
0.0
 10
34.98408727954038
 20
16.78089490302681
 30
0.0
 10
34.98057895740031
 20
16.77343341162871
 30
0.0
 10
34.97967043216651
 20
16.77166993721653
 30
0.0
 10
34.97926290087362
 20
16.77086960098133
 30
0.0
 10
34.9792193234581
 20
16.77078287554128
 30
0.0
 10
34.97921972709153
 20
16.77078267142434
 30
0.0
  0
LINE
  5
89
330
1F
100
AcDbEntity
  8
Verdeckt_(ISO)
  6
HIDDEN2
 62
     7
100
AcDbLine
 10
44.7500045941
 20
15.499997277
 30
0.0
 11
36.2500045941
 21
15.499997277
 31
0.0
  0
SPLINE
  5
8A
330
1F
100
AcDbEntity
  8
Verdeckt_(ISO)
  6
HIDDEN2
 62
     7
100
AcDbSpline
210
0.0
220
0.0
230
1.0
 70
     8
 71
     3
 72
    26
 73
    22
 74
     0
 42
0.000000001
 43
0.0000000001
 40
-0.0000000000060516
 40
-0.0000000000060516
 40
0.0
 40
0.0
 40
0.122017047117542
 40
0.122017047117542
 40
0.2440340942411348
 40
0.2440340942411348
 40
0.3720170471190537
 40
0.3720170471190537
 40
0.4360085235580147
 40
0.4360085235580147
 40
0.4999999999969734
 40
0.4999999999969734
 40
0.5639914764359342
 40
0.5639914764359342
 40
0.6279829528748929
 40
0.6279829528748929
 40
0.7559659057528126
 40
0.7559659057528126
 40
0.8779829528764055
 40
0.8779829528764055
 40
1.0
 40
1.0
 40
1.000000000000032
 40
1.000000000000032
 10
36.2500045941496
 20
4.999997276971273
 30
0.0
 10
36.25000459416154
 20
4.999997276961011
 30
0.0
 10
36.3703109317912
 20
4.89656182092521
 30
0.0
 10
36.81610152670804
 20
4.526929634695616
 30
0.0
 10
37.14035921942392
 20
4.262641828894898
 30
0.0
 10
37.86657240651647
 20
3.716503569072896
 30
0.0
 10
38.3249293707561
 20
3.388689471863957
 30
0.0
 10
39.08875950418312
 20
2.980401439178314
 30
0.0
 10
39.35627383428864
 20
2.859281057116698
 30
0.0
 10
39.91290382592568
 20
2.685601066829841
 30
0.0
 10
40.20226461851541
 20
2.633910715184456
 30
0.0
 10
40.79774456978376
 20
2.633910715184456
 30
0.0
 10
41.08710536237352
 20
2.685601066829844
 30
0.0
 10
41.64373535401053
 20
2.859281057116696
 30
0.0
 10
41.91124968411608
 20
2.980401439178312
 30
0.0
 10
42.6750798175431
 20
3.388689471863953
 30
0.0
 10
43.13343678178272
 20
3.716503569072899
 30
0.0
 10
43.85964996887525
 20
4.262641828894898
 30
0.0
 10
44.18390766159114
 20
4.526929634695616
 30
0.0
 10
44.62969825651905
 20
4.896561820934375
 30
0.0
 10
44.75000459414959
 20
4.999997276971273
 30
0.0
 10
44.75000459414959
 20
4.999997276971273
 30
0.0
  0
LINE
  5
8B
330
1F
100
AcDbEntity
  8
Verdeckt_(ISO)
  6
HIDDEN2
 62
     7
100
AcDbLine
 10
36.2500045941
 20
15.499997277
 30
0.0
 11
34.9792186605
 21
16.7707832106
 31
0.0
  0
LINE
  5
8C
330
1F
100
AcDbEntity
  8
Verdeckt_(ISO)
  6
HIDDEN2
 62
     7
100
AcDbLine
 10
44.7500045941
 20
15.499997277
 30
0.0
 11
46.5000045941
 21
17.249997277
 31
0.0
  0
LINE
  5
8D
330
1F
100
AcDbEntity
  8
Verdeckt_(ISO)
  6
HIDDEN2
 62
     7
100
AcDbLine
 10
36.2500045941
 20
4.999997277
 30
0.0
 11
36.2500045941
 21
15.499997277
 31
0.0
  0
LINE
  5
8E
330
1F
100
AcDbEntity
  8
Verdeckt_(ISO)
  6
HIDDEN2
 62
     7
100
AcDbLine
 10
44.7500045941
 20
4.999997277
 30
0.0
 11
44.7500045941
 21
15.499997277
 31
0.0
  0
SPLINE
  5
8F
330
1F
100
AcDbEntity
  8
Verdeckt_(ISO)
  6
HIDDEN2
 62
     7
100
AcDbSpline
210
0.0
220
0.0
230
1.0
 70
     8
 71
     3
 72
    12
 73
     8
 74
     0
 42
0.000000001
 43
0.0000000001
 40
0.0
 40
0.0
 40
0.0
 40
0.0
 40
0.2165717770030814
 40
0.2165717770030814
 40
0.5851696116341129
 40
0.5851696116341129
 40
1.0
 40
1.0
 40
1.0
 40
1.0
 10
19.75372771754305
 20
-4.84281062365534
 30
0.0
 10
19.71545300124789
 20
-4.873459329654637
 30
0.0
 10
19.6724299738806
 20
-4.898810779429541
 30
0.0
 10
19.54160150064296
 20
-4.952837029901481
 30
0.0
 10
19.45194934138006
 20
-4.968059423376701
 30
0.0
 10
19.25657039855541
 20
-4.984878556611011
 30
0.0
 10
19.13493041732533
 20
-4.985737792400273
 30
0.0
 10
19.0000045941496
 20
-4.985737792400273
 30
0.0
  0
LINE
  5
90
330
1F
100
AcDbEntity
  8
Verdeckt_(ISO)
  6
HIDDEN2
 62
     7
100
AcDbLine
 10
18.0615559513
 20
-4.9857377924
 30
0.0
 11
19.0000045941
 21
-4.9857377924
 31
0.0
  0
SPLINE
  5
91
330
1F
100
AcDbEntity
  8
Sichtbar_(ISO)
  6
Continuous
 62
     7
100
AcDbSpline
210
0.0
220
0.0
230
1.0
 70
     8
 71
     3
 72
    12
 73
     8
 74
     0
 42
0.000000001
 43
0.0000000001
 40
0.0
 40
0.0
 40
0.0
 40
0.0
 40
0.4495361246694023
 40
0.4495361246694023
 40
0.8638433710670688
 40
0.8638433710670688
 40
1.0
 40
1.0
 40
1.0
 40
1.0
 10
19.00000459414959
 20
-5.978968528222206
 30
0.0
 10
19.1396241967266
 20
-5.978968528222206
 30
0.0
 10
19.26608699291449
 20
-5.976124118946372
 30
0.0
 10
19.47340455097573
 20
-5.951304380017846
 30
0.0
 10
19.57125997648917
 20
-5.929260606388376
 30
0.0
 10
19.6894922880034
 20
-5.86651049608571
 30
0.0
 10
19.7165872025746
 20
-5.848887866240562
 30
0.0
 10
19.74168103946426
 20
-5.829244903705585
 30
0.0
  0
LINE
  5
92
330
1F
100
AcDbEntity
  8
Sichtbar_(ISO)
  6
Continuous
 62
     7
100
AcDbLine
 10
19.0000045941
 20
-5.9789685282
 30
0.0
 11
18.0780200363
 21
-5.9789685282
 31
0.0
  0
SPLINE
  5
93
330
1F
100
AcDbEntity
  8
Sichtbar_(ISO)
  6
Continuous
 62
     7
100
AcDbSpline
210
0.0
220
0.0
230
1.0
 70
     8
 71
     3
 72
    10
 73
     6
 74
     0
 42
0.000000001
 43
0.0000000001
 40
0.0
 40
0.0
 40
0.0
 40
0.0
 40
0.5975243076003905
 40
0.5975243076003905
 40
1.0
 40
1.0
 40
1.0
 40
1.0
 10
19.00000459414959
 20
-5.500002723028717
 30
0.0
 10
19.16210706228729
 20
-5.500002723028717
 30
0.0
 10
19.33098326257761
 20
-5.541570483444463
 30
0.0
 10
19.57752690482677
 20
-5.675845736174799
 30
0.0
 10
19.66737270641676
 20
-5.747080018380134
 30
0.0
 10
19.74168103793578
 20
-5.829244903295942
 30
0.0
  0
LINE
  5
94
330
1F
100
AcDbEntity
  8
Sichtbar_(ISO)
  6
Continuous
 62
     7
100
AcDbLine
 10
18.3511594797
 20
-5.500002723
 30
0.0
 11
19.0000045941
 21
-5.500002723
 31
0.0
  0
LINE
  5
95
330
1F
100
AcDbEntity
  8
Sichtbar_(ISO)
  6
Continuous
 62
     7
100
AcDbLine
 10
20.0000045941
 20
-19.000002723
 30
0.0
 11
20.0000045941
 21
-6.500002723
 31
0.0
  0
SPLINE
  5
96
330
1F
100
AcDbEntity
  8
Sichtbar_(ISO)
  6
Continuous
 62
     7
100
AcDbSpline
210
0.0
220
0.0
230
1.0
 70
     8
 71
     3
 72
    12
 73
     8
 74
     0
 42
0.000000001
 43
0.0000000001
 40
0.0
 40
0.0
 40
0.0
 40
0.0
 40
0.2677638796124983
 40
0.2677638796124983
 40
0.9958638242460474
 40
0.9958638242460474
 40
1.0
 40
1.0
 40
1.0
 40
1.0
 10
19.74168103946426
 20
-5.829244903705585
 30
0.0
 10
19.78986080576283
 20
-5.882518673925759
 30
0.0
 10
19.83005041544977
 20
-5.93849603633397
 30
0.0
 10
19.95275484054926
 20
-6.148138585345238
 30
0.0
 10
19.99947381348044
 20
-6.321269527823412
 30
0.0
 10
20.00000309962717
 20
-6.49800629691898
 30
0.0
 10
20.0000045941496
 20
-6.49900455055658
 30
0.0
 10
20.0000045941496
 20
-6.500002723028718
 30
0.0
  0
SPLINE
  5
97
330
1F
100
AcDbEntity
  8
Sichtbar_(ISO)
  6
Continuous
 62
     7
100
AcDbSpline
210
0.0
220
0.0
230
1.0
 70
     8
 71
     3
 72
    12
 73
     8
 74
     0
 42
0.000000001
 43
0.0000000001
 40
0.0
 40
0.0
 40
0.0
 40
0.0
 40
0.0041361757534207
 40
0.0041361757534207
 40
0.7322361203677298
 40
0.7322361203677298
 40
1.0
 40
1.0
 40
1.0
 40
1.0
 10
20.0000045941496
 20
6.49999727697128
 30
0.0
 10
20.0000045941496
 20
6.498999104499134
 30
0.0
 10
20.00000309962717
 20
6.498000850861552
 30
0.0
 10
19.99947381348039
 20
6.321264081746178
 30
0.0
 10
19.95275484054021
 20
6.148133139272316
 30
0.0
 10
19.83005041544975
 20
5.938490590276511
 30
0.0
 10
19.78986080576282
 20
5.882513227868314
 30
0.0
 10
19.74168103946426
 20
5.829239457648148
 30
0.0
  0
LINE
  5
98
330
1F
100
AcDbEntity
  8
Sichtbar_(ISO)
  6
Continuous
 62
     7
100
AcDbLine
 10
20.0000045941
 20
6.499997277
 30
0.0
 11
20.0000045941
 21
18.999997277
 31
0.0
  0
LINE
  5
99
330
1F
100
AcDbEntity
  8
Sichtbar_(ISO)
  6
Continuous
 62
     7
100
AcDbLine
 10
-19.9999954059
 20
13.1556446273
 30
0.0
 11
-19.9999954059
 21
5.2923947144
 31
0.0
  0
SPLINE
  5
9A
330
1F
100
AcDbEntity
  8
Sichtbar_(ISO)
  6
Continuous
 62
     7
100
AcDbSpline
210
0.0
220
0.0
230
1.0
 70
     8
 71
     3
 72
    18
 73
    14
 74
     0
 42
0.000000001
 43
0.0000000001
 40
0.0
 40
0.0
 40
0.0
 40
0.0
 40
0.0145024366821182
 40
0.0145024366821182
 40
0.2364230217438953
 40
0.2364230217438953
 40
0.4244893064322606
 40
0.4244893064322606
 40
0.6288769855358585
 40
0.6288769855358585
 40
0.9188985066507105
 40
0.9188985066507105
 40
1.0
 40
1.0
 40
1.0
 40
1.0
 10
-19.46678589064638
 20
5.747967522143869
 30
0.0
 10
-19.47067505073073
 20
5.750039224849965
 30
0.0
 10
-19.47456536347935
 20
5.752060068831231
 30
0.0
 10
-19.53799738085956
 20
5.784145952435722
 30
0.0
 10
-19.59886374785799
 20
5.802464485735002
 30
0.0
 10
-19.70905596386623
 20
5.799989800593436
 30
0.0
 10
-19.75548339687741
 20
5.784840920446269
 30
0.0
 10
-19.84318105149127
 20
5.726653464018633
 30
0.0
 10
-19.88108237648845
 20
5.682962312449667
 30
0.0
 10
-19.95327975700801
 20
5.563310098069325
 30
0.0
 10
-19.98398292177071
 20
5.474182871559557
 30
0.0
 10
-19.99843085403933
 20
5.347911005632213
 30
0.0
 10
-19.99999540585039
 20
5.320169638426955
 30
0.0
 10
-19.99999540585039
 20
5.292394714448938
 30
0.0
  0
SPLINE
  5
9B
330
1F
100
AcDbEntity
  8
Sichtbar_(ISO)
  6
Continuous
 62
     7
100
AcDbSpline
210
0.0
220
0.0
230
1.0
 70
     8
 71
     3
 72
    12
 73
     8
 74
     0
 42
0.000000001
 43
0.0000000001
 40
0.0
 40
0.0
 40
0.0
 40
0.0
 40
0.2286495662170906
 40
0.2286495662170906
 40
0.5852512125376669
 40
0.5852512125376669
 40
1.0
 40
1.0
 40
1.0
 40
1.0
 10
-18.95503512741481
 20
6.136665623274202
 30
0.0
 10
-19.0023801135768
 20
6.1292169540584
 30
0.0
 10
-19.04737413894182
 20
6.11258130778799
 30
0.0
 10
-19.1558852690592
 20
6.056361317661306
 30
0.0
 10
-19.21805415616272
 20
6.00792922406208
 30
0.0
 10
-19.33717364101578
 20
5.899031660089882
 30
0.0
 10
-19.40226318275963
 20
5.828077063181632
 30
0.0
 10
-19.46678589064638
 20
5.747967522143869
 30
0.0
  0
SPLINE
  5
9C
330
1F
100
AcDbEntity
  8
Sichtbar_(ISO)
  6
Continuous
 62
     7
100
AcDbSpline
210
0.0
220
0.0
230
1.0
 70
     8
 71
     3
 72
    10
 73
     6
 74
     0
 42
0.000000001
 43
0.0000000001
 40
0.0
 40
0.0
 40
0.0
 40
0.0
 40
0.6214152888010321
 40
0.6214152888010321
 40
1.0
 40
1.0
 40
1.0
 40
1.0
 10
-19.46678589064638
 20
-5.747972968201303
 30
0.0
 10
-19.35626489086681
 20
-5.885192667394898
 30
0.0
 10
-19.24166097881371
 20
-5.99887984304588
 30
0.0
 10
-19.06366685200527
 20
-6.108763584140469
 30
0.0
 10
-19.00600284303708
 20
-6.128652445077393
 30
0.0
 10
-18.95503512741481
 20
-6.136671069331635
 30
0.0
  0
SPLINE
  5
9D
330
1F
100
AcDbEntity
  8
Sichtbar_(ISO)
  6
Continuous
 62
     7
100
AcDbSpline
210
0.0
220
0.0
230
1.0
 70
     8
 71
     3
 72
    16
 73
    12
 74
     0
 42
0.000000001
 43
0.0000000001
 40
0.0
 40
0.0
 40
0.0
 40
0.0
 40
0.0624800801790165
 40
0.0624800801790165
 40
0.4014666734437575
 40
0.4014666734437575
 40
0.6249670554802363
 40
0.6249670554802363
 40
0.819640791386457
 40
0.819640791386457
 40
1.0
 40
1.0
 40
1.0
 40
1.0
 10
-19.99999540585039
 20
-5.292400160506374
 30
0.0
 10
-19.99999540585039
 20
-5.314174953782478
 30
0.0
 10
-19.99903357215134
 20
-5.335939938020895
 30
0.0
 10
-19.98656756564116
 20
-5.475410947409127
 30
0.0
 10
-19.94810540040793
 20
-5.581427007089548
 30
0.0
 10
-19.85919991385582
 20
-5.709972359644713
 30
0.0
 10
-19.81468281333265
 20
-5.752452363390223
 30
0.0
 10
-19.7149735824011
 20
-5.798871962421152
 30
0.0
 10
-19.66515166589744
 20
-5.80561472004189
 30
0.0
 10
-19.56371933443507
 20
-5.791782794839317
 30
0.0
 10
-19.51465137004961
 20
-5.773470258376508
 30
0.0
 10
-19.46678589064638
 20
-5.747972968201303
 30
0.0
  0
LINE
  5
9E
330
1F
100
AcDbEntity
  8
Sichtbar_(ISO)
  6
Continuous
 62
     7
100
AcDbLine
 10
-19.9999954059
 20
-5.2924001605
 30
0.0
 11
-19.9999954059
 21
-13.1556500734
 31
0.0
  0
ARC
  5
9F
330
1F
100
AcDbEntity
  8
Sichtbar_(ISO)
  6
Continuous
 62
     7
100
AcDbCircle
 10
19.0000045941
 20
-19.000002723
 30
0.0
 40
1.0
100
AcDbArc
 50
270.0
 51
0.0
  0
ARC
  5
A0
330
1F
100
AcDbEntity
  8
Sichtbar_(ISO)
  6
Continuous
 62
     7
100
AcDbCircle
 10
19.0000045941
 20
18.999997277
 30
0.0
 40
1.0
100
AcDbArc
 50
0.0
 51
90.0
  0
ARC
  5
A1
330
1F
100
AcDbEntity
  8
Sichtbar_(ISO)
  6
Continuous
 62
     7
100
AcDbCircle
 10
-18.8999954059
 20
13.1556446273
 30
0.0
 40
1.100000000000001
100
AcDbArc
 50
92.8680555556
 51
180.0
  0
ARC
  5
A2
330
1F
100
AcDbEntity
  8
Sichtbar_(ISO)
  6
Continuous
 62
     7
100
AcDbCircle
 10
-18.8999954059
 20
-13.1556500734
 30
0.0
 40
1.1
100
AcDbArc
 50
180.0
 51
267.1319444444
  0
SPLINE
  5
A3
330
1F
100
AcDbEntity
  8
Verdeckt_(ISO)
  6
HIDDEN2
 62
     7
100
AcDbSpline
210
0.0
220
0.0
230
1.0
 70
     8
 71
     3
 72
    14
 73
    10
 74
     0
 42
0.000000001
 43
0.0000000001
 40
0.0
 40
0.0
 40
0.0
 40
0.0
 40
0.2032487312620674
 40
0.2032487312620674
 40
0.4318082170201288
 40
0.4318082170201288
 40
0.696539465647782
 40
0.696539465647782
 40
1.0
 40
1.0
 40
1.0
 40
1.0
 10
19.0000045941496
 20
15.99999727697128
 30
0.0
 10
19.11435823478688
 20
15.99999727697128
 30
0.0
 10
19.24799488916757
 20
15.96882401938049
 30
0.0
 10
19.46785678322808
 20
15.86545862903836
 30
0.0
 10
19.58893396428267
 20
15.7697881899651
 30
0.0
 10
19.77129367560842
 20
15.56056768591907
 30
0.0
 10
19.85860839119737
 20
15.40461194279288
 30
0.0
 10
19.96696224395789
 20
15.10385371050698
 30
0.0
 10
20.00000459414961
 20
14.90165285186263
 30
0.0
 10
20.00000459414961
 20
14.73091713962751
 30
0.0
  0
SPLINE
  5
A4
330
1F
100
AcDbEntity
  8
Sichtbar_(ISO)
  6
Continuous
 62
     7
100
AcDbSpline
210
0.0
220
0.0
230
1.0
 70
     8
 71
     3
 72
    12
 73
     8
 74
     0
 42
0.000000001
 43
0.0000000001
 40
0.0
 40
0.0
 40
0.0
 40
0.0
 40
0.232177840332276
 40
0.232177840332276
 40
0.6215391223073378
 40
0.6215391223073378
 40
1.0
 40
1.0
 40
1.0
 40
1.0
 10
19.74168103946426
 20
5.829239457648148
 30
0.0
 10
19.70062176413883
 20
5.861379851740802
 30
0.0
 10
19.65456277660199
 20
5.887814056420008
 30
0.0
 10
19.51634983389362
 20
5.943563071203418
 30
0.0
 10
19.42198506231007
 20
5.95968691940783
 30
0.0
 10
19.23037713161264
 20
5.976653433930126
 30
0.0
 10
19.12081929764288
 20
5.978963082164771
 30
0.0
 10
19.00000459414959
 20
5.978963082164771
 30
0.0
  0
LINE
  5
A5
330
1F
100
AcDbEntity
  8
Sichtbar_(ISO)
  6
Continuous
 62
     7
100
AcDbLine
 10
18.0780200363
 20
5.9789630822
 30
0.0
 11
19.0000045941
 21
5.9789630822
 31
0.0
  0
SPLINE
  5
A6
330
1F
100
AcDbEntity
  8
Sichtbar_(ISO)
  6
Continuous
 62
     7
100
AcDbSpline
210
0.0
220
0.0
230
1.0
 70
     8
 71
     3
 72
    10
 73
     6
 74
     0
 42
0.000000001
 43
0.0000000001
 40
0.0
 40
0.0
 40
0.0
 40
0.0
 40
0.4024756923996089
 40
0.4024756923996089
 40
1.0
 40
1.0
 40
1.0
 40
1.0
 10
19.74168103793578
 20
5.829239457238513
 30
0.0
 10
19.66737270641676
 20
5.747074572322699
 30
0.0
 10
19.57752690482677
 20
5.675840290117363
 30
0.0
 10
19.33098326257761
 20
5.541565037387027
 30
0.0
 10
19.16210706228729
 20
5.49999727697128
 30
0.0
 10
19.00000459414959
 20
5.49999727697128
 30
0.0
  0
LINE
  5
A7
330
1F
100
AcDbEntity
  8
Sichtbar_(ISO)
  6
Continuous
 62
     7
100
AcDbLine
 10
19.0000045941
 20
5.499997277
 30
0.0
 11
18.3511594797
 21
5.499997277
 31
0.0
  0
SPLINE
  5
A8
330
1F
100
AcDbEntity
  8
Verdeckt_(ISO)
  6
HIDDEN2
 62
     7
100
AcDbSpline
210
0.0
220
0.0
230
1.0
 70
     8
 71
     3
 72
    12
 73
     8
 74
     0
 42
0.000000001
 43
0.0000000001
 40
0.0
 40
0.0
 40
0.0
 40
0.0
 40
0.4359388798761307
 40
0.4359388798761307
 40
0.8374323716996782
 40
0.8374323716996782
 40
1.0
 40
1.0
 40
1.0
 40
1.0
 10
19.0000045941496
 20
4.985732346342839
 30
0.0
 10
19.13993296943684
 20
4.985732346342839
 30
0.0
 10
19.26603785351941
 20
4.984876578802579
 30
0.0
 10
19.47148271387953
 20
4.965518493853219
 30
0.0
 10
19.56824228218138
 20
4.947214727815933
 30
0.0
 10
19.69185408041099
 20
4.886960126584098
 30
0.0
 10
19.72425065618539
 20
4.866409109245811
 30
0.0
 10
19.75372771754303
 20
4.842805177597903
 30
0.0
  0
LINE
  5
A9
330
1F
100
AcDbEntity
  8
Verdeckt_(ISO)
  6
HIDDEN2
 62
     7
100
AcDbLine
 10
19.0000045941
 20
4.9857323463
 30
0.0
 11
18.0615559513
 21
4.9857323463
 31
0.0
  0
LINE
  5
AA
330
1F
100
AcDbEntity
  8
Verdeckt_(ISO)
  6
HIDDEN2
 62
     7
100
AcDbLine
 10
20.0000045941
 20
11.999997277
 30
0.0
 11
12.4721405491
 21
11.999997277
 31
0.0
  0
LINE
  5
AB
330
1F
100
AcDbEntity
  8
Verdeckt_(ISO)
  6
HIDDEN2
 62
     7
100
AcDbLine
 10
19.0000045941
 20
15.999997277
 30
0.0
 11
18.0207305363
 21
15.999997277
 31
0.0
  0
LINE
  5
AC
330
1F
100
AcDbEntity
  8
Verdeckt_(ISO)
  6
HIDDEN2
 62
     7
100
AcDbLine
 10
13.979278652
 20
15.999997277
 30
0.0
 11
8.0000045941
 21
15.999997277
 31
0.0
  0
SPLINE
  5
AD
330
1F
100
AcDbEntity
  8
Verdeckt_(ISO)
  6
HIDDEN2
 62
     7
100
AcDbSpline
210
0.0
220
0.0
230
1.0
 70
    12
 71
     2
 72
     6
 73
     3
 74
     0
 42
0.000000001
 43
0.0000000001
 40
0.0
 40
0.0
 40
0.0
 40
1.0
 40
1.0
 40
1.0
 10
15.0000045941496
 20
13.72616486482234
 30
0.0
 41
1.0
 10
14.52868062337542
 20
14.81050711668985
 30
0.0
 41
1.001773314389825
 10
13.97927865198591
 20
15.99999727697128
 30
0.0
 41
1.0
  0
SPLINE
  5
AE
330
1F
100
AcDbEntity
  8
Verdeckt_(ISO)
  6
HIDDEN2
 62
     7
100
AcDbSpline
210
0.0
220
0.0
230
1.0
 70
     8
 71
     3
 72
    14
 73
    10
 74
     0
 42
0.000000001
 43
0.0000000001
 40
0.0
 40
0.0
 40
0.0
 40
0.0
 40
0.1884681587874262
 40
0.1884681587874262
 40
0.4123287851205287
 40
0.4123287851205287
 40
0.6843010521089076
 40
0.6843010521089076
 40
1.0
 40
1.0
 40
1.0
 40
1.0
 10
15.2000045941496
 20
12.59999727697127
 30
0.0
 10
15.17779152171337
 20
12.59999727697127
 30
0.0
 10
15.15194301361346
 20
12.60650729036387
 30
0.0
 10
15.10844954638574
 20
12.62818768127528
 30
0.0
 10
15.08434822761247
 20
12.64871981058347
 30
0.0
 10
15.04724215632128
 20
12.69386741935633
 30
0.0
 10
15.02937323721624
 20
12.72793105652985
 30
0.0
 10
15.00694306203483
 20
12.79346222164333
 30
0.0
 10
15.0000045941496
 20
12.83757018997122
 30
0.0
 10
15.0000045941496
 20
12.87477882851614
 30
0.0
  0
LINE
  5
AF
330
1F
100
AcDbEntity
  8
Verdeckt_(ISO)
  6
HIDDEN2
 62
     7
100
AcDbLine
 10
16.8000045941
 20
12.599997277
 30
0.0
 11
15.2000045941
 21
12.599997277
 31
0.0
  0
SPLINE
  5
B0
330
1F
100
AcDbEntity
  8
Verdeckt_(ISO)
  6
HIDDEN2
 62
     7
100
AcDbSpline
210
0.0
220
0.0
230
1.0
 70
     8
 71
     3
 72
    14
 73
    10
 74
     0
 42
0.000000001
 43
0.0000000001
 40
0.0
 40
0.0
 40
0.0
 40
0.0
 40
0.315698947891098
 40
0.315698947891098
 40
0.5876712148794713
 40
0.5876712148794713
 40
0.8115318412125763
 40
0.8115318412125763
 40
1.0
 40
1.0
 40
1.0
 40
1.0
 10
17.00000459414961
 20
12.87477882851614
 30
0.0
 10
17.00000459414961
 20
12.83757018997122
 30
0.0
 10
16.99306612626439
 20
12.79346222164333
 30
0.0
 10
16.97063595108298
 20
12.72793105652985
 30
0.0
 10
16.95276703197794
 20
12.69386741935633
 30
0.0
 10
16.91566096068675
 20
12.64871981058347
 30
0.0
 10
16.89155964191346
 20
12.62818768127528
 30
0.0
 10
16.84806617468575
 20
12.60650729036387
 30
0.0
 10
16.82221766658584
 20
12.59999727697127
 30
0.0
 10
16.80000459414961
 20
12.59999727697127
 30
0.0
  0
SPLINE
  5
B1
330
1F
100
AcDbEntity
  8
Verdeckt_(ISO)
  6
HIDDEN2
 62
     7
100
AcDbSpline
210
0.0
220
0.0
230
1.0
 70
    12
 71
     2
 72
     6
 73
     3
 74
     0
 42
0.000000001
 43
0.0000000001
 40
0.0
 40
0.0
 40
0.0
 40
1.0
 40
1.0
 40
1.0
 10
17.5000045941496
 20
14.85720142090963
 30
0.0
 41
1.000886370599054
 10
17.24011215942657
 20
14.27856362696295
 30
0.0
 41
1.000902598094475
 10
17.00000459414961
 20
13.72616486482234
 30
0.0
 41
1.0
  0
SPLINE
  5
B2
330
1F
100
AcDbEntity
  8
Verdeckt_(ISO)
  6
HIDDEN2
 62
     7
100
AcDbSpline
210
0.0
220
0.0
230
1.0
 70
    12
 71
     2
 72
     6
 73
     3
 74
     0
 42
0.000000001
 43
0.0000000001
 40
0.0
 40
0.0
 40
0.0
 40
1.0
 40
1.0
 40
1.0
 10
18.0207305363133
 20
15.99999727697128
 30
0.0
 41
1.0
 10
17.75072502849878
 20
15.41541820464856
 30
0.0
 41
1.000427439766272
 10
17.5000045941496
 20
14.85720142090963
 30
0.0
 41
1.0
  0
ELLIPSE
  5
B3
330
1F
100
AcDbEntity
  8
Verdeckt_(ISO)
  6
HIDDEN2
 62
     7
100
AcDbEllipse
 10
11.8648278779
 20
-0.000002723
 30
0.0
 11
22.53408931776899
 21
-19.08923747312494
 31
0.0
210
0.0
220
0.0
230
1.0
 40
0.26478365
 41
1.519794454641242
 42
1.52162907539495
  0
ELLIPSE
  5
B4
330
1F
100
AcDbEntity
  8
Verdeckt_(ISO)
  6
HIDDEN2
 62
     7
100
AcDbEllipse
 10
11.8648278779
 20
-0.000002723
 30
0.0
 11
-22.53408931776899
 21
-19.08923747312494
 31
0.0
210
0.0
220
0.0
230
1.0
 40
0.26478365
 41
-4.663221728984746
 42
-4.661387108231035
  0
LINE
  5
B5
330
1F
100
AcDbEntity
  8
Verdeckt_(ISO)
  6
HIDDEN2
 62
     7
100
AcDbLine
 10
17.4800045941
 20
-4.500002723
 30
0.0
 11
17.0000045941
 21
-4.980002723
 31
0.0
  0
LINE
  5
B6
330
1F
100
AcDbEntity
  8
Verdeckt_(ISO)
  6
HIDDEN2
 62
     7
100
AcDbLine
 10
17.4800045941
 20
4.499997277
 30
0.0
 11
17.0000045941
 21
4.979997277
 31
0.0
  0
LINE
  5
B7
330
1F
100
AcDbEntity
  8
Verdeckt_(ISO)
  6
HIDDEN2
 62
     7
100
AcDbLine
 10
18.0615559513
 20
-4.9857377924
 30
0.0
 11
18.3270786312
 21
-4.500002723
 31
0.0
  0
SPLINE
  5
B8
330
1F
100
AcDbEntity
  8
Verdeckt_(ISO)
  6
HIDDEN2
 62
     7
100
AcDbSpline
210
0.0
220
0.0
230
1.0
 70
    12
 71
     2
 72
     6
 73
     3
 74
     0
 42
0.000000001
 43
0.0000000001
 40
0.0
 40
0.0
 40
0.0
 40
1.0
 40
1.0
 40
1.0
 10
17.00000459414961
 20
-4.989295311677715
 30
0.0
 41
1.0
 10
17.48834127065549
 20
-5.005941548304579
 30
0.0
 41
1.000859250570782
 10
18.0207305363133
 20
-5.021263406996671
 30
0.0
 41
1.0
  0
LINE
  5
B9
330
1F
100
AcDbEntity
  8
Verdeckt_(ISO)
  6
HIDDEN2
 62
     7
100
AcDbLine
 10
18.3270786312
 20
4.499997277
 30
0.0
 11
18.0615559513
 21
4.9857323463
 31
0.0
  0
SPLINE
  5
BA
330
1F
100
AcDbEntity
  8
Verdeckt_(ISO)
  6
HIDDEN2
 62
     7
100
AcDbSpline
210
0.0
220
0.0
230
1.0
 70
    12
 71
     2
 72
     6
 73
     3
 74
     0
 42
0.000000001
 43
0.0000000001
 40
0.0
 40
0.0
 40
0.0
 40
1.0
 40
1.0
 40
1.0
 10
18.0207305363133
 20
5.021257960939237
 30
0.0
 41
1.0
 10
17.48834127065549
 20
5.005936102247142
 30
0.0
 41
1.000859250570782
 10
17.00000459414961
 20
4.989289865620277
 30
0.0
 41
1.0
  0
ELLIPSE
  5
BB
330
1F
100
AcDbEntity
  8
Sichtbar_(ISO)
  6
Continuous
 62
     7
100
AcDbEllipse
 10
13.0380329587
 20
-0.000002723
 30
0.0
 11
22.53408931776902
 21
-19.08923747312495
 31
0.0
210
0.0
220
0.0
230
1.0
 40
0.26478365
 41
1.571441120854369
 42
1.573982382510074
  0
ELLIPSE
  5
BC
330
1F
100
AcDbEntity
  8
Sichtbar_(ISO)
  6
Continuous
 62
     7
100
AcDbEllipse
 10
13.0380329587
 20
-0.000002723
 30
0.0
 11
-22.53408931776902
 21
-19.08923747312495
 31
0.0
210
0.0
220
0.0
230
1.0
 40
0.26478365
 41
1.567610271079715
 42
1.57015153273542
  0
LINE
  5
BD
330
1F
100
AcDbEntity
  8
Sichtbar_(ISO)
  6
Continuous
 62
     7
100
AcDbLine
 10
18.3511594797
 20
-5.500002723
 30
0.0
 11
18.0780200363
 21
-5.9789685282
 31
0.0
  0
LINE
  5
BE
330
1F
100
AcDbEntity
  8
Sichtbar_(ISO)
  6
Continuous
 62
     7
100
AcDbLine
 10
17.4800045941
 20
-5.500002723
 30
0.0
 11
18.3511594797
 21
-5.500002723
 31
0.0
  0
LINE
  5
BF
330
1F
100
AcDbEntity
  8
Sichtbar_(ISO)
  6
Continuous
 62
     7
100
AcDbLine
 10
17.4800045941
 20
-5.500002723
 30
0.0
 11
17.0000045941
 21
-5.980002723
 31
0.0
  0
LINE
  5
C0
330
1F
100
AcDbEntity
  8
Sichtbar_(ISO)
  6
Continuous
 62
     7
100
AcDbLine
 10
17.0000045941
 20
-5.9816625833
 30
0.0
 11
17.0000045941
 21
-5.980002723
 31
0.0
  0
SPLINE
  5
C1
330
1F
100
AcDbEntity
  8
Sichtbar_(ISO)
  6
Continuous
 62
     7
100
AcDbSpline
210
0.0
220
0.0
230
1.0
 70
    12
 71
     2
 72
     6
 73
     3
 74
     0
 42
0.000000001
 43
0.0000000001
 40
0.0
 40
0.0
 40
0.0
 40
1.0
 40
1.0
 40
1.0
 10
18.02073053631328
 20
-6.02745013015051
 30
0.0
 41
1.0
 10
17.48824541235244
 20
-6.005492705001397
 30
0.0
 41
1.000837443208952
 10
17.0000045941496
 20
-5.981662583271638
 30
0.0
 41
1.0
  0
LINE
  5
C2
330
1F
100
AcDbEntity
  8
Sichtbar_(ISO)
  6
Continuous
 62
     7
100
AcDbLine
 10
17.4800045941
 20
5.499997277
 30
0.0
 11
17.0000045941
 21
5.979997277
 31
0.0
  0
LINE
  5
C3
330
1F
100
AcDbEntity
  8
Sichtbar_(ISO)
  6
Continuous
 62
     7
100
AcDbLine
 10
17.0000045941
 20
5.979997277
 30
0.0
 11
17.0000045941
 21
5.9816571372
 31
0.0
  0
LINE
  5
C4
330
1F
100
AcDbEntity
  8
Sichtbar_(ISO)
  6
Continuous
 62
     7
100
AcDbLine
 10
18.3511594797
 20
5.499997277
 30
0.0
 11
17.4800045941
 21
5.499997277
 31
0.0
  0
LINE
  5
C5
330
1F
100
AcDbEntity
  8
Sichtbar_(ISO)
  6
Continuous
 62
     7
100
AcDbLine
 10
18.0780200363
 20
5.9789630822
 30
0.0
 11
18.3511594797
 21
5.499997277
 31
0.0
  0
SPLINE
  5
C6
330
1F
100
AcDbEntity
  8
Sichtbar_(ISO)
  6
Continuous
 62
     7
100
AcDbSpline
210
0.0
220
0.0
230
1.0
 70
    12
 71
     2
 72
     6
 73
     3
 74
     0
 42
0.000000001
 43
0.0000000001
 40
0.0
 40
0.0
 40
0.0
 40
1.0
 40
1.0
 40
1.0
 10
17.0000045941496
 20
5.981657137214202
 30
0.0
 41
1.0
 10
17.48824541235244
 20
6.005487258943962
 30
0.0
 41
1.000837443208952
 10
18.02073053631328
 20
6.027444684093071
 30
0.0
 41
1.0
  0
LINE
  5
C7
330
1F
100
AcDbEntity
  8
Verdeckt_(ISO)
  6
HIDDEN2
 62
     7
100
AcDbLine
 10
18.0207305363
 20
6.0274446841
 30
0.0
 11
18.0207305363
 21
5.0212579609
 31
0.0
  0
LINE
  5
C8
330
1F
100
AcDbEntity
  8
Verdeckt_(ISO)
  6
HIDDEN2
 62
     7
100
AcDbLine
 10
18.0207305363
 20
-5.021263407
 30
0.0
 11
18.0207305363
 21
-6.0274501302
 31
0.0
  0
LINE
  5
C9
330
1F
100
AcDbEntity
  8
Verdeckt_(ISO)
  6
HIDDEN2
 62
     7
100
AcDbLine
 10
-19.1999954059
 20
-4.2048638341
 30
0.0
 11
-19.1999954059
 21
-10.500002723
 31
0.0
  0
LINE
  5
CA
330
1F
100
AcDbEntity
  8
Verdeckt_(ISO)
  6
HIDDEN2
 62
     7
100
AcDbLine
 10
-19.1999954059
 20
10.499997277
 30
0.0
 11
-19.1999954059
 21
4.2048583881
 31
0.0
  0
LINE
  5
CB
330
1F
100
AcDbEntity
  8
Verdeckt_(ISO)
  6
HIDDEN2
 62
     7
100
AcDbLine
 10
-11.997345675
 20
10.499997277
 30
0.0
 11
-11.997345675
 21
-10.500002723
 31
0.0
  0
LINE
  5
CC
330
1F
100
AcDbEntity
  8
Verdeckt_(ISO)
  6
HIDDEN2
 62
     7
100
AcDbLine
 10
13.979278652
 20
6.0274446841
 30
0.0
 11
13.979278652
 21
5.0212579609
 31
0.0
  0
LINE
  5
CD
330
1F
100
AcDbEntity
  8
Verdeckt_(ISO)
  6
HIDDEN2
 62
     7
100
AcDbLine
 10
13.979278652
 20
-5.021263407
 30
0.0
 11
13.979278652
 21
-6.0274501302
 31
0.0
  0
LINE
  5
CE
330
1F
100
AcDbEntity
  8
Verdeckt_(ISO)
  6
HIDDEN2
 62
     7
100
AcDbLine
 10
6.2000045941
 20
10.499997277
 30
0.0
 11
6.2000045941
 21
-10.500002723
 31
0.0
  0
LINE
  5
CF
330
1F
100
AcDbEntity
  8
Verdeckt_(ISO)
  6
HIDDEN2
 62
     7
100
AcDbLine
 10
8.0000045941
 20
-1.0000027422
 30
0.0
 11
8.0000045941
 21
-9.900002723
 31
0.0
  0
LINE
  5
D0
330
1F
100
AcDbEntity
  8
Verdeckt_(ISO)
  6
HIDDEN2
 62
     7
100
AcDbLine
 10
8.0000045941
 20
9.899997277
 30
0.0
 11
8.0000045941
 21
0.9999972961
 31
0.0
  0
LINE
  5
D1
330
1F
100
AcDbEntity
  8
Verdeckt_(ISO)
  6
HIDDEN2
 62
     7
100
AcDbLine
 10
9.0000045941
 20
5.499997277
 30
0.0
 11
9.0000045941
 21
-5.500002723
 31
0.0
  0
LINE
  5
D2
330
1F
100
AcDbEntity
  8
Verdeckt_(ISO)
  6
HIDDEN2
 62
     7
100
AcDbLine
 10
14.0000045941
 20
6.249997277
 30
0.0
 11
14.0000045941
 21
-6.250002723
 31
0.0
  0
LINE
  5
D3
330
1F
100
AcDbEntity
  8
Verdeckt_(ISO)
  6
HIDDEN2
 62
     7
100
AcDbLine
 10
16.0000045941
 20
6.249997277
 30
0.0
 11
16.0000045941
 21
-6.250002723
 31
0.0
  0
LINE
  5
D4
330
1F
100
AcDbEntity
  8
Verdeckt_(ISO)
  6
HIDDEN2
 62
     7
100
AcDbLine
 10
19.0000045941
 20
5.499997277
 30
0.0
 11
19.0000045941
 21
-5.500002723
 31
0.0
  0
LINE
  5
D5
330
1F
100
AcDbEntity
  8
Verdeckt_(ISO)
  6
HIDDEN2
 62
     7
100
AcDbLine
 10
25.0000045941
 20
5.499997277
 30
0.0
 11
25.0000045941
 21
-5.500002723
 31
0.0
  0
ARC
  5
D6
330
1F
100
AcDbEntity
  8
Verdeckt_(ISO)
  6
HIDDEN2
 62
     7
100
AcDbCircle
 10
-4.175818678
 20
7.749997277
 30
0.0
 40
5.0
100
AcDbArc
 50
33.3670129692
 51
90.0
  0
ARC
  5
D7
330
1F
100
AcDbEntity
  8
Verdeckt_(ISO)
  6
HIDDEN2
 62
     7
100
AcDbCircle
 10
-4.175818678
 20
-7.750002723
 30
0.0
 40
5.0
100
AcDbArc
 50
270.0
 51
326.6329870308
  0
LINE
  5
D8
330
1F
100
AcDbEntity
  8
Verdeckt_(ISO)
  6
HIDDEN2
 62
     7
100
AcDbLine
 10
-4.175818678
 20
-12.750002723
 30
0.0
 11
-10.4673674617
 21
-12.750002723
 31
0.0
  0
LINE
  5
D9
330
1F
100
AcDbEntity
  8
Verdeckt_(ISO)
  6
HIDDEN2
 62
     7
100
AcDbLine
 10
-4.175818678
 20
12.749997277
 30
0.0
 11
-10.4673674617
 21
12.749997277
 31
0.0
  0
LINE
  5
DA
330
1F
100
AcDbEntity
  8
Verdeckt_(ISO)
  6
HIDDEN2
 62
     7
100
AcDbLine
 10
-11.997345675
 20
-10.500002723
 30
0.0
 11
-19.1999954059
 21
-10.500002723
 31
0.0
  0
LINE
  5
DB
330
1F
100
AcDbEntity
  8
Verdeckt_(ISO)
  6
HIDDEN2
 62
     7
100
AcDbLine
 10
-11.997345675
 20
10.499997277
 30
0.0
 11
-19.1999954059
 21
10.499997277
 31
0.0
  0
LINE
  5
DC
330
1F
100
AcDbEntity
  8
Verdeckt_(ISO)
  6
HIDDEN2
 62
     7
100
AcDbLine
 10
-19.1999954059
 20
10.499997277
 30
0.0
 11
-19.9999954059
 21
10.9618774923
 31
0.0
  0
LINE
  5
DD
330
1F
100
AcDbEntity
  8
Verdeckt_(ISO)
  6
HIDDEN2
 62
     7
100
AcDbLine
 10
-19.1999954059
 20
-10.500002723
 30
0.0
 11
-19.9999954059
 21
-10.9618829384
 31
0.0
  0
LINE
  5
DE
330
1F
100
AcDbEntity
  8
Verdeckt_(ISO)
  6
HIDDEN2
 62
     7
100
AcDbLine
 10
-11.997345675
 20
10.499997277
 30
0.0
 11
-10.8137776232
 21
12.549997277
 31
0.0
  0
LINE
  5
DF
330
1F
100
AcDbEntity
  8
Verdeckt_(ISO)
  6
HIDDEN2
 62
     7
100
AcDbLine
 10
-11.997345675
 20
-10.500002723
 30
0.0
 11
-10.8137776232
 21
-12.550002723
 31
0.0
  0
ARC
  5
E0
330
1F
100
AcDbEntity
  8
Verdeckt_(ISO)
  6
HIDDEN2
 62
     7
100
AcDbCircle
 10
-10.4673674617
 20
12.349997277
 30
0.0
 40
0.4000000000000001
100
AcDbArc
 50
90.0
 51
150.0
  0
ARC
  5
E1
330
1F
100
AcDbEntity
  8
Verdeckt_(ISO)
  6
HIDDEN2
 62
     7
100
AcDbCircle
 10
-10.4673674617
 20
-12.350002723
 30
0.0
 40
0.4000000000000002
100
AcDbArc
 50
210.0
 51
270.0
  0
LINE
  5
E2
330
1F
100
AcDbEntity
  8
Verdeckt_(ISO)
  6
HIDDEN2
 62
     7
100
AcDbLine
 10
6.2000045941
 20
-10.500002723
 30
0.0
 11
0.0000045941
 21
-10.500002723
 31
0.0
  0
LINE
  5
E3
330
1F
100
AcDbEntity
  8
Verdeckt_(ISO)
  6
HIDDEN2
 62
     7
100
AcDbLine
 10
6.2000045941
 20
10.499997277
 30
0.0
 11
0.0000045941
 21
10.499997277
 31
0.0
  0
ARC
  5
E4
330
1F
100
AcDbEntity
  8
Verdeckt_(ISO)
  6
HIDDEN2
 62
     7
100
AcDbCircle
 10
7.0000045941
 20
9.899997277
 30
0.0
 40
0.9999999999999998
100
AcDbArc
 50
0.0
 51
143.1301023542
  0
ARC
  5
E5
330
1F
100
AcDbEntity
  8
Verdeckt_(ISO)
  6
HIDDEN2
 62
     7
100
AcDbCircle
 10
7.0000045941
 20
-9.900002723
 30
0.0
 40
0.9999999999999998
100
AcDbArc
 50
216.8698976458
 51
0.0
  0
LINE
  5
E6
330
1F
100
AcDbEntity
  8
Verdeckt_(ISO)
  6
HIDDEN2
 62
     7
100
AcDbLine
 10
9.0000045941
 20
-5.500002723
 30
0.0
 11
8.0000045941
 21
-6.500002723
 31
0.0
  0
LINE
  5
E7
330
1F
100
AcDbEntity
  8
Verdeckt_(ISO)
  6
HIDDEN2
 62
     7
100
AcDbLine
 10
9.0000045941
 20
5.499997277
 30
0.0
 11
8.0000045941
 21
6.499997277
 31
0.0
  0
LINE
  5
E8
330
1F
100
AcDbEntity
  8
Verdeckt_(ISO)
  6
HIDDEN2
 62
     7
100
AcDbLine
 10
12.5000045941
 20
-5.500002723
 30
0.0
 11
9.0000045941
 21
-5.500002723
 31
0.0
  0
LINE
  5
E9
330
1F
100
AcDbEntity
  8
Verdeckt_(ISO)
  6
HIDDEN2
 62
     7
100
AcDbLine
 10
12.5000045941
 20
5.499997277
 30
0.0
 11
9.0000045941
 21
5.499997277
 31
0.0
  0
LINE
  5
EA
330
1F
100
AcDbEntity
  8
Verdeckt_(ISO)
  6
HIDDEN2
 62
     7
100
AcDbLine
 10
16.0000045941
 20
-6.250002723
 30
0.0
 11
14.0000045941
 21
-6.250002723
 31
0.0
  0
LINE
  5
EB
330
1F
100
AcDbEntity
  8
Verdeckt_(ISO)
  6
HIDDEN2
 62
     7
100
AcDbLine
 10
16.0000045941
 20
6.249997277
 30
0.0
 11
14.0000045941
 21
6.249997277
 31
0.0
  0
LINE
  5
EC
330
1F
100
AcDbEntity
  8
Verdeckt_(ISO)
  6
HIDDEN2
 62
     7
100
AcDbLine
 10
19.0000045941
 20
-2.500002723
 30
0.0
 11
16.0000045941
 21
-2.500002723
 31
0.0
  0
LINE
  5
ED
330
1F
100
AcDbEntity
  8
Verdeckt_(ISO)
  6
HIDDEN2
 62
     7
100
AcDbLine
 10
19.0000045941
 20
2.499997277
 30
0.0
 11
16.0000045941
 21
2.499997277
 31
0.0
  0
LINE
  5
EE
330
1F
100
AcDbEntity
  8
Verdeckt_(ISO)
  6
HIDDEN2
 62
     7
100
AcDbLine
 10
25.0000045941
 20
-5.500002723
 30
0.0
 11
19.0000045941
 21
-5.500002723
 31
0.0
  0
LINE
  5
EF
330
1F
100
AcDbEntity
  8
Verdeckt_(ISO)
  6
HIDDEN2
 62
     7
100
AcDbLine
 10
25.0000045941
 20
5.499997277
 30
0.0
 11
19.0000045941
 21
5.499997277
 31
0.0
  0
LINE
  5
F0
330
1F
100
AcDbEntity
  8
Verdeckt_(ISO)
  6
HIDDEN2
 62
     7
100
AcDbLine
 10
59.0000045941
 20
-5.000002723
 30
0.0
 11
25.0000045941
 21
-5.000002723
 31
0.0
  0
LINE
  5
F1
330
1F
100
AcDbEntity
  8
Verdeckt_(ISO)
  6
HIDDEN2
 62
     7
100
AcDbLine
 10
59.0000045941
 20
4.999997277
 30
0.0
 11
44.7500045941
 21
4.999997277
 31
0.0
  0
LINE
  5
F2
330
1F
100
AcDbEntity
  8
Verdeckt_(ISO)
  6
HIDDEN2
 62
     7
100
AcDbLine
 10
36.2500045941
 20
4.999997277
 30
0.0
 11
25.0000045941
 21
4.999997277
 31
0.0
  0
ARC
  5
F3
330
1F
100
AcDbEntity
  8
Verdeckt_(ISO)
  6
HIDDEN2
 62
     7
100
AcDbCircle
 10
59.0000045941
 20
5.999997277
 30
0.0
 40
0.9999999999999927
100
AcDbArc
 50
270.0
 51
0.0
  0
ARC
  5
F4
330
1F
100
AcDbEntity
  8
Verdeckt_(ISO)
  6
HIDDEN2
 62
     7
100
AcDbCircle
 10
59.0000045941
 20
-6.000002723
 30
0.0
 40
0.9999999999999927
100
AcDbArc
 50
0.0
 51
90.0
  0
LINE
  5
F5
330
1F
100
AcDbEntity
  8
Verdeckt_(ISO)
  6
HIDDEN2
 62
     7
100
AcDbLine
 10
0.1912636344
 20
-15.3851996834
 30
0.0
 11
0.0000045941
 21
-16.285002723
 31
0.0
  0
LINE
  5
F6
330
1F
100
AcDbEntity
  8
Verdeckt_(ISO)
  6
HIDDEN2
 62
     7
100
AcDbLine
 10
0.1912636344
 20
15.3851942373
 30
0.0
 11
0.0000045941
 21
16.284997277
 31
0.0
  0
ARC
  5
F7
330
1F
100
AcDbEntity
  8
Verdeckt_(ISO)
  6
HIDDEN2
 62
     7
100
AcDbCircle
 10
-0.1999954059
 20
15.302029561
 30
0.0
 40
0.4000000000000002
100
AcDbArc
 50
0.0
 51
12.0
  0
ARC
  5
F8
330
1F
100
AcDbEntity
  8
Verdeckt_(ISO)
  6
HIDDEN2
 62
     7
100
AcDbCircle
 10
-0.1999954059
 20
15.302029561
 30
0.0
 40
0.4000000000000002
100
AcDbArc
 50
300.0
 51
0.0
  0
ARC
  5
F9
330
1F
100
AcDbEntity
  8
Verdeckt_(ISO)
  6
HIDDEN2
 62
     7
100
AcDbCircle
 10
-0.1999954059
 20
-15.302035007
 30
0.0
 40
0.4000000000000002
100
AcDbArc
 50
0.0
 51
60.0
  0
ARC
  5
FA
330
1F
100
AcDbEntity
  8
Verdeckt_(ISO)
  6
HIDDEN2
 62
     7
100
AcDbCircle
 10
-0.1999954059
 20
-15.302035007
 30
0.0
 40
0.4000000000000003
100
AcDbArc
 50
348.0
 51
0.0
  0
LINE
  5
FB
330
1F
100
AcDbEntity
  8
Verdeckt_(ISO)
  6
HIDDEN2
 62
     7
100
AcDbLine
 10
0.2000045941
 20
-15.302035007
 30
0.0
 11
0.2000045941
 21
15.302029561
 31
0.0
  0
LINE
  5
FC
330
1F
100
AcDbEntity
  8
Sichtbar_(ISO)
  6
Continuous
 62
     7
100
AcDbLine
 10
18.0207305363
 20
19.999997277
 30
0.0
 11
18.0207305363
 21
6.0274446841
 31
0.0
  0
LINE
  5
FD
330
1F
100
AcDbEntity
  8
Sichtbar_(ISO)
  6
Continuous
 62
     7
100
AcDbLine
 10
18.0207305363
 20
-6.0274501302
 30
0.0
 11
18.0207305363
 21
-20.000002723
 31
0.0
  0
LINE
  5
FE
330
1F
100
AcDbEntity
  8
Sichtbar_(ISO)
  6
Continuous
 62
     7
100
AcDbLine
 10
-2.5999954059
 20
15.0736356864
 30
0.0
 11
-2.5999954059
 21
-15.0736411325
 31
0.0
  0
LINE
  5
FF
330
1F
100
AcDbEntity
  8
Sichtbar_(ISO)
  6
Continuous
 62
     7
100
AcDbLine
 10
17.0000045941
 20
-5.9816625833
 30
0.0
 11
17.0000045941
 21
-18.2320535306
 31
0.0
  0
LINE
  5
100
330
1F
100
AcDbEntity
  8
Sichtbar_(ISO)
  6
Continuous
 62
     7
100
AcDbLine
 10
17.0000045941
 20
18.2320480845
 30
0.0
 11
17.0000045941
 21
5.9816571372
 31
0.0
  0
LINE
  5
101
330
1F
100
AcDbEntity
  8
Sichtbar_(ISO)
  6
Continuous
 62
     7
100
AcDbLine
 10
13.979278652
 20
-6.0274501302
 30
0.0
 11
13.979278652
 21
-20.000002723
 31
0.0
  0
LINE
  5
102
330
1F
100
AcDbEntity
  8
Sichtbar_(ISO)
  6
Continuous
 62
     7
100
AcDbLine
 10
13.979278652
 20
19.999997277
 30
0.0
 11
13.979278652
 21
6.0274446841
 31
0.0
  0
LINE
  5
103
330
1F
100
AcDbEntity
  8
Sichtbar_(ISO)
  6
Continuous
 62
     7
100
AcDbLine
 10
0.7000045941
 20
19.999997277
 30
0.0
 11
0.7000045941
 21
-20.000002723
 31
0.0
  0
LINE
  5
104
330
1F
100
AcDbEntity
  8
Sichtbar_(ISO)
  6
Continuous
 62
     7
100
AcDbLine
 10
15.0000045941
 20
18.2320480845
 30
0.0
 11
15.0000045941
 21
5.9816571372
 31
0.0
  0
LINE
  5
105
330
1F
100
AcDbEntity
  8
Sichtbar_(ISO)
  6
Continuous
 62
     7
100
AcDbLine
 10
15.0000045941
 20
-5.9816625833
 30
0.0
 11
15.0000045941
 21
-18.2320535306
 31
0.0
  0
LINE
  5
106
330
1F
100
AcDbEntity
  8
Sichtbar_(ISO)
  6
Continuous
 62
     7
100
AcDbLine
 10
60.0000045941
 20
10.9758567554
 30
0.0
 11
60.0000045941
 21
-10.9758622014
 31
0.0
  0
LINE
  5
107
330
1F
100
AcDbEntity
  8
Sichtbar_(ISO)
  6
Continuous
 62
     7
100
AcDbLine
 10
0.0000045941
 20
19.299997277
 30
0.0
 11
0.0000045941
 21
-19.300002723
 31
0.0
  0
LINE
  5
108
330
1F
100
AcDbEntity
  8
Sichtbar_(ISO)
  6
Continuous
 62
     7
100
AcDbLine
 10
33.4579878376
 20
-16.500002723
 30
0.0
 11
20.5000045941
 21
-16.500002723
 31
0.0
  0
LINE
  5
109
330
1F
100
AcDbEntity
  8
Sichtbar_(ISO)
  6
Continuous
 62
     7
100
AcDbLine
 10
34.6006638757
 20
16.499997277
 30
0.0
 11
20.5000045941
 21
16.499997277
 31
0.0
  0
ARC
  5
10A
330
1F
100
AcDbEntity
  8
Sichtbar_(ISO)
  6
Continuous
 62
     7
100
AcDbCircle
 10
34.6006638757
 20
16.899997277
 30
0.0
 40
0.4000000000000001
100
AcDbArc
 50
270.0
 51
341.1534214778
  0
LINE
  5
10B
330
1F
100
AcDbEntity
  8
Sichtbar_(ISO)
  6
Continuous
 62
     7
100
AcDbLine
 10
19.0000045941
 20
19.999997277
 30
0.0
 11
18.0207305363
 21
19.999997277
 31
0.0
  0
LINE
  5
10C
330
1F
100
AcDbEntity
  8
Sichtbar_(ISO)
  6
Continuous
 62
     7
100
AcDbLine
 10
19.0000045941
 20
-20.000002723
 30
0.0
 11
18.0207305363
 21
-20.000002723
 31
0.0
  0
LINE
  5
10D
330
1F
100
AcDbEntity
  8
Sichtbar_(ISO)
  6
Continuous
 62
     7
100
AcDbLine
 10
-18.9550351274
 20
14.2542667776
 30
0.0
 11
-2.5999954059
 21
15.0736356864
 31
0.0
  0
LINE
  5
10E
330
1F
100
AcDbEntity
  8
Sichtbar_(ISO)
  6
Continuous
 62
     7
100
AcDbLine
 10
-18.9550351274
 20
-14.2542722237
 30
0.0
 11
-2.5999954059
 21
-15.0736411325
 31
0.0
  0
ARC
  5
10F
330
1F
100
AcDbEntity
  8
Sichtbar_(ISO)
  6
Continuous
 62
     7
100
AcDbCircle
 10
20.5000045941
 20
16.999997277
 30
0.0
 40
0.5
100
AcDbArc
 50
180.0
 51
270.0
  0
ARC
  5
110
330
1F
100
AcDbEntity
  8
Sichtbar_(ISO)
  6
Continuous
 62
     7
100
AcDbCircle
 10
20.5000045941
 20
-17.000002723
 30
0.0
 40
0.5
100
AcDbArc
 50
90.0
 51
180.0
  0
ARC
  5
111
330
1F
100
AcDbEntity
  8
Sichtbar_(ISO)
  6
Continuous
 62
     7
100
AcDbCircle
 10
16.8000045941
 20
-17.600002723
 30
0.0
 40
0.2
100
AcDbArc
 50
0.0
 51
90.0
  0
LINE
  5
112
330
1F
100
AcDbEntity
  8
Sichtbar_(ISO)
  6
Continuous
 62
     7
100
AcDbLine
 10
17.0000045941
 20
18.2320480845
 30
0.0
 11
18.0207305363
 21
19.999997277
 31
0.0
  0
ARC
  5
113
330
1F
100
AcDbEntity
  8
Sichtbar_(ISO)
  6
Continuous
 62
     7
100
AcDbCircle
 10
15.2000045941
 20
-17.600002723
 30
0.0
 40
0.2
100
AcDbArc
 50
90.0
 51
180.0
  0
LINE
  5
114
330
1F
100
AcDbEntity
  8
Sichtbar_(ISO)
  6
Continuous
 62
     7
100
AcDbLine
 10
17.0000045941
 20
-18.2320535306
 30
0.0
 11
18.0207305363
 21
-20.000002723
 31
0.0
  0
LINE
  5
115
330
1F
100
AcDbEntity
  8
Sichtbar_(ISO)
  6
Continuous
 62
     7
100
AcDbLine
 10
13.979278652
 20
-20.000002723
 30
0.0
 11
12.8250045941
 21
-20.000002723
 31
0.0
  0
LINE
  5
116
330
1F
100
AcDbEntity
  8
Sichtbar_(ISO)
  6
Continuous
 62
     7
100
AcDbLine
 10
1.1750045941
 20
-20.000002723
 30
0.0
 11
0.7000045941
 21
-20.000002723
 31
0.0
  0
LINE
  5
117
330
1F
100
AcDbEntity
  8
Sichtbar_(ISO)
  6
Continuous
 62
     7
100
AcDbLine
 10
13.979278652
 20
19.999997277
 30
0.0
 11
10.8650468407
 21
19.999997277
 31
0.0
  0
LINE
  5
118
330
1F
100
AcDbEntity
  8
Sichtbar_(ISO)
  6
Continuous
 62
     7
100
AcDbLine
 10
3.1349623476
 20
19.999997277
 30
0.0
 11
0.7000045941
 21
19.999997277
 31
0.0
  0
LINE
  5
119
330
1F
100
AcDbEntity
  8
Sichtbar_(ISO)
  6
Continuous
 62
     7
100
AcDbLine
 10
15.0000045941
 20
18.2320480845
 30
0.0
 11
13.979278652
 21
19.999997277
 31
0.0
  0
LINE
  5
11A
330
1F
100
AcDbEntity
  8
Sichtbar_(ISO)
  6
Continuous
 62
     7
100
AcDbLine
 10
15.0000045941
 20
-18.2320535306
 30
0.0
 11
13.979278652
 21
-20.000002723
 31
0.0
  0
ARC
  5
11B
330
1F
100
AcDbEntity
  8
Sichtbar_(ISO)
  6
Continuous
 62
     7
100
AcDbCircle
 10
15.2000045941
 20
17.599997277
 30
0.0
 40
0.2
100
AcDbArc
 50
180.0
 51
270.0
  0
LINE
  5
11C
330
1F
100
AcDbEntity
  8
Sichtbar_(ISO)
  6
Continuous
 62
     7
100
AcDbLine
 10
16.8000045941
 20
-17.400002723
 30
0.0
 11
15.2000045941
 21
-17.400002723
 31
0.0
  0
LINE
  5
11D
330
1F
100
AcDbEntity
  8
Sichtbar_(ISO)
  6
Continuous
 62
     7
100
AcDbLine
 10
16.8000045941
 20
17.399997277
 30
0.0
 11
15.2000045941
 21
17.399997277
 31
0.0
  0
ARC
  5
11E
330
1F
100
AcDbEntity
  8
Sichtbar_(ISO)
  6
Continuous
 62
     7
100
AcDbCircle
 10
16.8000045941
 20
17.599997277
 30
0.0
 40
0.2
100
AcDbArc
 50
270.0
 51
0.0
  0
ARC
  5
11F
330
1F
100
AcDbEntity
  8
Sichtbar_(ISO)
  6
Continuous
 62
     7
100
AcDbCircle
 10
58.0000045941
 20
10.9758567554
 30
0.0
 40
1.99999999999992
100
AcDbArc
 50
0.0
 51
65.0
  0
ARC
  5
120
330
1F
100
AcDbEntity
  8
Sichtbar_(ISO)
  6
Continuous
 62
     7
100
AcDbCircle
 10
58.0000045941
 20
-10.9758622014
 30
0.0
 40
1.999999999999919
100
AcDbArc
 50
295.0
 51
360.0
  0
LINE
  5
121
330
1F
100
AcDbEntity
  8
Sichtbar_(ISO)
  6
Continuous
 62
     7
100
AcDbLine
 10
58.8452411176
 20
-12.7884777755
 30
0.0
 11
49.6793171898
 21
-17.0626182971
 31
0.0
  0
LINE
  5
122
330
1F
100
AcDbEntity
  8
Sichtbar_(ISO)
  6
Continuous
 62
     7
100
AcDbLine
 10
58.8452411176
 20
12.7884723294
 30
0.0
 11
49.6793171898
 21
17.062612851
 31
0.0
  0
ARC
  5
123
330
1F
100
AcDbEntity
  8
Sichtbar_(ISO)
  6
Continuous
 62
     7
100
AcDbCircle
 10
48.8340806663
 20
15.249997277
 30
0.0
 40
1.999999999999986
100
AcDbArc
 50
65.0
 51
90.0
  0
ARC
  5
124
330
1F
100
AcDbEntity
  8
Sichtbar_(ISO)
  6
Continuous
 62
     7
100
AcDbCircle
 10
48.8340806663
 20
-15.250002723
 30
0.0
 40
1.999999999999986
100
AcDbArc
 50
270.0
 51
295.0
  0
LINE
  5
125
330
1F
100
AcDbEntity
  8
Sichtbar_(ISO)
  6
Continuous
 62
     7
100
AcDbLine
 10
48.8340806663
 20
-17.250002723
 30
0.0
 11
48.2251259524
 21
-17.250002723
 31
0.0
  0
LINE
  5
126
330
1F
100
AcDbEntity
  8
Sichtbar_(ISO)
  6
Continuous
 62
     7
100
AcDbLine
 10
48.8340806663
 20
17.249997277
 30
0.0
 11
46.5000045941
 21
17.249997277
 31
0.0
  0
LINE
  5
127
330
1F
100
AcDbEntity
  8
Sichtbar_(ISO)
  6
Continuous
 62
     7
100
AcDbLine
 10
0.0000045941
 20
19.299997277
 30
0.0
 11
0.7000045941
 21
19.999997277
 31
0.0
  0
LINE
  5
128
330
1F
100
AcDbEntity
  8
Sichtbar_(ISO)
  6
Continuous
 62
     7
100
AcDbLine
 10
0.0000045941
 20
-19.300002723
 30
0.0
 11
0.7000045941
 21
-20.000002723
 31
0.0
  0
ARC
  5
129
330
1F
100
AcDbEntity
  8
Sichtbar_(ISO)
  6
Continuous
 62
     7
100
AcDbCircle
 10
-0.1999954059
 20
15.302029561
 30
0.0
 40
0.4000000000000002
100
AcDbArc
 50
270.0
 51
300.0
  0
ARC
  5
12A
330
1F
100
AcDbEntity
  8
Sichtbar_(ISO)
  6
Continuous
 62
     7
100
AcDbCircle
 10
-0.1999954059
 20
-15.302035007
 30
0.0
 40
0.4000000000000002
100
AcDbArc
 50
60.0
 51
90.0
  0
LINE
  5
12B
330
1F
100
AcDbEntity
  8
Sichtbar_(ISO)
  6
Continuous
 62
     7
100
AcDbLine
 10
-0.1999954059
 20
-14.902035007
 30
0.0
 11
-1.9068916278
 21
-14.902035007
 31
0.0
  0
LINE
  5
12C
330
1F
100
AcDbEntity
  8
Sichtbar_(ISO)
  6
Continuous
 62
     7
100
AcDbLine
 10
-0.1999954059
 20
14.902029561
 30
0.0
 11
-1.9068916278
 21
14.902029561
 31
0.0
  0
ARC
  5
12D
330
1F
100
AcDbEntity
  8
Sichtbar_(ISO)
  6
Continuous
 62
     7
100
AcDbCircle
 10
-1.9068916278
 20
15.302029561
 30
0.0
 40
0.4000000000000001
100
AcDbArc
 50
255.0
 51
270.0
  0
ARC
  5
12E
330
1F
100
AcDbEntity
  8
Sichtbar_(ISO)
  6
Continuous
 62
     7
100
AcDbCircle
 10
-1.9068916278
 20
-15.302035007
 30
0.0
 40
0.4000000000000001
100
AcDbArc
 50
90.0
 51
105.0
  0
LINE
  5
12F
330
1F
100
AcDbEntity
  8
Sichtbar_(ISO)
  6
Continuous
 62
     7
100
AcDbLine
 10
-2.0104192458
 20
-14.9156646765
 30
0.0
 11
-2.5999954059
 21
-15.0736411325
 31
0.0
  0
LINE
  5
130
330
1F
100
AcDbEntity
  8
Sichtbar_(ISO)
  6
Continuous
 62
     7
100
AcDbLine
 10
-2.0104192458
 20
14.9156592305
 30
0.0
 11
-2.5999954059
 21
15.0736356864
 31
0.0
  0
ARC
  5
131
330
1F
100
AcDbEntity
  8
Verdeckt_(ISO)
  6
HIDDEN2
 62
     7
100
AcDbCircle
 10
12.4721405491
 20
16.499997277
 30
0.0
 40
4.500000000000001
100
AcDbArc
 50
186.3793702084
 51
270.0
  0
LINE
  5
132
330
1F
100
AcDbEntity
  8
Sichtbar_(ISO)
  6
Continuous
 62
     7
100
AcDbLine
 10
-19.9999954059
 20
-4.825002723
 30
0.0
 11
-19.9999954059
 21
-5.2924001605
 31
0.0
  0
SPLINE
  5
133
330
1F
100
AcDbEntity
  8
Sichtbar_(ISO)
  6
Continuous
 62
     7
100
AcDbSpline
210
0.0
220
0.0
230
1.0
 70
     8
 71
     3
 72
    14
 73
    10
 74
     0
 42
0.000000001
 43
0.0000000001
 40
0.0
 40
0.0
 40
0.0
 40
0.0
 40
0.3038676250545523
 40
0.3038676250545523
 40
0.6077352501091039
 40
0.6077352501091039
 40
0.8908858686645608
 40
0.8908858686645608
 40
1.0
 40
1.0
 40
1.0
 40
1.0
 10
-19.19999540585039
 20
-4.025002723028718
 30
0.0
 10
-19.19999540585039
 20
-4.025002723028716
 30
0.0
 10
-19.20918138885479
 20
-4.088559315723186
 30
0.0
 10
-19.24618281920527
 20
-4.339742751379009
 30
0.0
 10
-19.27407008556389
 20
-4.527364403454074
 30
0.0
 10
-19.3372599566285
 20
-4.940708176426656
 30
0.0
 10
-19.37538639995894
 20
-5.18547982855328
 30
0.0
 10
-19.4332899473116
 20
-5.544266888618059
 30
0.0
 10
-19.44993580512213
 20
-5.646176908744353
 30
0.0
 10
-19.46678588673828
 20
-5.747972965551108
 30
0.0
  0
LINE
  5
134
330
1F
100
AcDbEntity
  8
Sichtbar_(ISO)
  6
Continuous
 62
     7
100
AcDbLine
 10
-19.9999954059
 20
-4.825002723
 30
0.0
 11
-19.1999954059
 21
-4.025002723
 31
0.0
  0
SPLINE
  5
135
330
1F
100
AcDbEntity
  8
Sichtbar_(ISO)
  6
Continuous
 62
     7
100
AcDbSpline
210
0.0
220
0.0
230
1.0
 70
     8
 71
     3
 72
    18
 73
    14
 74
     0
 42
0.000000001
 43
0.0000000001
 40
0.0
 40
0.0
 40
0.0
 40
0.0
 40
0.0052750729638541
 40
0.0052750729638541
 40
0.0293888467085266
 40
0.0293888467085266
 40
0.0776163941978576
 40
0.0776163941978576
 40
0.2960436963652552
 40
0.2960436963652552
 40
0.5144709985326448
 40
0.5144709985326448
 40
1.0
 40
1.0
 40
1.0
 40
1.0
 10
-16.75723879262403
 20
-6.758504862539064
 30
0.0
 10
-16.75856395517786
 20
-6.755328397247827
 30
0.0
 10
-16.76004409955852
 20
-6.752192545864462
 30
0.0
 10
-16.76910551726986
 20
-6.734949147893434
 30
0.0
 10
-16.77944729474048
 20
-6.72160395434919
 30
0.0
 10
-16.81620433615439
 20
-6.684014204272183
 30
0.0
 10
-16.84780264640502
 20
-6.662014502559925
 30
0.0
 10
-17.01602715959557
 20
-6.561491009334192
 30
0.0
 10
-17.18416415296041
 20
-6.509224591478978
 30
0.0
 10
-17.52604098586115
 20
-6.411218587774341
 30
0.0
 10
-17.70133545015671
 20
-6.370171832727846
 30
0.0
 10
-18.21838740470309
 20
-6.25843920992467
 30
0.0
 10
-18.58363948458966
 20
-6.195101824424723
 30
0.0
 10
-18.95503512788853
 20
-6.136671069257081
 30
0.0
  0
LINE
  5
136
330
1F
100
AcDbEntity
  8
Sichtbar_(ISO)
  6
Continuous
 62
     7
100
AcDbLine
 10
-19.1999954059
 20
-4.025002723
 30
0.0
 11
-14.9999954059
 21
-4.025002723
 31
0.0
  0
SPLINE
  5
137
330
1F
100
AcDbEntity
  8
Sichtbar_(ISO)
  6
Continuous
 62
     7
100
AcDbSpline
210
0.0
220
0.0
230
1.0
 70
     8
 71
     3
 72
    18
 73
    14
 74
     0
 42
0.000000001
 43
0.0000000001
 40
0.0
 40
0.0
 40
0.0
 40
0.0
 40
0.485529001467337
 40
0.485529001467337
 40
0.7039563036347383
 40
0.7039563036347383
 40
0.9223836058021435
 40
0.9223836058021435
 40
0.9706111532914813
 40
0.9706111532914813
 40
0.9947249270361497
 40
0.9947249270361497
 40
1.0
 40
1.0
 40
1.0
 40
1.0
 10
-18.95503512788853
 20
6.136665623199656
 30
0.0
 10
-18.58363948458968
 20
6.195096378367297
 30
0.0
 10
-18.21838740470311
 20
6.258433763867237
 30
0.0
 10
-17.70133545015675
 20
6.37016638667041
 30
0.0
 10
-17.52604098586119
 20
6.411213141716904
 30
0.0
 10
-17.18416415296046
 20
6.509219145421536
 30
0.0
 10
-17.01602715959562
 20
6.561485563276757
 30
0.0
 10
-16.84780264640507
 20
6.662009056502489
 30
0.0
 10
-16.81620433615443
 20
6.684008758214751
 30
0.0
 10
-16.77944729474052
 20
6.721598508291758
 30
0.0
 10
-16.76910551726991
 20
6.734943701835999
 30
0.0
 10
-16.76004409955856
 20
6.752187099807026
 30
0.0
 10
-16.75856395517791
 20
6.755322951190393
 30
0.0
 10
-16.75723879262409
 20
6.758499416481628
 30
0.0
  0
SPLINE
  5
138
330
1F
100
AcDbEntity
  8
Sichtbar_(ISO)
  6
Continuous
 62
     7
100
AcDbSpline
210
0.0
220
0.0
230
1.0
 70
    12
 71
     2
 72
     6
 73
     3
 74
     0
 42
0.000000001
 43
0.0000000001
 40
0.0
 40
0.0
 40
0.0
 40
1.0
 40
1.0
 40
1.0
 10
-16.75723879262409
 20
6.75849941648163
 30
0.0
 41
1.004808657661071
 10
-16.50754906071922
 20
7.357015247345014
 30
0.0
 41
1.004371292958704
 10
-14.99999540586022
 20
7.959199241453824
 30
0.0
 41
1.001738680692382
  0
SPLINE
  5
139
330
1F
100
AcDbEntity
  8
Sichtbar_(ISO)
  6
Continuous
 62
     7
100
AcDbSpline
210
0.0
220
0.0
230
1.0
 70
    12
 71
     2
 72
     6
 73
     3
 74
     0
 42
0.000000001
 43
0.0000000001
 40
0.0
 40
0.0
 40
0.0
 40
1.0
 40
1.0
 40
1.0
 10
-14.99999540584242
 20
-7.959204687518347
 30
0.0
 41
1.001738680692352
 10
-16.50754906071772
 20
-7.357020693405963
 30
0.0
 41
1.004371292958704
 10
-16.75723879262404
 20
-6.758504862539066
 30
0.0
 41
1.004808657661073
  0
LINE
  5
13A
330
1F
100
AcDbEntity
  8
Sichtbar_(ISO)
  6
Continuous
 62
     7
100
AcDbLine
 10
-19.1999954059
 20
4.024997277
 30
0.0
 11
-14.9999954059
 21
4.024997277
 31
0.0
  0
SPLINE
  5
13B
330
1F
100
AcDbEntity
  8
Verdeckt_(ISO)
  6
HIDDEN2
 62
     7
100
AcDbSpline
210
0.0
220
0.0
230
1.0
 70
     8
 71
     3
 72
    18
 73
    14
 74
     0
 42
0.000000001
 43
0.0000000001
 40
0.0
 40
0.0
 40
0.0
 40
0.0
 40
0.1734017919877417
 40
0.1734017919877417
 40
0.517923706628676
 40
0.517923706628676
 40
0.7479065312252571
 40
0.7479065312252571
 40
0.8480198196604262
 40
0.8480198196604262
 40
0.9353886164666565
 40
0.9353886164666565
 40
1.0
 40
1.0
 40
1.0
 40
1.0
 10
-16.49999540585038
 20
-4.665013527143181
 30
0.0
 10
-16.49997977943667
 20
-4.840347697273209
 30
0.0
 10
-16.52524632845506
 20
-5.024026628291196
 30
0.0
 10
-16.68236988632757
 20
-5.586336931212778
 30
0.0
 10
-16.86427180574558
 20
-5.878626506383967
 30
0.0
 10
-17.07223677764557
 20
-6.164985504360452
 30
0.0
 10
-17.17108501515491
 20
-6.280725797755971
 30
0.0
 10
-17.30148161511652
 20
-6.381568197163884
 30
0.0
 10
-17.33466933769535
 20
-6.400027467359757
 30
0.0
 10
-17.38935021859562
 20
-6.421372508779174
 30
0.0
 10
-17.41553461723234
 20
-6.427273317305162
 30
0.0
 10
-17.46246839605393
 20
-6.428129692972313
 30
0.0
 10
-17.48154701160999
 20
-6.42555239063339
 30
0.0
 10
-17.49999540584923
 20
-6.420760932751516
 30
0.0
  0
SPLINE
  5
13C
330
1F
100
AcDbEntity
  8
Verdeckt_(ISO)
  6
HIDDEN2
 62
     7
100
AcDbSpline
210
0.0
220
0.0
230
1.0
 70
     8
 71
     3
 72
    20
 73
    16
 74
     0
 42
0.000000001
 43
0.0000000001
 40
0.0
 40
0.0
 40
0.0
 40
0.0
 40
0.0470968622531276
 40
0.0470968622531276
 40
0.1053807494438013
 40
0.1053807494438013
 40
0.1720400418806788
 40
0.1720400418806788
 40
0.2926116044966731
 40
0.2926116044966731
 40
0.6127754035139955
 40
0.6127754035139955
 40
0.9577454196598932
 40
0.9577454196598932
 40
1.0
 40
1.0
 40
1.0
 40
1.0
 10
-17.49999540584927
 20
6.420755486694052
 30
0.0
 10
-17.48222838471726
 20
6.425373341764342
 30
0.0
 10
-17.4637945716372
 20
6.427950378771235
 30
0.0
 10
-17.42062480266742
 20
6.427584172938141
 30
0.0
 10
-17.39722728358228
 20
6.4231492565059
 30
0.0
 10
-17.34777116924648
 20
6.406111335679545
 30
0.0
 10
-17.31896738140538
 20
6.391515052379182
 30
0.0
 10
-17.22772556425286
 20
6.328261825219563
 30
0.0
 10
-17.17114495246419
 20
6.271207497760594
 30
0.0
 10
-17.01334315015089
 20
6.096203649176561
 30
0.0
 10
-16.8693368377201
 20
5.896315335843935
 30
0.0
 10
-16.6167372751118
 20
5.38699699598517
 30
0.0
 10
-16.52257452822714
 20
5.091305695807868
 30
0.0
 10
-16.50115422239267
 20
4.740497905052436
 30
0.0
 10
-16.50000008570746
 20
4.702555838656326
 30
0.0
 10
-16.49999540585038
 20
4.665008081085746
 30
0.0
  0
LINE
  5
13D
330
1F
100
AcDbEntity
  8
Verdeckt_(ISO)
  6
HIDDEN2
 62
     7
100
AcDbLine
 10
-16.4999954059
 20
-3.025002723
 30
0.0
 11
-16.4999954059
 21
-4.6650135271
 31
0.0
  0
LINE
  5
13E
330
1F
100
AcDbEntity
  8
Verdeckt_(ISO)
  6
HIDDEN2
 62
     7
100
AcDbLine
 10
-16.4999954059
 20
4.6650080811
 30
0.0
 11
-16.4999954059
 21
3.024997277
 31
0.0
  0
SPLINE
  5
13F
330
1F
100
AcDbEntity
  8
Verdeckt_(ISO)
  6
HIDDEN2
 62
     7
100
AcDbSpline
210
0.0
220
0.0
230
1.0
 70
     8
 71
     3
 72
    12
 73
     8
 74
     0
 42
0.000000001
 43
0.0000000001
 40
0.0
 40
0.0
 40
0.0
 40
0.0
 40
0.0117434454633509
 40
0.0117434454633509
 40
0.9336088051805878
 40
0.9336088051805878
 40
1.0
 40
1.0
 40
1.0
 40
1.0
 10
-17.49999540585038
 20
-4.204863834139827
 30
0.0
 10
-17.49869224755911
 20
-4.204218945994995
 30
0.0
 10
-17.49738907689643
 20
-4.203574023391365
 30
0.0
 10
-17.39378803115559
 20
-4.152299656675092
 30
0.0
 10
-17.28438573740251
 20
-4.097831768268909
 30
0.0
 10
-17.17472354156828
 20
-4.033791566244581
 30
0.0
 10
-17.1673328770619
 20
-4.029428829927073
 30
0.0
 10
-17.15992338855048
 20
-4.025003336063512
 30
0.0
  0
SPLINE
  5
140
330
1F
100
AcDbEntity
  8
Verdeckt_(ISO)
  6
HIDDEN2
 62
     7
100
AcDbSpline
210
0.0
220
0.0
230
1.0
 70
     8
 71
     3
 72
    14
 73
    10
 74
     0
 42
0.000000001
 43
0.0000000001
 40
0.0
 40
0.0
 40
0.0
 40
0.0
 40
0.2158394936520594
 40
0.2158394936520594
 40
0.6618154449041044
 40
0.6618154449041044
 40
0.9957461273056676
 40
0.9957461273056676
 40
1.0
 40
1.0
 40
1.0
 40
1.0
 10
-14.12512799293515
 20
-3.509365200744528
 30
0.0
 10
-14.16718739118864
 20
-3.585374001872851
 30
0.0
 10
-14.21866465740397
 20
-3.656278282300251
 30
0.0
 10
-14.40075649717304
 20
-3.857721290227175
 30
0.0
 10
-14.54547205627907
 20
-3.958311669395007
 30
0.0
 10
-14.78438573742017
 20
-4.097831768279218
 30
0.0
 10
-14.89378802623259
 20
-4.152299654232518
 30
0.0
 10
-14.99738907733241
 20
-4.203574023607459
 30
0.0
 10
-14.99869224712278
 20
-4.204218945779068
 30
0.0
 10
-14.99999540585039
 20
-4.204863834139829
 30
0.0
  0
SPLINE
  5
141
330
1F
100
AcDbEntity
  8
Verdeckt_(ISO)
  6
HIDDEN2
 62
     7
100
AcDbSpline
210
0.0
220
0.0
230
1.0
 70
     8
 71
     3
 72
    14
 73
    10
 74
     0
 42
0.000000001
 43
0.0000000001
 40
0.0
 40
0.0
 40
0.0
 40
0.0
 40
0.0042538711785868
 40
0.0042538711785868
 40
0.3381845540416264
 40
0.3381845540416264
 40
0.7841605060041642
 40
0.7841605060041642
 40
1.0
 40
1.0
 40
1.0
 40
1.0
 10
-14.99999540585039
 20
4.204858388082392
 30
0.0
 10
-14.99869224766657
 20
4.204213499990728
 30
0.0
 10
-14.99738907678933
 20
4.203568577280845
 30
0.0
 10
-14.89378803232455
 20
4.152294211197616
 30
0.0
 10
-14.7843857373985
 20
4.097826322209123
 30
0.0
 10
-14.54547205627916
 20
3.958306223337619
 30
0.0
 10
-14.40075649717309
 20
3.857715844169788
 30
0.0
 10
-14.21866465740397
 20
3.656272836242822
 30
0.0
 10
-14.16718739118864
 20
3.585368555815421
 30
0.0
 10
-14.12512799293516
 20
3.509359754687091
 30
0.0
  0
SPLINE
  5
142
330
1F
100
AcDbEntity
  8
Verdeckt_(ISO)
  6
HIDDEN2
 62
     7
100
AcDbSpline
210
0.0
220
0.0
230
1.0
 70
     8
 71
     3
 72
    12
 73
     8
 74
     0
 42
0.000000001
 43
0.0000000001
 40
0.0
 40
0.0
 40
0.0
 40
0.0
 40
0.0663911947198043
 40
0.0663911947198043
 40
0.988256553119875
 40
0.988256553119875
 40
1.0
 40
1.0
 40
1.0
 40
1.0
 10
-17.15992338855049
 20
4.024997890006079
 30
0.0
 10
-17.16733287706192
 20
4.029423383869642
 30
0.0
 10
-17.17472354156828
 20
4.033786120187149
 30
0.0
 10
-17.28438573740983
 20
4.097826322215746
 30
0.0
 10
-17.3937880291034
 20
4.152294209599443
 30
0.0
 10
-17.4973890770813
 20
4.20356857742556
 30
0.0
 10
-17.49869224737387
 20
4.204213499845892
 30
0.0
 10
-17.49999540585038
 20
4.204858388082392
 30
0.0
  0
SPLINE
  5
143
330
1F
100
AcDbEntity
  8
Sichtbar_(ISO)
  6
Continuous
 62
     7
100
AcDbSpline
210
0.0
220
0.0
230
1.0
 70
     8
 71
     3
 72
    22
 73
    18
 74
     0
 42
0.000000001
 43
0.0000000001
 40
0.0
 40
0.0
 40
0.0
 40
0.0
 40
0.331893560735519
 40
0.331893560735519
 40
0.5851577764610908
 40
0.5851577764610908
 40
0.8384219921866637
 40
0.8384219921866637
 40
0.9017436646135454
 40
0.9017436646135454
 40
0.9334045008269852
 40
0.9334045008269852
 40
0.9650653370404259
 40
0.9650653370404259
 40
0.9968045896934031
 40
0.9968045896934031
 40
1.0
 40
1.0
 40
1.0
 40
1.0
 10
-14.5420976133836
 20
6.808890163078436
 30
0.0
 10
-14.54886509939993
 20
6.961252165404604
 30
0.0
 10
-14.5628166356617
 20
7.116440817240309
 30
0.0
 10
-14.60423288085357
 20
7.380578440436076
 30
0.0
 10
-14.6275472769375
 20
7.491234970306376
 30
0.0
 10
-14.69205029305804
 20
7.700105617749468
 30
0.0
 10
-14.72856626022256
 20
7.799437570801995
 30
0.0
 10
-14.81702399612448
 20
7.906294016685788
 30
0.0
 10
-14.838879786512
 20
7.928107348871177
 30
0.0
 10
-14.87704800934848
 20
7.952236366335177
 30
0.0
 10
-14.89065178416153
 20
7.958880210381639
 30
0.0
 10
-14.91939850797072
 20
7.967867203513283
 30
0.0
 10
-14.93453560753099
 20
7.970222817588286
 30
0.0
 10
-14.96605579851545
 20
7.96935215788679
 30
0.0
 10
-14.9812330039246
 20
7.966148716524452
 30
0.0
 10
-14.99711331245873
 20
7.960327084497922
 30
0.0
 10
-14.99855820906125
 20
7.959773345771387
 30
0.0
 10
-14.99999540585211
 20
7.959199241461157
 30
0.0
  0
SPLINE
  5
144
330
1F
100
AcDbEntity
  8
Sichtbar_(ISO)
  6
Continuous
 62
     7
100
AcDbSpline
210
0.0
220
0.0
230
1.0
 70
     8
 71
     3
 72
    14
 73
    10
 74
     0
 42
0.000000001
 43
0.0000000001
 40
0.0
 40
0.0
 40
0.0
 40
0.0
 40
0.1935957662012733
 40
0.1935957662012733
 40
0.7228996491656434
 40
0.7228996491656434
 40
0.9295213348662145
 40
0.9295213348662145
 40
1.0
 40
1.0
 40
1.0
 40
1.0
 10
-14.00082422949735
 20
4.89204319374411
 30
0.0
 10
-14.00645922605064
 20
5.091660607816306
 30
0.0
 10
-14.04002883209406
 20
5.271978695068845
 30
0.0
 10
-14.17470744408013
 20
5.810455013277602
 30
0.0
 10
-14.344070393159
 20
6.140095039571144
 30
0.0
 10
-14.4873626523854
 20
6.51884353866732
 30
0.0
 10
-14.51720443032418
 20
6.615635564314415
 30
0.0
 10
-14.5372901319011
 20
6.744060955224386
 30
0.0
 10
-14.54063292252477
 20
6.776414599810068
 30
0.0
 10
-14.54209761338361
 20
6.808890163078436
 30
0.0
  0
SPLINE
  5
145
330
1F
100
AcDbEntity
  8
Sichtbar_(ISO)
  6
Continuous
 62
     7
100
AcDbSpline
210
0.0
220
0.0
230
1.0
 70
     8
 71
     3
 72
    16
 73
    12
 74
     0
 42
0.000000001
 43
0.0000000001
 40
0.0
 40
0.0
 40
0.0
 40
0.0
 40
0.0024207433755519
 40
0.0024207433755519
 40
0.1472564919924457
 40
0.1472564919924457
 40
0.471870090631644
 40
0.471870090631644
 40
0.9698645756815275
 40
0.9698645756815275
 40
1.0
 40
1.0
 40
1.0
 40
1.0
 10
-14.54209761338362
 20
-6.808895609135917
 30
0.0
 10
-14.54204513620133
 20
-6.807731624420162
 30
0.0
 10
-14.54199020952693
 20
-6.806567016468648
 30
0.0
 10
-14.53849968431755
 20
-6.735683547856549
 30
0.0
 10
-14.52643697132422
 20
-6.667876176297108
 30
0.0
 10
-14.46834077451896
 20
-6.447345477274879
 30
0.0
 10
-14.39658383029603
 20
-6.285200217531587
 30
0.0
 10
-14.1997474920958
 20
-5.820619710580407
 30
0.0
 10
-14.03437099393402
 20
-5.423843037114977
 30
0.0
 10
-14.00283326568275
 20
-4.945449186282051
 30
0.0
 10
-14.00157230475055
 20
-4.918548895149401
 30
0.0
 10
-14.00082422949767
 20
-4.892048639813012
 30
0.0
  0
SPLINE
  5
146
330
1F
100
AcDbEntity
  8
Sichtbar_(ISO)
  6
Continuous
 62
     7
100
AcDbSpline
210
0.0
220
0.0
230
1.0
 70
     8
 71
     3
 72
    22
 73
    18
 74
     0
 42
0.000000001
 43
0.0000000001
 40
0.0
 40
0.0
 40
0.0
 40
0.0
 40
0.0031954103065915
 40
0.0031954103065915
 40
0.0349346629595627
 40
0.0349346629595627
 40
0.0665954991729978
 40
0.0665954991729978
 40
0.0982563353864338
 40
0.0982563353864338
 40
0.1615780078133034
 40
0.1615780078133034
 40
0.4148422235388852
 40
0.4148422235388852
 40
0.668106439264466
 40
0.668106439264466
 40
1.0
 40
1.0
 40
1.0
 40
1.0
 10
-14.9999954058521
 20
-7.95920468751856
 30
0.0
 10
-14.99855820906126
 20
-7.959778791828822
 30
0.0
 10
-14.99711331245875
 20
-7.960332530555359
 30
0.0
 10
-14.98123300392462
 20
-7.966154162581882
 30
0.0
 10
-14.96605579851544
 20
-7.969357603944186
 30
0.0
 10
-14.934535607531
 20
-7.970228263645681
 30
0.0
 10
-14.91939850797072
 20
-7.967872649570686
 30
0.0
 10
-14.89065178416153
 20
-7.958885656439044
 30
0.0
 10
-14.87704800934848
 20
-7.952241812392593
 30
0.0
 10
-14.83887978651201
 20
-7.928112794928591
 30
0.0
 10
-14.81702399612448
 20
-7.906299462743226
 30
0.0
 10
-14.72856626022256
 20
-7.799443016859438
 30
0.0
 10
-14.69205029305807
 20
-7.700111063806899
 30
0.0
 10
-14.62754727693752
 20
-7.491240416363809
 30
0.0
 10
-14.60423288085357
 20
-7.380583886493513
 30
0.0
 10
-14.56281663566171
 20
-7.116446263297746
 30
0.0
 10
-14.54886509939993
 20
-6.961257611462039
 30
0.0
 10
-14.54209761338361
 20
-6.808895609135871
 30
0.0
  0
SPLINE
  5
147
330
1F
100
AcDbEntity
  8
Sichtbar_(ISO)
  6
Continuous
 62
     7
100
AcDbSpline
210
0.0
220
0.0
230
1.0
 70
     8
 71
     3
 72
    10
 73
     6
 74
     0
 42
0.000000001
 43
0.0000000001
 40
0.0
 40
0.0
 40
0.0
 40
0.0
 40
0.2105524032304308
 40
0.2105524032304308
 40
0.9999999999999999
 40
0.9999999999999999
 40
0.9999999999999999
 40
0.9999999999999999
 10
-16.62512799293522
 20
-3.509365200744662
 30
0.0
 10
-16.60780316635826
 20
-3.477892153448912
 30
0.0
 10
-16.59197567812715
 20
-3.445474168606488
 30
0.0
 10
-16.52575735399555
 20
-3.28783425231452
 30
0.0
 10
-16.49999540585038
 20
-3.152465200635944
 30
0.0
 10
-16.49999540585038
 20
-3.025002723028718
 30
0.0
  0
SPLINE
  5
148
330
1F
100
AcDbEntity
  8
Sichtbar_(ISO)
  6
Continuous
 62
     7
100
AcDbSpline
210
0.0
220
0.0
230
1.0
 70
     8
 71
     3
 72
    10
 73
     6
 74
     0
 42
0.000000001
 43
0.0000000001
 40
0.0
 40
0.0
 40
0.0
 40
0.0
 40
0.6615696258224462
 40
0.6615696258224462
 40
1.0
 40
1.0
 40
1.0
 40
1.0
 10
-17.15992338855048
 20
-4.025003336063512
 30
0.0
 10
-17.02992856688411
 20
-3.947360826099096
 30
0.0
 10
-16.89413962265118
 20
-3.850401230698706
 30
0.0
 10
-16.71866465740396
 20
-3.656278282300254
 30
0.0
 10
-16.66718739118863
 20
-3.585374001872855
 30
0.0
 10
-16.62512799293515
 20
-3.509365200744531
 30
0.0
  0
SPLINE
  5
149
330
1F
100
AcDbEntity
  8
Sichtbar_(ISO)
  6
Continuous
 62
     7
100
AcDbSpline
210
0.0
220
0.0
230
1.0
 70
     8
 71
     3
 72
    10
 73
     6
 74
     0
 42
0.000000001
 43
0.0000000001
 40
0.0
 40
0.0
 40
0.0
 40
0.0
 40
0.3384303741775361
 40
0.3384303741775361
 40
1.0
 40
1.0
 40
1.0
 40
1.0
 10
-16.62512799293515
 20
3.509359754687096
 30
0.0
 10
-16.66718739118863
 20
3.585368555815418
 30
0.0
 10
-16.71866465740396
 20
3.656272836242818
 30
0.0
 10
-16.89413962265119
 20
3.850395784641285
 30
0.0
 10
-17.02992856688414
 20
3.947355380041674
 30
0.0
 10
-17.15992338855049
 20
4.024997890006079
 30
0.0
  0
SPLINE
  5
14A
330
1F
100
AcDbEntity
  8
Sichtbar_(ISO)
  6
Continuous
 62
     7
100
AcDbSpline
210
0.0
220
0.0
230
1.0
 70
     8
 71
     3
 72
    10
 73
     6
 74
     0
 42
0.000000001
 43
0.0000000001
 40
0.0
 40
0.0
 40
0.0
 40
0.0
 40
0.7894475967695695
 40
0.7894475967695695
 40
1.0
 40
1.0
 40
1.0
 40
1.0
 10
-16.49999540585038
 20
3.024997276971283
 30
0.0
 10
-16.49999540585038
 20
3.152459754578511
 30
0.0
 10
-16.52575735399555
 20
3.287828806257087
 30
0.0
 10
-16.59197567812715
 20
3.445468722549055
 30
0.0
 10
-16.60780316635825
 20
3.477886707391475
 30
0.0
 10
-16.62512799293522
 20
3.509359754687226
 30
0.0
  0
ARC
  5
14B
330
1F
100
AcDbEntity
  8
Sichtbar_(ISO)
  6
Continuous
 62
     7
100
AcDbCircle
 10
-17.4999954059
 20
3.024997277
 30
0.0
 40
1.0
100
AcDbArc
 50
28.9707121259
 51
90.0
  0
ARC
  5
14C
330
1F
100
AcDbEntity
  8
Sichtbar_(ISO)
  6
Continuous
 62
     7
100
AcDbCircle
 10
-17.4999954059
 20
-3.025002723
 30
0.0
 40
1.0
100
AcDbArc
 50
270.0
 51
331.0292878741
  0
ARC
  5
14D
330
1F
100
AcDbEntity
  8
Sichtbar_(ISO)
  6
Continuous
 62
     7
100
AcDbCircle
 10
-14.9999954059
 20
-3.025002723
 30
0.0
 40
1.0
100
AcDbArc
 50
270.0
 51
0.0
  0
ARC
  5
14E
330
1F
100
AcDbEntity
  8
Sichtbar_(ISO)
  6
Continuous
 62
     7
100
AcDbCircle
 10
-14.9999954059
 20
3.024997277
 30
0.0
 40
1.0
100
AcDbArc
 50
0.0
 51
90.0
  0
SPLINE
  5
14F
330
1F
100
AcDbEntity
  8
Verdeckt_(ISO)
  6
HIDDEN2
 62
     7
100
AcDbSpline
210
0.0
220
0.0
230
1.0
 70
     8
 71
     3
 72
    10
 73
     6
 74
     0
 42
0.000000001
 43
0.0000000001
 40
0.0
 40
0.0
 40
0.0
 40
0.0
 40
0.9392256912197681
 40
0.9392256912197681
 40
1.0
 40
1.0
 40
1.0
 40
1.0
 10
-16.18417306540536
 20
-3.283866999397187
 30
0.0
 10
-16.18417976549434
 20
-3.684299345457921
 30
0.0
 10
-16.31114419598327
 20
-3.997488665571924
 30
0.0
 10
-16.47907306644126
 20
-4.308878275649094
 30
0.0
 10
-16.48945240889225
 20
-4.327690694842146
 30
0.0
 10
-16.49999540585036
 20
-4.346400090619798
 30
0.0
  0
SPLINE
  5
150
330
1F
100
AcDbEntity
  8
Verdeckt_(ISO)
  6
HIDDEN2
 62
     7
100
AcDbSpline
210
0.0
220
0.0
230
1.0
 70
     8
 71
     3
 72
     8
 73
     4
 74
     0
 42
0.000000001
 43
0.0000000001
 40
0.0
 40
0.0
 40
0.0
 40
0.0
 40
1.0
 40
1.0
 40
1.0
 40
1.0
 10
-13.99999540585039
 20
-2.868097154386055
 30
0.0
 10
-13.81648996030596
 20
-2.449229285637002
 30
0.0
 10
-13.6999954058504
 20
-2.010418509085615
 30
0.0
 10
-13.6999954058504
 20
-1.562721543876754
 30
0.0
  0
SPLINE
  5
151
330
1F
100
AcDbEntity
  8
Sichtbar_(ISO)
  6
Continuous
 62
     7
100
AcDbSpline
210
0.0
220
0.0
230
1.0
 70
     8
 71
     3
 72
    10
 73
     6
 74
     0
 42
0.000000001
 43
0.0000000001
 40
0.0
 40
0.0
 40
0.0
 40
0.0
 40
0.0580034332563894
 40
0.0580034332563894
 40
1.0
 40
1.0
 40
1.0
 40
1.0
 10
-14.00082422949767
 20
-4.892048639813009
 30
0.0
 10
-13.99073891725617
 20
-4.874401916657143
 30
0.0
 10
-13.98080280946641
 20
-4.856660595544881
 30
0.0
 10
-13.81222150966542
 20
-4.549028310442246
 30
0.0
 10
-13.68418073054272
 20
-4.238383747455728
 30
0.0
 10
-13.68417306540537
 20
-3.839679196862038
 30
0.0
  0
LINE
  5
152
330
1F
100
AcDbEntity
  8
Sichtbar_(ISO)
  6
Continuous
 62
     7
100
AcDbLine
 10
-13.9999954059
 20
-4.7239275314
 30
0.0
 11
-13.9999954059
 21
-3.756153385
 31
0.0
  0
SPLINE
  5
153
330
1F
100
AcDbEntity
  8
Sichtbar_(ISO)
  6
Continuous
 62
     7
100
AcDbSpline
210
0.0
220
0.0
230
1.0
 70
     8
 71
     3
 72
    10
 73
     6
 74
     0
 42
0.000000001
 43
0.0000000001
 40
0.0
 40
0.0
 40
0.0
 40
0.0
 40
0.4945986426263276
 40
0.4945986426263276
 40
0.9999999999999999
 40
0.9999999999999999
 40
0.9999999999999999
 40
0.9999999999999999
 10
-14.00082422949767
 20
-4.892048639813009
 30
0.0
 10
-14.00061913289947
 20
-4.864573720184409
 30
0.0
 10
-14.00041605289372
 20
-4.836971998453455
 30
0.0
 10
-14.00010241176692
 20
-4.78079264777854
 30
0.0
 10
-13.99999540585038
 20
-4.752374986665238
 30
0.0
 10
-13.99999540585038
 20
-4.723927531381566
 30
0.0
  0
SPLINE
  5
154
330
1F
100
AcDbEntity
  8
Sichtbar_(ISO)
  6
Continuous
 62
     7
100
AcDbSpline
210
0.0
220
0.0
230
1.0
 70
     8
 71
     3
 72
     8
 73
     4
 74
     0
 42
0.000000001
 43
0.0000000001
 40
0.0
 40
0.0
 40
0.0
 40
0.0
 40
1.0
 40
1.0
 40
1.0
 40
1.0
 10
-16.19999540585039
 20
-1.5627215438777
 30
0.0
 10
-16.19999540585039
 20
-2.010418509086548
 30
0.0
 10
-16.31648996030595
 20
-2.449229285637919
 30
0.0
 10
-16.49999540585038
 20
-2.868097154386958
 30
0.0
  0
LINE
  5
155
330
1F
100
AcDbEntity
  8
Sichtbar_(ISO)
  6
Continuous
 62
     7
100
AcDbLine
 10
-16.4999954059
 20
-2.8680971544
 30
0.0
 11
-16.4999954059
 21
-1.607370653
 31
0.0
  0
LINE
  5
156
330
1F
100
AcDbEntity
  8
Verdeckt_(ISO)
  6
HIDDEN2
 62
     7
100
AcDbLine
 10
-16.1841730654
 20
3.2838329812
 30
0.0
 11
-16.1841730654
 21
-3.2838669994
 31
0.0
  0
SPLINE
  5
157
330
1F
100
AcDbEntity
  8
Verdeckt_(ISO)
  6
HIDDEN2
 62
     7
100
AcDbSpline
210
0.0
220
0.0
230
1.0
 70
     8
 71
     3
 72
    10
 73
     6
 74
     0
 42
0.000000001
 43
0.0000000001
 40
0.0
 40
0.0
 40
0.0
 40
0.0
 40
0.0607729511872067
 40
0.0607729511872067
 40
1.0
 40
1.0
 40
1.0
 40
1.0
 10
-16.49999540585036
 20
4.34639464456236
 30
0.0
 10
-16.48945240889225
 20
4.327685248784713
 30
0.0
 10
-16.47907306644127
 20
4.308872829591661
 30
0.0
 10
-16.31114044465875
 20
3.997476263453383
 30
0.0
 10
-16.18417306540535
 20
3.684279030738471
 30
0.0
 10
-16.18417306540535
 20
3.283832981248953
 30
0.0
  0
SPLINE
  5
158
330
1F
100
AcDbEntity
  8
Sichtbar_(ISO)
  6
Continuous
 62
     7
100
AcDbSpline
210
0.0
220
0.0
230
1.0
 70
     8
 71
     3
 72
    10
 73
     6
 74
     0
 42
0.000000001
 43
0.0000000001
 40
0.0
 40
0.0
 40
0.0
 40
0.0
 40
0.9419980397295881
 40
0.9419980397295881
 40
1.0
 40
1.0
 40
1.0
 40
1.0
 10
-13.68417306540537
 20
3.839641504582139
 30
0.0
 10
-13.68417306540537
 20
4.238361590936237
 30
0.0
 10
-13.81221722849562
 20
4.54901505197589
 30
0.0
 10
-13.98080280946466
 20
4.856655149484245
 30
0.0
 10
-13.99073891725614
 20
4.874396470590999
 30
0.0
 10
-14.00082422949577
 20
4.892043193743731
 30
0.0
  0
LINE
  5
159
330
1F
100
AcDbEntity
  8
Sichtbar_(ISO)
  6
Continuous
 62
     7
100
AcDbLine
 10
-13.9999954059
 20
3.7561163941
 30
0.0
 11
-13.9999954059
 21
4.7239220853
 31
0.0
  0
SPLINE
  5
15A
330
1F
100
AcDbEntity
  8
Sichtbar_(ISO)
  6
Continuous
 62
     7
100
AcDbSpline
210
0.0
220
0.0
230
1.0
 70
     8
 71
     3
 72
     8
 73
     4
 74
     0
 42
0.000000001
 43
0.0000000001
 40
0.0
 40
0.0
 40
0.0
 40
0.0
 40
1.0
 40
1.0
 40
1.0
 40
1.0
 10
-13.99999540585038
 20
4.723922085324137
 30
0.0
 10
-13.99999540585038
 20
4.780151439024597
 30
0.0
 10
-14.00040707916316
 20
4.836161366816631
 30
0.0
 10
-14.00082422949577
 20
4.892043193743731
 30
0.0
  0
LINE
  5
15B
330
1F
100
AcDbEntity
  8
Sichtbar_(ISO)
  6
Continuous
 62
     7
100
AcDbLine
 10
-13.6841730654
 20
3.8396415046
 30
0.0
 11
-13.6841730654
 21
-3.8396791969
 31
0.0
  0
LINE
  5
15C
330
1F
100
AcDbEntity
  8
Sichtbar_(ISO)
  6
Continuous
 62
     7
100
AcDbLine
 10
-13.9999954059
 20
-3.7561533849
 30
0.0
 11
-13.9999954059
 21
3.7561163941
 31
0.0
  0
SPLINE
  5
15D
330
1F
100
AcDbEntity
  8
Sichtbar_(ISO)
  6
Continuous
 62
     7
100
AcDbSpline
210
0.0
220
0.0
230
1.0
 70
    15
 71
     3
 72
    40
 73
    36
 74
     0
 42
0.000000001
 43
0.0000000001
 40
0.0
 40
0.0
 40
0.0
 40
0.0
 40
0.083650316944163
 40
0.083650316944163
 40
0.1240670225575815
 40
0.1240670225575815
 40
0.1719024563368491
 40
0.1719024563368491
 40
0.2344705513383018
 40
0.2344705513383018
 40
0.3031332927117927
 40
0.3031332927117927
 40
0.3753646919257838
 40
0.3753646919257838
 40
0.4548128613048151
 40
0.4548128613048151
 40
0.4966008450531021
 40
0.4966008450531021
 40
0.5398133131555959
 40
0.5398133131555959
 40
0.6225398879562969
 40
0.6225398879562969
 40
0.6854201552414239
 40
0.6854201552414239
 40
0.7483004225265509
 40
0.7483004225265509
 40
0.8111806898116779
 40
0.8111806898116779
 40
0.8526431755564118
 40
0.8526431755564118
 40
0.9181350975313399
 40
0.9181350975313399
 40
0.9685134990505153
 40
0.9685134990505153
 40
1.0
 40
1.0
 40
1.0
 40
1.0
 10
-6.017359070406357
 20
2.7925773568256
 30
0.0
 41
1.0
 10
-6.489225799303056
 20
2.788926657277935
 30
0.0
 41
1.0
 10
-7.001589704234027
 20
2.65405339524448
 30
0.0
 41
1.0
 10
-7.637172391890416
 20
2.277911821249614
 30
0.0
 41
1.0
 10
-7.825198757364855
 20
2.129800483907525
 30
0.0
 41
1.0
 10
-8.175719361127683
 20
1.77836050716911
 30
0.0
 41
1.0
 10
-8.346933404530219
 20
1.549534341137461
 30
0.0
 41
1.0
 10
-8.652850139463723
 20
0.9672723064564376
 30
0.0
 41
1.0
 10
-8.758694742577356
 20
0.5968033840861982
 30
0.0
 41
1.0
 10
-8.822947552931472
 20
-0.1587767383949346
 30
0.0
 41
1.0
 10
-8.773581189130455
 20
-0.5582251609440477
 30
0.0
 41
1.0
 10
-8.488949413749731
 20
-1.34989835295477
 30
0.0
 41
1.0
 10
-8.245169088393693
 20
-1.71809234036403
 30
0.0
 41
1.0
 10
-7.628703683892442
 20
-2.315299526021652
 30
0.0
 41
1.0
 10
-7.197580771689903
 20
-2.56747330319928
 30
0.0
 41
1.0
 10
-6.499722524947646
 20
-2.758445110176475
 30
0.0
 41
1.0
 10
-6.253082734330477
 20
-2.790759075502908
 30
0.0
 41
1.0
 10
-5.773599970429641
 20
-2.794468698161361
 30
0.0
 41
1.0
 10
-5.518933038358004
 20
-2.763911919771975
 30
0.0
 41
1.0
 10
-4.7974540033521
 20
-2.5718181428541
 30
0.0
 41
1.0
 10
-4.353953888681148
 20
-2.309777041493645
 30
0.0
 41
1.0
 10
-3.777087470663286
 20
-1.738319747457536
 30
0.0
 41
1.0
 10
-3.560442215470017
 20
-1.424576269482363
 30
0.0
 41
1.0
 10
-3.272118589806796
 20
-0.7330185272685631
 30
0.0
 41
1.0
 10
-3.200621701185065
 20
-0.3551126019771508
 30
0.0
 41
1.0
 10
-3.200621701185065
 20
0.3551071559197287
 30
0.0
 41
1.0
 10
-3.272118589806797
 20
0.7330130812111239
 30
0.0
 41
1.0
 10
-3.511338953874551
 20
1.306794346918072
 30
0.0
 41
1.0
 10
-3.637129003598511
 20
1.521460220676049
 30
0.0
 41
1.0
 10
-4.016160832294485
 20
2.011390250523557
 30
0.0
 41
1.0
 10
-4.296666402064024
 20
2.253969713168161
 30
0.0
 41
1.0
 10
-4.895017839954921
 20
2.585719855603934
 30
0.0
 41
1.0
 10
-5.182543589045601
 20
2.689088327437494
 30
0.0
 41
1.0
 10
-5.656348494423889
 20
2.77833535150421
 30
0.0
 41
1.0
 10
-5.839745491041744
 20
2.793951502901466
 30
0.0
 41
1.0
 10
-6.017359070406357
 20
2.7925773568256
 30
0.0
 41
1.0
  0
SPLINE
  5
15E
330
1F
100
AcDbEntity
  8
Sichtbar_(ISO)
  6
Continuous
 62
     7
100
AcDbSpline
210
0.0
220
0.0
230
1.0
 70
    15
 71
     3
 72
    40
 73
    36
 74
     0
 42
0.000000001
 43
0.0000000001
 40
0.0
 40
0.0
 40
0.0
 40
0.0
 40
0.0314865009494847
 40
0.0314865009494847
 40
0.0818649024686602
 40
0.0818649024686602
 40
0.1473568244435883
 40
0.1473568244435883
 40
0.1888193101883221
 40
0.1888193101883221
 40
0.2516995774734491
 40
0.2516995774734491
 40
0.3145798447585761
 40
0.3145798447585761
 40
0.3774601120437031
 40
0.3774601120437031
 40
0.4601866868444041
 40
0.4601866868444041
 40
0.5033991549468979
 40
0.5033991549468979
 40
0.5451871386951849
 40
0.5451871386951849
 40
0.6246353080742162
 40
0.6246353080742162
 40
0.6968667072882073
 40
0.6968667072882073
 40
0.7655294486616983
 40
0.7655294486616983
 40
0.8280975436631509
 40
0.8280975436631509
 40
0.8759329774424185
 40
0.8759329774424185
 40
0.916349683055837
 40
0.916349683055837
 40
1.0
 40
1.0
 40
1.0
 40
1.0
 10
-5.993059643372594
 20
2.29998681938204
 30
0.0
 41
1.0
 10
-5.842466654982447
 20
2.299532696796246
 30
0.0
 41
1.0
 10
-5.687202274547298
 20
2.284014450133316
 30
0.0
 41
1.0
 10
-5.288088065098456
 20
2.201382602925058
 30
0.0
 41
1.0
 10
-5.048081588001211
 20
2.108418801327453
 30
0.0
 41
1.0
 10
-4.556079216815338
 20
1.819111989214496
 30
0.0
 41
1.0
 10
-4.331200454498603
 20
1.612342811927605
 30
0.0
 41
1.0
 10
-4.033232271290732
 20
1.2081913586186
 30
0.0
 41
1.0
 10
-3.936121593782879
 20
1.033917473655662
 30
0.0
 41
1.0
 10
-3.753159074813755
 20
0.5748246481083557
 30
0.0
 41
1.0
 10
-3.699995405850401
 20
0.2783632909710858
 30
0.0
 41
1.0
 10
-3.699995405850401
 20
-0.2783687370285309
 30
0.0
 41
1.0
 10
-3.753159074813756
 20
-0.5748300941657962
 30
0.0
 41
1.0
 10
-3.973677160868974
 20
-1.12815802046341
 30
0.0
 41
1.0
 10
-4.141744737023524
 20
-1.385415325966508
 30
0.0
 41
1.0
 10
-4.602188531822362
 20
-1.865175298830995
 30
0.0
 41
1.0
 10
-4.965727213058655
 20
-2.095579374513126
 30
0.0
 41
1.0
 10
-5.570917601776693
 20
-2.269934782753295
 30
0.0
 41
1.0
 10
-5.786383940737085
 20
-2.299369021917284
 30
0.0
 41
1.0
 10
-6.192922351570928
 20
-2.300594963950349
 30
0.0
 41
1.0
 10
-6.402464103304232
 20
-2.274328027229091
 30
0.0
 41
1.0
 10
-6.99309150034625
 20
-2.112996816408878
 30
0.0
 41
1.0
 10
-7.35371269028203
 20
-1.89646838094616
 30
0.0
 41
1.0
 10
-7.85961721049153
 20
-1.395284307955447
 30
0.0
 41
1.0
 10
-8.054741480204381
 20
-1.090884249585728
 30
0.0
 41
1.0
 10
-8.280253586615567
 20
-0.4479635902330384
 30
0.0
 41
1.0
 10
-8.3184914240775
 20
-0.1277563995734647
 30
0.0
 41
1.0
 10
-8.268095918260308
 20
0.4797933971913688
 30
0.0
 41
1.0
 10
-8.185300455187967
 20
0.7789610922247522
 30
0.0
 41
1.0
 10
-7.940657316923478
 20
1.256105086582002
 30
0.0
 41
1.0
 10
-7.802381923208807
 20
1.446074093456102
 30
0.0
 41
1.0
 10
-7.515134261087258
 20
1.740646312966244
 30
0.0
 41
1.0
 10
-7.359624096767554
 20
1.866057051003603
 30
0.0
 41
1.0
 10
-6.828675902078348
 20
2.185844850700653
 30
0.0
 41
1.0
 10
-6.393140656776234
 20
2.301193288728825
 30
0.0
 41
1.0
 10
-5.993059643372594
 20
2.29998681938204
 30
0.0
 41
1.0
  0
SPLINE
  5
15F
330
1F
100
AcDbEntity
  8
Verdeckt_(ISO)
  6
HIDDEN2
 62
     7
100
AcDbSpline
210
0.0
220
0.0
230
1.0
 70
    12
 71
     3
 72
    10
 73
     6
 74
     0
 42
0.000000001
 43
0.0000000001
 40
0.0
 40
0.0
 40
0.0
 40
0.0
 40
0.5
 40
0.5
 40
1.0
 40
1.0
 40
1.0
 40
1.0
 10
-3.778667101170498
 20
-1.700025002089167
 30
0.0
 41
1.0
 10
-3.838424752801116
 20
-1.778343179884009
 30
0.0
 41
1.0
 10
-3.901744651794406
 20
-1.852557488333985
 30
0.0
 41
1.0
 10
-4.033408190392206
 20
-1.991575195881295
 30
0.0
 41
1.0
 10
-4.102056758304313
 20
-2.056911717761269
 30
0.0
 41
1.0
 10
-4.175818685578645
 20
-2.119861713793985
 30
0.0
 41
1.0
  0
SPLINE
  5
160
330
1F
100
AcDbEntity
  8
Verdeckt_(ISO)
  6
HIDDEN2
 62
     7
100
AcDbSpline
210
0.0
220
0.0
230
1.0
 70
    12
 71
     3
 72
    15
 73
    11
 74
     0
 42
0.000000001
 43
0.0000000001
 40
0.0
 40
0.0
 40
0.0
 40
0.0
 40
0.2764914248443254
 40
0.2764914248443254
 40
0.5
 40
0.5
 40
0.5
 40
0.7235085751556746
 40
0.7235085751556746
 40
1.0
 40
1.0
 40
1.0
 40
1.0
 10
-3.778667101170493
 20
1.700019556031724
 30
0.0
 41
1.0
 10
-3.57534667792739
 20
1.433548491283298
 30
0.0
 41
1.0
 10
-3.420510937801566
 20
1.130207595514382
 30
0.0
 41
1.0
 10
-3.245458518651288
 20
0.5466607626973631
 30
0.0
 41
1.0
 10
-3.205344243125328
 20
0.2736393368022238
 30
0.0
 41
1.0
 10
-3.205266416737283
 20
0.0007998548002713
 30
0.0
 41
1.0
 10
-3.205188590349238
 20
-0.2720396272016818
 30
0.0
 41
1.0
 10
-3.245065207955383
 20
-0.5447765219938852
 30
0.0
 41
1.0
 10
-3.419902545649935
 20
-1.128896609912764
 30
0.0
 41
1.0
 10
-3.575105641642765
 20
-1.433238035994559
 30
0.0
 41
1.0
 10
-3.778667101170496
 20
-1.700025002089165
 30
0.0
 41
1.0
  0
SPLINE
  5
161
330
1F
100
AcDbEntity
  8
Verdeckt_(ISO)
  6
HIDDEN2
 62
     7
100
AcDbSpline
210
0.0
220
0.0
230
1.0
 70
    12
 71
     3
 72
    12
 73
     8
 74
     0
 42
0.000000001
 43
0.0000000001
 40
0.0
 40
0.0
 40
0.0
 40
0.0
 40
0.1832068253035261
 40
0.1832068253035261
 40
0.6858487789628954
 40
0.6858487789628954
 40
1.0
 40
1.0
 40
1.0
 40
1.0
 10
-4.175818685578645
 20
2.119856267736548
 30
0.0
 41
1.0
 10
-4.148791308543498
 20
2.096790529895813
 30
0.0
 41
1.0
 10
-4.122349352680449
 20
2.073295464906669
 30
0.0
 41
1.0
 10
-4.025637630206627
 20
1.983943547859111
 30
0.0
 41
1.0
 10
-3.95941890808809
 20
1.915942484279884
 30
0.0
 41
1.0
 10
-3.855161144232098
 20
1.796818053470611
 30
0.0
 41
1.0
 10
-3.816212979647338
 20
1.749227058431404
 30
0.0
 41
1.0
 10
-3.778667101170495
 20
1.700019556031724
 30
0.0
 41
1.0
  0
SPLINE
  5
162
330
1F
100
AcDbEntity
  8
Verdeckt_(ISO)
  6
HIDDEN2
 62
     7
100
AcDbSpline
210
0.0
220
0.0
230
1.0
 70
    12
 71
     3
 72
    35
 73
    31
 74
     0
 42
0.000000001
 43
0.0000000001
 40
0.0
 40
0.0
 40
0.0
 40
0.0
 40
0.06886467196764
 40
0.06886467196764
 40
0.1550930076050814
 40
0.1550930076050814
 40
0.2413213432425231
 40
0.2413213432425231
 40
0.2982219456584275
 40
0.2982219456584275
 40
0.3879010809162589
 40
0.3879010809162589
 40
0.4568850311145911
 40
0.4568850311145911
 40
0.4999999999885487
 40
0.4999999999885487
 40
0.4999999999885487
 40
0.5431149688739575
 40
0.5431149688739575
 40
0.6120989190906116
 40
0.6120989190906116
 40
0.7017780543722622
 40
0.7017780543722622
 40
0.7586786567574766
 40
0.7586786567574766
 40
0.8449069923949183
 40
0.8449069923949183
 40
0.9311353280323599
 40
0.9311353280323599
 40
1.0
 40
1.0
 40
1.0
 40
1.0
 10
-4.175818685578645
 20
-2.119861713793985
 30
0.0
 41
1.0
 10
-4.393337923572743
 20
-2.305497253407033
 30
0.0
 41
1.0
 10
-4.64957363712396
 20
-2.464062543448395
 30
0.0
 41
1.0
 10
-5.270160462845474
 20
-2.719679001173659
 30
0.0
 41
1.0
 10
-5.646546743347622
 20
-2.789937007859188
 30
0.0
 41
1.0
 10
-6.353444068353192
 20
-2.789937007859188
 30
0.0
 41
1.0
 10
-6.729830348855311
 20
-2.719679001173664
 30
0.0
 41
1.0
 10
-7.302544326790393
 20
-2.483781118295943
 30
0.0
 41
1.0
 10
-7.517197636229741
 20
-2.359545802871628
 30
0.0
 41
1.0
 10
-8.007282235530742
 20
-1.985020594930585
 30
0.0
 41
1.0
 10
-8.250816841789575
 20
-1.707540314976277
 30
0.0
 41
1.0
 10
-8.585645461311357
 20
-1.11416853057217
 30
0.0
 41
1.0
 10
-8.69073697045797
 20
-0.828674972088277
 30
0.0
 41
1.0
 10
-8.783099691392986
 20
-0.3582668465490001
 30
0.0
 41
1.0
 10
-8.799995405841564
 20
-0.176211673419438
 30
0.0
 41
1.0
 10
-8.799995405850398
 20
-0.0000027231691201
 30
0.0
 41
1.0
 10
-8.799995405859235
 20
0.1762062271219018
 30
0.0
 41
1.0
 10
-8.783099691420976
 20
0.3582614002987245
 30
0.0
 41
1.0
 10
-8.69073697048678
 20
0.8286695259645648
 30
0.0
 41
1.0
 10
-8.585645461314328
 20
1.114163084528657
 30
0.0
 41
1.0
 10
-8.25081684168566
 20
1.707534869078043
 30
0.0
 41
1.0
 10
-8.007282235343512
 20
1.985015149082334
 30
0.0
 41
1.0
 10
-7.517197635998527
 20
2.359540356948941
 30
0.0
 41
1.0
 10
-7.30254432666759
 20
2.483775672289088
 30
0.0
 41
1.0
 10
-6.729830348855317
 20
2.719673555116226
 30
0.0
 41
1.0
 10
-6.353444068353133
 20
2.789931561801754
 30
0.0
 41
1.0
 10
-5.646546743347629
 20
2.789931561801754
 30
0.0
 41
1.0
 10
-5.27016046284548
 20
2.719673555116222
 30
0.0
 41
1.0
 10
-4.649573637123936
 20
2.464057097390949
 30
0.0
 41
1.0
 10
-4.393337923572738
 20
2.305491807349592
 30
0.0
 41
1.0
 10
-4.175818685578645
 20
2.119856267736548
 30
0.0
 41
1.0
  0
LINE
  5
163
330
1F
100
AcDbEntity
  8
Sichtbar_(ISO)
  6
Continuous
 62
     7
100
AcDbLine
 10
-16.4999954059
 20
-2.8680971544
 30
0.0
 11
-16.4999954059
 21
-3.025002723
 31
0.0
  0
LINE
  5
164
330
1F
100
AcDbEntity
  8
Sichtbar_(ISO)
  6
Continuous
 62
     7
100
AcDbLine
 10
-16.4999954059
 20
3.024997277
 30
0.0
 11
-16.4999954059
 21
2.8680917083
 31
0.0
  0
LINE
  5
165
330
1F
100
AcDbEntity
  8
Sichtbar_(ISO)
  6
Continuous
 62
     7
100
AcDbLine
 10
-16.4999954059
 20
1.607365207
 30
0.0
 11
-16.4999954059
 21
-1.607370653
 31
0.0
  0
LINE
  5
166
330
1F
100
AcDbEntity
  8
Sichtbar_(ISO)
  6
Continuous
 62
     7
100
AcDbLine
 10
-16.1999954059
 20
-1.5627215439
 30
0.0
 11
-16.1999954059
 21
1.5627160978
 31
0.0
  0
LINE
  5
167
330
1F
100
AcDbEntity
  8
Sichtbar_(ISO)
  6
Continuous
 62
     7
100
AcDbLine
 10
-16.4999954059
 20
1.607365207
 30
0.0
 11
-16.4999954059
 21
2.8680917083
 31
0.0
  0
SPLINE
  5
168
330
1F
100
AcDbEntity
  8
Sichtbar_(ISO)
  6
Continuous
 62
     7
100
AcDbSpline
210
0.0
220
0.0
230
1.0
 70
     8
 71
     3
 72
     8
 73
     4
 74
     0
 42
0.000000001
 43
0.0000000001
 40
0.0
 40
0.0
 40
0.0
 40
0.0
 40
1.0
 40
1.0
 40
1.0
 40
1.0
 10
-16.49999540585038
 20
2.868091708329521
 30
0.0
 10
-16.31648996030595
 20
2.449223839580485
 30
0.0
 10
-16.19999540585039
 20
2.010413063029111
 30
0.0
 10
-16.19999540585039
 20
1.562716097820263
 30
0.0
  0
SPLINE
  5
169
330
1F
100
AcDbEntity
  8
Verdeckt_(ISO)
  6
HIDDEN2
 62
     7
100
AcDbSpline
210
0.0
220
0.0
230
1.0
 70
     8
 71
     3
 72
     8
 73
     4
 74
     0
 42
0.000000001
 43
0.0000000001
 40
0.0
 40
0.0
 40
0.0
 40
0.0
 40
1.0
 40
1.0
 40
1.0
 40
1.0
 10
-13.6999954058504
 20
1.562716097819318
 30
0.0
 10
-13.6999954058504
 20
2.010413063028178
 30
0.0
 10
-13.81648996030596
 20
2.449223839579564
 30
0.0
 10
-13.99999540585039
 20
2.868091708328618
 30
0.0
  0
LINE
  5
16A
330
1F
100
AcDbEntity
  8
Verdeckt_(ISO)
  6
HIDDEN2
 62
     7
100
AcDbLine
 10
-13.6999954059
 20
-1.5627215439
 30
0.0
 11
-13.6999954059
 21
1.5627160978
 31
0.0
  0
LINE
  5
16B
330
1F
100
AcDbEntity
  8
Sichtbar_(ISO)
  6
Continuous
 62
     7
100
AcDbLine
 10
-19.9999954059
 20
5.2923947144
 30
0.0
 11
-19.9999954059
 21
4.824997277
 31
0.0
  0
LINE
  5
16C
330
1F
100
AcDbEntity
  8
Sichtbar_(ISO)
  6
Continuous
 62
     7
100
AcDbLine
 10
-19.9999954059
 20
4.824997277
 30
0.0
 11
-19.1999954059
 21
4.024997277
 31
0.0
  0
SPLINE
  5
16D
330
1F
100
AcDbEntity
  8
Sichtbar_(ISO)
  6
Continuous
 62
     7
100
AcDbSpline
210
0.0
220
0.0
230
1.0
 70
     8
 71
     3
 72
    14
 73
    10
 74
     0
 42
0.000000001
 43
0.0000000001
 40
0.0
 40
0.0
 40
0.0
 40
0.0
 40
0.1091141313354382
 40
0.1091141313354382
 40
0.3922647498908959
 40
0.3922647498908959
 40
0.6961323749454483
 40
0.6961323749454483
 40
0.9999999999999999
 40
0.9999999999999999
 40
0.9999999999999999
 40
0.9999999999999999
 10
-19.46678588673829
 20
5.747967519493673
 30
0.0
 10
-19.44993580512213
 20
5.646171462686916
 30
0.0
 10
-19.4332899473116
 20
5.544261442560621
 30
0.0
 10
-19.37538639995894
 20
5.185474382495844
 30
0.0
 10
-19.3372599566285
 20
4.940702730369221
 30
0.0
 10
-19.27407008556389
 20
4.527358957396636
 30
0.0
 10
-19.24618281920527
 20
4.339737305321576
 30
0.0
 10
-19.20918138885479
 20
4.088553869665751
 30
0.0
 10
-19.19999540585039
 20
4.024997276971281
 30
0.0
 10
-19.19999540585039
 20
4.024997276971281
 30
0.0
  0
SPLINE
  5
16E
330
1F
100
AcDbEntity
  8
Verdeckt_(ISO)
  6
HIDDEN2
 62
     7
100
AcDbSpline
210
0.0
220
0.0
230
1.0
 70
     8
 71
     3
 72
    12
 73
     8
 74
     0
 42
0.000000001
 43
0.0000000001
 40
0.0
 40
0.0
 40
0.0
 40
0.0
 40
0.3752481920258451
 40
0.3752481920258451
 40
0.6918279577720747
 40
0.6918279577720747
 40
0.9999999999999999
 40
0.9999999999999999
 40
0.9999999999999999
 40
0.9999999999999999
 10
-19.20029363036719
 20
4.195743478351158
 30
0.0
 10
-19.20227019589925
 20
4.165768083614452
 30
0.0
 10
-19.2059047879642
 20
4.136273204678031
 30
0.0
 10
-19.21045618151251
 20
4.08790114762916
 30
0.0
 10
-19.21157894816821
 20
4.069508442592842
 30
0.0
 10
-19.210171538318
 20
4.041922249708167
 30
0.0
 10
-19.20777311800403
 20
4.032774989124916
 30
0.0
 10
-19.20326352592207
 20
4.028265397042963
 30
0.0
  0
SPLINE
  5
16F
330
1F
100
AcDbEntity
  8
Verdeckt_(ISO)
  6
HIDDEN2
 62
     7
100
AcDbSpline
210
0.0
220
0.0
230
1.0
 70
     8
 71
     3
 72
    12
 73
     8
 74
     0
 42
0.000000001
 43
0.0000000001
 40
0.0
 40
0.0
 40
0.0
 40
0.0
 40
0.3679548159518253
 40
0.3679548159518253
 40
0.6656783379432721
 40
0.6656783379432721
 40
1.0
 40
1.0
 40
1.0
 40
1.0
 10
-19.20326352592208
 20
-4.028270843100401
 30
0.0
 10
-19.20863089473081
 20
-4.033638211909138
 30
0.0
 10
-19.21099180706834
 20
-4.045560843261649
 30
0.0
 10
-19.21115217151079
 20
-4.078303119523497
 30
0.0
 10
-19.20971795198227
 20
-4.096695316724153
 30
0.0
 10
-19.20517858297174
 20
-4.142426696203115
 30
0.0
 10
-19.20206194868273
 20
-4.168931680725863
 30
0.0
 10
-19.20029363036719
 20
-4.195748924408606
 30
0.0
  0
ARC
  5
170
330
1F
100
AcDbEntity
  8
Verdeckt_(ISO)
  6
HIDDEN2
 62
     7
100
AcDbCircle
 10
20.4000045941
 20
3.399997277
 30
0.0
 40
0.7483314773547934
100
AcDbArc
 50
122.3115332374
 51
180.0
  0
LINE
  5
171
330
1F
100
AcDbEntity
  8
Sichtbar_(ISO)
  6
Continuous
 62
     7
100
AcDbLine
 10
20.0000045941
 20
5.032452809
 30
0.0
 11
20.0000045941
 21
4.399997277
 31
0.0
  0
ARC
  5
172
330
1F
100
AcDbEntity
  8
Sichtbar_(ISO)
  6
Continuous
 62
     7
100
AcDbCircle
 10
20.4000045941
 20
4.399997277
 30
0.0
 40
0.7483314773547951
100
AcDbArc
 50
122.3115332374
 51
180.0
  0
ARC
  5
173
330
1F
100
AcDbEntity
  8
Verdeckt_(ISO)
  6
HIDDEN2
 62
     7
100
AcDbCircle
 10
20.4000045941
 20
-3.400002723
 30
0.0
 40
0.7483314773547936
100
AcDbArc
 50
180.0
 51
237.6884667626
  0
ARC
  5
174
330
1F
100
AcDbEntity
  8
Verdeckt_(ISO)
  6
HIDDEN2
 62
     7
100
AcDbCircle
 10
19.0000045941
 20
-5.500002723
 30
0.0
 40
1.0
100
AcDbArc
 50
0.0
 51
90.0
  0
ARC
  5
175
330
1F
100
AcDbEntity
  8
Verdeckt_(ISO)
  6
HIDDEN2
 62
     7
100
AcDbCircle
 10
19.0000045941
 20
5.499997277
 30
0.0
 40
1.0
100
AcDbArc
 50
270.0
 51
0.0
  0
LINE
  5
176
330
1F
100
AcDbEntity
  8
Verdeckt_(ISO)
  6
HIDDEN2
 62
     7
100
AcDbLine
 10
17.4800045941
 20
-4.500002723
 30
0.0
 11
19.0000045941
 21
-4.500002723
 31
0.0
  0
LINE
  5
177
330
1F
100
AcDbEntity
  8
Verdeckt_(ISO)
  6
HIDDEN2
 62
     7
100
AcDbLine
 10
12.5000045941
 20
-4.500002723
 30
0.0
 11
14.5200045941
 21
-4.500002723
 31
0.0
  0
ARC
  5
178
330
1F
100
AcDbEntity
  8
Verdeckt_(ISO)
  6
HIDDEN2
 62
     7
100
AcDbCircle
 10
12.5000045941
 20
-0.000002723
 30
0.0
 40
4.500000000000001
100
AcDbArc
 50
90.0
 51
270.0
  0
LINE
  5
179
330
1F
100
AcDbEntity
  8
Verdeckt_(ISO)
  6
HIDDEN2
 62
     7
100
AcDbLine
 10
14.5200045941
 20
4.499997277
 30
0.0
 11
12.5000045941
 21
4.499997277
 31
0.0
  0
LINE
  5
17A
330
1F
100
AcDbEntity
  8
Verdeckt_(ISO)
  6
HIDDEN2
 62
     7
100
AcDbLine
 10
19.0000045941
 20
4.499997277
 30
0.0
 11
17.4800045941
 21
4.499997277
 31
0.0
  0
LINE
  5
17B
330
1F
100
AcDbEntity
  8
Verdeckt_(ISO)
  6
HIDDEN2
 62
     7
100
AcDbLine
 10
14.5200045941
 20
-4.500002723
 30
0.0
 11
15.0000045941
 21
-4.980002723
 31
0.0
  0
SPLINE
  5
17C
330
1F
100
AcDbEntity
  8
Verdeckt_(ISO)
  6
HIDDEN2
 62
     7
100
AcDbSpline
210
0.0
220
0.0
230
1.0
 70
    12
 71
     2
 72
     6
 73
     3
 74
     0
 42
0.000000001
 43
0.0000000001
 40
0.0
 40
0.0
 40
0.0
 40
1.0
 40
1.0
 40
1.0
 10
13.97927865198591
 20
-5.021263406996673
 30
0.0
 41
1.0
 10
14.51166791764357
 20
-5.005941548304585
 30
0.0
 41
1.000859250555478
 10
15.00000459414961
 20
-4.989295311677715
 30
0.0
 41
1.0
  0
ELLIPSE
  5
17D
330
1F
100
AcDbEntity
  8
Verdeckt_(ISO)
  6
HIDDEN2
 62
     7
100
AcDbEllipse
 10
20.1351813104
 20
-0.000002723
 30
0.0
 11
22.53408931776897
 21
-19.08923747312494
 31
0.0
210
0.0
220
0.0
230
1.0
 40
0.26478365
 41
4.661387108231036
 42
4.663221728984745
  0
LINE
  5
17E
330
1F
100
AcDbEntity
  8
Verdeckt_(ISO)
  6
HIDDEN2
 62
     7
100
AcDbLine
 10
13.6729305571
 20
-4.500002723
 30
0.0
 11
13.938453237
 21
-4.9857377924
 31
0.0
  0
LINE
  5
17F
330
1F
100
AcDbEntity
  8
Sichtbar_(ISO)
  6
Continuous
 62
     7
100
AcDbLine
 10
14.5200045941
 20
-5.500002723
 30
0.0
 11
15.0000045941
 21
-5.980002723
 31
0.0
  0
LINE
  5
180
330
1F
100
AcDbEntity
  8
Sichtbar_(ISO)
  6
Continuous
 62
     7
100
AcDbLine
 10
15.0000045941
 20
-5.980002723
 30
0.0
 11
15.0000045941
 21
-5.9816625833
 31
0.0
  0
LINE
  5
181
330
1F
100
AcDbEntity
  8
Sichtbar_(ISO)
  6
Continuous
 62
     7
100
AcDbLine
 10
13.6488497086
 20
-5.500002723
 30
0.0
 11
14.5200045941
 21
-5.500002723
 31
0.0
  0
LINE
  5
182
330
1F
100
AcDbEntity
  8
Sichtbar_(ISO)
  6
Continuous
 62
     7
100
AcDbLine
 10
13.921989152
 20
-5.9789685282
 30
0.0
 11
13.6488497086
 21
-5.500002723
 31
0.0
  0
ELLIPSE
  5
183
330
1F
100
AcDbEntity
  8
Sichtbar_(ISO)
  6
Continuous
 62
     7
100
AcDbEllipse
 10
18.9619762296
 20
-0.000002723
 30
0.0
 11
22.53408931776903
 21
-19.08923747312493
 31
0.0
210
0.0
220
0.0
230
1.0
 40
0.26478365
 41
4.713033774444161
 42
4.715575036099867
  0
SPLINE
  5
184
330
1F
100
AcDbEntity
  8
Sichtbar_(ISO)
  6
Continuous
 62
     7
100
AcDbSpline
210
0.0
220
0.0
230
1.0
 70
    12
 71
     2
 72
     6
 73
     3
 74
     0
 42
0.000000001
 43
0.0000000001
 40
0.0
 40
0.0
 40
0.0
 40
1.0
 40
1.0
 40
1.0
 10
15.00000459414959
 20
-5.981662583271638
 30
0.0
 41
1.0
 10
14.51176377594673
 20
-6.005492705001397
 30
0.0
 41
1.000837443206533
 10
13.9792786519859
 20
-6.02745013015051
 30
0.0
 41
1.0
  0
LINE
  5
185
330
1F
100
AcDbEntity
  8
Verdeckt_(ISO)
  6
HIDDEN2
 62
     7
100
AcDbLine
 10
14.5200045941
 20
4.499997277
 30
0.0
 11
15.0000045941
 21
4.979997277
 31
0.0
  0
LINE
  5
186
330
1F
100
AcDbEntity
  8
Verdeckt_(ISO)
  6
HIDDEN2
 62
     7
100
AcDbLine
 10
13.938453237
 20
4.9857323463
 30
0.0
 11
13.6729305571
 21
4.499997277
 31
0.0
  0
ELLIPSE
  5
187
330
1F
100
AcDbEntity
  8
Verdeckt_(ISO)
  6
HIDDEN2
 62
     7
100
AcDbEllipse
 10
20.1351813104
 20
-0.000002723
 30
0.0
 11
-22.53408931776897
 21
-19.08923747312494
 31
0.0
210
0.0
220
0.0
230
1.0
 40
0.26478365
 41
-1.521629075394953
 42
-1.519794454641241
  0
SPLINE
  5
188
330
1F
100
AcDbEntity
  8
Verdeckt_(ISO)
  6
HIDDEN2
 62
     7
100
AcDbSpline
210
0.0
220
0.0
230
1.0
 70
    12
 71
     2
 72
     6
 73
     3
 74
     0
 42
0.000000001
 43
0.0000000001
 40
0.0
 40
0.0
 40
0.0
 40
1.0
 40
1.0
 40
1.0
 10
15.00000459414961
 20
4.989289865620277
 30
0.0
 41
1.0
 10
14.51166791764373
 20
5.005936102247142
 30
0.0
 41
1.000859250570782
 10
13.97927865198592
 20
5.021257960939237
 30
0.0
 41
1.0
  0
LINE
  5
189
330
1F
100
AcDbEntity
  8
Sichtbar_(ISO)
  6
Continuous
 62
     7
100
AcDbLine
 10
20.0000045941
 20
6.499997277
 30
0.0
 11
20.0000045941
 21
5.032452809
 31
0.0
  0
LINE
  5
18A
330
1F
100
AcDbEntity
  8
Sichtbar_(ISO)
  6
Continuous
 62
     7
100
AcDbLine
 10
20.0000045941
 20
-5.0324582551
 30
0.0
 11
20.0000045941
 21
-6.500002723
 31
0.0
  0
LINE
  5
18B
330
1F
100
AcDbEntity
  8
Sichtbar_(ISO)
  6
Continuous
 62
     7
100
AcDbLine
 10
17.0000045941
 20
4.5563115769
 30
0.0
 11
17.0000045941
 21
5.979997277
 31
0.0
  0
SPLINE
  5
18C
330
1F
100
AcDbEntity
  8
Sichtbar_(ISO)
  6
Continuous
 62
     7
100
AcDbSpline
210
0.0
220
0.0
230
1.0
 70
     8
 71
     3
 72
    16
 73
    12
 74
     0
 42
0.000000001
 43
0.0000000001
 40
0.0
 40
0.0
 40
0.0
 40
0.0
 40
0.0222583067542957
 40
0.0222583067542957
 40
0.0534151775390351
 40
0.0534151775390351
 40
0.1964652734750039
 40
0.1964652734750039
 40
0.5982326367375018
 40
0.5982326367375018
 40
0.9999999999999999
 40
0.9999999999999999
 40
0.9999999999999999
 40
0.9999999999999999
 10
16.80000459414959
 20
3.709444675169531
 30
0.0
 10
16.80631314766347
 20
3.709444675169531
 30
0.0
 10
16.81366606093088
 20
3.71124566567247
 30
0.0
 10
16.82743738927551
 20
3.717534169299455
 30
0.0
 10
16.83577991753988
 20
3.724068185147318
 30
0.0
 10
16.87065051912591
 20
3.759023696045836
 30
0.0
 10
16.88938523778252
 20
3.803924663205519
 30
0.0
 10
16.94239035605589
 20
3.948956941282244
 30
0.0
 10
16.96355960364694
 20
4.070957185727555
 30
0.0
 10
16.99342417800744
 20
4.317573354058024
 30
0.0
 10
17.0000045941496
 20
4.442440789755346
 30
0.0
 10
17.0000045941496
 20
4.556311576929063
 30
0.0
  0
LINE
  5
18D
330
1F
100
AcDbEntity
  8
Sichtbar_(ISO)
  6
Continuous
 62
     7
100
AcDbLine
 10
15.2000045941
 20
3.7094446752
 30
0.0
 11
16.8000045941
 21
3.7094446752
 31
0.0
  0
SPLINE
  5
18E
330
1F
100
AcDbEntity
  8
Sichtbar_(ISO)
  6
Continuous
 62
     7
100
AcDbSpline
210
0.0
220
0.0
230
1.0
 70
     8
 71
     3
 72
    16
 73
    12
 74
     0
 42
0.000000001
 43
0.0000000001
 40
0.0
 40
0.0
 40
0.0
 40
0.0
 40
0.4017673632624992
 40
0.4017673632624992
 40
0.803534726524997
 40
0.803534726524997
 40
0.9465848224609659
 40
0.9465848224609659
 40
0.9777416932457075
 40
0.9777416932457075
 40
1.0
 40
1.0
 40
1.0
 40
1.0
 10
15.00000459414959
 20
4.556311576929063
 30
0.0
 10
15.00000459414959
 20
4.442440789755346
 30
0.0
 10
15.00658501029176
 20
4.317573354058024
 30
0.0
 10
15.03644958465225
 20
4.070957185727555
 30
0.0
 10
15.0576188322433
 20
3.948956941282244
 30
0.0
 10
15.11062395051667
 20
3.803924663205519
 30
0.0
 10
15.12935866917327
 20
3.759023696045836
 30
0.0
 10
15.16422927075932
 20
3.724068185147318
 30
0.0
 10
15.17257179902368
 20
3.717534169299453
 30
0.0
 10
15.18634312736832
 20
3.71124566567247
 30
0.0
 10
15.19369604063573
 20
3.709444675169531
 30
0.0
 10
15.20000459414959
 20
3.709444675169531
 30
0.0
  0
LINE
  5
18F
330
1F
100
AcDbEntity
  8
Sichtbar_(ISO)
  6
Continuous
 62
     7
100
AcDbLine
 10
15.0000045941
 20
5.979997277
 30
0.0
 11
15.0000045941
 21
4.5563115769
 31
0.0
  0
LINE
  5
190
330
1F
100
AcDbEntity
  8
Sichtbar_(ISO)
  6
Continuous
 62
     7
100
AcDbLine
 10
15.0000045941
 20
-4.556317023
 30
0.0
 11
15.0000045941
 21
-5.980002723
 31
0.0
  0
SPLINE
  5
191
330
1F
100
AcDbEntity
  8
Sichtbar_(ISO)
  6
Continuous
 62
     7
100
AcDbSpline
210
0.0
220
0.0
230
1.0
 70
     8
 71
     3
 72
    16
 73
    12
 74
     0
 42
0.000000001
 43
0.0000000001
 40
0.0
 40
0.0
 40
0.0
 40
0.0
 40
0.0222583067542934
 40
0.0222583067542934
 40
0.0534151775390341
 40
0.0534151775390341
 40
0.1964652734750026
 40
0.1964652734750026
 40
0.5982326367375007
 40
0.5982326367375007
 40
0.9999999999999999
 40
0.9999999999999999
 40
0.9999999999999999
 40
0.9999999999999999
 10
15.20000459414959
 20
-3.709450121226968
 30
0.0
 10
15.19369604063573
 20
-3.709450121226968
 30
0.0
 10
15.18634312736832
 20
-3.711251111729908
 30
0.0
 10
15.17257179902368
 20
-3.717539615356888
 30
0.0
 10
15.16422927075932
 20
-3.724073631204754
 30
0.0
 10
15.12935866917327
 20
-3.759029142103272
 30
0.0
 10
15.11062395051667
 20
-3.803930109262955
 30
0.0
 10
15.0576188322433
 20
-3.948962387339682
 30
0.0
 10
15.03644958465225
 20
-4.070962631784991
 30
0.0
 10
15.00658501029176
 20
-4.31757880011546
 30
0.0
 10
15.00000459414959
 20
-4.442446235812783
 30
0.0
 10
15.00000459414959
 20
-4.556317022986502
 30
0.0
  0
LINE
  5
192
330
1F
100
AcDbEntity
  8
Sichtbar_(ISO)
  6
Continuous
 62
     7
100
AcDbLine
 10
16.8000045941
 20
-3.7094501212
 30
0.0
 11
15.2000045941
 21
-3.7094501212
 31
0.0
  0
SPLINE
  5
193
330
1F
100
AcDbEntity
  8
Sichtbar_(ISO)
  6
Continuous
 62
     7
100
AcDbSpline
210
0.0
220
0.0
230
1.0
 70
     8
 71
     3
 72
    16
 73
    12
 74
     0
 42
0.000000001
 43
0.0000000001
 40
0.0
 40
0.0
 40
0.0
 40
0.0
 40
0.4017673632624978
 40
0.4017673632624978
 40
0.8035347265249957
 40
0.8035347265249957
 40
0.9465848224609659
 40
0.9465848224609659
 40
0.9777416932457053
 40
0.9777416932457053
 40
1.0
 40
1.0
 40
1.0
 40
1.0
 10
17.0000045941496
 20
-4.556317022986502
 30
0.0
 10
17.0000045941496
 20
-4.442446235812784
 30
0.0
 10
16.99342417800744
 20
-4.317578800115461
 30
0.0
 10
16.96355960364694
 20
-4.070962631784991
 30
0.0
 10
16.94239035605589
 20
-3.948962387339682
 30
0.0
 10
16.88938523778252
 20
-3.803930109262955
 30
0.0
 10
16.87065051912591
 20
-3.759029142103272
 30
0.0
 10
16.83577991753988
 20
-3.724073631204754
 30
0.0
 10
16.82743738927551
 20
-3.717539615356888
 30
0.0
 10
16.81366606093088
 20
-3.711251111729906
 30
0.0
 10
16.80631314766347
 20
-3.709450121226968
 30
0.0
 10
16.80000459414959
 20
-3.709450121226968
 30
0.0
  0
LINE
  5
194
330
1F
100
AcDbEntity
  8
Sichtbar_(ISO)
  6
Continuous
 62
     7
100
AcDbLine
 10
17.0000045941
 20
-5.980002723
 30
0.0
 11
17.0000045941
 21
-4.556317023
 31
0.0
  0
LINE
  5
195
330
1F
100
AcDbEntity
  8
Sichtbar_(ISO)
  6
Continuous
 62
     7
100
AcDbLine
 10
20.0000045941
 20
4.399997277
 30
0.0
 11
20.0000045941
 21
2.2208093354
 31
0.0
  0
LINE
  5
196
330
1F
100
AcDbEntity
  8
Sichtbar_(ISO)
  6
Continuous
 62
     7
100
AcDbLine
 10
20.0000045941
 20
-2.2208147815
 30
0.0
 11
20.0000045941
 21
-4.400002723
 31
0.0
  0
SPLINE
  5
197
330
1F
100
AcDbEntity
  8
Sichtbar_(ISO)
  6
Continuous
 62
     7
100
AcDbSpline
210
0.0
220
0.0
230
1.0
 70
     8
 71
     3
 72
    14
 73
    10
 74
     0
 42
0.000000001
 43
0.0000000001
 40
0.0
 40
0.0
 40
0.0
 40
0.0
 40
0.1459413369739949
 40
0.1459413369739949
 40
0.4448964061305149
 40
0.4448964061305149
 40
0.6913573747734296
 40
0.6913573747734296
 40
1.0
 40
1.0
 40
1.0
 40
1.0
 10
20.00000459414959
 20
2.220809335424851
 30
0.0
 10
20.00000459414959
 20
2.009324184386898
 30
0.0
 10
20.00227396023561
 20
1.800420618766176
 30
0.0
 10
20.01095044393085
 20
1.188408818660416
 30
0.0
 10
20.02021161390471
 20
0.7499926996909978
 30
0.0
 10
20.02507112985426
 20
-0.1074965792736137
 30
0.0
 10
20.02277513005718
 20
-0.4391756543149814
 30
0.0
 10
20.0098739321598
 20
-1.339060552219903
 30
0.0
 10
20.00000459414957
 20
-1.778499190264759
 30
0.0
 10
20.00000459414959
 20
-2.220814781482288
 30
0.0
  0
LINE
  5
198
330
1F
100
AcDbEntity
  8
Sichtbar_(ISO)
  6
Continuous
 62
     7
100
AcDbLine
 10
19.6516731168
 20
-4.400002723
 30
0.0
 11
19.6516731168
 21
4.399997277
 31
0.0
  0
LINE
  5
199
330
1F
100
AcDbEntity
  8
Sichtbar_(ISO)
  6
Continuous
 62
     7
100
AcDbLine
 10
20.0000045941
 20
-4.400002723
 30
0.0
 11
20.0000045941
 21
-5.0324582551
 31
0.0
  0
ARC
  5
19A
330
1F
100
AcDbEntity
  8
Sichtbar_(ISO)
  6
Continuous
 62
     7
100
AcDbCircle
 10
20.4000045941
 20
-4.400002723
 30
0.0
 40
0.7483314773547951
100
AcDbArc
 50
180.0
 51
237.6884667626
  0
LINE
  5
19B
330
1F
100
AcDbEntity
  8
Verdeckt_(ISO)
  6
HIDDEN2
 62
     7
100
AcDbLine
 10
13.938453237
 20
-4.9857377924
 30
0.0
 11
12.5000045941
 21
-4.9857377924
 31
0.0
  0
LINE
  5
19C
330
1F
100
AcDbEntity
  8
Verdeckt_(ISO)
  6
HIDDEN2
 62
     7
100
AcDbLine
 10
12.5000045941
 20
4.9857323463
 30
0.0
 11
13.938453237
 21
4.9857323463
 31
0.0
  0
SPLINE
  5
19D
330
1F
100
AcDbEntity
  8
Verdeckt_(ISO)
  6
HIDDEN2
 62
     7
100
AcDbSpline
210
0.0
220
0.0
230
1.0
 70
    12
 71
     3
 72
    31
 73
    27
 74
     0
 42
0.000000001
 43
0.0000000001
 40
0.0
 40
0.0
 40
0.0
 40
0.0
 40
0.125005667826517
 40
0.125005667826517
 40
0.2187404813489263
 40
0.2187404813489263
 40
0.2500113356530339
 40
0.2500113356530339
 40
0.3375024701802451
 40
0.3375024701802451
 40
0.4375009500693255
 40
0.4375009500693255
 40
0.5000000000000009
 40
0.5000000000000009
 40
0.5000000000000009
 40
0.5624990499306762
 40
0.5624990499306762
 40
0.662497529819757
 40
0.662497529819757
 40
0.7499886643469669
 40
0.7499886643469669
 40
0.7812595186510358
 40
0.7812595186510358
 40
0.8749943321734842
 40
0.8749943321734842
 40
1.0
 40
1.0
 40
1.0
 40
1.0
 10
12.5000045941496
 20
-4.985737792400271
 30
0.0
 41
1.0
 10
11.86818319937946
 20
-4.985737792400271
 30
0.0
 41
1.0
 10
11.19592123261763
 20
-4.859744891051431
 30
0.0
 41
1.0
 10
10.11810632801593
 20
-4.414785543913237
 30
0.0
 41
1.0
 10
9.686663660012904
 20
-4.15346972826328
 30
0.0
 41
1.0
 10
9.19039507044115
 20
-3.745361298850748
 30
0.0
 41
1.0
 10
9.072755907479863
 20
-3.638498817673606
 30
0.0
 41
1.0
 10
8.652952139827523
 20
-3.219948024830466
 30
0.0
 41
1.0
 10
8.370756724748455
 20
-2.854822700189767
 30
0.0
 41
1.0
 10
7.883294090287679
 20
-1.990945678317036
 30
0.0
 41
1.0
 10
7.6954383922275
 20
-1.481027446787179
 30
0.0
 41
1.0
 10
7.53025245350175
 20
-0.6404606361680503
 30
0.0
 41
1.0
 10
7.50000459414961
 20
-0.315067695843597
 30
0.0
 41
1.0
 10
7.50000459414961
 20
-0.0000027230287193
 30
0.0
 41
1.0
 10
7.50000459414961
 20
0.3150622497861597
 30
0.0
 41
1.0
 10
7.53025245350175
 20
0.6404551901106148
 30
0.0
 41
1.0
 10
7.695438392227499
 20
1.481022000729746
 30
0.0
 41
1.0
 10
7.883294090287684
 20
1.990940232259601
 30
0.0
 41
1.0
 10
8.370756724748462
 20
2.85481725413233
 30
0.0
 41
1.0
 10
8.652952139827526
 20
3.219942578773037
 30
0.0
 41
1.0
 10
9.072755907479737
 20
3.638493371616042
 30
0.0
 41
1.0
 10
9.190395070440866
 20
3.745355852793056
 30
0.0
 41
1.0
 10
9.686663660012567
 20
4.15346428220563
 30
0.0
 41
1.0
 10
10.11810632801577
 20
4.414780097855731
 30
0.0
 41
1.0
 10
11.19592123261762
 20
4.85973944499399
 30
0.0
 41
1.0
 10
11.8681831993795
 20
4.985732346342839
 30
0.0
 41
1.0
 10
12.5000045941496
 20
4.985732346342839
 30
0.0
 41
1.0
  0
LINE
  5
19E
330
1F
100
AcDbEntity
  8
Sichtbar_(ISO)
  6
Continuous
 62
     7
100
AcDbLine
 10
12.5000045941
 20
5.499997277
 30
0.0
 11
13.6488497086
 21
5.499997277
 31
0.0
  0
LINE
  5
19F
330
1F
100
AcDbEntity
  8
Sichtbar_(ISO)
  6
Continuous
 62
     7
100
AcDbLine
 10
13.6488497086
 20
-5.500002723
 30
0.0
 11
12.5000045941
 21
-5.500002723
 31
0.0
  0
LINE
  5
1A0
330
1F
100
AcDbEntity
  8
Sichtbar_(ISO)
  6
Continuous
 62
     7
100
AcDbLine
 10
12.5000045941
 20
-5.9789685282
 30
0.0
 11
13.921989152
 21
-5.9789685282
 31
0.0
  0
SPLINE
  5
1A1
330
1F
100
AcDbEntity
  8
Sichtbar_(ISO)
  6
Continuous
 62
     7
100
AcDbSpline
210
0.0
220
0.0
230
1.0
 70
    12
 71
     3
 72
    19
 73
    15
 74
     0
 42
0.000000001
 43
0.0000000001
 40
0.0
 40
0.0
 40
0.0
 40
0.0
 40
0.1727282203489338
 40
0.1727282203489338
 40
0.3729658957072467
 40
0.3729658957072467
 40
0.4981144428061883
 40
0.4981144428061883
 40
0.4981144428061883
 40
0.7002399539944941
 40
0.7002399539944941
 40
0.9022007101666295
 40
0.9022007101666295
 40
1.0
 40
1.0
 40
1.0
 40
1.0
 10
7.500085739063059
 20
-1.02848479741972
 30
0.0
 41
1.0
 10
7.502565861979124
 20
-1.463743017656008
 30
0.0
 41
1.0
 10
7.563675402747197
 20
-1.916853731992188
 30
0.0
 41
1.0
 10
7.831162501342753
 20
-2.864435459742802
 30
0.0
 41
1.0
 10
8.05903544182258
 20
-3.35308732166508
 30
0.0
 41
1.0
 10
8.53250040453183
 20
-4.054535998232561
 30
0.0
 41
1.0
 10
8.73869472997472
 20
-4.301943896799593
 30
0.0
 41
1.0
 10
8.95850510794041
 20
-4.521154089127887
 30
0.0
 41
1.0
 10
9.313517499540003
 20
-4.875197130051184
 30
0.0
 41
1.0
 10
9.743755865302377
 20
-5.192885922584924
 30
0.0
 41
1.0
 10
10.69794640357187
 20
-5.677014225792298
 30
0.0
 41
1.0
 10
11.22116528447374
 20
-5.843193698087583
 30
0.0
 41
1.0
 10
11.99911792804438
 20
-5.960651866622711
 30
0.0
 41
1.0
 10
12.25265555329015
 20
-5.978968528222206
 30
0.0
 41
1.0
 10
12.50000459414959
 20
-5.978968528222206
 30
0.0
 41
1.0
  0
SPLINE
  5
1A2
330
1F
100
AcDbEntity
  8
Sichtbar_(ISO)
  6
Continuous
 62
     7
100
AcDbSpline
210
0.0
220
0.0
230
1.0
 70
    12
 71
     3
 72
    19
 73
    15
 74
     0
 42
0.000000001
 43
0.0000000001
 40
0.0
 40
0.0
 40
0.0
 40
0.0
 40
0.0977992898333705
 40
0.0977992898333705
 40
0.2997600460055059
 40
0.2997600460055059
 40
0.5018855571938118
 40
0.5018855571938118
 40
0.5018855571938118
 40
0.6270341042927533
 40
0.6270341042927533
 40
0.8272717796510662
 40
0.8272717796510662
 40
1.0
 40
1.0
 40
1.0
 40
1.0
 10
12.50000459414959
 20
-5.500002723028717
 30
0.0
 41
1.0
 10
12.27123114818228
 20
-5.500002723028717
 30
0.0
 41
1.0
 10
12.03673022279322
 20
-5.482375498498358
 30
0.0
 41
1.0
 10
11.3183305622491
 20
-5.369635108232105
 30
0.0
 41
1.0
 10
10.83699893212747
 20
-5.210197531189483
 30
0.0
 41
1.0
 10
9.967412046955406
 20
-4.752028448577327
 30
0.0
 41
1.0
 10
9.579879583686344
 20
-4.453958722943093
 30
0.0
 41
1.0
 10
9.263788236141348
 20
-4.126806791748068
 30
0.0
 41
1.0
 10
9.068076311094194
 20
-3.924246567514283
 30
0.0
 41
1.0
 10
8.886117370055258
 20
-3.697284632955158
 30
0.0
 41
1.0
 10
8.471825239123516
 20
-3.059778959217672
 30
0.0
 41
1.0
 10
8.276325841567493
 20
-2.621434210000596
 30
0.0
 41
1.0
 10
8.049939848148515
 20
-1.78071565568444
 30
0.0
 41
1.0
 10
8.000004595780398
 20
-1.382069341167
 30
0.0
 41
1.0
 10
8.000004594149589
 20
-1.000002742236449
 30
0.0
 41
1.0
  0
LINE
  5
1A3
330
1F
100
AcDbEntity
  8
Sichtbar_(ISO)
  6
Continuous
 62
     7
100
AcDbLine
 10
7.5000045941
 20
-1.000002723
 30
0.0
 11
7.5000045941
 21
0.999997277
 31
0.0
  0
LINE
  5
1A4
330
1F
100
AcDbEntity
  8
Sichtbar_(ISO)
  6
Continuous
 62
     7
100
AcDbLine
 10
8.0000045941
 20
0.974997277
 30
0.0
 11
8.0000045941
 21
-0.975002723
 31
0.0
  0
SPLINE
  5
1A5
330
1F
100
AcDbEntity
  8
Sichtbar_(ISO)
  6
Continuous
 62
     7
100
AcDbSpline
210
0.0
220
0.0
230
1.0
 70
    12
 71
     3
 72
    10
 73
     6
 74
     0
 42
0.000000001
 43
0.0000000001
 40
0.0
 40
0.0
 40
0.0
 40
0.0
 40
0.4999999999997403
 40
0.4999999999997403
 40
0.9999999999999999
 40
0.9999999999999999
 40
0.9999999999999999
 40
0.9999999999999999
 10
7.500004594149589
 20
-1.00000272302872
 30
0.0
 41
1.0
 10
7.500004594149589
 20
-1.004745443159581
 30
0.0
 41
1.0
 10
7.500011343875073
 20
-1.009490334218317
 30
0.0
 41
1.0
 10
7.500038379888573
 20
-1.018984383870283
 30
0.0
 41
1.0
 10
7.50005866617678
 20
-1.023733542463119
 30
0.0
 41
1.0
 10
7.500085739063059
 20
-1.02848479741972
 30
0.0
 41
1.0
  0
LINE
  5
1A6
330
1F
100
AcDbEntity
  8
Sichtbar_(ISO)
  6
Continuous
 62
     7
100
AcDbLine
 10
8.0000045941
 20
-1.0000027422
 30
0.0
 11
8.0000045941
 21
-0.975002723
 31
0.0
  0
SPLINE
  5
1A7
330
1F
100
AcDbEntity
  8
Sichtbar_(ISO)
  6
Continuous
 62
     7
100
AcDbSpline
210
0.0
220
0.0
230
1.0
 70
    12
 71
     3
 72
    19
 73
    15
 74
     0
 42
0.000000001
 43
0.0000000001
 40
0.0
 40
0.0
 40
0.0
 40
0.0
 40
0.1727282203489367
 40
0.1727282203489367
 40
0.3729658957072457
 40
0.3729658957072457
 40
0.4981144428061886
 40
0.4981144428061886
 40
0.4981144428061886
 40
0.7002399539944923
 40
0.7002399539944923
 40
0.902200710166899
 40
0.902200710166899
 40
1.0
 40
1.0
 40
1.0
 40
1.0
 10
8.000004594149589
 20
0.9999972961790157
 30
0.0
 41
1.0
 10
8.000004595780398
 20
1.382063895109564
 30
0.0
 41
1.0
 10
8.049939848148515
 20
1.780710209627006
 30
0.0
 41
1.0
 10
8.276325841567493
 20
2.621428763943161
 30
0.0
 41
1.0
 10
8.471825239123511
 20
3.059773513160234
 30
0.0
 41
1.0
 10
8.886117370055258
 20
3.697279186897721
 30
0.0
 41
1.0
 10
9.068076311094188
 20
3.924241121456845
 30
0.0
 41
1.0
 10
9.263788236141346
 20
4.126801345690627
 30
0.0
 41
1.0
 10
9.579879583686344
 20
4.453953276885656
 30
0.0
 41
1.0
 10
9.967412046955406
 20
4.752023002519886
 30
0.0
 41
1.0
 10
10.83699893212806
 20
5.210192085132355
 30
0.0
 41
1.0
 10
11.31833056225041
 20
5.369629662175094
 30
0.0
 41
1.0
 10
12.03673022279453
 20
5.482370052441023
 30
0.0
 41
1.0
 10
12.27123114818292
 20
5.49999727697128
 30
0.0
 41
1.0
 10
12.50000459414959
 20
5.49999727697128
 30
0.0
 41
1.0
  0
SPLINE
  5
1A8
330
1F
100
AcDbEntity
  8
Sichtbar_(ISO)
  6
Continuous
 62
     7
100
AcDbSpline
210
0.0
220
0.0
230
1.0
 70
    12
 71
     3
 72
    19
 73
    15
 74
     0
 42
0.000000001
 43
0.0000000001
 40
0.0
 40
0.0
 40
0.0
 40
0.0
 40
0.0977992898331011
 40
0.0977992898331011
 40
0.2997600460055077
 40
0.2997600460055077
 40
0.5018855571938114
 40
0.5018855571938114
 40
0.5018855571938114
 40
0.6270341042927543
 40
0.6270341042927543
 40
0.8272717796510634
 40
0.8272717796510634
 40
1.0
 40
1.0
 40
1.0
 40
1.0
 10
12.50000459414958
 20
5.978963082164771
 30
0.0
 41
1.0
 10
12.25265555329084
 20
5.978963082164771
 30
0.0
 41
1.0
 10
11.99911792804578
 20
5.960646420565374
 30
0.0
 41
1.0
 10
11.22116528447515
 20
5.843188252030583
 30
0.0
 41
1.0
 10
10.69794640357251
 20
5.677008779735184
 30
0.0
 41
1.0
 10
9.743755865302365
 20
5.192880476527483
 30
0.0
 41
1.0
 10
9.313517499540003
 20
4.875191683993746
 30
0.0
 41
1.0
 10
8.958505107940407
 20
4.521148643070447
 30
0.0
 41
1.0
 10
8.738694729974714
 20
4.301938450742158
 30
0.0
 41
1.0
 10
8.53250040453183
 20
4.054530552175127
 30
0.0
 41
1.0
 10
8.059035441822582
 20
3.353081875607647
 30
0.0
 41
1.0
 10
7.831162501342753
 20
2.864430013685366
 30
0.0
 41
1.0
 10
7.563675402747197
 20
1.916848285934752
 30
0.0
 41
1.0
 10
7.502565861979126
 20
1.463737571598573
 30
0.0
 41
1.0
 10
7.500085739063059
 20
1.028479351362285
 30
0.0
 41
1.0
  0
LINE
  5
1A9
330
1F
100
AcDbEntity
  8
Sichtbar_(ISO)
  6
Continuous
 62
     7
100
AcDbLine
 10
13.921989152
 20
5.9789630822
 30
0.0
 11
12.5000045941
 21
5.9789630822
 31
0.0
  0
SPLINE
  5
1AA
330
1F
100
AcDbEntity
  8
Sichtbar_(ISO)
  6
Continuous
 62
     7
100
AcDbSpline
210
0.0
220
0.0
230
1.0
 70
    12
 71
     3
 72
    10
 73
     6
 74
     0
 42
0.000000001
 43
0.0000000001
 40
0.0
 40
0.0
 40
0.0
 40
0.0
 40
0.5000000000000216
 40
0.5000000000000216
 40
1.0
 40
1.0
 40
1.0
 40
1.0
 10
7.500085739063059
 20
1.028479351362285
 30
0.0
 41
1.0
 10
7.500058666176781
 20
1.023728096405684
 30
0.0
 41
1.0
 10
7.500038379888574
 20
1.018978937812847
 30
0.0
 41
1.0
 10
7.500011343875075
 20
1.009484888160882
 30
0.0
 41
1.0
 10
7.500004594149593
 20
1.004739997102142
 30
0.0
 41
1.0
 10
7.500004594149593
 20
0.9999972769712808
 30
0.0
 41
1.0
  0
LINE
  5
1AB
330
1F
100
AcDbEntity
  8
Sichtbar_(ISO)
  6
Continuous
 62
     7
100
AcDbLine
 10
8.0000045941
 20
0.974997277
 30
0.0
 11
8.0000045941
 21
0.9999972962
 31
0.0
  0
LINE
  5
1AC
330
1F
100
AcDbEntity
  8
Sichtbar_(ISO)
  6
Continuous
 62
     7
100
AcDbLine
 10
14.5200045941
 20
5.499997277
 30
0.0
 11
15.0000045941
 21
5.979997277
 31
0.0
  0
LINE
  5
1AD
330
1F
100
AcDbEntity
  8
Sichtbar_(ISO)
  6
Continuous
 62
     7
100
AcDbLine
 10
15.0000045941
 20
5.9816571372
 30
0.0
 11
15.0000045941
 21
5.979997277
 31
0.0
  0
SPLINE
  5
1AE
330
1F
100
AcDbEntity
  8
Sichtbar_(ISO)
  6
Continuous
 62
     7
100
AcDbSpline
210
0.0
220
0.0
230
1.0
 70
    12
 71
     2
 72
     6
 73
     3
 74
     0
 42
0.000000001
 43
0.0000000001
 40
0.0
 40
0.0
 40
0.0
 40
1.0
 40
1.0
 40
1.0
 10
13.9792786519859
 20
6.027444684093071
 30
0.0
 41
1.0
 10
14.51176377594675
 20
6.005487258943962
 30
0.0
 41
1.000837443208952
 10
15.00000459414959
 20
5.981657137214202
 30
0.0
 41
1.0
  0
ELLIPSE
  5
1AF
330
1F
100
AcDbEntity
  8
Sichtbar_(ISO)
  6
Continuous
 62
     7
100
AcDbEllipse
 10
18.9619762296
 20
-0.000002723
 30
0.0
 11
-22.53408931776903
 21
-19.08923747312493
 31
0.0
210
0.0
220
0.0
230
1.0
 40
0.26478365
 41
4.709202924669508
 42
4.711744186325214
  0
LINE
  5
1B0
330
1F
100
AcDbEntity
  8
Sichtbar_(ISO)
  6
Continuous
 62
     7
100
AcDbLine
 10
13.6488497086
 20
5.499997277
 30
0.0
 11
13.921989152
 21
5.9789630822
 31
0.0
  0
LINE
  5
1B1
330
1F
100
AcDbEntity
  8
Sichtbar_(ISO)
  6
Continuous
 62
     7
100
AcDbLine
 10
14.5200045941
 20
5.499997277
 30
0.0
 11
13.6488497086
 21
5.499997277
 31
0.0
  0
SPLINE
  5
1B2
330
1F
100
AcDbEntity
  8
Sichtbar_(ISO)
  6
Continuous
 62
     7
100
AcDbSpline
210
0.0
220
0.0
230
1.0
 70
    12
 71
     3
 72
    22
 73
    18
 74
     0
 42
0.000000001
 43
0.0000000001
 40
0.0
 40
0.0
 40
0.0
 40
0.0
 40
0.124991079202773
 40
0.124991079202773
 40
0.2499821584055465
 40
0.2499821584055465
 40
0.3749910792027734
 40
0.3749910792027734
 40
0.4999999999999991
 40
0.4999999999999991
 40
0.625008920797226
 40
0.625008920797226
 40
0.7500178415944535
 40
0.7500178415944535
 40
0.8750089207972259
 40
0.8750089207972259
 40
1.0
 40
1.0
 40
1.00000000000766
 40
1.00000000000766
 10
12.82500459414959
 20
-20.00000272302871
 30
0.0
 41
1.0
 10
12.82500459414959
 20
-20.00000272302871
 30
0.0
 41
1.0
 10
12.67740644860813
 20
-19.9554111785029
 30
0.0
 41
1.0
 10
12.08318643079005
 20
-19.79503131880726
 30
0.0
 41
1.0
 10
11.63704437523635
 20
-19.68151101530292
 30
0.0
 41
1.0
 10
10.60966479532962
 20
-19.4672852247245
 30
0.0
 41
1.0
 10
9.958501929757844
 20
-19.35221820568167
 30
0.0
 41
1.0
 10
8.523014594761335
 20
-19.18822026550682
 30
0.0
 41
1.0
 10
7.738184704181653
 20
-19.14200071120446
 30
0.0
 41
1.0
 10
6.261824484117531
 20
-19.14200071120446
 30
0.0
 41
1.0
 10
5.476994593537829
 20
-19.18822026550682
 30
0.0
 41
1.0
 10
4.041507258541343
 20
-19.35221820568167
 30
0.0
 41
1.0
 10
3.390344392969564
 20
-19.4672852247245
 30
0.0
 41
1.0
 10
2.362964813062883
 20
-19.68151101530291
 30
0.0
 41
1.0
 10
1.916822757509132
 20
-19.79503131880726
 30
0.0
 41
1.0
 10
1.322602739691087
 20
-19.9554111785029
 30
0.0
 41
1.0
 10
1.175004594149603
 20
-20.00000272302871
 30
0.0
 41
1.0
 10
1.175004594149603
 20
-20.00000272302871
 30
0.0
 41
1.0
  0
SPLINE
  5
1B3
330
1F
100
AcDbEntity
  8
Verdeckt_(ISO)
  6
HIDDEN2
 62
     7
100
AcDbSpline
210
0.0
220
0.0
230
1.0
 70
    12
 71
     3
 72
    22
 73
    18
 74
     0
 42
0.000000001
 43
0.0000000001
 40
-0.000000000000794
 40
-0.000000000000794
 40
0.0
 40
0.0
 40
0.1249910792020794
 40
0.1249910792020794
 40
0.249982158404951
 40
0.249982158404951
 40
0.3749910792022778
 40
0.3749910792022778
 40
0.4999999999996039
 40
0.4999999999996039
 40
0.6250089207969288
 40
0.6250089207969288
 40
0.750017841594255
 40
0.750017841594255
 40
0.8750089207971278
 40
0.8750089207971278
 40
1.0
 40
1.0
 40
1.0
 40
1.0
 10
1.975004594149602
 20
-19.20000272302871
 30
0.0
 41
1.0
 10
1.975004594151078
 20
-19.20000272302832
 30
0.0
 41
1.0
 10
2.091215141301395
 20
-19.16833412335335
 30
0.0
 41
1.0
 10
2.573234340634833
 20
-19.05197600864928
 30
0.0
 41
1.0
 10
2.940632527881641
 20
-18.96848991989899
 30
0.0
 41
1.0
 10
3.811196549455218
 20
-18.80805793803155
 30
0.0
 41
1.0
 10
4.373924066168246
 20
-18.72042471367046
 30
0.0
 41
1.0
 10
5.63837460087812
 20
-18.59442024444656
 30
0.0
 41
1.0
 10
6.33987518105328
 20
-18.55844726281548
 30
0.0
 41
1.0
 10
7.660134007245916
 20
-18.55844726281548
 30
0.0
 41
1.0
 10
8.361634587421072
 20
-18.59442024444656
 30
0.0
 41
1.0
 10
9.626085122130943
 20
-18.72042471367046
 30
0.0
 41
1.0
 10
10.18881263884397
 20
-18.80805793803155
 30
0.0
 41
1.0
 10
11.05937666041755
 20
-18.96848991989899
 30
0.0
 41
1.0
 10
11.42677484766437
 20
-19.05197600864928
 30
0.0
 41
1.0
 10
11.90879404699933
 20
-19.16833412335372
 30
0.0
 41
1.0
 10
12.02500459414959
 20
-19.20000272302871
 30
0.0
 41
1.0
 10
12.02500459414959
 20
-19.20000272302871
 30
0.0
 41
1.0
  0
LINE
  5
1B4
330
1F
100
AcDbEntity
  8
Verdeckt_(ISO)
  6
HIDDEN2
 62
     7
100
AcDbLine
 10
12.0250045941
 20
-19.200002723
 30
0.0
 11
12.8250045941
 21
-20.000002723
 31
0.0
  0
LINE
  5
1B5
330
1F
100
AcDbEntity
  8
Verdeckt_(ISO)
  6
HIDDEN2
 62
     7
100
AcDbLine
 10
1.1750045941
 20
-20.000002723
 30
0.0
 11
1.9750045941
 21
-19.200002723
 31
0.0
  0
SPLINE
  5
1B6
330
1F
100
AcDbEntity
  8
Verdeckt_(ISO)
  6
HIDDEN2
 62
     7
100
AcDbSpline
210
0.0
220
0.0
230
1.0
 70
     8
 71
     3
 72
    22
 73
    18
 74
     0
 42
0.000000001
 43
0.0000000001
 40
0.0
 40
0.0
 40
0.0
 40
0.0
 40
0.1267723768351491
 40
0.1267723768351491
 40
0.2535447536702981
 40
0.2535447536702981
 40
0.3767723768351482
 40
0.3767723768351482
 40
0.4999999999999994
 40
0.4999999999999994
 40
0.6232276231648507
 40
0.6232276231648507
 40
0.7464552463297007
 40
0.7464552463297007
 40
0.8732276231648497
 40
0.8732276231648497
 40
1.0
 40
1.0
 40
1.0
 40
1.0
 10
1.5000045941496
 20
19.69615233721545
 30
0.0
 10
1.5000045941496
 20
19.58070564177142
 30
0.0
 10
1.663109689377103
 20
19.42413604271771
 30
0.0
 10
2.287363096612243
 20
19.08590502206317
 30
0.0
 10
2.747582905250301
 20
18.90625016933465
 30
0.0
 10
3.750315276212598
 20
18.61319502582205
 30
0.0
 10
4.357232469501457
 20
18.47811677099226
 30
0.0
 10
5.65890264386002
 20
18.29497834735386
 30
0.0
 10
6.353763285870622
 20
18.24821418414037
 30
0.0
 10
7.646245902428597
 20
18.24821418414037
 30
0.0
 10
8.341106544439198
 20
18.29497834735386
 30
0.0
 10
9.642776718797759
 20
18.47811677099226
 30
0.0
 10
10.24969391208661
 20
18.61319502582205
 30
0.0
 10
11.25242628304891
 20
18.90625016933465
 30
0.0
 10
11.71264609168696
 20
19.08590502206317
 30
0.0
 10
12.3368994989221
 20
19.42413604271771
 30
0.0
 10
12.50000459414961
 20
19.58070564177142
 30
0.0
 10
12.50000459414961
 20
19.69615233721545
 30
0.0
  0
SPLINE
  5
1B7
330
1F
100
AcDbEntity
  8
Verdeckt_(ISO)
  6
HIDDEN2
 62
     7
100
AcDbSpline
210
0.0
220
0.0
230
1.0
 70
     8
 71
     3
 72
    10
 73
     6
 74
     0
 42
0.000000001
 43
0.0000000001
 40
0.0
 40
0.0
 40
0.0
 40
0.0
 40
0.5208249059754513
 40
0.5208249059754513
 40
1.0
 40
1.0
 40
1.0
 40
1.0
 10
12.50000459414961
 20
19.69615233721545
 30
0.0
 10
12.50000459414961
 20
19.81159903265947
 30
0.0
 10
12.3368994989221
 20
19.89633748622953
 30
0.0
 10
11.73760653110024
 20
19.98664151342003
 30
0.0
 10
11.32508579714477
 20
19.99989472291021
 30
0.0
 10
10.86496100496055
 20
19.99998490058578
 30
0.0
  0
SPLINE
  5
1B8
330
1F
100
AcDbEntity
  8
Verdeckt_(ISO)
  6
HIDDEN2
 62
     7
100
AcDbSpline
210
0.0
220
0.0
230
1.0
 70
     8
 71
     3
 72
    10
 73
     6
 74
     0
 42
0.000000001
 43
0.0000000001
 40
0.0
 40
0.0
 40
0.0
 40
0.0
 40
0.4791750940245529
 40
0.4791750940245529
 40
1.0
 40
1.0
 40
1.0
 40
1.0
 10
3.135048183338662
 20
19.99998490058578
 30
0.0
 10
2.67492339115444
 20
19.99989472291021
 30
0.0
 10
2.262402657198968
 20
19.98664151342005
 30
0.0
 10
1.663109689377105
 20
19.89633748622953
 30
0.0
 10
1.5000045941496
 20
19.81159903265947
 30
0.0
 10
1.5000045941496
 20
19.69615233721545
 30
0.0
  0
ELLIPSE
  5
1B9
330
1F
100
AcDbEntity
  8
Verdeckt_(ISO)
  6
HIDDEN2
 62
     7
100
AcDbEllipse
 10
7.0000045941
 20
13.9842673697
 30
0.0
 11
4.500000000000001
 21
0.0
 31
0.0
210
0.0
220
0.0
230
1.0
 40
0.1736481777
 41
0.0
 42
6.283185307179586
  0
ELLIPSE
  5
1BA
330
1F
100
AcDbEntity
  8
Verdeckt_(ISO)
  6
HIDDEN2
 62
     7
100
AcDbEllipse
 10
7.0000045941
 20
13.9842673697
 30
0.0
 11
1.75
 21
0.0
 31
0.0
210
0.0
220
0.0
230
1.0
 40
0.1736481777
 41
0.0
 42
6.283185307179586
  0
ELLIPSE
  5
1BB
330
1F
100
AcDbEntity
  8
Verdeckt_(ISO)
  6
HIDDEN2
 62
     7
100
AcDbEllipse
 10
7.0000045941
 20
18.7113445842
 30
0.0
 11
4.500000000000004
 21
0.0
 31
0.0
210
0.0
220
0.0
230
1.0
 40
0.1736481777
 41
0.0
 42
6.283185307179586
  0
LINE
  5
1BC
330
1F
100
AcDbEntity
  8
Verdeckt_(ISO)
  6
HIDDEN2
 62
     7
100
AcDbLine
 10
2.5000045941
 20
13.9842673697
 30
0.0
 11
2.5000045941
 21
18.7113445842
 31
0.0
  0
LINE
  5
1BD
330
1F
100
AcDbEntity
  8
Verdeckt_(ISO)
  6
HIDDEN2
 62
     7
100
AcDbLine
 10
11.5000045941
 20
13.9842673697
 30
0.0
 11
11.5000045941
 21
18.7113445842
 31
0.0
  0
LINE
  5
1BE
330
1F
100
AcDbEntity
  8
Verdeckt_(ISO)
  6
HIDDEN2
 62
     7
100
AcDbLine
 10
2.5705121722
 20
18.5735597193
 30
0.0
 11
1.6091423224
 21
19.505489963
 31
0.0
  0
LINE
  5
1BF
330
1F
100
AcDbEntity
  8
Verdeckt_(ISO)
  6
HIDDEN2
 62
     7
100
AcDbLine
 10
11.4294970161
 20
18.5735597193
 30
0.0
 11
12.3908668659
 21
19.505489963
 31
0.0
  0
LINE
  5
1C0
330
1F
100
AcDbEntity
  8
Verdeckt_(ISO)
  6
HIDDEN2
 62
     7
100
AcDbLine
 10
7.0000045941
 20
13.3569961297
 30
0.0
 11
5.4690756915
 21
13.8370492789
 31
0.0
  0
LINE
  5
1C1
330
1F
100
AcDbEntity
  8
Verdeckt_(ISO)
  6
HIDDEN2
 62
     7
100
AcDbLine
 10
7.0000045941
 20
13.3569961297
 30
0.0
 11
8.5309334968
 21
13.8370492789
 31
0.0
  0
SPLINE
  5
1C2
330
1F
100
AcDbEntity
  8
Sichtbar_(ISO)
  6
Continuous
 62
     7
100
AcDbSpline
210
0.0
220
0.0
230
1.0
 70
     8
 71
     3
 72
    19
 73
    15
 74
     0
 42
0.000000001
 43
0.0000000001
 40
0.0
 40
0.0
 40
0.0
 40
0.0
 40
0.0197547240609335
 40
0.0197547240609335
 40
0.2598773620304681
 40
0.2598773620304681
 40
0.5000000000000017
 40
0.5000000000000017
 40
0.5000000000000017
 40
0.7401226379695357
 40
0.7401226379695357
 40
0.9802452759390675
 40
0.9802452759390675
 40
1.0
 40
1.0
 40
1.0
 40
1.0
 10
10.86496100496055
 20
19.99998490058578
 30
0.0
 10
10.82496704177798
 20
19.99999273881293
 30
0.0
 10
10.78461342732885
 20
19.99990112961395
 30
0.0
 10
10.24969391208661
 20
19.99753335020394
 30
0.0
 10
9.642776718797759
 20
19.98223188584864
 30
0.0
 10
8.341106544439192
 20
19.9564783443296
 30
0.0
 10
7.646245902428593
 20
19.9473214706354
 30
0.0
 10
7.000004594149604
 20
19.9473214706354
 30
0.0
 10
6.353763285870617
 20
19.9473214706354
 30
0.0
 10
5.658902643860017
 20
19.9564783443296
 30
0.0
 10
4.357232469501453
 20
19.98223188584864
 30
0.0
 10
3.7503152762126
 20
19.99753335020394
 30
0.0
 10
3.215395760970361
 20
19.99990112961395
 30
0.0
 10
3.175042146521228
 20
19.99999273881293
 30
0.0
 10
3.135048183338662
 20
19.99998490058578
 30
0.0
  0
LINE
  5
1C3
330
1F
100
AcDbEntity
  8
Verdeckt_(ISO)
  6
HIDDEN2
 62
     7
100
AcDbLine
 10
11.9750045941
 20
-14.700002723
 30
0.0
 11
2.0250045941
 21
-14.700002723
 31
0.0
  0
LINE
  5
1C4
330
1F
100
AcDbEntity
  8
Verdeckt_(ISO)
  6
HIDDEN2
 62
     7
100
AcDbLine
 10
1.9750045941
 20
-19.200002723
 30
0.0
 11
1.9750045941
 21
-14.750002723
 31
0.0
  0
LINE
  5
1C5
330
1F
100
AcDbEntity
  8
Verdeckt_(ISO)
  6
HIDDEN2
 62
     7
100
AcDbLine
 10
12.0250045941
 20
-19.200002723
 30
0.0
 11
12.0250045941
 21
-14.750002723
 31
0.0
  0
ARC
  5
1C6
330
1F
100
AcDbEntity
  8
Verdeckt_(ISO)
  6
HIDDEN2
 62
     7
100
AcDbCircle
 10
11.9750045941
 20
-14.750002723
 30
0.0
 40
0.05
100
AcDbArc
 50
0.0
 51
90.0
  0
ARC
  5
1C7
330
1F
100
AcDbEntity
  8
Verdeckt_(ISO)
  6
HIDDEN2
 62
     7
100
AcDbCircle
 10
2.0250045941
 20
-14.750002723
 30
0.0
 40
0.05
100
AcDbArc
 50
90.0
 51
180.0
  0
LINE
  5
1C8
330
1F
100
AcDbEntity
  8
Verdeckt_(ISO)
  6
HIDDEN2
 62
     7
100
AcDbLine
 10
7.0000045941
 20
-14.0630548131
 30
0.0
 11
8.7500045941
 21
-14.700002723
 31
0.0
  0
LINE
  5
1C9
330
1F
100
AcDbEntity
  8
Verdeckt_(ISO)
  6
HIDDEN2
 62
     7
100
AcDbLine
 10
7.0000045941
 20
-14.0630548131
 30
0.0
 11
5.2500045941
 21
-14.700002723
 31
0.0
  0
LINE
  5
1CA
330
1F
100
AcDbEntity
  8
Verdeckt_(ISO)
  6
HIDDEN2
 62
     7
100
AcDbLine
 10
35.4380045941
 20
15.499997277
 30
0.0
 11
35.4380045941
 21
4.999997277
 31
0.0
  0
LINE
  5
1CB
330
1F
100
AcDbEntity
  8
Verdeckt_(ISO)
  6
HIDDEN2
 62
     7
100
AcDbLine
 10
45.5620045941
 20
4.999997277
 30
0.0
 11
45.5620045941
 21
15.499997277
 31
0.0
  0
LINE
  5
1CC
330
1F
100
AcDbEntity
  8
Verdeckt_(ISO)
  6
HIDDEN2
 62
     7
100
AcDbLine
 10
43.2497944043
 20
2.6339107152
 30
0.0
 11
37.750214784
 21
2.6339107152
 31
0.0
  0
LINE
  5
1CD
330
1F
100
AcDbEntity
  8
Verdeckt_(ISO)
  6
HIDDEN2
 62
     7
100
AcDbLine
 10
8.4585045941
 20
-6.041502723
 30
0.0
 11
14.0000045941
 21
-6.041502723
 31
0.0
  0
LINE
  5
1CE
330
1F
100
AcDbEntity
  8
Verdeckt_(ISO)
  6
HIDDEN2
 62
     7
100
AcDbLine
 10
14.0000045941
 20
6.041497277
 30
0.0
 11
8.4585045941
 21
6.041497277
 31
0.0
  0
LINE
  5
1D1
330
1F
100
AcDbEntity
  8
Mittellinie_(ISO)
  6
CENTER2
 62
     7
100
AcDbLine
 10
61.016108534
 20
-0.000002723
 30
0.0
 11
-20.6350210182
 21
-0.000002723
 31
0.0
  0
LINE
  5
1D2
330
1F
100
AcDbEntity
  8
Mittellinie_(ISO)
  6
CENTER2
 62
     7
100
AcDbLine
 10
40.5000045941
 20
17.999997277
 30
0.0
 11
40.5000045941
 21
2.499997277
 31
0.0
  0
LINE
  5
1D4
330
1F
100
AcDbEntity
  8
Mittelpunktmarkierung_(ISO)
  6
CENTER2
 62
     7
100
AcDbLine
 10
-0.7148197964
 20
0.0003893567
 30
0.0
 11
-11.2992340295
 21
0.0003893567
 31
0.0
  0
LINE
  5
1D5
330
1F
100
AcDbEntity
  8
Mittelpunktmarkierung_(ISO)
  6
CENTER2
 62
     7
100
AcDbLine
 10
-6.007026913
 20
5.2925964732
 30
0.0
 11
-6.007026913
 21
-5.2918177599
 31
0.0
  0
LINE
  5
1D6
330
1F
100
AcDbEntity
  8
Mittelpunktmarkierung_(ISO)
  6
CENTER2
 62
     7
100
AcDbLine
 10
27.5000045941
 20
-0.000002723
 30
0.0
 11
18.5000045941
 21
-0.000002723
 31
0.0
  0
LINE
  5
1D7
330
1F
100
AcDbEntity
  8
Mittelpunktmarkierung_(ISO)
  6
CENTER2
 62
     7
100
AcDbLine
 10
23.0000045941
 20
4.499997277
 30
0.0
 11
23.0000045941
 21
-4.500002723
 31
0.0
  0
CIRCLE
  5
1D9
330
1F
100
AcDbEntity
  8
_Konvertierung
  6
Continuous
 62
     7
100
AcDbCircle
 10
0.7000045941
 20
19.999997277
 30
0.0
 40
0.01
  0
CIRCLE
  5
1DA
330
1F
100
AcDbEntity
  8
_Konvertierung
  6
Continuous
 62
     7
100
AcDbCircle
 10
0.7000045941
 20
-20.000002723
 30
0.0
 40
0.01
  0
CIRCLE
  5
1DB
330
1F
100
AcDbEntity
  8
_Konvertierung
  6
Continuous
 62
     7
100
AcDbCircle
 10
-19.9999954059
 20
13.1556446273
 30
0.0
 40
0.01
  0
CIRCLE
  5
1DC
330
1F
100
AcDbEntity
  8
_Konvertierung
  6
Continuous
 62
     7
100
AcDbCircle
 10
0.0000045941
 20
19.299997277
 30
0.0
 40
0.01
  0
CIRCLE
  5
1DD
330
1F
100
AcDbEntity
  8
_Konvertierung
  6
Continuous
 62
     7
100
AcDbCircle
 10
0.0000045941
 20
19.299997277
 30
0.0
 40
0.01
  0
CIRCLE
  5
1DE
330
1F
100
AcDbEntity
  8
_Konvertierung
  6
Continuous
 62
     7
100
AcDbCircle
 10
20.0000045941
 20
18.999997277
 30
0.0
 40
0.01
  0
CIRCLE
  5
1DF
330
1F
100
AcDbEntity
  8
_Konvertierung
  6
Continuous
 62
     7
100
AcDbCircle
 10
0.0000045941
 20
19.299997277
 30
0.0
 40
0.01
  0
CIRCLE
  5
1E0
330
1F
100
AcDbEntity
  8
_Konvertierung
  6
Continuous
 62
     7
100
AcDbCircle
 10
60.0000045941
 20
10.9758567554
 30
0.0
 40
0.01
  0
CIRCLE
  5
1E1
330
1F
100
AcDbEntity
  8
_Konvertierung
  6
Continuous
 62
     7
100
AcDbCircle
 10
59.0000045941
 20
4.999997277
 30
0.0
 40
0.01
  0
CIRCLE
  5
1E2
330
1F
100
AcDbEntity
  8
_Konvertierung
  6
Continuous
 62
     7
100
AcDbCircle
 10
59.0000045941
 20
-5.000002723
 30
0.0
 40
0.01
  0
CIRCLE
  5
1E3
330
1F
100
AcDbEntity
  8
_Konvertierung
  6
Continuous
 62
     7
100
AcDbCircle
 10
48.8340806663
 20
17.249997277
 30
0.0
 40
0.01
  0
CIRCLE
  5
1E4
330
1F
100
AcDbEntity
  8
_Konvertierung
  6
Continuous
 62
     7
100
AcDbCircle
 10
48.8340806663
 20
-17.250002723
 30
0.0
 40
0.01
  0
MTEXT
  5
1E6
330
1F
100
AcDbEntity
  8
6
100
AcDbMText
 10
-24.5916340364
 20
-33.0285863834
 30
0.0
 40
4.57
 41
78.3798213208
 46
7.6741609434
 71
     7
 72
     1
  1
{\fsimplex|b0||i0||c0|p34;\C7;\H4.57;\W0.94;HSK-A40 DIN 69893-1}
 73
     1
 44
1.0
1001
ACAD
1000
ACAD_MTEXT_DEFINED_HEIGHT_BEGIN
1070
    46
1040
7.6741609434
1000
ACAD_MTEXT_DEFINED_HEIGHT_END
  0
MTEXT
  5
1E7
330
1F
100
AcDbEntity
  8
6
100
AcDbMText
 10
-24.4336949932
 20
-52.4609446012
 30
0.0
 40
4.57
 41
55.7022741509
 46
7.6741609434
 71
     7
 72
     1
  1
{\fsimplex|b0||i0||c0|p34;\C7;\H4.57;\W0.94;HSK A40-10-60}
 73
     1
 44
1.0
1001
ACAD
1000
ACAD_MTEXT_DEFINED_HEIGHT_BEGIN
1070
    46
1040
7.6741609434
1000
ACAD_MTEXT_DEFINED_HEIGHT_END
  0
DIMENSION
  5
1FA
330
1F
100
AcDbEntity
  8
Bemaßung_(ISO)
  6
Continuous
 62
     7
100
AcDbDimension
  2
DMBLK133
 10
-29.5960957094
 20
19.999997277
 30
0.0
 11
-29.5960957094
 21
-0.000002276
 31
0.0
 70
   161
  1
\A1;n <>
 71
     5
 42
-1.0
 73
     0
 74
     0
 75
     0
  3
Standard_(DIN)
100
AcDbAlignedDimension
 13
0.7000045941
 23
19.999997277
 33
0.0
 14
0.7000045941
 24
-20.000002723
 34
0.0
  0
DIMENSION
  5
205
330
1F
100
AcDbEntity
  8
Bemaßung_(ISO)
  6
Continuous
 62
     7
100
AcDbDimension
  2
DMBLK134
 10
0.0000045941
 20
29.2999966611
 30
0.0
 11
-9.9999956294
 21
29.2999966611
 31
0.0
 70
   160
  1
\A1;<>
 71
     5
 42
-1.0
 73
     0
 74
     0
 75
     0
  3
Standard_(DIN)
100
AcDbAlignedDimension
 13
-19.9999954059
 23
13.1556446273
 33
0.0
 14
0.0000045941
 24
19.299997277
 34
0.0
100
AcDbRotatedDimension
  0
DIMENSION
  5
20F
330
1F
100
AcDbEntity
  8
Bemaßung_(ISO)
  6
Continuous
 62
     7
100
AcDbDimension
  2
DMBLK135
 10
20.0000045941
 20
29.2999970535
 30
0.0
 11
10.0000043706
 21
29.2999970535
 31
0.0
 70
   160
  1
\A1;<>
 71
     5
 42
-1.0
 73
     0
 74
     0
 75
     0
  3
Standard_(DIN)
100
AcDbAlignedDimension
 13
0.0000045941
 23
19.299997277
 33
0.0
 14
20.0000045941
 24
18.999997277
 34
0.0
100
AcDbRotatedDimension
  0
DIMENSION
  5
219
330
1F
100
AcDbEntity
  8
Bemaßung_(ISO)
  6
Continuous
 62
     7
100
AcDbDimension
  2
DMBLK136
 10
60.0000045941
 20
39.8250541458
 30
0.0
 11
30.0000039236
 21
39.8250541458
 31
0.0
 70
   160
  1
\A1;<>
 71
     5
 42
-1.0
 73
     0
 74
     0
 75
     0
  3
Standard_(DIN)
100
AcDbAlignedDimension
 13
0.0000045941
 23
19.299997277
 33
0.0
 14
60.0000045941
 24
10.9758567554
 34
0.0
100
AcDbRotatedDimension
  0
DIMENSION
  5
223
330
1F
100
AcDbEntity
  8
Bemaßung_(ISO)
  6
Continuous
 62
     7
100
AcDbDimension
  2
DMBLK137
 10
69.0000043706
 20
4.999997277
 30
0.0
 11
69.0000043706
 21
-0.0000026113
 31
0.0
 70
   161
  1
\A1;n <>
 71
     5
 42
-1.0
 73
     0
 74
     0
 75
     0
  3
Standard_(DIN)
100
AcDbAlignedDimension
 13
59.0000045941
 23
4.999997277
 33
0.0
 14
59.0000045941
 24
-5.000002723
 34
0.0
1001
ACAD
1000
DSTYLE
1002
{
1070
   144
1041
1.0
1070
     0
1002
}
  0
DIMENSION
  5
22E
330
1F
100
AcDbEntity
  8
Bemaßung_(ISO)
  6
Continuous
 62
     7
100
AcDbDimension
  2
DMBLK138
 10
82.8340825141
 20
17.249997277
 30
0.0
 11
82.8340825141
 21
-0.0000022909
 31
0.0
 70
   161
  1
\A1;n <>
 71
     5
 42
-1.0
 73
     0
 74
     0
 75
     0
  3
Standard_(DIN)
100
AcDbAlignedDimension
 13
48.8340806663
 23
17.249997277
 33
0.0
 14
48.8340806663
 24
-17.250002723
 34
0.0
1001
ACAD
1000
DSTYLE
1002
{
1070
   144
1041
1.0
1070
   271
1070
     1
1070
     0
1002
}
  0
ENDSEC
  0
SECTION
  2
OBJECTS
  0
DICTIONARY
  5
C
330
0
100
AcDbDictionary
281
     1
  3
ACAD_DETAILVIEWSTYLE
350
274
  3
ACAD_GROUP
350
D
  3
ACAD_LAYOUT
350
1A
  3
ACAD_MATERIAL
350
43
  3
ACAD_MLEADERSTYLE
350
6B
  3
ACAD_MLINESTYLE
350
17
  3
ACAD_PLOTSETTINGS
350
19
  3
ACAD_PLOTSTYLENAME
350
E
  3
ACAD_SCALELIST
350
47
  3
ACAD_SECTIONVIEWSTYLE
350
275
  3
ACAD_TABLESTYLE
350
69
  3
ACAD_VISUALSTYLE
350
2A
  3
ACDB_RECOMPOSE_DATA
350
271
  3
AcDbVariableDictionary
350
239
  0
SUN
  5
6D
330
29
100
AcDbSun
 90
        1
290
     0
 63
     7
421
 16777215
 40
1.0
291
     1
 91
  2455826
 92
 54000000
292
     0
 70
     2
 71
   256
280
     1
  0
DICTIONARY
  5
274
102
{ACAD_REACTORS
330
C
102
}
330
C
100
AcDbDictionary
281
     1
  0
DICTIONARY
  5
D
102
{ACAD_REACTORS
330
C
102
}
330
C
100
AcDbDictionary
281
     1
  0
DICTIONARY
  5
1A
102
{ACAD_REACTORS
330
C
102
}
330
C
100
AcDbDictionary
281
     1
  3
Layout1
350
1E
  3
Model
350
22
  0
DICTIONARY
  5
43
102
{ACAD_REACTORS
330
C
102
}
330
C
100
AcDbDictionary
281
     1
  3
ByBlock
350
45
  3
ByLayer
350
44
  3
Global
350
46
  0
DICTIONARY
  5
6B
102
{ACAD_REACTORS
330
C
102
}
330
C
100
AcDbDictionary
281
     1
  3
Standard
350
6C
  0
DICTIONARY
  5
17
102
{ACAD_REACTORS
330
C
102
}
330
C
100
AcDbDictionary
281
     1
  3
Standard
350
18
  0
DICTIONARY
  5
19
102
{ACAD_REACTORS
330
C
102
}
330
C
100
AcDbDictionary
281
     1
  0
ACDBDICTIONARYWDFLT
  5
E
102
{ACAD_REACTORS
330
C
102
}
330
C
100
AcDbDictionary
281
     1
  3
Normal
350
F
100
AcDbDictionaryWithDefault
340
F
  0
DICTIONARY
  5
47
102
{ACAD_REACTORS
330
C
102
}
330
C
100
AcDbDictionary
281
     1
  3
A0
350
48
  3
A1
350
49
  3
A2
350
4A
  3
A3
350
4B
  3
A4
350
4C
  3
A5
350
4D
  3
A6
350
4E
  3
A7
350
4F
  3
A8
350
50
  3
A9
350
51
  3
B0
350
52
  3
B1
350
53
  3
B2
350
54
  3
B3
350
55
  3
B4
350
56
  3
B5
350
57
  3
B6
350
58
  3
B7
350
59
  3
B8
350
5A
  3
B9
350
5B
  3
C0
350
5C
  3
C1
350
5D
  3
C2
350
5E
  3
C3
350
5F
  3
C4
350
60
  3
C5
350
61
  3
C6
350
62
  3
C7
350
63
  3
C8
350
64
  3
C9
350
65
  3
D0
350
66
  3
D1
350
67
  3
D2
350
68
  0
DICTIONARY
  5
275
102
{ACAD_REACTORS
330
C
102
}
330
C
100
AcDbDictionary
281
     1
  0
DICTIONARY
  5
69
102
{ACAD_REACTORS
330
C
102
}
330
C
100
AcDbDictionary
281
     1
  3
Standard
350
6A
  0
DICTIONARY
  5
2A
102
{ACAD_REACTORS
330
C
102
}
330
C
100
AcDbDictionary
281
     1
  3
2dWireframe
350
2F
  3
Basic
350
32
  3
Brighten
350
36
  3
ColorChange
350
3A
  3
Conceptual
350
34
  3
Dim
350
35
  3
EdgeColorOff
350
3D
  3
Facepattern
350
39
  3
Flat
350
2B
  3
FlatWithEdges
350
2C
  3
Gouraud
350
2D
  3
GouraudWithEdges
350
2E
  3
Hidden
350
31
  3
JitterOff
350
3B
  3
Linepattern
350
38
  3
OverhangOff
350
3C
  3
Realistic
350
33
  3
Shaded
350
42
  3
Shaded with edges
350
41
  3
Shades of Gray
350
3E
  3
Sketchy
350
3F
  3
Thicken
350
37
  3
Wireframe
350
30
  3
X-Ray
350
40
  0
XRECORD
  5
271
102
{ACAD_REACTORS
330
C
102
}
330
C
100
AcDbXrecord
280
     1
 90
        1
330
6A
  0
DICTIONARY
  5
239
102
{ACAD_REACTORS
330
C
102
}
330
C
100
AcDbDictionary
281
     1
  3
CANNOSCALE
350
23A
  3
CENTEREXE
350
276
  3
CENTERLTYPEFILE
350
277
  3
CMLEADERSTYLE
350
273
  3
CTABLESTYLE
350
272
  3
XCLIPFRAME
350
23B
  0
LAYOUT
  5
1E
102
{ACAD_REACTORS
330
1A
102
}
330
1A
100
AcDbPlotSettings
  1

  2
none_device
  4

  6

 40
0.0
 41
0.0
 42
0.0
 43
0.0
 44
0.0
 45
0.0
 46
0.0
 47
0.0
 48
0.0
 49
0.0
140
0.0
141
0.0
142
1.0
143
1.0
 70
   688
 72
     1
 73
     0
 74
     5
  7

 75
    16
 76
     0
 77
     2
 78
   300
147
1.0
148
0.0
149
0.0
100
AcDbLayout
  1
Layout1
 70
     1
 71
     1
 10
0.0
 20
0.0
 11
594.0
 21
420.0
 12
0.0
 22
0.0
 32
0.0
 14
0.0
 24
0.0
 34
0.0
 15
594.0
 25
420.0
 35
0.0
146
0.0
 13
0.0
 23
0.0
 33
0.0
 16
1.0
 26
0.0
 36
0.0
 17
0.0
 27
1.0
 37
0.0
 76
     0
330
1B
  0
LAYOUT
  5
22
102
{ACAD_REACTORS
330
1A
102
}
330
1A
100
AcDbPlotSettings
  1

  2
none_device
  4
Letter_(8.50_x_11.00_Inches)
  6

 40
6.35
 41
6.35
 42
6.35000508
 43
6.35000508
 44
215.9
 45
279.4
 46
0.0
 47
0.0
 48
0.0
 49
0.0
140
0.0
141
0.0
142
1.0
143
1.0
 70
  1712
 72
     1
 73
     0
 74
     0
  7

 75
     0
 76
     0
 77
     2
 78
   300
147
1.0
148
0.0
149
0.0
100
AcDbLayout
  1
Model
 70
     1
 71
     0
 10
0.0
 20
0.0
 11
594.0
 21
420.0
 12
0.0
 22
0.0
 32
0.0
 14
0.0
 24
0.0
 34
0.0
 15
594.0
 25
420.0
 35
0.0
146
0.0
 13
0.0
 23
0.0
 33
0.0
 16
1.0
 26
0.0
 36
0.0
 17
0.0
 27
1.0
 37
0.0
 76
     0
330
1F
331
29
  0
MATERIAL
  5
45
102
{ACAD_REACTORS
330
43
102
}
330
43
100
AcDbMaterial
  1
ByBlock
 72
     1
 94
      127
  0
MATERIAL
  5
44
102
{ACAD_REACTORS
330
43
102
}
330
43
100
AcDbMaterial
  1
ByLayer
 72
     1
 94
      127
  0
MATERIAL
  5
46
102
{ACAD_REACTORS
330
43
102
}
330
43
100
AcDbMaterial
  1
Global
 72
     1
 94
      127
  0
MLEADERSTYLE
  5
6C
102
{ACAD_REACTORS
330
6B
102
}
102
{ACAD_XDICTIONARY
360
26F
102
}
330
6B
100
AcDbMLeaderStyle
170
     2
171
     1
172
     0
 90
        2
 40
0.0
 41
0.0
173
     1
 91
-1056964608
340
14
 92
       -2
290
     1
 42
2.0
291
     1
 43
8.0
  3
Standard
341
0
 44
4.0
300

342
11
174
     1
178
     6
175
     1
176
     0
 93
-1056964608
 45
4.0
292
     0
297
     0
 46
4.0
343
0
 94
-1056964608
 47
1.0
 49
1.0
140
1.0
293
     1
141
0.0
294
     1
177
     0
142
1.0
295
     0
296
     0
143
3.75
1001
ACAD_MLEADERVER
1070
     2
  0
MLINESTYLE
  5
18
102
{ACAD_REACTORS
330
17
102
}
330
17
100
AcDbMlineStyle
  2
Standard
 70
     0
  3

 62
   256
 51
90.0
 52
90.0
 71
     2
 49
0.5
 62
   256
  6
BYLAYER
 49
-0.5
 62
   256
  6
BYLAYER
  0
ACDBPLACEHOLDER
  5
F
102
{ACAD_REACTORS
330
E
102
}
330
E
  0
SCALE
  5
48
102
{ACAD_REACTORS
330
47
102
}
330
47
100
AcDbScale
 70
     0
300
1:1
140
1.0
141
1.0
290
     1
  0
SCALE
  5
49
102
{ACAD_REACTORS
330
47
102
}
330
47
100
AcDbScale
 70
     0
300
1:2
140
1.0
141
2.0
290
     0
  0
SCALE
  5
4A
102
{ACAD_REACTORS
330
47
102
}
330
47
100
AcDbScale
 70
     0
300
1:4
140
1.0
141
4.0
290
     0
  0
SCALE
  5
4B
102
{ACAD_REACTORS
330
47
102
}
330
47
100
AcDbScale
 70
     0
300
1:5
140
1.0
141
5.0
290
     0
  0
SCALE
  5
4C
102
{ACAD_REACTORS
330
47
102
}
330
47
100
AcDbScale
 70
     0
300
1:8
140
1.0
141
8.0
290
     0
  0
SCALE
  5
4D
102
{ACAD_REACTORS
330
47
102
}
330
47
100
AcDbScale
 70
     0
300
1:10
140
1.0
141
10.0
290
     0
  0
SCALE
  5
4E
102
{ACAD_REACTORS
330
47
102
}
330
47
100
AcDbScale
 70
     0
300
1:16
140
1.0
141
16.0
290
     0
  0
SCALE
  5
4F
102
{ACAD_REACTORS
330
47
102
}
330
47
100
AcDbScale
 70
     0
300
1:20
140
1.0
141
20.0
290
     0
  0
SCALE
  5
50
102
{ACAD_REACTORS
330
47
102
}
330
47
100
AcDbScale
 70
     0
300
1:30
140
1.0
141
30.0
290
     0
  0
SCALE
  5
51
102
{ACAD_REACTORS
330
47
102
}
330
47
100
AcDbScale
 70
     0
300
1:40
140
1.0
141
40.0
290
     0
  0
SCALE
  5
52
102
{ACAD_REACTORS
330
47
102
}
330
47
100
AcDbScale
 70
     0
300
1:50
140
1.0
141
50.0
290
     0
  0
SCALE
  5
53
102
{ACAD_REACTORS
330
47
102
}
330
47
100
AcDbScale
 70
     0
300
1:100
140
1.0
141
100.0
290
     0
  0
SCALE
  5
54
102
{ACAD_REACTORS
330
47
102
}
330
47
100
AcDbScale
 70
     0
300
2:1
140
2.0
141
1.0
290
     0
  0
SCALE
  5
55
102
{ACAD_REACTORS
330
47
102
}
330
47
100
AcDbScale
 70
     0
300
4:1
140
4.0
141
1.0
290
     0
  0
SCALE
  5
56
102
{ACAD_REACTORS
330
47
102
}
330
47
100
AcDbScale
 70
     0
300
8:1
140
8.0
141
1.0
290
     0
  0
SCALE
  5
57
102
{ACAD_REACTORS
330
47
102
}
330
47
100
AcDbScale
 70
     0
300
10:1
140
10.0
141
1.0
290
     0
  0
SCALE
  5
58
102
{ACAD_REACTORS
330
47
102
}
330
47
100
AcDbScale
 70
     0
300
100:1
140
100.0
141
1.0
290
     0
  0
SCALE
  5
59
102
{ACAD_REACTORS
330
47
102
}
330
47
100
AcDbScale
 70
     0
300
1/128" = 1'-0"
140
0.0078125
141
12.0
290
     0
  0
SCALE
  5
5A
102
{ACAD_REACTORS
330
47
102
}
330
47
100
AcDbScale
 70
     0
300
1/64" = 1'-0"
140
0.015625
141
12.0
290
     0
  0
SCALE
  5
5B
102
{ACAD_REACTORS
330
47
102
}
330
47
100
AcDbScale
 70
     0
300
1/32" = 1'-0"
140
0.03125
141
12.0
290
     0
  0
SCALE
  5
5C
102
{ACAD_REACTORS
330
47
102
}
330
47
100
AcDbScale
 70
     0
300
1/16" = 1'-0"
140
0.0625
141
12.0
290
     0
  0
SCALE
  5
5D
102
{ACAD_REACTORS
330
47
102
}
330
47
100
AcDbScale
 70
     0
300
3/32" = 1'-0"
140
0.09375
141
12.0
290
     0
  0
SCALE
  5
5E
102
{ACAD_REACTORS
330
47
102
}
330
47
100
AcDbScale
 70
     0
300
1/8" = 1'-0"
140
0.125
141
12.0
290
     0
  0
SCALE
  5
5F
102
{ACAD_REACTORS
330
47
102
}
330
47
100
AcDbScale
 70
     0
300
3/16" = 1'-0"
140
0.1875
141
12.0
290
     0
  0
SCALE
  5
60
102
{ACAD_REACTORS
330
47
102
}
330
47
100
AcDbScale
 70
     0
300
1/4" = 1'-0"
140
0.25
141
12.0
290
     0
  0
SCALE
  5
61
102
{ACAD_REACTORS
330
47
102
}
330
47
100
AcDbScale
 70
     0
300
3/8" = 1'-0"
140
0.375
141
12.0
290
     0
  0
SCALE
  5
62
102
{ACAD_REACTORS
330
47
102
}
330
47
100
AcDbScale
 70
     0
300
1/2" = 1'-0"
140
0.5
141
12.0
290
     0
  0
SCALE
  5
63
102
{ACAD_REACTORS
330
47
102
}
330
47
100
AcDbScale
 70
     0
300
3/4" = 1'-0"
140
0.75
141
12.0
290
     0
  0
SCALE
  5
64
102
{ACAD_REACTORS
330
47
102
}
330
47
100
AcDbScale
 70
     0
300
1" = 1'-0"
140
1.0
141
12.0
290
     0
  0
SCALE
  5
65
102
{ACAD_REACTORS
330
47
102
}
330
47
100
AcDbScale
 70
     0
300
1-1/2" = 1'-0"
140
1.5
141
12.0
290
     0
  0
SCALE
  5
66
102
{ACAD_REACTORS
330
47
102
}
330
47
100
AcDbScale
 70
     0
300
3" = 1'-0"
140
3.0
141
12.0
290
     0
  0
SCALE
  5
67
102
{ACAD_REACTORS
330
47
102
}
330
47
100
AcDbScale
 70
     0
300
6" = 1'-0"
140
6.0
141
12.0
290
     0
  0
SCALE
  5
68
102
{ACAD_REACTORS
330
47
102
}
330
47
100
AcDbScale
 70
     0
300
1'-0" = 1'-0"
140
12.0
141
12.0
290
     0
  0
TABLESTYLE
  5
6A
102
{ACAD_REACTORS
330
69
102
}
102
{ACAD_XDICTIONARY
360
26C
102
}
330
69
100
AcDbTableStyle
  3
Standard
 70
     0
 71
     0
 40
0.06
 41
0.06
280
     0
281
     0
  7
Standard
140
4.5
170
     2
 62
     0
 63
   257
283
     0
 90
        4
 91
        0
  1

274
    -2
284
     1
 64
     0
275
    -2
285
     1
 65
     0
276
    -2
286
     1
 66
     0
277
    -2
287
     1
 67
     0
278
    -2
288
     1
 68
     0
279
    -2
289
     1
 69
     0
  7
Standard
140
6.0
170
     5
 62
     0
 63
   257
283
     0
 90
        4
 91
        0
  1

274
    -2
284
     1
 64
     0
275
    -2
285
     1
 65
     0
276
    -2
286
     1
 66
     0
277
    -2
287
     1
 67
     0
278
    -2
288
     1
 68
     0
279
    -2
289
     1
 69
     0
  7
Standard
140
4.5
170
     5
 62
     0
 63
   257
283
     0
 90
        4
 91
        0
  1

274
    -2
284
     1
 64
     0
275
    -2
285
     1
 65
     0
276
    -2
286
     1
 66
     0
277
    -2
287
     1
 67
     0
278
    -2
288
     1
 68
     0
279
    -2
289
     1
 69
     0
  0
VISUALSTYLE
  5
2F
102
{ACAD_REACTORS
330
2A
102
}
102
{ACAD_XDICTIONARY
360
244
102
}
330
2A
100
AcDbVisualStyle
  2
2dWireframe
 70
     4
 71
     0
 72
     2
 73
     0
 90
        0
 40
0.6
 41
30.0
 62
     5
 63
     7
421
 16777215
 74
     1
 91
        4
 64
     7
 65
   257
 75
     1
175
     1
 42
1.0
 92
        0
 66
   257
 43
1.0
 76
     1
 77
     6
 78
     2
 67
     7
 79
     5
170
     0
171
     0
290
     0
174
     0
 93
        1
 44
0.0
173
     0
291
     0
 45
0.0
  0
VISUALSTYLE
  5
32
102
{ACAD_REACTORS
330
2A
102
}
102
{ACAD_XDICTIONARY
360
24A
102
}
330
2A
100
AcDbVisualStyle
  2
Basic
 70
     7
 71
     1
 72
     0
 73
     1
 90
        0
 40
0.6
 41
30.0
 62
     5
 63
     7
421
 16777215
 74
     0
 91
        4
 64
     7
 65
   257
 75
     1
175
     1
 42
1.0
 92
        8
 66
     7
 43
1.0
 76
     1
 77
     6
 78
     2
 67
     7
 79
     5
170
     0
171
     0
290
     0
174
     0
 93
        1
 44
0.0
173
     0
291
     1
 45
0.0
  0
VISUALSTYLE
  5
36
102
{ACAD_REACTORS
330
2A
102
}
102
{ACAD_XDICTIONARY
360
252
102
}
330
2A
100
AcDbVisualStyle
  2
Brighten
 70
    12
 71
     2
 72
     2
 73
     0
 90
        0
 40
0.6
 41
30.0
 62
     5
 63
     7
421
 16777215
 74
     1
 91
        4
 64
     7
 65
   257
 75
     1
175
     1
 42
1.0
 92
        8
 66
     7
 43
1.0
 76
     1
 77
     6
 78
     2
 67
     7
 79
     5
170
     0
171
     0
290
     0
174
     0
 93
        1
 44
50.0
173
     0
291
     1
 45
0.0
  0
VISUALSTYLE
  5
3A
102
{ACAD_REACTORS
330
2A
102
}
102
{ACAD_XDICTIONARY
360
25A
102
}
330
2A
100
AcDbVisualStyle
  2
ColorChange
 70
    16
 71
     2
 72
     2
 73
     3
 90
        0
 40
0.6
 41
30.0
 62
     5
 63
     8
421
  8421504
 74
     1
 91
        4
 64
     7
 65
   257
 75
     1
175
     1
 42
1.0
 92
        8
 66
     8
424
  8421504
 43
1.0
 76
     1
 77
     6
 78
     2
 67
     7
 79
     5
170
     0
171
     0
290
     0
174
     0
 93
        1
 44
0.0
173
     0
291
     1
 45
0.0
  0
VISUALSTYLE
  5
34
102
{ACAD_REACTORS
330
2A
102
}
102
{ACAD_XDICTIONARY
360
24E
102
}
330
2A
100
AcDbVisualStyle
  2
Conceptual
 70
     9
 71
     3
 72
     2
 73
     0
 90
        0
 40
0.6
 41
30.0
 62
     5
 63
     7
421
 16777215
 74
     2
 91
        2
 64
     7
 65
   257
 75
     1
175
     1
 42
179.0
 92
        8
 66
     7
 43
1.0
 76
     1
 77
     6
 78
     2
 67
     7
 79
     3
170
     0
171
     0
290
     0
174
     0
 93
        1
 44
0.0
173
     0
291
     0
 45
0.0
  0
VISUALSTYLE
  5
35
102
{ACAD_REACTORS
330
2A
102
}
102
{ACAD_XDICTIONARY
360
250
102
}
330
2A
100
AcDbVisualStyle
  2
Dim
 70
    11
 71
     2
 72
     2
 73
     0
 90
        0
 40
0.6
 41
30.0
 62
     5
 63
     7
421
 16777215
 74
     1
 91
        4
 64
     7
 65
   257
 75
     1
175
     1
 42
1.0
 92
        8
 66
     7
 43
1.0
 76
     1
 77
     6
 78
     2
 67
     7
 79
     5
170
     0
171
     0
290
     0
174
     0
 93
        1
 44
-50.0
173
     0
291
     1
 45
0.0
  0
VISUALSTYLE
  5
3D
102
{ACAD_REACTORS
330
2A
102
}
102
{ACAD_XDICTIONARY
360
260
102
}
330
2A
100
AcDbVisualStyle
  2
EdgeColorOff
 70
    22
 71
     2
 72
     2
 73
     0
 90
        0
 40
0.6
 41
30.0
 62
     5
 63
     7
421
 16777215
 74
     1
 91
        4
 64
     7
 65
   257
 75
     1
175
     1
 42
1.0
 92
        8
 66
     7
 43
1.0
 76
     1
 77
     6
 78
     2
 67
     7
 79
     5
170
     0
171
     0
290
     0
174
     0
 93
        1
 44
0.0
173
     0
291
     1
 45
0.0
  0
VISUALSTYLE
  5
39
102
{ACAD_REACTORS
330
2A
102
}
102
{ACAD_XDICTIONARY
360
258
102
}
330
2A
100
AcDbVisualStyle
  2
Facepattern
 70
    15
 71
     2
 72
     2
 73
     0
 90
        0
 40
0.6
 41
30.0
 62
     5
 63
     7
421
 16777215
 74
     1
 91
        4
 64
     7
 65
   257
 75
     1
175
     1
 42
1.0
 92
        8
 66
     7
 43
1.0
 76
     1
 77
     6
 78
     2
 67
     7
 79
     5
170
     0
171
     0
290
     0
174
     0
 93
        1
 44
0.0
173
     0
291
     1
 45
0.0
  0
VISUALSTYLE
  5
2B
102
{ACAD_REACTORS
330
2A
102
}
102
{ACAD_XDICTIONARY
360
23C
102
}
330
2A
100
AcDbVisualStyle
  2
Flat
 70
     0
 71
     2
 72
     1
 73
     1
 90
        2
 40
0.6
 41
30.0
 62
     5
 63
     7
421
 16777215
 74
     0
 91
        0
 64
     7
 65
   257
 75
     1
175
     1
 42
1.0
 92
        8
 66
     7
 43
1.0
 76
     1
 77
     6
 78
     2
 67
     7
 79
     5
170
     0
171
     0
290
     0
174
     0
 93
       13
 44
0.0
173
     0
291
     1
 45
0.0
  0
VISUALSTYLE
  5
2C
102
{ACAD_REACTORS
330
2A
102
}
102
{ACAD_XDICTIONARY
360
23E
102
}
330
2A
100
AcDbVisualStyle
  2
FlatWithEdges
 70
     1
 71
     2
 72
     1
 73
     1
 90
        2
 40
0.6
 41
30.0
 62
     5
 63
     7
421
 16777215
 74
     1
 91
        0
 64
     7
 65
   257
 75
     1
175
     1
 42
1.0
 92
        0
 66
   257
 43
1.0
 76
     1
 77
     6
 78
     2
 67
     7
 79
     5
170
     0
171
     0
290
     0
174
     0
 93
       13
 44
0.0
173
     0
291
     1
 45
0.0
  0
VISUALSTYLE
  5
2D
102
{ACAD_REACTORS
330
2A
102
}
102
{ACAD_XDICTIONARY
360
240
102
}
330
2A
100
AcDbVisualStyle
  2
Gouraud
 70
     2
 71
     2
 72
     2
 73
     1
 90
        2
 40
0.6
 41
30.0
 62
     5
 63
     7
421
 16777215
 74
     0
 91
        0
 64
     7
 65
   257
 75
     1
175
     1
 42
1.0
 92
        0
 66
     7
 43
1.0
 76
     1
 77
     6
 78
     2
 67
     7
 79
     5
170
     0
171
     0
290
     0
174
     0
 93
       13
 44
0.0
173
     0
291
     1
 45
0.0
  0
VISUALSTYLE
  5
2E
102
{ACAD_REACTORS
330
2A
102
}
102
{ACAD_XDICTIONARY
360
242
102
}
330
2A
100
AcDbVisualStyle
  2
GouraudWithEdges
 70
     3
 71
     2
 72
     2
 73
     1
 90
        2
 40
0.6
 41
30.0
 62
     5
 63
     7
421
 16777215
 74
     1
 91
        0
 64
     7
 65
   257
 75
     1
175
     1
 42
1.0
 92
        0
 66
   257
 43
1.0
 76
     1
 77
     6
 78
     2
 67
     7
 79
     5
170
     0
171
     0
290
     0
174
     0
 93
       13
 44
0.0
173
     0
291
     1
 45
0.0
  0
VISUALSTYLE
  5
31
102
{ACAD_REACTORS
330
2A
102
}
102
{ACAD_XDICTIONARY
360
248
102
}
330
2A
100
AcDbVisualStyle
  2
Hidden
 70
     6
 71
     1
 72
     2
 73
     2
 90
        0
 40
0.6
 41
30.0
 62
     5
 63
     7
421
 16777215
 74
     2
 91
        2
 64
     7
 65
   257
 75
     2
175
     1
 42
40.0
 92
        0
 66
   257
 43
1.0
 76
     1
 77
     6
 78
     2
 67
     7
 79
     3
170
     0
171
     0
290
     0
174
     0
 93
        1
 44
0.0
173
     0
291
     0
 45
0.0
  0
VISUALSTYLE
  5
3B
102
{ACAD_REACTORS
330
2A
102
}
102
{ACAD_XDICTIONARY
360
25C
102
}
330
2A
100
AcDbVisualStyle
  2
JitterOff
 70
    20
 71
     2
 72
     2
 73
     0
 90
        0
 40
0.6
 41
30.0
 62
     5
 63
     7
421
 16777215
 74
     1
 91
        4
 64
     7
 65
   257
 75
     1
175
     1
 42
1.0
 92
       10
 66
     7
 43
1.0
 76
     1
 77
     6
 78
     2
 67
     7
 79
     5
170
     0
171
     0
290
     0
174
     0
 93
        1
 44
0.0
173
     0
291
     1
 45
0.0
  0
VISUALSTYLE
  5
38
102
{ACAD_REACTORS
330
2A
102
}
102
{ACAD_XDICTIONARY
360
256
102
}
330
2A
100
AcDbVisualStyle
  2
Linepattern
 70
    14
 71
     2
 72
     2
 73
     0
 90
        0
 40
0.6
 41
30.0
 62
     5
 63
     7
421
 16777215
 74
     1
 91
        4
 64
     7
 65
   257
 75
     7
175
     7
 42
1.0
 92
        8
 66
     7
 43
1.0
 76
     1
 77
     6
 78
     2
 67
     7
 79
     5
170
     0
171
     0
290
     0
174
     0
 93
        1
 44
0.0
173
     0
291
     1
 45
0.0
  0
VISUALSTYLE
  5
3C
102
{ACAD_REACTORS
330
2A
102
}
102
{ACAD_XDICTIONARY
360
25E
102
}
330
2A
100
AcDbVisualStyle
  2
OverhangOff
 70
    21
 71
     2
 72
     2
 73
     0
 90
        0
 40
0.6
 41
30.0
 62
     5
 63
     7
421
 16777215
 74
     1
 91
        4
 64
     7
 65
   257
 75
     1
175
     1
 42
1.0
 92
        9
 66
     7
 43
1.0
 76
     1
 77
     6
 78
     2
 67
     7
 79
     5
170
     0
171
     0
290
     0
174
     0
 93
        1
 44
0.0
173
     0
291
     1
 45
0.0
  0
VISUALSTYLE
  5
33
102
{ACAD_REACTORS
330
2A
102
}
102
{ACAD_XDICTIONARY
360
24C
102
}
330
2A
100
AcDbVisualStyle
  2
Realistic
 70
     8
 71
     2
 72
     3
 73
     0
 90
        2
 40
0.6
 41
30.0
 62
     5
 63
     7
421
 16777215
 74
     0
 91
        0
 64
     7
 65
   257
 75
     1
175
     1
 42
1.0
 92
        8
 66
   257
 43
1.0
 76
     1
 77
     6
 78
     2
 67
     7
 79
     3
170
     0
171
     0
290
     0
174
     0
 93
       13
 44
0.0
173
     0
291
     0
 45
0.0
  0
VISUALSTYLE
  5
42
102
{ACAD_REACTORS
330
2A
102
}
102
{ACAD_XDICTIONARY
360
26A
102
}
330
2A
100
AcDbVisualStyle
  2
Shaded
 70
    27
 71
     2
 72
     2
 73
     1
 90
        2
 40
0.6
 41
30.0
 62
     5
 63
     7
421
 16777215
 74
     0
 91
        4
 64
     7
 65
   257
 75
     1
175
     1
 42
1.0
 92
        8
 66
   257
 43
1.0
 76
     1
 77
     6
 78
     2
 67
     8
425
  7895160
 79
     3
170
     0
171
     0
290
     0
174
     0
 93
        5
 44
0.0
173
     0
291
     0
 45
0.0
  0
VISUALSTYLE
  5
41
102
{ACAD_REACTORS
330
2A
102
}
102
{ACAD_XDICTIONARY
360
268
102
}
330
2A
100
AcDbVisualStyle
  2
Shaded with edges
 70
    26
 71
     2
 72
     2
 73
     1
 90
        2
 40
0.6
 41
30.0
 62
     5
 63
     7
421
 16777215
 74
     1
 91
       10
 64
     7
 65
   257
 75
     2
175
     1
 42
1.0
 92
        8
 66
   257
 43
1.0
 76
     1
 77
     6
 78
     2
 67
     7
 79
     3
170
     0
171
     0
290
     0
174
     0
 93
        5
 44
0.0
173
     0
291
     0
 45
0.0
  0
VISUALSTYLE
  5
3E
102
{ACAD_REACTORS
330
2A
102
}
102
{ACAD_XDICTIONARY
360
262
102
}
330
2A
100
AcDbVisualStyle
  2
Shades of Gray
 70
    23
 71
     2
 72
     2
 73
     3
 90
        0
 40
0.6
 41
30.0
 62
     5
 63
     7
421
 16777215
 74
     2
 91
        2
 64
     7
 65
     7
 75
     1
175
     1
 42
40.0
 92
        8
 66
     7
 43
1.0
 76
     1
 77
     6
 78
     2
 67
     7
 79
     3
170
     0
171
     0
290
     0
174
     0
 93
        1
 44
0.0
173
     0
291
     0
 45
0.0
  0
VISUALSTYLE
  5
3F
102
{ACAD_REACTORS
330
2A
102
}
102
{ACAD_XDICTIONARY
360
264
102
}
330
2A
100
AcDbVisualStyle
  2
Sketchy
 70
    24
 71
     1
 72
     2
 73
     2
 90
        0
 40
0.6
 41
30.0
 62
     5
 63
     7
421
 16777215
 74
     2
 91
        2
 64
     7
 65
     7
 75
     1
175
     1
 42
40.0
 92
       11
 66
     7
 43
1.0
 76
     1
 77
     6
 78
     2
 67
     7
 79
     6
170
     0
171
     0
290
     0
174
     0
 93
        1
 44
0.0
173
     0
291
     0
 45
0.0
  0
VISUALSTYLE
  5
37
102
{ACAD_REACTORS
330
2A
102
}
102
{ACAD_XDICTIONARY
360
254
102
}
330
2A
100
AcDbVisualStyle
  2
Thicken
 70
    13
 71
     2
 72
     2
 73
     0
 90
        0
 40
0.6
 41
30.0
 62
     5
 63
     7
421
 16777215
 74
     1
 91
        4
 64
     7
 65
   257
 75
     1
175
     1
 42
1.0
 92
       12
 66
     7
 43
1.0
 76
     1
 77
     6
 78
     2
 67
     7
 79
     5
170
     0
171
     0
290
     0
174
     0
 93
        1
 44
0.0
173
     0
291
     1
 45
0.0
  0
VISUALSTYLE
  5
30
102
{ACAD_REACTORS
330
2A
102
}
102
{ACAD_XDICTIONARY
360
246
102
}
330
2A
100
AcDbVisualStyle
  2
Wireframe
 70
     5
 71
     0
 72
     2
 73
     0
 90
        0
 40
0.6
 41
30.0
 62
     5
 63
     7
421
 16777215
 74
     1
 91
        4
 64
     7
 65
   257
 75
     1
175
     1
 42
1.0
 92
        0
 66
   257
 43
1.0
 76
     1
 77
     6
 78
     2
 67
     7
 79
     3
170
     0
171
     0
290
     0
174
     0
 93
        1
 44
0.0
173
     0
291
     0
 45
0.0
  0
VISUALSTYLE
  5
40
102
{ACAD_REACTORS
330
2A
102
}
102
{ACAD_XDICTIONARY
360
266
102
}
330
2A
100
AcDbVisualStyle
  2
X-Ray
 70
    25
 71
     2
 72
     2
 73
     1
 90
        1
 40
0.5
 41
30.0
 62
     5
 63
     7
421
 16777215
 74
     1
 91
        0
 64
     7
 65
   257
 75
     1
175
     1
 42
1.0
 92
        8
 66
     7
 43
1.0
 76
     1
 77
     6
 78
     2
 67
     7
 79
     3
170
     0
171
     0
290
     0
174
     0
 93
       13
 44
0.0
173
     0
291
     0
 45
0.0
  0
DICTIONARYVAR
  5
23A
102
{ACAD_REACTORS
330
239
102
}
330
239
100
DictionaryVariables
280
     0
  1
1:1
  0
DICTIONARYVAR
  5
276
102
{ACAD_REACTORS
330
239
102
}
330
239
100
DictionaryVariables
280
     0
  1
3.500000
  0
DICTIONARYVAR
  5
277
102
{ACAD_REACTORS
330
239
102
}
330
239
100
DictionaryVariables
280
     0
  1
acadiso.lin
  0
DICTIONARYVAR
  5
273
102
{ACAD_REACTORS
330
239
102
}
330
239
100
DictionaryVariables
280
     0
  1
Standard
  0
DICTIONARYVAR
  5
272
102
{ACAD_REACTORS
330
239
102
}
330
239
100
DictionaryVariables
280
     0
  1
Standard
  0
DICTIONARYVAR
  5
23B
102
{ACAD_REACTORS
330
239
102
}
330
239
100
DictionaryVariables
280
     0
  1
2
  0
DICTIONARY
  5
26F
330
6C
100
AcDbDictionary
280
     1
281
     1
  3
ACAD_XREC_ROUNDTRIP
360
270
  0
DICTIONARY
  5
26C
330
6A
100
AcDbDictionary
280
     1
281
     1
  3
ACAD_ROUNDTRIP_2008_TABLESTYLE_CELLSTYLEMAP
360
26D
  0
DICTIONARY
  5
244
330
2F
100
AcDbDictionary
280
     1
281
     1
  3
ACAD_XREC_ROUNDTRIP
360
245
  0
DICTIONARY
  5
24A
330
32
100
AcDbDictionary
280
     1
281
     1
  3
ACAD_XREC_ROUNDTRIP
360
24B
  0
DICTIONARY
  5
252
330
36
100
AcDbDictionary
280
     1
281
     1
  3
ACAD_XREC_ROUNDTRIP
360
253
  0
DICTIONARY
  5
25A
330
3A
100
AcDbDictionary
280
     1
281
     1
  3
ACAD_XREC_ROUNDTRIP
360
25B
  0
DICTIONARY
  5
24E
330
34
100
AcDbDictionary
280
     1
281
     1
  3
ACAD_XREC_ROUNDTRIP
360
24F
  0
DICTIONARY
  5
250
330
35
100
AcDbDictionary
280
     1
281
     1
  3
ACAD_XREC_ROUNDTRIP
360
251
  0
DICTIONARY
  5
260
330
3D
100
AcDbDictionary
280
     1
281
     1
  3
ACAD_XREC_ROUNDTRIP
360
261
  0
DICTIONARY
  5
258
330
39
100
AcDbDictionary
280
     1
281
     1
  3
ACAD_XREC_ROUNDTRIP
360
259
  0
DICTIONARY
  5
23C
330
2B
100
AcDbDictionary
280
     1
281
     1
  3
ACAD_XREC_ROUNDTRIP
360
23D
  0
DICTIONARY
  5
23E
330
2C
100
AcDbDictionary
280
     1
281
     1
  3
ACAD_XREC_ROUNDTRIP
360
23F
  0
DICTIONARY
  5
240
330
2D
100
AcDbDictionary
280
     1
281
     1
  3
ACAD_XREC_ROUNDTRIP
360
241
  0
DICTIONARY
  5
242
330
2E
100
AcDbDictionary
280
     1
281
     1
  3
ACAD_XREC_ROUNDTRIP
360
243
  0
DICTIONARY
  5
248
330
31
100
AcDbDictionary
280
     1
281
     1
  3
ACAD_XREC_ROUNDTRIP
360
249
  0
DICTIONARY
  5
25C
330
3B
100
AcDbDictionary
280
     1
281
     1
  3
ACAD_XREC_ROUNDTRIP
360
25D
  0
DICTIONARY
  5
256
330
38
100
AcDbDictionary
280
     1
281
     1
  3
ACAD_XREC_ROUNDTRIP
360
257
  0
DICTIONARY
  5
25E
330
3C
100
AcDbDictionary
280
     1
281
     1
  3
ACAD_XREC_ROUNDTRIP
360
25F
  0
DICTIONARY
  5
24C
330
33
100
AcDbDictionary
280
     1
281
     1
  3
ACAD_XREC_ROUNDTRIP
360
24D
  0
DICTIONARY
  5
26A
330
42
100
AcDbDictionary
280
     1
281
     1
  3
ACAD_XREC_ROUNDTRIP
360
26B
  0
DICTIONARY
  5
268
330
41
100
AcDbDictionary
280
     1
281
     1
  3
ACAD_XREC_ROUNDTRIP
360
269
  0
DICTIONARY
  5
262
330
3E
100
AcDbDictionary
280
     1
281
     1
  3
ACAD_XREC_ROUNDTRIP
360
263
  0
DICTIONARY
  5
264
330
3F
100
AcDbDictionary
280
     1
281
     1
  3
ACAD_XREC_ROUNDTRIP
360
265
  0
DICTIONARY
  5
254
330
37
100
AcDbDictionary
280
     1
281
     1
  3
ACAD_XREC_ROUNDTRIP
360
255
  0
DICTIONARY
  5
246
330
30
100
AcDbDictionary
280
     1
281
     1
  3
ACAD_XREC_ROUNDTRIP
360
247
  0
DICTIONARY
  5
266
330
40
100
AcDbDictionary
280
     1
281
     1
  3
ACAD_XREC_ROUNDTRIP
360
267
  0
XRECORD
  5
270
102
{ACAD_REACTORS
330
26F
102
}
330
26F
100
AcDbXrecord
280
     1
102
ACAD_ROUNDTRIP_2010_MLEADER_STYLE
  0
CELLSTYLEMAP
  5
26D
102
{ACAD_REACTORS
330
26C
102
}
330
26C
100
AcDbCellStyleMap
 90
        3
300
CELLSTYLE
  1
TABLEFORMAT_BEGIN
 90
        5
170
     1
 91
        0
 92
    32768
 62
   257
 93
        1
300
CONTENTFORMAT
  1
CONTENTFORMAT_BEGIN
 90
        0
 91
        0
 92
        4
 93
        0
300

 40
0.0
140
1.0
 94
        5
 62
     0
340
11
144
6.0
309
CONTENTFORMAT_END
171
     1
301
MARGIN
  1
CELLMARGIN_BEGIN
 40
1.5
 40
1.5
 40
1.5
 40
1.5
 40
1.5
 40
1.5
309
CELLMARGIN_END
 94
        6
 95
        1
302
GRIDFORMAT
  1
GRIDFORMAT_BEGIN
 90
        0
 91
        1
 62
     0
 92
       -2
340
14
 93
        0
 40
0.045
309
GRIDFORMAT_END
 95
        2
302
GRIDFORMAT
  1
GRIDFORMAT_BEGIN
 90
        0
 91
        1
 62
     0
 92
       -2
340
14
 93
        0
 40
0.045
309
GRIDFORMAT_END
 95
        4
302
GRIDFORMAT
  1
GRIDFORMAT_BEGIN
 90
        0
 91
        1
 62
     0
 92
       -2
340
14
 93
        0
 40
0.045
309
GRIDFORMAT_END
 95
        8
302
GRIDFORMAT
  1
GRIDFORMAT_BEGIN
 90
        0
 91
        1
 62
     0
 92
       -2
340
14
 93
        0
 40
0.045
309
GRIDFORMAT_END
 95
       16
302
GRIDFORMAT
  1
GRIDFORMAT_BEGIN
 90
        0
 91
        1
 62
     0
 92
       -2
340
14
 93
        0
 40
0.045
309
GRIDFORMAT_END
 95
       32
302
GRIDFORMAT
  1
GRIDFORMAT_BEGIN
 90
        0
 91
        1
 62
     0
 92
       -2
340
14
 93
        0
 40
0.045
309
GRIDFORMAT_END
309
TABLEFORMAT_END
  1
CELLSTYLE_BEGIN
 90
        1
 91
        1
300
_TITLE
309
CELLSTYLE_END
300
CELLSTYLE
  1
TABLEFORMAT_BEGIN
 90
        5
170
     1
 91
        0
 92
        0
 62
   257
 93
        1
300
CONTENTFORMAT
  1
CONTENTFORMAT_BEGIN
 90
        0
 91
        0
 92
        4
 93
        0
300

 40
0.0
140
1.0
 94
        5
 62
     0
340
11
144
4.5
309
CONTENTFORMAT_END
171
     1
301
MARGIN
  1
CELLMARGIN_BEGIN
 40
1.5
 40
1.5
 40
1.5
 40
1.5
 40
1.5
 40
1.5
309
CELLMARGIN_END
 94
        6
 95
        1
302
GRIDFORMAT
  1
GRIDFORMAT_BEGIN
 90
        0
 91
        1
 62
     0
 92
       -2
340
14
 93
        0
 40
0.045
309
GRIDFORMAT_END
 95
        2
302
GRIDFORMAT
  1
GRIDFORMAT_BEGIN
 90
        0
 91
        1
 62
     0
 92
       -2
340
14
 93
        0
 40
0.045
309
GRIDFORMAT_END
 95
        4
302
GRIDFORMAT
  1
GRIDFORMAT_BEGIN
 90
        0
 91
        1
 62
     0
 92
       -2
340
14
 93
        0
 40
0.045
309
GRIDFORMAT_END
 95
        8
302
GRIDFORMAT
  1
GRIDFORMAT_BEGIN
 90
        0
 91
        1
 62
     0
 92
       -2
340
14
 93
        0
 40
0.045
309
GRIDFORMAT_END
 95
       16
302
GRIDFORMAT
  1
GRIDFORMAT_BEGIN
 90
        0
 91
        1
 62
     0
 92
       -2
340
14
 93
        0
 40
0.045
309
GRIDFORMAT_END
 95
       32
302
GRIDFORMAT
  1
GRIDFORMAT_BEGIN
 90
        0
 91
        1
 62
     0
 92
       -2
340
14
 93
        0
 40
0.045
309
GRIDFORMAT_END
309
TABLEFORMAT_END
  1
CELLSTYLE_BEGIN
 90
        2
 91
        1
300
_HEADER
309
CELLSTYLE_END
300
CELLSTYLE
  1
TABLEFORMAT_BEGIN
 90
        5
170
     1
 91
        0
 92
        0
 62
   257
 93
        1
300
CONTENTFORMAT
  1
CONTENTFORMAT_BEGIN
 90
        0
 91
        0
 92
        4
 93
        0
300

 40
0.0
140
1.0
 94
        2
 62
     0
340
11
144
4.5
309
CONTENTFORMAT_END
171
     1
301
MARGIN
  1
CELLMARGIN_BEGIN
 40
1.5
 40
1.5
 40
1.5
 40
1.5
 40
1.5
 40
1.5
309
CELLMARGIN_END
 94
        6
 95
        1
302
GRIDFORMAT
  1
GRIDFORMAT_BEGIN
 90
        0
 91
        1
 62
     0
 92
       -2
340
14
 93
        0
 40
0.045
309
GRIDFORMAT_END
 95
        2
302
GRIDFORMAT
  1
GRIDFORMAT_BEGIN
 90
        0
 91
        1
 62
     0
 92
       -2
340
14
 93
        0
 40
0.045
309
GRIDFORMAT_END
 95
        4
302
GRIDFORMAT
  1
GRIDFORMAT_BEGIN
 90
        0
 91
        1
 62
     0
 92
       -2
340
14
 93
        0
 40
0.045
309
GRIDFORMAT_END
 95
        8
302
GRIDFORMAT
  1
GRIDFORMAT_BEGIN
 90
        0
 91
        1
 62
     0
 92
       -2
340
14
 93
        0
 40
0.045
309
GRIDFORMAT_END
 95
       16
302
GRIDFORMAT
  1
GRIDFORMAT_BEGIN
 90
        0
 91
        1
 62
     0
 92
       -2
340
14
 93
        0
 40
0.045
309
GRIDFORMAT_END
 95
       32
302
GRIDFORMAT
  1
GRIDFORMAT_BEGIN
 90
        0
 91
        1
 62
     0
 92
       -2
340
14
 93
        0
 40
0.045
309
GRIDFORMAT_END
309
TABLEFORMAT_END
  1
CELLSTYLE_BEGIN
 90
        3
 91
        2
300
_DATA
309
CELLSTYLE_END
  0
XRECORD
  5
245
102
{ACAD_REACTORS
330
244
102
}
330
244
100
AcDbXrecord
280
     1
102
RTVSPropertyOp0
 70
     1
102
RTVSPropertyOp1
 70
     1
102
RTVSPropertyOp2
 70
     1
102
RTVSPropertyOp3
 70
     1
102
RTVSPropertyOp4
 70
     1
102
RTVSPropertyOp5
 70
     1
102
RTVSPropertyOp6
 70
     1
102
RTVSPropertyOp7
 70
     1
102
RTVSPropertyOp8
 70
     1
102
RTVSPropertyOp9
 70
     1
102
RTVSPropertyOp10
 70
     1
102
RTVSPropertyOp11
 70
     1
102
RTVSPropertyOp12
 70
     1
102
RTVSPropertyOp13
 70
     1
102
RTVSPropertyOp14
 70
     1
102
RTVSPropertyOp15
 70
     1
102
RTVSPropertyOp16
 70
     1
102
RTVSPropertyOp17
 70
     1
102
RTVSPropertyOp18
 70
     1
102
RTVSPropertyOp19
 70
     1
102
RTVSPropertyOp20
 70
     1
102
RTVSPropertyOp21
 70
     1
102
RTVSPropertyOp22
 70
     1
102
RTVSPropertyOp23
 70
     1
102
RTVSPropertyOp24
 70
     1
102
RTVSPropertyOp25
 70
     1
102
RTVSPropertyOp26
 70
     1
102
RTVSPropertyOp27
 70
     1
102
RTVSPropertyOp28
 70
     1
102
RTVSPropertyOp29
 70
     1
102
RTVSPropertyOp30
 70
     1
102
RTVSPropertyOp31
 70
     1
102
RTVSPropertyOp32
 70
     1
102
RTVSPropertyOp33
 70
     1
102
RTVSPropertyOp34
 70
     1
102
RTVSPropertyOp35
 70
     1
102
RTVSPropertyOp36
 70
     1
102
RTVSPropertyOp37
 70
     1
102
RTVSPropertyOp38
 70
     1
102
RTVSPropertyOp39
 70
     1
102
RTVSPropertyOp40
 70
     1
102
RTVSPropertyOp41
 70
     1
102
RTVSPropertyOp42
 70
     1
102
RTVSPropertyOp43
 70
     1
102
RTVSPropertyOp44
 70
     1
102
RTVSPropertyOp45
 70
     1
102
RTVSPropertyOp46
 70
     1
102
RTVSPropertyOp47
 70
     1
102
RTVSPropertyOp48
 70
     1
102
RTVSPropertyOp49
 70
     1
102
RTVSPropertyOp50
 70
     1
102
RTVSPropertyOp51
 70
     0
102
RTVSPropertyOp52
 70
     0
102
RTVSPropertyOp53
 70
     1
102
RTVSPropertyOp54
 70
     1
102
RTVSPropertyOp55
 70
     1
102
RTVSPropertyOp56
 70
     1
102
RTVSPropertyOp57
 70
     1
102
RTVSPost2010Prop28
280
     1
102
RTVSPost2010PropOp28
 70
     1
102
RTVSPost2010Prop29
280
     1
102
RTVSPost2010PropOp29
 70
     1
102
RTVSPost2010Prop30
280
     0
102
RTVSPost2010PropOp30
 70
     1
102
RTVSPost2010Prop31
280
     0
102
RTVSPost2010PropOp31
 70
     1
102
RTVSPost2010Prop32
280
     0
102
RTVSPost2010PropOp32
 70
     1
102
RTVSPost2010Prop33
280
     0
102
RTVSPost2010PropOp33
 70
     1
102
RTVSPost2010Prop34
280
     0
102
RTVSPost2010PropOp34
 70
     1
102
RTVSPost2010Prop35
280
     0
102
RTVSPost2010PropOp35
 70
     1
102
RTVSPost2010Prop36
280
     0
102
RTVSPost2010PropOp36
 70
     1
102
RTVSPost2010Prop37
 90
       50
102
RTVSPost2010PropOp37
 70
     1
102
RTVSPost2010Prop38
140
0.0
102
RTVSPost2010PropOp38
 70
     1
102
RTVSPost2010Prop39
140
1.0
102
RTVSPost2010PropOp39
 70
     1
102
RTVSPost2010Prop40
 90
        0
102
RTVSPost2010PropOp40
 70
     1
102
RTVSPost2010Prop41ColorIndex
 90
       18
102
RTVSPost2010Prop41ColorRGB
 90
        0
102
RTVSPost2010PropOp41
 70
     1
102
RTVSPost2010Prop42
 90
       50
102
RTVSPost2010PropOp42
 70
     1
102
RTVSPost2010Prop43
 90
        3
102
RTVSPost2010PropOp43
 70
     1
102
RTVSPost2010Prop44ColorIndex
 90
        5
102
RTVSPost2010Prop44ColorRGB
 90
      255
102
RTVSPost2010PropOp44
 70
     1
102
RTVSPost2010Prop45
280
     0
102
RTVSPost2010PropOp45
 70
     1
102
RTVSPost2010Prop46
 90
       50
102
RTVSPost2010PropOp46
 70
     1
102
RTVSPost2010Prop47
 90
       50
102
RTVSPost2010PropOp47
 70
     1
102
RTVSPost2010Prop48
 90
       50
102
RTVSPost2010PropOp48
 70
     1
102
RTVSPost2010Prop49
280
     0
102
RTVSPost2010PropOp49
 70
     1
102
RTVSPost2010Prop50
 90
       50
102
RTVSPost2010PropOp50
 70
     1
102
RTVSPost2010Prop51ColorIndex
 90
      256
102
RTVSPost2010Prop51ColorRGB
 90
-16777216
102
RTVSPost2010PropOp51
 70
     0
102
RTVSPost2010Prop52
140
1.0
102
RTVSPost2010PropOp52
 70
     0
102
RTVSPost2010Prop53
 90
        2
102
RTVSPost2010PropOp53
 70
     1
102
RTVSPost2010Prop54
  1
strokes_ogs.tif
102
RTVSPost2010PropOp54
 70
     1
102
RTVSPost2010Prop55
280
     0
102
RTVSPost2010PropOp55
 70
     1
102
RTVSPost2010Prop56
140
1.0
102
RTVSPost2010PropOp56
 70
     1
102
RTVSPost2010Prop57
140
1.0
102
RTVSPost2010PropOp57
 70
     1
  0
XRECORD
  5
24B
102
{ACAD_REACTORS
330
24A
102
}
330
24A
100
AcDbXrecord
280
     1
102
RTVSPropertyOp0
 70
     1
102
RTVSPropertyOp1
 70
     1
102
RTVSPropertyOp2
 70
     1
102
RTVSPropertyOp3
 70
     1
102
RTVSPropertyOp4
 70
     1
102
RTVSPropertyOp5
 70
     1
102
RTVSPropertyOp6
 70
     1
102
RTVSPropertyOp7
 70
     1
102
RTVSPropertyOp8
 70
     1
102
RTVSPropertyOp9
 70
     1
102
RTVSPropertyOp10
 70
     1
102
RTVSPropertyOp11
 70
     1
102
RTVSPropertyOp12
 70
     1
102
RTVSPropertyOp13
 70
     1
102
RTVSPropertyOp14
 70
     1
102
RTVSPropertyOp15
 70
     1
102
RTVSPropertyOp16
 70
     1
102
RTVSPropertyOp17
 70
     1
102
RTVSPropertyOp18
 70
     1
102
RTVSPropertyOp19
 70
     1
102
RTVSPropertyOp20
 70
     1
102
RTVSPropertyOp21
 70
     1
102
RTVSPropertyOp22
 70
     1
102
RTVSPropertyOp23
 70
     1
102
RTVSPropertyOp24
 70
     1
102
RTVSPropertyOp25
 70
     1
102
RTVSPropertyOp26
 70
     1
102
RTVSPropertyOp27
 70
     1
102
RTVSPropertyOp28
 70
     1
102
RTVSPropertyOp29
 70
     1
102
RTVSPropertyOp30
 70
     1
102
RTVSPropertyOp31
 70
     1
102
RTVSPropertyOp32
 70
     1
102
RTVSPropertyOp33
 70
     1
102
RTVSPropertyOp34
 70
     1
102
RTVSPropertyOp35
 70
     1
102
RTVSPropertyOp36
 70
     1
102
RTVSPropertyOp37
 70
     1
102
RTVSPropertyOp38
 70
     1
102
RTVSPropertyOp39
 70
     1
102
RTVSPropertyOp40
 70
     1
102
RTVSPropertyOp41
 70
     1
102
RTVSPropertyOp42
 70
     1
102
RTVSPropertyOp43
 70
     1
102
RTVSPropertyOp44
 70
     1
102
RTVSPropertyOp45
 70
     1
102
RTVSPropertyOp46
 70
     1
102
RTVSPropertyOp47
 70
     1
102
RTVSPropertyOp48
 70
     1
102
RTVSPropertyOp49
 70
     1
102
RTVSPropertyOp50
 70
     1
102
RTVSPropertyOp51
 70
     0
102
RTVSPropertyOp52
 70
     0
102
RTVSPropertyOp53
 70
     1
102
RTVSPropertyOp54
 70
     1
102
RTVSPropertyOp55
 70
     1
102
RTVSPropertyOp56
 70
     1
102
RTVSPropertyOp57
 70
     1
102
RTVSPost2010Prop28
280
     0
102
RTVSPost2010PropOp28
 70
     1
102
RTVSPost2010Prop29
280
     1
102
RTVSPost2010PropOp29
 70
     1
102
RTVSPost2010Prop30
280
     1
102
RTVSPost2010PropOp30
 70
     1
102
RTVSPost2010Prop31
280
     0
102
RTVSPost2010PropOp31
 70
     1
102
RTVSPost2010Prop32
280
     0
102
RTVSPost2010PropOp32
 70
     1
102
RTVSPost2010Prop33
280
     0
102
RTVSPost2010PropOp33
 70
     1
102
RTVSPost2010Prop34
280
     0
102
RTVSPost2010PropOp34
 70
     1
102
RTVSPost2010Prop35
280
     0
102
RTVSPost2010PropOp35
 70
     1
102
RTVSPost2010Prop36
280
     0
102
RTVSPost2010PropOp36
 70
     1
102
RTVSPost2010Prop37
 90
       50
102
RTVSPost2010PropOp37
 70
     1
102
RTVSPost2010Prop38
140
0.0
102
RTVSPost2010PropOp38
 70
     1
102
RTVSPost2010Prop39
140
1.0
102
RTVSPost2010PropOp39
 70
     1
102
RTVSPost2010Prop40
 90
        0
102
RTVSPost2010PropOp40
 70
     1
102
RTVSPost2010Prop41ColorIndex
 90
       18
102
RTVSPost2010Prop41ColorRGB
 90
        0
102
RTVSPost2010PropOp41
 70
     1
102
RTVSPost2010Prop42
 90
       50
102
RTVSPost2010PropOp42
 70
     1
102
RTVSPost2010Prop43
 90
        3
102
RTVSPost2010PropOp43
 70
     1
102
RTVSPost2010Prop44ColorIndex
 90
        5
102
RTVSPost2010Prop44ColorRGB
 90
      255
102
RTVSPost2010PropOp44
 70
     1
102
RTVSPost2010Prop45
280
     0
102
RTVSPost2010PropOp45
 70
     1
102
RTVSPost2010Prop46
 90
       50
102
RTVSPost2010PropOp46
 70
     1
102
RTVSPost2010Prop47
 90
       50
102
RTVSPost2010PropOp47
 70
     1
102
RTVSPost2010Prop48
 90
       50
102
RTVSPost2010PropOp48
 70
     1
102
RTVSPost2010Prop49
280
     0
102
RTVSPost2010PropOp49
 70
     1
102
RTVSPost2010Prop50
 90
       50
102
RTVSPost2010PropOp50
 70
     1
102
RTVSPost2010Prop51ColorIndex
 90
      256
102
RTVSPost2010Prop51ColorRGB
 90
-16777216
102
RTVSPost2010PropOp51
 70
     0
102
RTVSPost2010Prop52
140
1.0
102
RTVSPost2010PropOp52
 70
     0
102
RTVSPost2010Prop53
 90
        2
102
RTVSPost2010PropOp53
 70
     1
102
RTVSPost2010Prop54
  1
strokes_ogs.tif
102
RTVSPost2010PropOp54
 70
     1
102
RTVSPost2010Prop55
280
     0
102
RTVSPost2010PropOp55
 70
     1
102
RTVSPost2010Prop56
140
1.0
102
RTVSPost2010PropOp56
 70
     1
102
RTVSPost2010Prop57
140
1.0
102
RTVSPost2010PropOp57
 70
     1
  0
XRECORD
  5
253
102
{ACAD_REACTORS
330
252
102
}
330
252
100
AcDbXrecord
280
     1
102
RTVSPropertyOp0
 70
     1
102
RTVSPropertyOp1
 70
     1
102
RTVSPropertyOp2
 70
     1
102
RTVSPropertyOp3
 70
     1
102
RTVSPropertyOp4
 70
     1
102
RTVSPropertyOp5
 70
     1
102
RTVSPropertyOp6
 70
     1
102
RTVSPropertyOp7
 70
     1
102
RTVSPropertyOp8
 70
     1
102
RTVSPropertyOp9
 70
     1
102
RTVSPropertyOp10
 70
     1
102
RTVSPropertyOp11
 70
     1
102
RTVSPropertyOp12
 70
     1
102
RTVSPropertyOp13
 70
     1
102
RTVSPropertyOp14
 70
     1
102
RTVSPropertyOp15
 70
     1
102
RTVSPropertyOp16
 70
     1
102
RTVSPropertyOp17
 70
     1
102
RTVSPropertyOp18
 70
     1
102
RTVSPropertyOp19
 70
     1
102
RTVSPropertyOp20
 70
     1
102
RTVSPropertyOp21
 70
     1
102
RTVSPropertyOp22
 70
     1
102
RTVSPropertyOp23
 70
     1
102
RTVSPropertyOp24
 70
     1
102
RTVSPropertyOp25
 70
     1
102
RTVSPropertyOp26
 70
     1
102
RTVSPropertyOp27
 70
     1
102
RTVSPropertyOp28
 70
     1
102
RTVSPropertyOp29
 70
     1
102
RTVSPropertyOp30
 70
     1
102
RTVSPropertyOp31
 70
     1
102
RTVSPropertyOp32
 70
     1
102
RTVSPropertyOp33
 70
     1
102
RTVSPropertyOp34
 70
     1
102
RTVSPropertyOp35
 70
     1
102
RTVSPropertyOp36
 70
     1
102
RTVSPropertyOp37
 70
     1
102
RTVSPropertyOp38
 70
     1
102
RTVSPropertyOp39
 70
     1
102
RTVSPropertyOp40
 70
     1
102
RTVSPropertyOp41
 70
     1
102
RTVSPropertyOp42
 70
     1
102
RTVSPropertyOp43
 70
     1
102
RTVSPropertyOp44
 70
     1
102
RTVSPropertyOp45
 70
     1
102
RTVSPropertyOp46
 70
     1
102
RTVSPropertyOp47
 70
     1
102
RTVSPropertyOp48
 70
     1
102
RTVSPropertyOp49
 70
     1
102
RTVSPropertyOp50
 70
     1
102
RTVSPropertyOp51
 70
     0
102
RTVSPropertyOp52
 70
     0
102
RTVSPropertyOp53
 70
     1
102
RTVSPropertyOp54
 70
     1
102
RTVSPropertyOp55
 70
     1
102
RTVSPropertyOp56
 70
     1
102
RTVSPropertyOp57
 70
     1
102
RTVSPost2010Prop28
280
     0
102
RTVSPost2010PropOp28
 70
     1
102
RTVSPost2010Prop29
280
     1
102
RTVSPost2010PropOp29
 70
     1
102
RTVSPost2010Prop30
280
     1
102
RTVSPost2010PropOp30
 70
     1
102
RTVSPost2010Prop31
280
     0
102
RTVSPost2010PropOp31
 70
     1
102
RTVSPost2010Prop32
280
     0
102
RTVSPost2010PropOp32
 70
     1
102
RTVSPost2010Prop33
280
     0
102
RTVSPost2010PropOp33
 70
     1
102
RTVSPost2010Prop34
280
     0
102
RTVSPost2010PropOp34
 70
     1
102
RTVSPost2010Prop35
280
     0
102
RTVSPost2010PropOp35
 70
     1
102
RTVSPost2010Prop36
280
     0
102
RTVSPost2010PropOp36
 70
     1
102
RTVSPost2010Prop37
 90
       50
102
RTVSPost2010PropOp37
 70
     1
102
RTVSPost2010Prop38
140
0.0
102
RTVSPost2010PropOp38
 70
     1
102
RTVSPost2010Prop39
140
1.0
102
RTVSPost2010PropOp39
 70
     1
102
RTVSPost2010Prop40
 90
        0
102
RTVSPost2010PropOp40
 70
     1
102
RTVSPost2010Prop41ColorIndex
 90
       18
102
RTVSPost2010Prop41ColorRGB
 90
        0
102
RTVSPost2010PropOp41
 70
     1
102
RTVSPost2010Prop42
 90
       50
102
RTVSPost2010PropOp42
 70
     1
102
RTVSPost2010Prop43
 90
        3
102
RTVSPost2010PropOp43
 70
     1
102
RTVSPost2010Prop44ColorIndex
 90
        5
102
RTVSPost2010Prop44ColorRGB
 90
      255
102
RTVSPost2010PropOp44
 70
     1
102
RTVSPost2010Prop45
280
     0
102
RTVSPost2010PropOp45
 70
     1
102
RTVSPost2010Prop46
 90
       50
102
RTVSPost2010PropOp46
 70
     1
102
RTVSPost2010Prop47
 90
       50
102
RTVSPost2010PropOp47
 70
     1
102
RTVSPost2010Prop48
 90
       50
102
RTVSPost2010PropOp48
 70
     1
102
RTVSPost2010Prop49
280
     0
102
RTVSPost2010PropOp49
 70
     1
102
RTVSPost2010Prop50
 90
       50
102
RTVSPost2010PropOp50
 70
     1
102
RTVSPost2010Prop51ColorIndex
 90
      256
102
RTVSPost2010Prop51ColorRGB
 90
-16777216
102
RTVSPost2010PropOp51
 70
     0
102
RTVSPost2010Prop52
140
1.0
102
RTVSPost2010PropOp52
 70
     0
102
RTVSPost2010Prop53
 90
        2
102
RTVSPost2010PropOp53
 70
     1
102
RTVSPost2010Prop54
  1
strokes_ogs.tif
102
RTVSPost2010PropOp54
 70
     1
102
RTVSPost2010Prop55
280
     0
102
RTVSPost2010PropOp55
 70
     1
102
RTVSPost2010Prop56
140
1.0
102
RTVSPost2010PropOp56
 70
     1
102
RTVSPost2010Prop57
140
1.0
102
RTVSPost2010PropOp57
 70
     1
  0
XRECORD
  5
25B
102
{ACAD_REACTORS
330
25A
102
}
330
25A
100
AcDbXrecord
280
     1
102
RTVSPropertyOp0
 70
     1
102
RTVSPropertyOp1
 70
     1
102
RTVSPropertyOp2
 70
     1
102
RTVSPropertyOp3
 70
     1
102
RTVSPropertyOp4
 70
     1
102
RTVSPropertyOp5
 70
     1
102
RTVSPropertyOp6
 70
     1
102
RTVSPropertyOp7
 70
     1
102
RTVSPropertyOp8
 70
     1
102
RTVSPropertyOp9
 70
     1
102
RTVSPropertyOp10
 70
     1
102
RTVSPropertyOp11
 70
     1
102
RTVSPropertyOp12
 70
     1
102
RTVSPropertyOp13
 70
     1
102
RTVSPropertyOp14
 70
     1
102
RTVSPropertyOp15
 70
     1
102
RTVSPropertyOp16
 70
     1
102
RTVSPropertyOp17
 70
     1
102
RTVSPropertyOp18
 70
     1
102
RTVSPropertyOp19
 70
     1
102
RTVSPropertyOp20
 70
     1
102
RTVSPropertyOp21
 70
     1
102
RTVSPropertyOp22
 70
     1
102
RTVSPropertyOp23
 70
     1
102
RTVSPropertyOp24
 70
     1
102
RTVSPropertyOp25
 70
     1
102
RTVSPropertyOp26
 70
     1
102
RTVSPropertyOp27
 70
     1
102
RTVSPropertyOp28
 70
     1
102
RTVSPropertyOp29
 70
     1
102
RTVSPropertyOp30
 70
     1
102
RTVSPropertyOp31
 70
     1
102
RTVSPropertyOp32
 70
     1
102
RTVSPropertyOp33
 70
     1
102
RTVSPropertyOp34
 70
     1
102
RTVSPropertyOp35
 70
     1
102
RTVSPropertyOp36
 70
     1
102
RTVSPropertyOp37
 70
     1
102
RTVSPropertyOp38
 70
     1
102
RTVSPropertyOp39
 70
     1
102
RTVSPropertyOp40
 70
     1
102
RTVSPropertyOp41
 70
     1
102
RTVSPropertyOp42
 70
     1
102
RTVSPropertyOp43
 70
     1
102
RTVSPropertyOp44
 70
     1
102
RTVSPropertyOp45
 70
     1
102
RTVSPropertyOp46
 70
     1
102
RTVSPropertyOp47
 70
     1
102
RTVSPropertyOp48
 70
     1
102
RTVSPropertyOp49
 70
     1
102
RTVSPropertyOp50
 70
     1
102
RTVSPropertyOp51
 70
     0
102
RTVSPropertyOp52
 70
     0
102
RTVSPropertyOp53
 70
     1
102
RTVSPropertyOp54
 70
     1
102
RTVSPropertyOp55
 70
     1
102
RTVSPropertyOp56
 70
     1
102
RTVSPropertyOp57
 70
     1
102
RTVSPost2010Prop28
280
     0
102
RTVSPost2010PropOp28
 70
     1
102
RTVSPost2010Prop29
280
     1
102
RTVSPost2010PropOp29
 70
     1
102
RTVSPost2010Prop30
280
     1
102
RTVSPost2010PropOp30
 70
     1
102
RTVSPost2010Prop31
280
     0
102
RTVSPost2010PropOp31
 70
     1
102
RTVSPost2010Prop32
280
     0
102
RTVSPost2010PropOp32
 70
     1
102
RTVSPost2010Prop33
280
     0
102
RTVSPost2010PropOp33
 70
     1
102
RTVSPost2010Prop34
280
     0
102
RTVSPost2010PropOp34
 70
     1
102
RTVSPost2010Prop35
280
     0
102
RTVSPost2010PropOp35
 70
     1
102
RTVSPost2010Prop36
280
     0
102
RTVSPost2010PropOp36
 70
     1
102
RTVSPost2010Prop37
 90
       50
102
RTVSPost2010PropOp37
 70
     1
102
RTVSPost2010Prop38
140
0.0
102
RTVSPost2010PropOp38
 70
     1
102
RTVSPost2010Prop39
140
1.0
102
RTVSPost2010PropOp39
 70
     1
102
RTVSPost2010Prop40
 90
        0
102
RTVSPost2010PropOp40
 70
     1
102
RTVSPost2010Prop41ColorIndex
 90
       18
102
RTVSPost2010Prop41ColorRGB
 90
        0
102
RTVSPost2010PropOp41
 70
     1
102
RTVSPost2010Prop42
 90
       50
102
RTVSPost2010PropOp42
 70
     1
102
RTVSPost2010Prop43
 90
        3
102
RTVSPost2010PropOp43
 70
     1
102
RTVSPost2010Prop44ColorIndex
 90
        5
102
RTVSPost2010Prop44ColorRGB
 90
      255
102
RTVSPost2010PropOp44
 70
     1
102
RTVSPost2010Prop45
280
     0
102
RTVSPost2010PropOp45
 70
     1
102
RTVSPost2010Prop46
 90
       50
102
RTVSPost2010PropOp46
 70
     1
102
RTVSPost2010Prop47
 90
       50
102
RTVSPost2010PropOp47
 70
     1
102
RTVSPost2010Prop48
 90
       50
102
RTVSPost2010PropOp48
 70
     1
102
RTVSPost2010Prop49
280
     0
102
RTVSPost2010PropOp49
 70
     1
102
RTVSPost2010Prop50
 90
       50
102
RTVSPost2010PropOp50
 70
     1
102
RTVSPost2010Prop51ColorIndex
 90
      256
102
RTVSPost2010Prop51ColorRGB
 90
-16777216
102
RTVSPost2010PropOp51
 70
     0
102
RTVSPost2010Prop52
140
1.0
102
RTVSPost2010PropOp52
 70
     0
102
RTVSPost2010Prop53
 90
        2
102
RTVSPost2010PropOp53
 70
     1
102
RTVSPost2010Prop54
  1
strokes_ogs.tif
102
RTVSPost2010PropOp54
 70
     1
102
RTVSPost2010Prop55
280
     0
102
RTVSPost2010PropOp55
 70
     1
102
RTVSPost2010Prop56
140
1.0
102
RTVSPost2010PropOp56
 70
     1
102
RTVSPost2010Prop57
140
1.0
102
RTVSPost2010PropOp57
 70
     1
  0
XRECORD
  5
24F
102
{ACAD_REACTORS
330
24E
102
}
330
24E
100
AcDbXrecord
280
     1
102
RTVSPropertyOp0
 70
     1
102
RTVSPropertyOp1
 70
     1
102
RTVSPropertyOp2
 70
     1
102
RTVSPropertyOp3
 70
     1
102
RTVSPropertyOp4
 70
     1
102
RTVSPropertyOp5
 70
     1
102
RTVSPropertyOp6
 70
     1
102
RTVSPropertyOp7
 70
     1
102
RTVSPropertyOp8
 70
     1
102
RTVSPropertyOp9
 70
     1
102
RTVSPropertyOp10
 70
     1
102
RTVSPropertyOp11
 70
     1
102
RTVSPropertyOp12
 70
     1
102
RTVSPropertyOp13
 70
     1
102
RTVSPropertyOp14
 70
     1
102
RTVSPropertyOp15
 70
     1
102
RTVSPropertyOp16
 70
     1
102
RTVSPropertyOp17
 70
     1
102
RTVSPropertyOp18
 70
     1
102
RTVSPropertyOp19
 70
     1
102
RTVSPropertyOp20
 70
     1
102
RTVSPropertyOp21
 70
     1
102
RTVSPropertyOp22
 70
     1
102
RTVSPropertyOp23
 70
     1
102
RTVSPropertyOp24
 70
     1
102
RTVSPropertyOp25
 70
     1
102
RTVSPropertyOp26
 70
     1
102
RTVSPropertyOp27
 70
     1
102
RTVSPropertyOp28
 70
     1
102
RTVSPropertyOp29
 70
     1
102
RTVSPropertyOp30
 70
     1
102
RTVSPropertyOp31
 70
     1
102
RTVSPropertyOp32
 70
     1
102
RTVSPropertyOp33
 70
     1
102
RTVSPropertyOp34
 70
     1
102
RTVSPropertyOp35
 70
     1
102
RTVSPropertyOp36
 70
     1
102
RTVSPropertyOp37
 70
     1
102
RTVSPropertyOp38
 70
     1
102
RTVSPropertyOp39
 70
     1
102
RTVSPropertyOp40
 70
     1
102
RTVSPropertyOp41
 70
     1
102
RTVSPropertyOp42
 70
     1
102
RTVSPropertyOp43
 70
     1
102
RTVSPropertyOp44
 70
     1
102
RTVSPropertyOp45
 70
     1
102
RTVSPropertyOp46
 70
     1
102
RTVSPropertyOp47
 70
     1
102
RTVSPropertyOp48
 70
     1
102
RTVSPropertyOp49
 70
     1
102
RTVSPropertyOp50
 70
     1
102
RTVSPropertyOp51
 70
     0
102
RTVSPropertyOp52
 70
     0
102
RTVSPropertyOp53
 70
     1
102
RTVSPropertyOp54
 70
     1
102
RTVSPropertyOp55
 70
     1
102
RTVSPropertyOp56
 70
     1
102
RTVSPropertyOp57
 70
     1
102
RTVSPost2010Prop28
280
     0
102
RTVSPost2010PropOp28
 70
     1
102
RTVSPost2010Prop29
280
     1
102
RTVSPost2010PropOp29
 70
     1
102
RTVSPost2010Prop30
280
     1
102
RTVSPost2010PropOp30
 70
     1
102
RTVSPost2010Prop31
280
     0
102
RTVSPost2010PropOp31
 70
     1
102
RTVSPost2010Prop32
280
     0
102
RTVSPost2010PropOp32
 70
     1
102
RTVSPost2010Prop33
280
     0
102
RTVSPost2010PropOp33
 70
     1
102
RTVSPost2010Prop34
280
     0
102
RTVSPost2010PropOp34
 70
     1
102
RTVSPost2010Prop35
280
     0
102
RTVSPost2010PropOp35
 70
     1
102
RTVSPost2010Prop36
280
     0
102
RTVSPost2010PropOp36
 70
     1
102
RTVSPost2010Prop37
 90
       50
102
RTVSPost2010PropOp37
 70
     1
102
RTVSPost2010Prop38
140
0.0
102
RTVSPost2010PropOp38
 70
     1
102
RTVSPost2010Prop39
140
1.0
102
RTVSPost2010PropOp39
 70
     1
102
RTVSPost2010Prop40
 90
        0
102
RTVSPost2010PropOp40
 70
     1
102
RTVSPost2010Prop41ColorIndex
 90
       18
102
RTVSPost2010Prop41ColorRGB
 90
        0
102
RTVSPost2010PropOp41
 70
     1
102
RTVSPost2010Prop42
 90
       50
102
RTVSPost2010PropOp42
 70
     1
102
RTVSPost2010Prop43
 90
        3
102
RTVSPost2010PropOp43
 70
     1
102
RTVSPost2010Prop44ColorIndex
 90
        5
102
RTVSPost2010Prop44ColorRGB
 90
      255
102
RTVSPost2010PropOp44
 70
     1
102
RTVSPost2010Prop45
280
     0
102
RTVSPost2010PropOp45
 70
     1
102
RTVSPost2010Prop46
 90
       50
102
RTVSPost2010PropOp46
 70
     1
102
RTVSPost2010Prop47
 90
       50
102
RTVSPost2010PropOp47
 70
     1
102
RTVSPost2010Prop48
 90
       50
102
RTVSPost2010PropOp48
 70
     1
102
RTVSPost2010Prop49
280
     0
102
RTVSPost2010PropOp49
 70
     1
102
RTVSPost2010Prop50
 90
       50
102
RTVSPost2010PropOp50
 70
     1
102
RTVSPost2010Prop51ColorIndex
 90
      256
102
RTVSPost2010Prop51ColorRGB
 90
-16777216
102
RTVSPost2010PropOp51
 70
     0
102
RTVSPost2010Prop52
140
1.0
102
RTVSPost2010PropOp52
 70
     0
102
RTVSPost2010Prop53
 90
        2
102
RTVSPost2010PropOp53
 70
     1
102
RTVSPost2010Prop54
  1
strokes_ogs.tif
102
RTVSPost2010PropOp54
 70
     1
102
RTVSPost2010Prop55
280
     0
102
RTVSPost2010PropOp55
 70
     1
102
RTVSPost2010Prop56
140
1.0
102
RTVSPost2010PropOp56
 70
     1
102
RTVSPost2010Prop57
140
1.0
102
RTVSPost2010PropOp57
 70
     1
  0
XRECORD
  5
251
102
{ACAD_REACTORS
330
250
102
}
330
250
100
AcDbXrecord
280
     1
102
RTVSPropertyOp0
 70
     1
102
RTVSPropertyOp1
 70
     1
102
RTVSPropertyOp2
 70
     1
102
RTVSPropertyOp3
 70
     1
102
RTVSPropertyOp4
 70
     1
102
RTVSPropertyOp5
 70
     1
102
RTVSPropertyOp6
 70
     1
102
RTVSPropertyOp7
 70
     1
102
RTVSPropertyOp8
 70
     1
102
RTVSPropertyOp9
 70
     1
102
RTVSPropertyOp10
 70
     1
102
RTVSPropertyOp11
 70
     1
102
RTVSPropertyOp12
 70
     1
102
RTVSPropertyOp13
 70
     1
102
RTVSPropertyOp14
 70
     1
102
RTVSPropertyOp15
 70
     1
102
RTVSPropertyOp16
 70
     1
102
RTVSPropertyOp17
 70
     1
102
RTVSPropertyOp18
 70
     1
102
RTVSPropertyOp19
 70
     1
102
RTVSPropertyOp20
 70
     1
102
RTVSPropertyOp21
 70
     1
102
RTVSPropertyOp22
 70
     1
102
RTVSPropertyOp23
 70
     1
102
RTVSPropertyOp24
 70
     1
102
RTVSPropertyOp25
 70
     1
102
RTVSPropertyOp26
 70
     1
102
RTVSPropertyOp27
 70
     1
102
RTVSPropertyOp28
 70
     1
102
RTVSPropertyOp29
 70
     1
102
RTVSPropertyOp30
 70
     1
102
RTVSPropertyOp31
 70
     1
102
RTVSPropertyOp32
 70
     1
102
RTVSPropertyOp33
 70
     1
102
RTVSPropertyOp34
 70
     1
102
RTVSPropertyOp35
 70
     1
102
RTVSPropertyOp36
 70
     1
102
RTVSPropertyOp37
 70
     1
102
RTVSPropertyOp38
 70
     1
102
RTVSPropertyOp39
 70
     1
102
RTVSPropertyOp40
 70
     1
102
RTVSPropertyOp41
 70
     1
102
RTVSPropertyOp42
 70
     1
102
RTVSPropertyOp43
 70
     1
102
RTVSPropertyOp44
 70
     1
102
RTVSPropertyOp45
 70
     1
102
RTVSPropertyOp46
 70
     1
102
RTVSPropertyOp47
 70
     1
102
RTVSPropertyOp48
 70
     1
102
RTVSPropertyOp49
 70
     1
102
RTVSPropertyOp50
 70
     1
102
RTVSPropertyOp51
 70
     0
102
RTVSPropertyOp52
 70
     0
102
RTVSPropertyOp53
 70
     1
102
RTVSPropertyOp54
 70
     1
102
RTVSPropertyOp55
 70
     1
102
RTVSPropertyOp56
 70
     1
102
RTVSPropertyOp57
 70
     1
102
RTVSPost2010Prop28
280
     0
102
RTVSPost2010PropOp28
 70
     1
102
RTVSPost2010Prop29
280
     1
102
RTVSPost2010PropOp29
 70
     1
102
RTVSPost2010Prop30
280
     1
102
RTVSPost2010PropOp30
 70
     1
102
RTVSPost2010Prop31
280
     0
102
RTVSPost2010PropOp31
 70
     1
102
RTVSPost2010Prop32
280
     0
102
RTVSPost2010PropOp32
 70
     1
102
RTVSPost2010Prop33
280
     0
102
RTVSPost2010PropOp33
 70
     1
102
RTVSPost2010Prop34
280
     0
102
RTVSPost2010PropOp34
 70
     1
102
RTVSPost2010Prop35
280
     0
102
RTVSPost2010PropOp35
 70
     1
102
RTVSPost2010Prop36
280
     0
102
RTVSPost2010PropOp36
 70
     1
102
RTVSPost2010Prop37
 90
       50
102
RTVSPost2010PropOp37
 70
     1
102
RTVSPost2010Prop38
140
0.0
102
RTVSPost2010PropOp38
 70
     1
102
RTVSPost2010Prop39
140
1.0
102
RTVSPost2010PropOp39
 70
     1
102
RTVSPost2010Prop40
 90
        0
102
RTVSPost2010PropOp40
 70
     1
102
RTVSPost2010Prop41ColorIndex
 90
       18
102
RTVSPost2010Prop41ColorRGB
 90
        0
102
RTVSPost2010PropOp41
 70
     1
102
RTVSPost2010Prop42
 90
       50
102
RTVSPost2010PropOp42
 70
     1
102
RTVSPost2010Prop43
 90
        3
102
RTVSPost2010PropOp43
 70
     1
102
RTVSPost2010Prop44ColorIndex
 90
        5
102
RTVSPost2010Prop44ColorRGB
 90
      255
102
RTVSPost2010PropOp44
 70
     1
102
RTVSPost2010Prop45
280
     0
102
RTVSPost2010PropOp45
 70
     1
102
RTVSPost2010Prop46
 90
       50
102
RTVSPost2010PropOp46
 70
     1
102
RTVSPost2010Prop47
 90
       50
102
RTVSPost2010PropOp47
 70
     1
102
RTVSPost2010Prop48
 90
       50
102
RTVSPost2010PropOp48
 70
     1
102
RTVSPost2010Prop49
280
     0
102
RTVSPost2010PropOp49
 70
     1
102
RTVSPost2010Prop50
 90
       50
102
RTVSPost2010PropOp50
 70
     1
102
RTVSPost2010Prop51ColorIndex
 90
      256
102
RTVSPost2010Prop51ColorRGB
 90
-16777216
102
RTVSPost2010PropOp51
 70
     0
102
RTVSPost2010Prop52
140
1.0
102
RTVSPost2010PropOp52
 70
     0
102
RTVSPost2010Prop53
 90
        2
102
RTVSPost2010PropOp53
 70
     1
102
RTVSPost2010Prop54
  1
strokes_ogs.tif
102
RTVSPost2010PropOp54
 70
     1
102
RTVSPost2010Prop55
280
     0
102
RTVSPost2010PropOp55
 70
     1
102
RTVSPost2010Prop56
140
1.0
102
RTVSPost2010PropOp56
 70
     1
102
RTVSPost2010Prop57
140
1.0
102
RTVSPost2010PropOp57
 70
     1
  0
XRECORD
  5
261
102
{ACAD_REACTORS
330
260
102
}
330
260
100
AcDbXrecord
280
     1
102
RTVSPropertyOp0
 70
     0
102
RTVSPropertyOp1
 70
     0
102
RTVSPropertyOp2
 70
     0
102
RTVSPropertyOp3
 70
     0
102
RTVSPropertyOp4
 70
     0
102
RTVSPropertyOp5
 70
     0
102
RTVSPropertyOp6
 70
     0
102
RTVSPropertyOp7
 70
     0
102
RTVSPropertyOp8
 70
     0
102
RTVSPropertyOp9
 70
     0
102
RTVSPropertyOp10
 70
     0
102
RTVSPropertyOp11
 70
     0
102
RTVSPropertyOp12
 70
     0
102
RTVSPropertyOp13
 70
     0
102
RTVSPropertyOp14
 70
     2
102
RTVSPropertyOp15
 70
     0
102
RTVSPropertyOp16
 70
     0
102
RTVSPropertyOp17
 70
     0
102
RTVSPropertyOp18
 70
     0
102
RTVSPropertyOp19
 70
     0
102
RTVSPropertyOp20
 70
     0
102
RTVSPropertyOp21
 70
     0
102
RTVSPropertyOp22
 70
     0
102
RTVSPropertyOp23
 70
     0
102
RTVSPropertyOp24
 70
     0
102
RTVSPropertyOp25
 70
     0
102
RTVSPropertyOp26
 70
     0
102
RTVSPropertyOp27
 70
     0
102
RTVSPropertyOp28
 70
     0
102
RTVSPropertyOp29
 70
     0
102
RTVSPropertyOp30
 70
     0
102
RTVSPropertyOp31
 70
     0
102
RTVSPropertyOp32
 70
     0
102
RTVSPropertyOp33
 70
     0
102
RTVSPropertyOp34
 70
     0
102
RTVSPropertyOp35
 70
     0
102
RTVSPropertyOp36
 70
     0
102
RTVSPropertyOp37
 70
     0
102
RTVSPropertyOp38
 70
     0
102
RTVSPropertyOp39
 70
     0
102
RTVSPropertyOp40
 70
     0
102
RTVSPropertyOp41
 70
     0
102
RTVSPropertyOp42
 70
     0
102
RTVSPropertyOp43
 70
     0
102
RTVSPropertyOp44
 70
     0
102
RTVSPropertyOp45
 70
     0
102
RTVSPropertyOp46
 70
     0
102
RTVSPropertyOp47
 70
     0
102
RTVSPropertyOp48
 70
     0
102
RTVSPropertyOp49
 70
     0
102
RTVSPropertyOp50
 70
     0
102
RTVSPropertyOp51
 70
     0
102
RTVSPropertyOp52
 70
     0
102
RTVSPropertyOp53
 70
     0
102
RTVSPropertyOp54
 70
     0
102
RTVSPropertyOp55
 70
     0
102
RTVSPropertyOp56
 70
     0
102
RTVSPropertyOp57
 70
     0
102
RTVSPost2010Prop28
280
     0
102
RTVSPost2010PropOp28
 70
     0
102
RTVSPost2010Prop29
280
     1
102
RTVSPost2010PropOp29
 70
     0
102
RTVSPost2010Prop30
280
     1
102
RTVSPost2010PropOp30
 70
     0
102
RTVSPost2010Prop31
280
     0
102
RTVSPost2010PropOp31
 70
     0
102
RTVSPost2010Prop32
280
     0
102
RTVSPost2010PropOp32
 70
     0
102
RTVSPost2010Prop33
280
     0
102
RTVSPost2010PropOp33
 70
     0
102
RTVSPost2010Prop34
280
     0
102
RTVSPost2010PropOp34
 70
     0
102
RTVSPost2010Prop35
280
     0
102
RTVSPost2010PropOp35
 70
     0
102
RTVSPost2010Prop36
280
     0
102
RTVSPost2010PropOp36
 70
     0
102
RTVSPost2010Prop37
 90
       50
102
RTVSPost2010PropOp37
 70
     0
102
RTVSPost2010Prop38
140
0.0
102
RTVSPost2010PropOp38
 70
     0
102
RTVSPost2010Prop39
140
1.0
102
RTVSPost2010PropOp39
 70
     0
102
RTVSPost2010Prop40
 90
        0
102
RTVSPost2010PropOp40
 70
     0
102
RTVSPost2010Prop41ColorIndex
 90
       18
102
RTVSPost2010Prop41ColorRGB
 90
        0
102
RTVSPost2010PropOp41
 70
     0
102
RTVSPost2010Prop42
 90
       50
102
RTVSPost2010PropOp42
 70
     0
102
RTVSPost2010Prop43
 90
        3
102
RTVSPost2010PropOp43
 70
     0
102
RTVSPost2010Prop44ColorIndex
 90
        5
102
RTVSPost2010Prop44ColorRGB
 90
      255
102
RTVSPost2010PropOp44
 70
     0
102
RTVSPost2010Prop45
280
     0
102
RTVSPost2010PropOp45
 70
     0
102
RTVSPost2010Prop46
 90
       50
102
RTVSPost2010PropOp46
 70
     0
102
RTVSPost2010Prop47
 90
       50
102
RTVSPost2010PropOp47
 70
     0
102
RTVSPost2010Prop48
 90
       50
102
RTVSPost2010PropOp48
 70
     0
102
RTVSPost2010Prop49
280
     0
102
RTVSPost2010PropOp49
 70
     0
102
RTVSPost2010Prop50
 90
       50
102
RTVSPost2010PropOp50
 70
     0
102
RTVSPost2010Prop51ColorIndex
 90
      256
102
RTVSPost2010Prop51ColorRGB
 90
-16777216
102
RTVSPost2010PropOp51
 70
     0
102
RTVSPost2010Prop52
140
1.0
102
RTVSPost2010PropOp52
 70
     0
102
RTVSPost2010Prop53
 90
        2
102
RTVSPost2010PropOp53
 70
     0
102
RTVSPost2010Prop54
  1
strokes_ogs.tif
102
RTVSPost2010PropOp54
 70
     0
102
RTVSPost2010Prop55
280
     0
102
RTVSPost2010PropOp55
 70
     0
102
RTVSPost2010Prop56
140
1.0
102
RTVSPost2010PropOp56
 70
     0
102
RTVSPost2010Prop57
140
1.0
102
RTVSPost2010PropOp57
 70
     0
  0
XRECORD
  5
259
102
{ACAD_REACTORS
330
258
102
}
330
258
100
AcDbXrecord
280
     1
102
RTVSPropertyOp0
 70
     1
102
RTVSPropertyOp1
 70
     1
102
RTVSPropertyOp2
 70
     1
102
RTVSPropertyOp3
 70
     1
102
RTVSPropertyOp4
 70
     1
102
RTVSPropertyOp5
 70
     1
102
RTVSPropertyOp6
 70
     1
102
RTVSPropertyOp7
 70
     1
102
RTVSPropertyOp8
 70
     1
102
RTVSPropertyOp9
 70
     1
102
RTVSPropertyOp10
 70
     1
102
RTVSPropertyOp11
 70
     1
102
RTVSPropertyOp12
 70
     1
102
RTVSPropertyOp13
 70
     1
102
RTVSPropertyOp14
 70
     1
102
RTVSPropertyOp15
 70
     1
102
RTVSPropertyOp16
 70
     1
102
RTVSPropertyOp17
 70
     1
102
RTVSPropertyOp18
 70
     1
102
RTVSPropertyOp19
 70
     1
102
RTVSPropertyOp20
 70
     1
102
RTVSPropertyOp21
 70
     1
102
RTVSPropertyOp22
 70
     1
102
RTVSPropertyOp23
 70
     1
102
RTVSPropertyOp24
 70
     1
102
RTVSPropertyOp25
 70
     1
102
RTVSPropertyOp26
 70
     1
102
RTVSPropertyOp27
 70
     1
102
RTVSPropertyOp28
 70
     1
102
RTVSPropertyOp29
 70
     1
102
RTVSPropertyOp30
 70
     1
102
RTVSPropertyOp31
 70
     1
102
RTVSPropertyOp32
 70
     1
102
RTVSPropertyOp33
 70
     1
102
RTVSPropertyOp34
 70
     1
102
RTVSPropertyOp35
 70
     1
102
RTVSPropertyOp36
 70
     1
102
RTVSPropertyOp37
 70
     1
102
RTVSPropertyOp38
 70
     1
102
RTVSPropertyOp39
 70
     1
102
RTVSPropertyOp40
 70
     1
102
RTVSPropertyOp41
 70
     1
102
RTVSPropertyOp42
 70
     1
102
RTVSPropertyOp43
 70
     1
102
RTVSPropertyOp44
 70
     1
102
RTVSPropertyOp45
 70
     1
102
RTVSPropertyOp46
 70
     1
102
RTVSPropertyOp47
 70
     1
102
RTVSPropertyOp48
 70
     1
102
RTVSPropertyOp49
 70
     1
102
RTVSPropertyOp50
 70
     1
102
RTVSPropertyOp51
 70
     0
102
RTVSPropertyOp52
 70
     0
102
RTVSPropertyOp53
 70
     1
102
RTVSPropertyOp54
 70
     1
102
RTVSPropertyOp55
 70
     1
102
RTVSPropertyOp56
 70
     1
102
RTVSPropertyOp57
 70
     1
102
RTVSPost2010Prop28
280
     0
102
RTVSPost2010PropOp28
 70
     1
102
RTVSPost2010Prop29
280
     1
102
RTVSPost2010PropOp29
 70
     1
102
RTVSPost2010Prop30
280
     1
102
RTVSPost2010PropOp30
 70
     1
102
RTVSPost2010Prop31
280
     0
102
RTVSPost2010PropOp31
 70
     1
102
RTVSPost2010Prop32
280
     0
102
RTVSPost2010PropOp32
 70
     1
102
RTVSPost2010Prop33
280
     0
102
RTVSPost2010PropOp33
 70
     1
102
RTVSPost2010Prop34
280
     0
102
RTVSPost2010PropOp34
 70
     1
102
RTVSPost2010Prop35
280
     0
102
RTVSPost2010PropOp35
 70
     1
102
RTVSPost2010Prop36
280
     0
102
RTVSPost2010PropOp36
 70
     1
102
RTVSPost2010Prop37
 90
       50
102
RTVSPost2010PropOp37
 70
     1
102
RTVSPost2010Prop38
140
0.0
102
RTVSPost2010PropOp38
 70
     1
102
RTVSPost2010Prop39
140
1.0
102
RTVSPost2010PropOp39
 70
     1
102
RTVSPost2010Prop40
 90
        0
102
RTVSPost2010PropOp40
 70
     1
102
RTVSPost2010Prop41ColorIndex
 90
       18
102
RTVSPost2010Prop41ColorRGB
 90
        0
102
RTVSPost2010PropOp41
 70
     1
102
RTVSPost2010Prop42
 90
       50
102
RTVSPost2010PropOp42
 70
     1
102
RTVSPost2010Prop43
 90
        3
102
RTVSPost2010PropOp43
 70
     1
102
RTVSPost2010Prop44ColorIndex
 90
        5
102
RTVSPost2010Prop44ColorRGB
 90
      255
102
RTVSPost2010PropOp44
 70
     1
102
RTVSPost2010Prop45
280
     0
102
RTVSPost2010PropOp45
 70
     1
102
RTVSPost2010Prop46
 90
       50
102
RTVSPost2010PropOp46
 70
     1
102
RTVSPost2010Prop47
 90
       50
102
RTVSPost2010PropOp47
 70
     1
102
RTVSPost2010Prop48
 90
       50
102
RTVSPost2010PropOp48
 70
     1
102
RTVSPost2010Prop49
280
     0
102
RTVSPost2010PropOp49
 70
     1
102
RTVSPost2010Prop50
 90
       50
102
RTVSPost2010PropOp50
 70
     1
102
RTVSPost2010Prop51ColorIndex
 90
      256
102
RTVSPost2010Prop51ColorRGB
 90
-16777216
102
RTVSPost2010PropOp51
 70
     0
102
RTVSPost2010Prop52
140
1.0
102
RTVSPost2010PropOp52
 70
     0
102
RTVSPost2010Prop53
 90
        2
102
RTVSPost2010PropOp53
 70
     1
102
RTVSPost2010Prop54
  1
strokes_ogs.tif
102
RTVSPost2010PropOp54
 70
     1
102
RTVSPost2010Prop55
280
     0
102
RTVSPost2010PropOp55
 70
     1
102
RTVSPost2010Prop56
140
1.0
102
RTVSPost2010PropOp56
 70
     1
102
RTVSPost2010Prop57
140
1.0
102
RTVSPost2010PropOp57
 70
     1
  0
XRECORD
  5
23D
102
{ACAD_REACTORS
330
23C
102
}
330
23C
100
AcDbXrecord
280
     1
102
RTVSPropertyOp0
 70
     1
102
RTVSPropertyOp1
 70
     1
102
RTVSPropertyOp2
 70
     1
102
RTVSPropertyOp3
 70
     1
102
RTVSPropertyOp4
 70
     1
102
RTVSPropertyOp5
 70
     1
102
RTVSPropertyOp6
 70
     1
102
RTVSPropertyOp7
 70
     1
102
RTVSPropertyOp8
 70
     1
102
RTVSPropertyOp9
 70
     1
102
RTVSPropertyOp10
 70
     1
102
RTVSPropertyOp11
 70
     1
102
RTVSPropertyOp12
 70
     1
102
RTVSPropertyOp13
 70
     1
102
RTVSPropertyOp14
 70
     1
102
RTVSPropertyOp15
 70
     1
102
RTVSPropertyOp16
 70
     1
102
RTVSPropertyOp17
 70
     1
102
RTVSPropertyOp18
 70
     1
102
RTVSPropertyOp19
 70
     1
102
RTVSPropertyOp20
 70
     1
102
RTVSPropertyOp21
 70
     1
102
RTVSPropertyOp22
 70
     1
102
RTVSPropertyOp23
 70
     1
102
RTVSPropertyOp24
 70
     1
102
RTVSPropertyOp25
 70
     1
102
RTVSPropertyOp26
 70
     1
102
RTVSPropertyOp27
 70
     1
102
RTVSPropertyOp28
 70
     1
102
RTVSPropertyOp29
 70
     1
102
RTVSPropertyOp30
 70
     1
102
RTVSPropertyOp31
 70
     1
102
RTVSPropertyOp32
 70
     1
102
RTVSPropertyOp33
 70
     1
102
RTVSPropertyOp34
 70
     1
102
RTVSPropertyOp35
 70
     1
102
RTVSPropertyOp36
 70
     1
102
RTVSPropertyOp37
 70
     1
102
RTVSPropertyOp38
 70
     1
102
RTVSPropertyOp39
 70
     1
102
RTVSPropertyOp40
 70
     1
102
RTVSPropertyOp41
 70
     1
102
RTVSPropertyOp42
 70
     1
102
RTVSPropertyOp43
 70
     1
102
RTVSPropertyOp44
 70
     1
102
RTVSPropertyOp45
 70
     1
102
RTVSPropertyOp46
 70
     1
102
RTVSPropertyOp47
 70
     1
102
RTVSPropertyOp48
 70
     1
102
RTVSPropertyOp49
 70
     1
102
RTVSPropertyOp50
 70
     1
102
RTVSPropertyOp51
 70
     0
102
RTVSPropertyOp52
 70
     0
102
RTVSPropertyOp53
 70
     1
102
RTVSPropertyOp54
 70
     1
102
RTVSPropertyOp55
 70
     1
102
RTVSPropertyOp56
 70
     1
102
RTVSPropertyOp57
 70
     1
102
RTVSPost2010Prop28
280
     0
102
RTVSPost2010PropOp28
 70
     1
102
RTVSPost2010Prop29
280
     1
102
RTVSPost2010PropOp29
 70
     1
102
RTVSPost2010Prop30
280
     1
102
RTVSPost2010PropOp30
 70
     1
102
RTVSPost2010Prop31
280
     0
102
RTVSPost2010PropOp31
 70
     1
102
RTVSPost2010Prop32
280
     0
102
RTVSPost2010PropOp32
 70
     1
102
RTVSPost2010Prop33
280
     0
102
RTVSPost2010PropOp33
 70
     1
102
RTVSPost2010Prop34
280
     0
102
RTVSPost2010PropOp34
 70
     1
102
RTVSPost2010Prop35
280
     0
102
RTVSPost2010PropOp35
 70
     1
102
RTVSPost2010Prop36
280
     0
102
RTVSPost2010PropOp36
 70
     1
102
RTVSPost2010Prop37
 90
       50
102
RTVSPost2010PropOp37
 70
     1
102
RTVSPost2010Prop38
140
0.0
102
RTVSPost2010PropOp38
 70
     1
102
RTVSPost2010Prop39
140
1.0
102
RTVSPost2010PropOp39
 70
     1
102
RTVSPost2010Prop40
 90
        0
102
RTVSPost2010PropOp40
 70
     1
102
RTVSPost2010Prop41ColorIndex
 90
       18
102
RTVSPost2010Prop41ColorRGB
 90
        0
102
RTVSPost2010PropOp41
 70
     1
102
RTVSPost2010Prop42
 90
       50
102
RTVSPost2010PropOp42
 70
     1
102
RTVSPost2010Prop43
 90
        3
102
RTVSPost2010PropOp43
 70
     1
102
RTVSPost2010Prop44ColorIndex
 90
        5
102
RTVSPost2010Prop44ColorRGB
 90
      255
102
RTVSPost2010PropOp44
 70
     1
102
RTVSPost2010Prop45
280
     0
102
RTVSPost2010PropOp45
 70
     1
102
RTVSPost2010Prop46
 90
       50
102
RTVSPost2010PropOp46
 70
     1
102
RTVSPost2010Prop47
 90
       50
102
RTVSPost2010PropOp47
 70
     1
102
RTVSPost2010Prop48
 90
       50
102
RTVSPost2010PropOp48
 70
     1
102
RTVSPost2010Prop49
280
     0
102
RTVSPost2010PropOp49
 70
     1
102
RTVSPost2010Prop50
 90
       50
102
RTVSPost2010PropOp50
 70
     1
102
RTVSPost2010Prop51ColorIndex
 90
      256
102
RTVSPost2010Prop51ColorRGB
 90
-16777216
102
RTVSPost2010PropOp51
 70
     0
102
RTVSPost2010Prop52
140
1.0
102
RTVSPost2010PropOp52
 70
     0
102
RTVSPost2010Prop53
 90
        2
102
RTVSPost2010PropOp53
 70
     1
102
RTVSPost2010Prop54
  1
strokes_ogs.tif
102
RTVSPost2010PropOp54
 70
     1
102
RTVSPost2010Prop55
280
     0
102
RTVSPost2010PropOp55
 70
     1
102
RTVSPost2010Prop56
140
1.0
102
RTVSPost2010PropOp56
 70
     1
102
RTVSPost2010Prop57
140
1.0
102
RTVSPost2010PropOp57
 70
     1
  0
XRECORD
  5
23F
102
{ACAD_REACTORS
330
23E
102
}
330
23E
100
AcDbXrecord
280
     1
102
RTVSPropertyOp0
 70
     1
102
RTVSPropertyOp1
 70
     1
102
RTVSPropertyOp2
 70
     1
102
RTVSPropertyOp3
 70
     1
102
RTVSPropertyOp4
 70
     1
102
RTVSPropertyOp5
 70
     1
102
RTVSPropertyOp6
 70
     1
102
RTVSPropertyOp7
 70
     1
102
RTVSPropertyOp8
 70
     1
102
RTVSPropertyOp9
 70
     1
102
RTVSPropertyOp10
 70
     1
102
RTVSPropertyOp11
 70
     1
102
RTVSPropertyOp12
 70
     1
102
RTVSPropertyOp13
 70
     1
102
RTVSPropertyOp14
 70
     1
102
RTVSPropertyOp15
 70
     1
102
RTVSPropertyOp16
 70
     1
102
RTVSPropertyOp17
 70
     1
102
RTVSPropertyOp18
 70
     1
102
RTVSPropertyOp19
 70
     1
102
RTVSPropertyOp20
 70
     1
102
RTVSPropertyOp21
 70
     1
102
RTVSPropertyOp22
 70
     1
102
RTVSPropertyOp23
 70
     1
102
RTVSPropertyOp24
 70
     1
102
RTVSPropertyOp25
 70
     1
102
RTVSPropertyOp26
 70
     1
102
RTVSPropertyOp27
 70
     1
102
RTVSPropertyOp28
 70
     1
102
RTVSPropertyOp29
 70
     1
102
RTVSPropertyOp30
 70
     1
102
RTVSPropertyOp31
 70
     1
102
RTVSPropertyOp32
 70
     1
102
RTVSPropertyOp33
 70
     1
102
RTVSPropertyOp34
 70
     1
102
RTVSPropertyOp35
 70
     1
102
RTVSPropertyOp36
 70
     1
102
RTVSPropertyOp37
 70
     1
102
RTVSPropertyOp38
 70
     1
102
RTVSPropertyOp39
 70
     1
102
RTVSPropertyOp40
 70
     1
102
RTVSPropertyOp41
 70
     1
102
RTVSPropertyOp42
 70
     1
102
RTVSPropertyOp43
 70
     1
102
RTVSPropertyOp44
 70
     1
102
RTVSPropertyOp45
 70
     1
102
RTVSPropertyOp46
 70
     1
102
RTVSPropertyOp47
 70
     1
102
RTVSPropertyOp48
 70
     1
102
RTVSPropertyOp49
 70
     1
102
RTVSPropertyOp50
 70
     1
102
RTVSPropertyOp51
 70
     0
102
RTVSPropertyOp52
 70
     0
102
RTVSPropertyOp53
 70
     1
102
RTVSPropertyOp54
 70
     1
102
RTVSPropertyOp55
 70
     1
102
RTVSPropertyOp56
 70
     1
102
RTVSPropertyOp57
 70
     1
102
RTVSPost2010Prop28
280
     0
102
RTVSPost2010PropOp28
 70
     1
102
RTVSPost2010Prop29
280
     1
102
RTVSPost2010PropOp29
 70
     1
102
RTVSPost2010Prop30
280
     1
102
RTVSPost2010PropOp30
 70
     1
102
RTVSPost2010Prop31
280
     0
102
RTVSPost2010PropOp31
 70
     1
102
RTVSPost2010Prop32
280
     0
102
RTVSPost2010PropOp32
 70
     1
102
RTVSPost2010Prop33
280
     0
102
RTVSPost2010PropOp33
 70
     1
102
RTVSPost2010Prop34
280
     0
102
RTVSPost2010PropOp34
 70
     1
102
RTVSPost2010Prop35
280
     0
102
RTVSPost2010PropOp35
 70
     1
102
RTVSPost2010Prop36
280
     0
102
RTVSPost2010PropOp36
 70
     1
102
RTVSPost2010Prop37
 90
       50
102
RTVSPost2010PropOp37
 70
     1
102
RTVSPost2010Prop38
140
0.0
102
RTVSPost2010PropOp38
 70
     1
102
RTVSPost2010Prop39
140
1.0
102
RTVSPost2010PropOp39
 70
     1
102
RTVSPost2010Prop40
 90
        0
102
RTVSPost2010PropOp40
 70
     1
102
RTVSPost2010Prop41ColorIndex
 90
       18
102
RTVSPost2010Prop41ColorRGB
 90
        0
102
RTVSPost2010PropOp41
 70
     1
102
RTVSPost2010Prop42
 90
       50
102
RTVSPost2010PropOp42
 70
     1
102
RTVSPost2010Prop43
 90
        3
102
RTVSPost2010PropOp43
 70
     1
102
RTVSPost2010Prop44ColorIndex
 90
        5
102
RTVSPost2010Prop44ColorRGB
 90
      255
102
RTVSPost2010PropOp44
 70
     1
102
RTVSPost2010Prop45
280
     0
102
RTVSPost2010PropOp45
 70
     1
102
RTVSPost2010Prop46
 90
       50
102
RTVSPost2010PropOp46
 70
     1
102
RTVSPost2010Prop47
 90
       50
102
RTVSPost2010PropOp47
 70
     1
102
RTVSPost2010Prop48
 90
       50
102
RTVSPost2010PropOp48
 70
     1
102
RTVSPost2010Prop49
280
     0
102
RTVSPost2010PropOp49
 70
     1
102
RTVSPost2010Prop50
 90
       50
102
RTVSPost2010PropOp50
 70
     1
102
RTVSPost2010Prop51ColorIndex
 90
      256
102
RTVSPost2010Prop51ColorRGB
 90
-16777216
102
RTVSPost2010PropOp51
 70
     0
102
RTVSPost2010Prop52
140
1.0
102
RTVSPost2010PropOp52
 70
     0
102
RTVSPost2010Prop53
 90
        2
102
RTVSPost2010PropOp53
 70
     1
102
RTVSPost2010Prop54
  1
strokes_ogs.tif
102
RTVSPost2010PropOp54
 70
     1
102
RTVSPost2010Prop55
280
     0
102
RTVSPost2010PropOp55
 70
     1
102
RTVSPost2010Prop56
140
1.0
102
RTVSPost2010PropOp56
 70
     1
102
RTVSPost2010Prop57
140
1.0
102
RTVSPost2010PropOp57
 70
     1
  0
XRECORD
  5
241
102
{ACAD_REACTORS
330
240
102
}
330
240
100
AcDbXrecord
280
     1
102
RTVSPropertyOp0
 70
     1
102
RTVSPropertyOp1
 70
     1
102
RTVSPropertyOp2
 70
     1
102
RTVSPropertyOp3
 70
     1
102
RTVSPropertyOp4
 70
     1
102
RTVSPropertyOp5
 70
     1
102
RTVSPropertyOp6
 70
     1
102
RTVSPropertyOp7
 70
     1
102
RTVSPropertyOp8
 70
     1
102
RTVSPropertyOp9
 70
     1
102
RTVSPropertyOp10
 70
     1
102
RTVSPropertyOp11
 70
     1
102
RTVSPropertyOp12
 70
     1
102
RTVSPropertyOp13
 70
     1
102
RTVSPropertyOp14
 70
     1
102
RTVSPropertyOp15
 70
     1
102
RTVSPropertyOp16
 70
     1
102
RTVSPropertyOp17
 70
     1
102
RTVSPropertyOp18
 70
     1
102
RTVSPropertyOp19
 70
     1
102
RTVSPropertyOp20
 70
     1
102
RTVSPropertyOp21
 70
     1
102
RTVSPropertyOp22
 70
     1
102
RTVSPropertyOp23
 70
     1
102
RTVSPropertyOp24
 70
     1
102
RTVSPropertyOp25
 70
     1
102
RTVSPropertyOp26
 70
     1
102
RTVSPropertyOp27
 70
     1
102
RTVSPropertyOp28
 70
     1
102
RTVSPropertyOp29
 70
     1
102
RTVSPropertyOp30
 70
     1
102
RTVSPropertyOp31
 70
     1
102
RTVSPropertyOp32
 70
     1
102
RTVSPropertyOp33
 70
     1
102
RTVSPropertyOp34
 70
     1
102
RTVSPropertyOp35
 70
     1
102
RTVSPropertyOp36
 70
     1
102
RTVSPropertyOp37
 70
     1
102
RTVSPropertyOp38
 70
     1
102
RTVSPropertyOp39
 70
     1
102
RTVSPropertyOp40
 70
     1
102
RTVSPropertyOp41
 70
     1
102
RTVSPropertyOp42
 70
     1
102
RTVSPropertyOp43
 70
     1
102
RTVSPropertyOp44
 70
     1
102
RTVSPropertyOp45
 70
     1
102
RTVSPropertyOp46
 70
     1
102
RTVSPropertyOp47
 70
     1
102
RTVSPropertyOp48
 70
     1
102
RTVSPropertyOp49
 70
     1
102
RTVSPropertyOp50
 70
     1
102
RTVSPropertyOp51
 70
     0
102
RTVSPropertyOp52
 70
     0
102
RTVSPropertyOp53
 70
     1
102
RTVSPropertyOp54
 70
     1
102
RTVSPropertyOp55
 70
     1
102
RTVSPropertyOp56
 70
     1
102
RTVSPropertyOp57
 70
     1
102
RTVSPost2010Prop28
280
     0
102
RTVSPost2010PropOp28
 70
     1
102
RTVSPost2010Prop29
280
     1
102
RTVSPost2010PropOp29
 70
     1
102
RTVSPost2010Prop30
280
     1
102
RTVSPost2010PropOp30
 70
     1
102
RTVSPost2010Prop31
280
     0
102
RTVSPost2010PropOp31
 70
     1
102
RTVSPost2010Prop32
280
     0
102
RTVSPost2010PropOp32
 70
     1
102
RTVSPost2010Prop33
280
     0
102
RTVSPost2010PropOp33
 70
     1
102
RTVSPost2010Prop34
280
     0
102
RTVSPost2010PropOp34
 70
     1
102
RTVSPost2010Prop35
280
     0
102
RTVSPost2010PropOp35
 70
     1
102
RTVSPost2010Prop36
280
     0
102
RTVSPost2010PropOp36
 70
     1
102
RTVSPost2010Prop37
 90
       50
102
RTVSPost2010PropOp37
 70
     1
102
RTVSPost2010Prop38
140
0.0
102
RTVSPost2010PropOp38
 70
     1
102
RTVSPost2010Prop39
140
1.0
102
RTVSPost2010PropOp39
 70
     1
102
RTVSPost2010Prop40
 90
        0
102
RTVSPost2010PropOp40
 70
     1
102
RTVSPost2010Prop41ColorIndex
 90
       18
102
RTVSPost2010Prop41ColorRGB
 90
        0
102
RTVSPost2010PropOp41
 70
     1
102
RTVSPost2010Prop42
 90
       50
102
RTVSPost2010PropOp42
 70
     1
102
RTVSPost2010Prop43
 90
        3
102
RTVSPost2010PropOp43
 70
     1
102
RTVSPost2010Prop44ColorIndex
 90
        5
102
RTVSPost2010Prop44ColorRGB
 90
      255
102
RTVSPost2010PropOp44
 70
     1
102
RTVSPost2010Prop45
280
     0
102
RTVSPost2010PropOp45
 70
     1
102
RTVSPost2010Prop46
 90
       50
102
RTVSPost2010PropOp46
 70
     1
102
RTVSPost2010Prop47
 90
       50
102
RTVSPost2010PropOp47
 70
     1
102
RTVSPost2010Prop48
 90
       50
102
RTVSPost2010PropOp48
 70
     1
102
RTVSPost2010Prop49
280
     0
102
RTVSPost2010PropOp49
 70
     1
102
RTVSPost2010Prop50
 90
       50
102
RTVSPost2010PropOp50
 70
     1
102
RTVSPost2010Prop51ColorIndex
 90
      256
102
RTVSPost2010Prop51ColorRGB
 90
-16777216
102
RTVSPost2010PropOp51
 70
     0
102
RTVSPost2010Prop52
140
1.0
102
RTVSPost2010PropOp52
 70
     0
102
RTVSPost2010Prop53
 90
        2
102
RTVSPost2010PropOp53
 70
     1
102
RTVSPost2010Prop54
  1
strokes_ogs.tif
102
RTVSPost2010PropOp54
 70
     1
102
RTVSPost2010Prop55
280
     0
102
RTVSPost2010PropOp55
 70
     1
102
RTVSPost2010Prop56
140
1.0
102
RTVSPost2010PropOp56
 70
     1
102
RTVSPost2010Prop57
140
1.0
102
RTVSPost2010PropOp57
 70
     1
  0
XRECORD
  5
243
102
{ACAD_REACTORS
330
242
102
}
330
242
100
AcDbXrecord
280
     1
102
RTVSPropertyOp0
 70
     1
102
RTVSPropertyOp1
 70
     1
102
RTVSPropertyOp2
 70
     1
102
RTVSPropertyOp3
 70
     1
102
RTVSPropertyOp4
 70
     1
102
RTVSPropertyOp5
 70
     1
102
RTVSPropertyOp6
 70
     1
102
RTVSPropertyOp7
 70
     1
102
RTVSPropertyOp8
 70
     1
102
RTVSPropertyOp9
 70
     1
102
RTVSPropertyOp10
 70
     1
102
RTVSPropertyOp11
 70
     1
102
RTVSPropertyOp12
 70
     1
102
RTVSPropertyOp13
 70
     1
102
RTVSPropertyOp14
 70
     1
102
RTVSPropertyOp15
 70
     1
102
RTVSPropertyOp16
 70
     1
102
RTVSPropertyOp17
 70
     1
102
RTVSPropertyOp18
 70
     1
102
RTVSPropertyOp19
 70
     1
102
RTVSPropertyOp20
 70
     1
102
RTVSPropertyOp21
 70
     1
102
RTVSPropertyOp22
 70
     1
102
RTVSPropertyOp23
 70
     1
102
RTVSPropertyOp24
 70
     1
102
RTVSPropertyOp25
 70
     1
102
RTVSPropertyOp26
 70
     1
102
RTVSPropertyOp27
 70
     1
102
RTVSPropertyOp28
 70
     1
102
RTVSPropertyOp29
 70
     1
102
RTVSPropertyOp30
 70
     1
102
RTVSPropertyOp31
 70
     1
102
RTVSPropertyOp32
 70
     1
102
RTVSPropertyOp33
 70
     1
102
RTVSPropertyOp34
 70
     1
102
RTVSPropertyOp35
 70
     1
102
RTVSPropertyOp36
 70
     1
102
RTVSPropertyOp37
 70
     1
102
RTVSPropertyOp38
 70
     1
102
RTVSPropertyOp39
 70
     1
102
RTVSPropertyOp40
 70
     1
102
RTVSPropertyOp41
 70
     1
102
RTVSPropertyOp42
 70
     1
102
RTVSPropertyOp43
 70
     1
102
RTVSPropertyOp44
 70
     1
102
RTVSPropertyOp45
 70
     1
102
RTVSPropertyOp46
 70
     1
102
RTVSPropertyOp47
 70
     1
102
RTVSPropertyOp48
 70
     1
102
RTVSPropertyOp49
 70
     1
102
RTVSPropertyOp50
 70
     1
102
RTVSPropertyOp51
 70
     0
102
RTVSPropertyOp52
 70
     0
102
RTVSPropertyOp53
 70
     1
102
RTVSPropertyOp54
 70
     1
102
RTVSPropertyOp55
 70
     1
102
RTVSPropertyOp56
 70
     1
102
RTVSPropertyOp57
 70
     1
102
RTVSPost2010Prop28
280
     0
102
RTVSPost2010PropOp28
 70
     1
102
RTVSPost2010Prop29
280
     1
102
RTVSPost2010PropOp29
 70
     1
102
RTVSPost2010Prop30
280
     1
102
RTVSPost2010PropOp30
 70
     1
102
RTVSPost2010Prop31
280
     0
102
RTVSPost2010PropOp31
 70
     1
102
RTVSPost2010Prop32
280
     0
102
RTVSPost2010PropOp32
 70
     1
102
RTVSPost2010Prop33
280
     0
102
RTVSPost2010PropOp33
 70
     1
102
RTVSPost2010Prop34
280
     0
102
RTVSPost2010PropOp34
 70
     1
102
RTVSPost2010Prop35
280
     0
102
RTVSPost2010PropOp35
 70
     1
102
RTVSPost2010Prop36
280
     0
102
RTVSPost2010PropOp36
 70
     1
102
RTVSPost2010Prop37
 90
       50
102
RTVSPost2010PropOp37
 70
     1
102
RTVSPost2010Prop38
140
0.0
102
RTVSPost2010PropOp38
 70
     1
102
RTVSPost2010Prop39
140
1.0
102
RTVSPost2010PropOp39
 70
     1
102
RTVSPost2010Prop40
 90
        0
102
RTVSPost2010PropOp40
 70
     1
102
RTVSPost2010Prop41ColorIndex
 90
       18
102
RTVSPost2010Prop41ColorRGB
 90
        0
102
RTVSPost2010PropOp41
 70
     1
102
RTVSPost2010Prop42
 90
       50
102
RTVSPost2010PropOp42
 70
     1
102
RTVSPost2010Prop43
 90
        3
102
RTVSPost2010PropOp43
 70
     1
102
RTVSPost2010Prop44ColorIndex
 90
        5
102
RTVSPost2010Prop44ColorRGB
 90
      255
102
RTVSPost2010PropOp44
 70
     1
102
RTVSPost2010Prop45
280
     0
102
RTVSPost2010PropOp45
 70
     1
102
RTVSPost2010Prop46
 90
       50
102
RTVSPost2010PropOp46
 70
     1
102
RTVSPost2010Prop47
 90
       50
102
RTVSPost2010PropOp47
 70
     1
102
RTVSPost2010Prop48
 90
       50
102
RTVSPost2010PropOp48
 70
     1
102
RTVSPost2010Prop49
280
     0
102
RTVSPost2010PropOp49
 70
     1
102
RTVSPost2010Prop50
 90
       50
102
RTVSPost2010PropOp50
 70
     1
102
RTVSPost2010Prop51ColorIndex
 90
      256
102
RTVSPost2010Prop51ColorRGB
 90
-16777216
102
RTVSPost2010PropOp51
 70
     0
102
RTVSPost2010Prop52
140
1.0
102
RTVSPost2010PropOp52
 70
     0
102
RTVSPost2010Prop53
 90
        2
102
RTVSPost2010PropOp53
 70
     1
102
RTVSPost2010Prop54
  1
strokes_ogs.tif
102
RTVSPost2010PropOp54
 70
     1
102
RTVSPost2010Prop55
280
     0
102
RTVSPost2010PropOp55
 70
     1
102
RTVSPost2010Prop56
140
1.0
102
RTVSPost2010PropOp56
 70
     1
102
RTVSPost2010Prop57
140
1.0
102
RTVSPost2010PropOp57
 70
     1
  0
XRECORD
  5
249
102
{ACAD_REACTORS
330
248
102
}
330
248
100
AcDbXrecord
280
     1
102
RTVSPropertyOp0
 70
     1
102
RTVSPropertyOp1
 70
     1
102
RTVSPropertyOp2
 70
     1
102
RTVSPropertyOp3
 70
     1
102
RTVSPropertyOp4
 70
     1
102
RTVSPropertyOp5
 70
     1
102
RTVSPropertyOp6
 70
     1
102
RTVSPropertyOp7
 70
     1
102
RTVSPropertyOp8
 70
     1
102
RTVSPropertyOp9
 70
     1
102
RTVSPropertyOp10
 70
     1
102
RTVSPropertyOp11
 70
     1
102
RTVSPropertyOp12
 70
     1
102
RTVSPropertyOp13
 70
     1
102
RTVSPropertyOp14
 70
     1
102
RTVSPropertyOp15
 70
     1
102
RTVSPropertyOp16
 70
     1
102
RTVSPropertyOp17
 70
     1
102
RTVSPropertyOp18
 70
     1
102
RTVSPropertyOp19
 70
     1
102
RTVSPropertyOp20
 70
     1
102
RTVSPropertyOp21
 70
     1
102
RTVSPropertyOp22
 70
     1
102
RTVSPropertyOp23
 70
     1
102
RTVSPropertyOp24
 70
     1
102
RTVSPropertyOp25
 70
     1
102
RTVSPropertyOp26
 70
     1
102
RTVSPropertyOp27
 70
     1
102
RTVSPropertyOp28
 70
     1
102
RTVSPropertyOp29
 70
     1
102
RTVSPropertyOp30
 70
     1
102
RTVSPropertyOp31
 70
     1
102
RTVSPropertyOp32
 70
     1
102
RTVSPropertyOp33
 70
     1
102
RTVSPropertyOp34
 70
     1
102
RTVSPropertyOp35
 70
     1
102
RTVSPropertyOp36
 70
     1
102
RTVSPropertyOp37
 70
     1
102
RTVSPropertyOp38
 70
     1
102
RTVSPropertyOp39
 70
     1
102
RTVSPropertyOp40
 70
     1
102
RTVSPropertyOp41
 70
     1
102
RTVSPropertyOp42
 70
     1
102
RTVSPropertyOp43
 70
     1
102
RTVSPropertyOp44
 70
     1
102
RTVSPropertyOp45
 70
     1
102
RTVSPropertyOp46
 70
     1
102
RTVSPropertyOp47
 70
     1
102
RTVSPropertyOp48
 70
     1
102
RTVSPropertyOp49
 70
     1
102
RTVSPropertyOp50
 70
     1
102
RTVSPropertyOp51
 70
     0
102
RTVSPropertyOp52
 70
     0
102
RTVSPropertyOp53
 70
     1
102
RTVSPropertyOp54
 70
     1
102
RTVSPropertyOp55
 70
     1
102
RTVSPropertyOp56
 70
     1
102
RTVSPropertyOp57
 70
     1
102
RTVSPost2010Prop28
280
     0
102
RTVSPost2010PropOp28
 70
     1
102
RTVSPost2010Prop29
280
     1
102
RTVSPost2010PropOp29
 70
     1
102
RTVSPost2010Prop30
280
     1
102
RTVSPost2010PropOp30
 70
     1
102
RTVSPost2010Prop31
280
     0
102
RTVSPost2010PropOp31
 70
     1
102
RTVSPost2010Prop32
280
     0
102
RTVSPost2010PropOp32
 70
     1
102
RTVSPost2010Prop33
280
     0
102
RTVSPost2010PropOp33
 70
     1
102
RTVSPost2010Prop34
280
     0
102
RTVSPost2010PropOp34
 70
     1
102
RTVSPost2010Prop35
280
     0
102
RTVSPost2010PropOp35
 70
     1
102
RTVSPost2010Prop36
280
     0
102
RTVSPost2010PropOp36
 70
     1
102
RTVSPost2010Prop37
 90
       50
102
RTVSPost2010PropOp37
 70
     1
102
RTVSPost2010Prop38
140
0.0
102
RTVSPost2010PropOp38
 70
     1
102
RTVSPost2010Prop39
140
1.0
102
RTVSPost2010PropOp39
 70
     1
102
RTVSPost2010Prop40
 90
        0
102
RTVSPost2010PropOp40
 70
     1
102
RTVSPost2010Prop41ColorIndex
 90
       18
102
RTVSPost2010Prop41ColorRGB
 90
        0
102
RTVSPost2010PropOp41
 70
     1
102
RTVSPost2010Prop42
 90
       50
102
RTVSPost2010PropOp42
 70
     1
102
RTVSPost2010Prop43
 90
        3
102
RTVSPost2010PropOp43
 70
     1
102
RTVSPost2010Prop44ColorIndex
 90
        5
102
RTVSPost2010Prop44ColorRGB
 90
      255
102
RTVSPost2010PropOp44
 70
     1
102
RTVSPost2010Prop45
280
     0
102
RTVSPost2010PropOp45
 70
     1
102
RTVSPost2010Prop46
 90
       50
102
RTVSPost2010PropOp46
 70
     1
102
RTVSPost2010Prop47
 90
       50
102
RTVSPost2010PropOp47
 70
     1
102
RTVSPost2010Prop48
 90
       50
102
RTVSPost2010PropOp48
 70
     1
102
RTVSPost2010Prop49
280
     0
102
RTVSPost2010PropOp49
 70
     1
102
RTVSPost2010Prop50
 90
       50
102
RTVSPost2010PropOp50
 70
     1
102
RTVSPost2010Prop51ColorIndex
 90
      256
102
RTVSPost2010Prop51ColorRGB
 90
-16777216
102
RTVSPost2010PropOp51
 70
     0
102
RTVSPost2010Prop52
140
1.0
102
RTVSPost2010PropOp52
 70
     0
102
RTVSPost2010Prop53
 90
        2
102
RTVSPost2010PropOp53
 70
     1
102
RTVSPost2010Prop54
  1
strokes_ogs.tif
102
RTVSPost2010PropOp54
 70
     1
102
RTVSPost2010Prop55
280
     0
102
RTVSPost2010PropOp55
 70
     1
102
RTVSPost2010Prop56
140
1.0
102
RTVSPost2010PropOp56
 70
     1
102
RTVSPost2010Prop57
140
1.0
102
RTVSPost2010PropOp57
 70
     1
  0
XRECORD
  5
25D
102
{ACAD_REACTORS
330
25C
102
}
330
25C
100
AcDbXrecord
280
     1
102
RTVSPropertyOp0
 70
     0
102
RTVSPropertyOp1
 70
     0
102
RTVSPropertyOp2
 70
     0
102
RTVSPropertyOp3
 70
     0
102
RTVSPropertyOp4
 70
     0
102
RTVSPropertyOp5
 70
     0
102
RTVSPropertyOp6
 70
     0
102
RTVSPropertyOp7
 70
     0
102
RTVSPropertyOp8
 70
     0
102
RTVSPropertyOp9
 70
     0
102
RTVSPropertyOp10
 70
     0
102
RTVSPropertyOp11
 70
     0
102
RTVSPropertyOp12
 70
     0
102
RTVSPropertyOp13
 70
     0
102
RTVSPropertyOp14
 70
     2
102
RTVSPropertyOp15
 70
     0
102
RTVSPropertyOp16
 70
     0
102
RTVSPropertyOp17
 70
     0
102
RTVSPropertyOp18
 70
     0
102
RTVSPropertyOp19
 70
     0
102
RTVSPropertyOp20
 70
     0
102
RTVSPropertyOp21
 70
     0
102
RTVSPropertyOp22
 70
     0
102
RTVSPropertyOp23
 70
     0
102
RTVSPropertyOp24
 70
     0
102
RTVSPropertyOp25
 70
     0
102
RTVSPropertyOp26
 70
     0
102
RTVSPropertyOp27
 70
     0
102
RTVSPropertyOp28
 70
     0
102
RTVSPropertyOp29
 70
     0
102
RTVSPropertyOp30
 70
     0
102
RTVSPropertyOp31
 70
     0
102
RTVSPropertyOp32
 70
     0
102
RTVSPropertyOp33
 70
     0
102
RTVSPropertyOp34
 70
     0
102
RTVSPropertyOp35
 70
     0
102
RTVSPropertyOp36
 70
     0
102
RTVSPropertyOp37
 70
     0
102
RTVSPropertyOp38
 70
     0
102
RTVSPropertyOp39
 70
     0
102
RTVSPropertyOp40
 70
     0
102
RTVSPropertyOp41
 70
     0
102
RTVSPropertyOp42
 70
     0
102
RTVSPropertyOp43
 70
     0
102
RTVSPropertyOp44
 70
     0
102
RTVSPropertyOp45
 70
     0
102
RTVSPropertyOp46
 70
     0
102
RTVSPropertyOp47
 70
     0
102
RTVSPropertyOp48
 70
     0
102
RTVSPropertyOp49
 70
     0
102
RTVSPropertyOp50
 70
     0
102
RTVSPropertyOp51
 70
     0
102
RTVSPropertyOp52
 70
     0
102
RTVSPropertyOp53
 70
     0
102
RTVSPropertyOp54
 70
     0
102
RTVSPropertyOp55
 70
     0
102
RTVSPropertyOp56
 70
     0
102
RTVSPropertyOp57
 70
     0
102
RTVSPost2010Prop28
280
     0
102
RTVSPost2010PropOp28
 70
     0
102
RTVSPost2010Prop29
280
     1
102
RTVSPost2010PropOp29
 70
     0
102
RTVSPost2010Prop30
280
     1
102
RTVSPost2010PropOp30
 70
     0
102
RTVSPost2010Prop31
280
     0
102
RTVSPost2010PropOp31
 70
     0
102
RTVSPost2010Prop32
280
     0
102
RTVSPost2010PropOp32
 70
     0
102
RTVSPost2010Prop33
280
     0
102
RTVSPost2010PropOp33
 70
     0
102
RTVSPost2010Prop34
280
     0
102
RTVSPost2010PropOp34
 70
     0
102
RTVSPost2010Prop35
280
     0
102
RTVSPost2010PropOp35
 70
     0
102
RTVSPost2010Prop36
280
     0
102
RTVSPost2010PropOp36
 70
     0
102
RTVSPost2010Prop37
 90
       50
102
RTVSPost2010PropOp37
 70
     0
102
RTVSPost2010Prop38
140
0.0
102
RTVSPost2010PropOp38
 70
     0
102
RTVSPost2010Prop39
140
1.0
102
RTVSPost2010PropOp39
 70
     0
102
RTVSPost2010Prop40
 90
        0
102
RTVSPost2010PropOp40
 70
     0
102
RTVSPost2010Prop41ColorIndex
 90
       18
102
RTVSPost2010Prop41ColorRGB
 90
        0
102
RTVSPost2010PropOp41
 70
     0
102
RTVSPost2010Prop42
 90
       50
102
RTVSPost2010PropOp42
 70
     0
102
RTVSPost2010Prop43
 90
        3
102
RTVSPost2010PropOp43
 70
     0
102
RTVSPost2010Prop44ColorIndex
 90
        5
102
RTVSPost2010Prop44ColorRGB
 90
      255
102
RTVSPost2010PropOp44
 70
     0
102
RTVSPost2010Prop45
280
     0
102
RTVSPost2010PropOp45
 70
     0
102
RTVSPost2010Prop46
 90
       50
102
RTVSPost2010PropOp46
 70
     0
102
RTVSPost2010Prop47
 90
       50
102
RTVSPost2010PropOp47
 70
     0
102
RTVSPost2010Prop48
 90
       50
102
RTVSPost2010PropOp48
 70
     0
102
RTVSPost2010Prop49
280
     0
102
RTVSPost2010PropOp49
 70
     0
102
RTVSPost2010Prop50
 90
       50
102
RTVSPost2010PropOp50
 70
     0
102
RTVSPost2010Prop51ColorIndex
 90
      256
102
RTVSPost2010Prop51ColorRGB
 90
-16777216
102
RTVSPost2010PropOp51
 70
     0
102
RTVSPost2010Prop52
140
1.0
102
RTVSPost2010PropOp52
 70
     0
102
RTVSPost2010Prop53
 90
        2
102
RTVSPost2010PropOp53
 70
     0
102
RTVSPost2010Prop54
  1
strokes_ogs.tif
102
RTVSPost2010PropOp54
 70
     0
102
RTVSPost2010Prop55
280
     0
102
RTVSPost2010PropOp55
 70
     0
102
RTVSPost2010Prop56
140
1.0
102
RTVSPost2010PropOp56
 70
     0
102
RTVSPost2010Prop57
140
1.0
102
RTVSPost2010PropOp57
 70
     0
  0
XRECORD
  5
257
102
{ACAD_REACTORS
330
256
102
}
330
256
100
AcDbXrecord
280
     1
102
RTVSPropertyOp0
 70
     1
102
RTVSPropertyOp1
 70
     1
102
RTVSPropertyOp2
 70
     1
102
RTVSPropertyOp3
 70
     1
102
RTVSPropertyOp4
 70
     1
102
RTVSPropertyOp5
 70
     1
102
RTVSPropertyOp6
 70
     1
102
RTVSPropertyOp7
 70
     1
102
RTVSPropertyOp8
 70
     1
102
RTVSPropertyOp9
 70
     1
102
RTVSPropertyOp10
 70
     1
102
RTVSPropertyOp11
 70
     1
102
RTVSPropertyOp12
 70
     1
102
RTVSPropertyOp13
 70
     1
102
RTVSPropertyOp14
 70
     1
102
RTVSPropertyOp15
 70
     1
102
RTVSPropertyOp16
 70
     1
102
RTVSPropertyOp17
 70
     1
102
RTVSPropertyOp18
 70
     1
102
RTVSPropertyOp19
 70
     1
102
RTVSPropertyOp20
 70
     1
102
RTVSPropertyOp21
 70
     1
102
RTVSPropertyOp22
 70
     1
102
RTVSPropertyOp23
 70
     1
102
RTVSPropertyOp24
 70
     1
102
RTVSPropertyOp25
 70
     1
102
RTVSPropertyOp26
 70
     1
102
RTVSPropertyOp27
 70
     1
102
RTVSPropertyOp28
 70
     1
102
RTVSPropertyOp29
 70
     1
102
RTVSPropertyOp30
 70
     1
102
RTVSPropertyOp31
 70
     1
102
RTVSPropertyOp32
 70
     1
102
RTVSPropertyOp33
 70
     1
102
RTVSPropertyOp34
 70
     1
102
RTVSPropertyOp35
 70
     1
102
RTVSPropertyOp36
 70
     1
102
RTVSPropertyOp37
 70
     1
102
RTVSPropertyOp38
 70
     1
102
RTVSPropertyOp39
 70
     1
102
RTVSPropertyOp40
 70
     1
102
RTVSPropertyOp41
 70
     1
102
RTVSPropertyOp42
 70
     1
102
RTVSPropertyOp43
 70
     1
102
RTVSPropertyOp44
 70
     1
102
RTVSPropertyOp45
 70
     1
102
RTVSPropertyOp46
 70
     1
102
RTVSPropertyOp47
 70
     1
102
RTVSPropertyOp48
 70
     1
102
RTVSPropertyOp49
 70
     1
102
RTVSPropertyOp50
 70
     1
102
RTVSPropertyOp51
 70
     0
102
RTVSPropertyOp52
 70
     0
102
RTVSPropertyOp53
 70
     1
102
RTVSPropertyOp54
 70
     1
102
RTVSPropertyOp55
 70
     1
102
RTVSPropertyOp56
 70
     1
102
RTVSPropertyOp57
 70
     1
102
RTVSPost2010Prop28
280
     0
102
RTVSPost2010PropOp28
 70
     1
102
RTVSPost2010Prop29
280
     1
102
RTVSPost2010PropOp29
 70
     1
102
RTVSPost2010Prop30
280
     1
102
RTVSPost2010PropOp30
 70
     1
102
RTVSPost2010Prop31
280
     0
102
RTVSPost2010PropOp31
 70
     1
102
RTVSPost2010Prop32
280
     0
102
RTVSPost2010PropOp32
 70
     1
102
RTVSPost2010Prop33
280
     0
102
RTVSPost2010PropOp33
 70
     1
102
RTVSPost2010Prop34
280
     0
102
RTVSPost2010PropOp34
 70
     1
102
RTVSPost2010Prop35
280
     0
102
RTVSPost2010PropOp35
 70
     1
102
RTVSPost2010Prop36
280
     0
102
RTVSPost2010PropOp36
 70
     1
102
RTVSPost2010Prop37
 90
       50
102
RTVSPost2010PropOp37
 70
     1
102
RTVSPost2010Prop38
140
0.0
102
RTVSPost2010PropOp38
 70
     1
102
RTVSPost2010Prop39
140
1.0
102
RTVSPost2010PropOp39
 70
     1
102
RTVSPost2010Prop40
 90
        0
102
RTVSPost2010PropOp40
 70
     1
102
RTVSPost2010Prop41ColorIndex
 90
       18
102
RTVSPost2010Prop41ColorRGB
 90
        0
102
RTVSPost2010PropOp41
 70
     1
102
RTVSPost2010Prop42
 90
       50
102
RTVSPost2010PropOp42
 70
     1
102
RTVSPost2010Prop43
 90
        3
102
RTVSPost2010PropOp43
 70
     1
102
RTVSPost2010Prop44ColorIndex
 90
        5
102
RTVSPost2010Prop44ColorRGB
 90
      255
102
RTVSPost2010PropOp44
 70
     1
102
RTVSPost2010Prop45
280
     0
102
RTVSPost2010PropOp45
 70
     1
102
RTVSPost2010Prop46
 90
       50
102
RTVSPost2010PropOp46
 70
     1
102
RTVSPost2010Prop47
 90
       50
102
RTVSPost2010PropOp47
 70
     1
102
RTVSPost2010Prop48
 90
       50
102
RTVSPost2010PropOp48
 70
     1
102
RTVSPost2010Prop49
280
     0
102
RTVSPost2010PropOp49
 70
     1
102
RTVSPost2010Prop50
 90
       50
102
RTVSPost2010PropOp50
 70
     1
102
RTVSPost2010Prop51ColorIndex
 90
      256
102
RTVSPost2010Prop51ColorRGB
 90
-16777216
102
RTVSPost2010PropOp51
 70
     0
102
RTVSPost2010Prop52
140
1.0
102
RTVSPost2010PropOp52
 70
     0
102
RTVSPost2010Prop53
 90
        2
102
RTVSPost2010PropOp53
 70
     1
102
RTVSPost2010Prop54
  1
strokes_ogs.tif
102
RTVSPost2010PropOp54
 70
     1
102
RTVSPost2010Prop55
280
     0
102
RTVSPost2010PropOp55
 70
     1
102
RTVSPost2010Prop56
140
1.0
102
RTVSPost2010PropOp56
 70
     1
102
RTVSPost2010Prop57
140
1.0
102
RTVSPost2010PropOp57
 70
     1
  0
XRECORD
  5
25F
102
{ACAD_REACTORS
330
25E
102
}
330
25E
100
AcDbXrecord
280
     1
102
RTVSPropertyOp0
 70
     0
102
RTVSPropertyOp1
 70
     0
102
RTVSPropertyOp2
 70
     0
102
RTVSPropertyOp3
 70
     0
102
RTVSPropertyOp4
 70
     0
102
RTVSPropertyOp5
 70
     0
102
RTVSPropertyOp6
 70
     0
102
RTVSPropertyOp7
 70
     0
102
RTVSPropertyOp8
 70
     0
102
RTVSPropertyOp9
 70
     0
102
RTVSPropertyOp10
 70
     0
102
RTVSPropertyOp11
 70
     0
102
RTVSPropertyOp12
 70
     0
102
RTVSPropertyOp13
 70
     0
102
RTVSPropertyOp14
 70
     2
102
RTVSPropertyOp15
 70
     0
102
RTVSPropertyOp16
 70
     0
102
RTVSPropertyOp17
 70
     0
102
RTVSPropertyOp18
 70
     0
102
RTVSPropertyOp19
 70
     0
102
RTVSPropertyOp20
 70
     0
102
RTVSPropertyOp21
 70
     0
102
RTVSPropertyOp22
 70
     0
102
RTVSPropertyOp23
 70
     0
102
RTVSPropertyOp24
 70
     0
102
RTVSPropertyOp25
 70
     0
102
RTVSPropertyOp26
 70
     0
102
RTVSPropertyOp27
 70
     0
102
RTVSPropertyOp28
 70
     0
102
RTVSPropertyOp29
 70
     0
102
RTVSPropertyOp30
 70
     0
102
RTVSPropertyOp31
 70
     0
102
RTVSPropertyOp32
 70
     0
102
RTVSPropertyOp33
 70
     0
102
RTVSPropertyOp34
 70
     0
102
RTVSPropertyOp35
 70
     0
102
RTVSPropertyOp36
 70
     0
102
RTVSPropertyOp37
 70
     0
102
RTVSPropertyOp38
 70
     0
102
RTVSPropertyOp39
 70
     0
102
RTVSPropertyOp40
 70
     0
102
RTVSPropertyOp41
 70
     0
102
RTVSPropertyOp42
 70
     0
102
RTVSPropertyOp43
 70
     0
102
RTVSPropertyOp44
 70
     0
102
RTVSPropertyOp45
 70
     0
102
RTVSPropertyOp46
 70
     0
102
RTVSPropertyOp47
 70
     0
102
RTVSPropertyOp48
 70
     0
102
RTVSPropertyOp49
 70
     0
102
RTVSPropertyOp50
 70
     0
102
RTVSPropertyOp51
 70
     0
102
RTVSPropertyOp52
 70
     0
102
RTVSPropertyOp53
 70
     0
102
RTVSPropertyOp54
 70
     0
102
RTVSPropertyOp55
 70
     0
102
RTVSPropertyOp56
 70
     0
102
RTVSPropertyOp57
 70
     0
102
RTVSPost2010Prop28
280
     0
102
RTVSPost2010PropOp28
 70
     0
102
RTVSPost2010Prop29
280
     1
102
RTVSPost2010PropOp29
 70
     0
102
RTVSPost2010Prop30
280
     1
102
RTVSPost2010PropOp30
 70
     0
102
RTVSPost2010Prop31
280
     0
102
RTVSPost2010PropOp31
 70
     0
102
RTVSPost2010Prop32
280
     0
102
RTVSPost2010PropOp32
 70
     0
102
RTVSPost2010Prop33
280
     0
102
RTVSPost2010PropOp33
 70
     0
102
RTVSPost2010Prop34
280
     0
102
RTVSPost2010PropOp34
 70
     0
102
RTVSPost2010Prop35
280
     0
102
RTVSPost2010PropOp35
 70
     0
102
RTVSPost2010Prop36
280
     0
102
RTVSPost2010PropOp36
 70
     0
102
RTVSPost2010Prop37
 90
       50
102
RTVSPost2010PropOp37
 70
     0
102
RTVSPost2010Prop38
140
0.0
102
RTVSPost2010PropOp38
 70
     0
102
RTVSPost2010Prop39
140
1.0
102
RTVSPost2010PropOp39
 70
     0
102
RTVSPost2010Prop40
 90
        0
102
RTVSPost2010PropOp40
 70
     0
102
RTVSPost2010Prop41ColorIndex
 90
       18
102
RTVSPost2010Prop41ColorRGB
 90
        0
102
RTVSPost2010PropOp41
 70
     0
102
RTVSPost2010Prop42
 90
       50
102
RTVSPost2010PropOp42
 70
     0
102
RTVSPost2010Prop43
 90
        3
102
RTVSPost2010PropOp43
 70
     0
102
RTVSPost2010Prop44ColorIndex
 90
        5
102
RTVSPost2010Prop44ColorRGB
 90
      255
102
RTVSPost2010PropOp44
 70
     0
102
RTVSPost2010Prop45
280
     0
102
RTVSPost2010PropOp45
 70
     0
102
RTVSPost2010Prop46
 90
       50
102
RTVSPost2010PropOp46
 70
     0
102
RTVSPost2010Prop47
 90
       50
102
RTVSPost2010PropOp47
 70
     0
102
RTVSPost2010Prop48
 90
       50
102
RTVSPost2010PropOp48
 70
     0
102
RTVSPost2010Prop49
280
     0
102
RTVSPost2010PropOp49
 70
     0
102
RTVSPost2010Prop50
 90
       50
102
RTVSPost2010PropOp50
 70
     0
102
RTVSPost2010Prop51ColorIndex
 90
      256
102
RTVSPost2010Prop51ColorRGB
 90
-16777216
102
RTVSPost2010PropOp51
 70
     0
102
RTVSPost2010Prop52
140
1.0
102
RTVSPost2010PropOp52
 70
     0
102
RTVSPost2010Prop53
 90
        2
102
RTVSPost2010PropOp53
 70
     0
102
RTVSPost2010Prop54
  1
strokes_ogs.tif
102
RTVSPost2010PropOp54
 70
     0
102
RTVSPost2010Prop55
280
     0
102
RTVSPost2010PropOp55
 70
     0
102
RTVSPost2010Prop56
140
1.0
102
RTVSPost2010PropOp56
 70
     0
102
RTVSPost2010Prop57
140
1.0
102
RTVSPost2010PropOp57
 70
     0
  0
XRECORD
  5
24D
102
{ACAD_REACTORS
330
24C
102
}
330
24C
100
AcDbXrecord
280
     1
102
RTVSPropertyOp0
 70
     1
102
RTVSPropertyOp1
 70
     1
102
RTVSPropertyOp2
 70
     1
102
RTVSPropertyOp3
 70
     1
102
RTVSPropertyOp4
 70
     1
102
RTVSPropertyOp5
 70
     1
102
RTVSPropertyOp6
 70
     1
102
RTVSPropertyOp7
 70
     1
102
RTVSPropertyOp8
 70
     1
102
RTVSPropertyOp9
 70
     1
102
RTVSPropertyOp10
 70
     1
102
RTVSPropertyOp11
 70
     1
102
RTVSPropertyOp12
 70
     1
102
RTVSPropertyOp13
 70
     1
102
RTVSPropertyOp14
 70
     1
102
RTVSPropertyOp15
 70
     1
102
RTVSPropertyOp16
 70
     1
102
RTVSPropertyOp17
 70
     1
102
RTVSPropertyOp18
 70
     1
102
RTVSPropertyOp19
 70
     1
102
RTVSPropertyOp20
 70
     1
102
RTVSPropertyOp21
 70
     1
102
RTVSPropertyOp22
 70
     1
102
RTVSPropertyOp23
 70
     1
102
RTVSPropertyOp24
 70
     1
102
RTVSPropertyOp25
 70
     1
102
RTVSPropertyOp26
 70
     1
102
RTVSPropertyOp27
 70
     1
102
RTVSPropertyOp28
 70
     1
102
RTVSPropertyOp29
 70
     1
102
RTVSPropertyOp30
 70
     1
102
RTVSPropertyOp31
 70
     1
102
RTVSPropertyOp32
 70
     1
102
RTVSPropertyOp33
 70
     1
102
RTVSPropertyOp34
 70
     1
102
RTVSPropertyOp35
 70
     1
102
RTVSPropertyOp36
 70
     1
102
RTVSPropertyOp37
 70
     1
102
RTVSPropertyOp38
 70
     1
102
RTVSPropertyOp39
 70
     1
102
RTVSPropertyOp40
 70
     1
102
RTVSPropertyOp41
 70
     1
102
RTVSPropertyOp42
 70
     1
102
RTVSPropertyOp43
 70
     1
102
RTVSPropertyOp44
 70
     1
102
RTVSPropertyOp45
 70
     1
102
RTVSPropertyOp46
 70
     1
102
RTVSPropertyOp47
 70
     1
102
RTVSPropertyOp48
 70
     1
102
RTVSPropertyOp49
 70
     1
102
RTVSPropertyOp50
 70
     1
102
RTVSPropertyOp51
 70
     0
102
RTVSPropertyOp52
 70
     0
102
RTVSPropertyOp53
 70
     1
102
RTVSPropertyOp54
 70
     1
102
RTVSPropertyOp55
 70
     1
102
RTVSPropertyOp56
 70
     1
102
RTVSPropertyOp57
 70
     1
102
RTVSPost2010Prop28
280
     0
102
RTVSPost2010PropOp28
 70
     1
102
RTVSPost2010Prop29
280
     1
102
RTVSPost2010PropOp29
 70
     1
102
RTVSPost2010Prop30
280
     1
102
RTVSPost2010PropOp30
 70
     1
102
RTVSPost2010Prop31
280
     0
102
RTVSPost2010PropOp31
 70
     1
102
RTVSPost2010Prop32
280
     0
102
RTVSPost2010PropOp32
 70
     1
102
RTVSPost2010Prop33
280
     0
102
RTVSPost2010PropOp33
 70
     1
102
RTVSPost2010Prop34
280
     0
102
RTVSPost2010PropOp34
 70
     1
102
RTVSPost2010Prop35
280
     0
102
RTVSPost2010PropOp35
 70
     1
102
RTVSPost2010Prop36
280
     0
102
RTVSPost2010PropOp36
 70
     1
102
RTVSPost2010Prop37
 90
       50
102
RTVSPost2010PropOp37
 70
     1
102
RTVSPost2010Prop38
140
0.0
102
RTVSPost2010PropOp38
 70
     1
102
RTVSPost2010Prop39
140
1.0
102
RTVSPost2010PropOp39
 70
     1
102
RTVSPost2010Prop40
 90
        0
102
RTVSPost2010PropOp40
 70
     1
102
RTVSPost2010Prop41ColorIndex
 90
       18
102
RTVSPost2010Prop41ColorRGB
 90
        0
102
RTVSPost2010PropOp41
 70
     1
102
RTVSPost2010Prop42
 90
       50
102
RTVSPost2010PropOp42
 70
     1
102
RTVSPost2010Prop43
 90
        3
102
RTVSPost2010PropOp43
 70
     1
102
RTVSPost2010Prop44ColorIndex
 90
        5
102
RTVSPost2010Prop44ColorRGB
 90
      255
102
RTVSPost2010PropOp44
 70
     1
102
RTVSPost2010Prop45
280
     0
102
RTVSPost2010PropOp45
 70
     1
102
RTVSPost2010Prop46
 90
       50
102
RTVSPost2010PropOp46
 70
     1
102
RTVSPost2010Prop47
 90
       50
102
RTVSPost2010PropOp47
 70
     1
102
RTVSPost2010Prop48
 90
       50
102
RTVSPost2010PropOp48
 70
     1
102
RTVSPost2010Prop49
280
     0
102
RTVSPost2010PropOp49
 70
     1
102
RTVSPost2010Prop50
 90
       50
102
RTVSPost2010PropOp50
 70
     1
102
RTVSPost2010Prop51ColorIndex
 90
      256
102
RTVSPost2010Prop51ColorRGB
 90
-16777216
102
RTVSPost2010PropOp51
 70
     0
102
RTVSPost2010Prop52
140
1.0
102
RTVSPost2010PropOp52
 70
     0
102
RTVSPost2010Prop53
 90
        2
102
RTVSPost2010PropOp53
 70
     1
102
RTVSPost2010Prop54
  1
strokes_ogs.tif
102
RTVSPost2010PropOp54
 70
     1
102
RTVSPost2010Prop55
280
     0
102
RTVSPost2010PropOp55
 70
     1
102
RTVSPost2010Prop56
140
1.0
102
RTVSPost2010PropOp56
 70
     1
102
RTVSPost2010Prop57
140
1.0
102
RTVSPost2010PropOp57
 70
     1
  0
XRECORD
  5
26B
102
{ACAD_REACTORS
330
26A
102
}
330
26A
100
AcDbXrecord
280
     1
102
RTVSPropertyOp0
 70
     1
102
RTVSPropertyOp1
 70
     1
102
RTVSPropertyOp2
 70
     1
102
RTVSPropertyOp3
 70
     1
102
RTVSPropertyOp4
 70
     1
102
RTVSPropertyOp5
 70
     1
102
RTVSPropertyOp6
 70
     1
102
RTVSPropertyOp7
 70
     1
102
RTVSPropertyOp8
 70
     1
102
RTVSPropertyOp9
 70
     1
102
RTVSPropertyOp10
 70
     1
102
RTVSPropertyOp11
 70
     1
102
RTVSPropertyOp12
 70
     1
102
RTVSPropertyOp13
 70
     1
102
RTVSPropertyOp14
 70
     1
102
RTVSPropertyOp15
 70
     1
102
RTVSPropertyOp16
 70
     1
102
RTVSPropertyOp17
 70
     1
102
RTVSPropertyOp18
 70
     1
102
RTVSPropertyOp19
 70
     1
102
RTVSPropertyOp20
 70
     1
102
RTVSPropertyOp21
 70
     1
102
RTVSPropertyOp22
 70
     1
102
RTVSPropertyOp23
 70
     1
102
RTVSPropertyOp24
 70
     1
102
RTVSPropertyOp25
 70
     1
102
RTVSPropertyOp26
 70
     1
102
RTVSPropertyOp27
 70
     1
102
RTVSPropertyOp28
 70
     1
102
RTVSPropertyOp29
 70
     1
102
RTVSPropertyOp30
 70
     1
102
RTVSPropertyOp31
 70
     1
102
RTVSPropertyOp32
 70
     1
102
RTVSPropertyOp33
 70
     1
102
RTVSPropertyOp34
 70
     1
102
RTVSPropertyOp35
 70
     1
102
RTVSPropertyOp36
 70
     1
102
RTVSPropertyOp37
 70
     1
102
RTVSPropertyOp38
 70
     1
102
RTVSPropertyOp39
 70
     1
102
RTVSPropertyOp40
 70
     1
102
RTVSPropertyOp41
 70
     1
102
RTVSPropertyOp42
 70
     1
102
RTVSPropertyOp43
 70
     1
102
RTVSPropertyOp44
 70
     1
102
RTVSPropertyOp45
 70
     1
102
RTVSPropertyOp46
 70
     1
102
RTVSPropertyOp47
 70
     1
102
RTVSPropertyOp48
 70
     1
102
RTVSPropertyOp49
 70
     1
102
RTVSPropertyOp50
 70
     1
102
RTVSPropertyOp51
 70
     0
102
RTVSPropertyOp52
 70
     0
102
RTVSPropertyOp53
 70
     1
102
RTVSPropertyOp54
 70
     1
102
RTVSPropertyOp55
 70
     1
102
RTVSPropertyOp56
 70
     1
102
RTVSPropertyOp57
 70
     1
102
RTVSPost2010Prop28
280
     0
102
RTVSPost2010PropOp28
 70
     1
102
RTVSPost2010Prop29
280
     1
102
RTVSPost2010PropOp29
 70
     1
102
RTVSPost2010Prop30
280
     1
102
RTVSPost2010PropOp30
 70
     1
102
RTVSPost2010Prop31
280
     0
102
RTVSPost2010PropOp31
 70
     1
102
RTVSPost2010Prop32
280
     0
102
RTVSPost2010PropOp32
 70
     1
102
RTVSPost2010Prop33
280
     0
102
RTVSPost2010PropOp33
 70
     1
102
RTVSPost2010Prop34
280
     0
102
RTVSPost2010PropOp34
 70
     1
102
RTVSPost2010Prop35
280
     0
102
RTVSPost2010PropOp35
 70
     1
102
RTVSPost2010Prop36
280
     0
102
RTVSPost2010PropOp36
 70
     1
102
RTVSPost2010Prop37
 90
       50
102
RTVSPost2010PropOp37
 70
     1
102
RTVSPost2010Prop38
140
0.0
102
RTVSPost2010PropOp38
 70
     1
102
RTVSPost2010Prop39
140
1.0
102
RTVSPost2010PropOp39
 70
     1
102
RTVSPost2010Prop40
 90
        0
102
RTVSPost2010PropOp40
 70
     1
102
RTVSPost2010Prop41ColorIndex
 90
       18
102
RTVSPost2010Prop41ColorRGB
 90
        0
102
RTVSPost2010PropOp41
 70
     1
102
RTVSPost2010Prop42
 90
       50
102
RTVSPost2010PropOp42
 70
     1
102
RTVSPost2010Prop43
 90
        3
102
RTVSPost2010PropOp43
 70
     1
102
RTVSPost2010Prop44ColorIndex
 90
        5
102
RTVSPost2010Prop44ColorRGB
 90
      255
102
RTVSPost2010PropOp44
 70
     1
102
RTVSPost2010Prop45
280
     0
102
RTVSPost2010PropOp45
 70
     1
102
RTVSPost2010Prop46
 90
       50
102
RTVSPost2010PropOp46
 70
     1
102
RTVSPost2010Prop47
 90
       50
102
RTVSPost2010PropOp47
 70
     1
102
RTVSPost2010Prop48
 90
       50
102
RTVSPost2010PropOp48
 70
     1
102
RTVSPost2010Prop49
280
     0
102
RTVSPost2010PropOp49
 70
     1
102
RTVSPost2010Prop50
 90
       50
102
RTVSPost2010PropOp50
 70
     1
102
RTVSPost2010Prop51ColorIndex
 90
      256
102
RTVSPost2010Prop51ColorRGB
 90
-16777216
102
RTVSPost2010PropOp51
 70
     0
102
RTVSPost2010Prop52
140
1.0
102
RTVSPost2010PropOp52
 70
     0
102
RTVSPost2010Prop53
 90
        2
102
RTVSPost2010PropOp53
 70
     1
102
RTVSPost2010Prop54
  1
strokes_ogs.tif
102
RTVSPost2010PropOp54
 70
     1
102
RTVSPost2010Prop55
280
     0
102
RTVSPost2010PropOp55
 70
     1
102
RTVSPost2010Prop56
140
1.0
102
RTVSPost2010PropOp56
 70
     1
102
RTVSPost2010Prop57
140
1.0
102
RTVSPost2010PropOp57
 70
     1
  0
XRECORD
  5
269
102
{ACAD_REACTORS
330
268
102
}
330
268
100
AcDbXrecord
280
     1
102
RTVSPropertyOp0
 70
     1
102
RTVSPropertyOp1
 70
     1
102
RTVSPropertyOp2
 70
     1
102
RTVSPropertyOp3
 70
     1
102
RTVSPropertyOp4
 70
     1
102
RTVSPropertyOp5
 70
     1
102
RTVSPropertyOp6
 70
     1
102
RTVSPropertyOp7
 70
     1
102
RTVSPropertyOp8
 70
     1
102
RTVSPropertyOp9
 70
     1
102
RTVSPropertyOp10
 70
     1
102
RTVSPropertyOp11
 70
     1
102
RTVSPropertyOp12
 70
     1
102
RTVSPropertyOp13
 70
     1
102
RTVSPropertyOp14
 70
     1
102
RTVSPropertyOp15
 70
     1
102
RTVSPropertyOp16
 70
     1
102
RTVSPropertyOp17
 70
     1
102
RTVSPropertyOp18
 70
     1
102
RTVSPropertyOp19
 70
     1
102
RTVSPropertyOp20
 70
     1
102
RTVSPropertyOp21
 70
     1
102
RTVSPropertyOp22
 70
     1
102
RTVSPropertyOp23
 70
     1
102
RTVSPropertyOp24
 70
     1
102
RTVSPropertyOp25
 70
     1
102
RTVSPropertyOp26
 70
     1
102
RTVSPropertyOp27
 70
     1
102
RTVSPropertyOp28
 70
     1
102
RTVSPropertyOp29
 70
     1
102
RTVSPropertyOp30
 70
     1
102
RTVSPropertyOp31
 70
     1
102
RTVSPropertyOp32
 70
     1
102
RTVSPropertyOp33
 70
     1
102
RTVSPropertyOp34
 70
     1
102
RTVSPropertyOp35
 70
     1
102
RTVSPropertyOp36
 70
     1
102
RTVSPropertyOp37
 70
     1
102
RTVSPropertyOp38
 70
     1
102
RTVSPropertyOp39
 70
     1
102
RTVSPropertyOp40
 70
     1
102
RTVSPropertyOp41
 70
     1
102
RTVSPropertyOp42
 70
     1
102
RTVSPropertyOp43
 70
     1
102
RTVSPropertyOp44
 70
     1
102
RTVSPropertyOp45
 70
     1
102
RTVSPropertyOp46
 70
     1
102
RTVSPropertyOp47
 70
     1
102
RTVSPropertyOp48
 70
     1
102
RTVSPropertyOp49
 70
     1
102
RTVSPropertyOp50
 70
     1
102
RTVSPropertyOp51
 70
     0
102
RTVSPropertyOp52
 70
     0
102
RTVSPropertyOp53
 70
     1
102
RTVSPropertyOp54
 70
     1
102
RTVSPropertyOp55
 70
     1
102
RTVSPropertyOp56
 70
     1
102
RTVSPropertyOp57
 70
     1
102
RTVSPost2010Prop28
280
     0
102
RTVSPost2010PropOp28
 70
     1
102
RTVSPost2010Prop29
280
     1
102
RTVSPost2010PropOp29
 70
     1
102
RTVSPost2010Prop30
280
     1
102
RTVSPost2010PropOp30
 70
     1
102
RTVSPost2010Prop31
280
     0
102
RTVSPost2010PropOp31
 70
     1
102
RTVSPost2010Prop32
280
     0
102
RTVSPost2010PropOp32
 70
     1
102
RTVSPost2010Prop33
280
     0
102
RTVSPost2010PropOp33
 70
     1
102
RTVSPost2010Prop34
280
     0
102
RTVSPost2010PropOp34
 70
     1
102
RTVSPost2010Prop35
280
     0
102
RTVSPost2010PropOp35
 70
     1
102
RTVSPost2010Prop36
280
     0
102
RTVSPost2010PropOp36
 70
     1
102
RTVSPost2010Prop37
 90
       50
102
RTVSPost2010PropOp37
 70
     1
102
RTVSPost2010Prop38
140
0.0
102
RTVSPost2010PropOp38
 70
     1
102
RTVSPost2010Prop39
140
1.0
102
RTVSPost2010PropOp39
 70
     1
102
RTVSPost2010Prop40
 90
        0
102
RTVSPost2010PropOp40
 70
     1
102
RTVSPost2010Prop41ColorIndex
 90
       18
102
RTVSPost2010Prop41ColorRGB
 90
        0
102
RTVSPost2010PropOp41
 70
     1
102
RTVSPost2010Prop42
 90
       50
102
RTVSPost2010PropOp42
 70
     1
102
RTVSPost2010Prop43
 90
        3
102
RTVSPost2010PropOp43
 70
     1
102
RTVSPost2010Prop44ColorIndex
 90
        5
102
RTVSPost2010Prop44ColorRGB
 90
      255
102
RTVSPost2010PropOp44
 70
     1
102
RTVSPost2010Prop45
280
     0
102
RTVSPost2010PropOp45
 70
     1
102
RTVSPost2010Prop46
 90
       50
102
RTVSPost2010PropOp46
 70
     1
102
RTVSPost2010Prop47
 90
       50
102
RTVSPost2010PropOp47
 70
     1
102
RTVSPost2010Prop48
 90
       50
102
RTVSPost2010PropOp48
 70
     1
102
RTVSPost2010Prop49
280
     0
102
RTVSPost2010PropOp49
 70
     1
102
RTVSPost2010Prop50
 90
       50
102
RTVSPost2010PropOp50
 70
     1
102
RTVSPost2010Prop51ColorIndex
 90
      256
102
RTVSPost2010Prop51ColorRGB
 90
-16777216
102
RTVSPost2010PropOp51
 70
     0
102
RTVSPost2010Prop52
140
1.0
102
RTVSPost2010PropOp52
 70
     0
102
RTVSPost2010Prop53
 90
        2
102
RTVSPost2010PropOp53
 70
     1
102
RTVSPost2010Prop54
  1
strokes_ogs.tif
102
RTVSPost2010PropOp54
 70
     1
102
RTVSPost2010Prop55
280
     0
102
RTVSPost2010PropOp55
 70
     1
102
RTVSPost2010Prop56
140
1.0
102
RTVSPost2010PropOp56
 70
     1
102
RTVSPost2010Prop57
140
1.0
102
RTVSPost2010PropOp57
 70
     1
  0
XRECORD
  5
263
102
{ACAD_REACTORS
330
262
102
}
330
262
100
AcDbXrecord
280
     1
102
RTVSPropertyOp0
 70
     1
102
RTVSPropertyOp1
 70
     1
102
RTVSPropertyOp2
 70
     1
102
RTVSPropertyOp3
 70
     1
102
RTVSPropertyOp4
 70
     1
102
RTVSPropertyOp5
 70
     1
102
RTVSPropertyOp6
 70
     1
102
RTVSPropertyOp7
 70
     1
102
RTVSPropertyOp8
 70
     1
102
RTVSPropertyOp9
 70
     1
102
RTVSPropertyOp10
 70
     1
102
RTVSPropertyOp11
 70
     1
102
RTVSPropertyOp12
 70
     1
102
RTVSPropertyOp13
 70
     1
102
RTVSPropertyOp14
 70
     1
102
RTVSPropertyOp15
 70
     1
102
RTVSPropertyOp16
 70
     1
102
RTVSPropertyOp17
 70
     1
102
RTVSPropertyOp18
 70
     1
102
RTVSPropertyOp19
 70
     1
102
RTVSPropertyOp20
 70
     1
102
RTVSPropertyOp21
 70
     1
102
RTVSPropertyOp22
 70
     1
102
RTVSPropertyOp23
 70
     1
102
RTVSPropertyOp24
 70
     1
102
RTVSPropertyOp25
 70
     1
102
RTVSPropertyOp26
 70
     1
102
RTVSPropertyOp27
 70
     1
102
RTVSPropertyOp28
 70
     1
102
RTVSPropertyOp29
 70
     1
102
RTVSPropertyOp30
 70
     1
102
RTVSPropertyOp31
 70
     1
102
RTVSPropertyOp32
 70
     1
102
RTVSPropertyOp33
 70
     1
102
RTVSPropertyOp34
 70
     1
102
RTVSPropertyOp35
 70
     1
102
RTVSPropertyOp36
 70
     1
102
RTVSPropertyOp37
 70
     1
102
RTVSPropertyOp38
 70
     1
102
RTVSPropertyOp39
 70
     1
102
RTVSPropertyOp40
 70
     1
102
RTVSPropertyOp41
 70
     1
102
RTVSPropertyOp42
 70
     1
102
RTVSPropertyOp43
 70
     1
102
RTVSPropertyOp44
 70
     1
102
RTVSPropertyOp45
 70
     1
102
RTVSPropertyOp46
 70
     1
102
RTVSPropertyOp47
 70
     1
102
RTVSPropertyOp48
 70
     1
102
RTVSPropertyOp49
 70
     1
102
RTVSPropertyOp50
 70
     1
102
RTVSPropertyOp51
 70
     0
102
RTVSPropertyOp52
 70
     0
102
RTVSPropertyOp53
 70
     1
102
RTVSPropertyOp54
 70
     1
102
RTVSPropertyOp55
 70
     1
102
RTVSPropertyOp56
 70
     1
102
RTVSPropertyOp57
 70
     1
102
RTVSPost2010Prop28
280
     0
102
RTVSPost2010PropOp28
 70
     1
102
RTVSPost2010Prop29
280
     1
102
RTVSPost2010PropOp29
 70
     1
102
RTVSPost2010Prop30
280
     1
102
RTVSPost2010PropOp30
 70
     1
102
RTVSPost2010Prop31
280
     0
102
RTVSPost2010PropOp31
 70
     1
102
RTVSPost2010Prop32
280
     0
102
RTVSPost2010PropOp32
 70
     1
102
RTVSPost2010Prop33
280
     0
102
RTVSPost2010PropOp33
 70
     1
102
RTVSPost2010Prop34
280
     0
102
RTVSPost2010PropOp34
 70
     1
102
RTVSPost2010Prop35
280
     0
102
RTVSPost2010PropOp35
 70
     1
102
RTVSPost2010Prop36
280
     0
102
RTVSPost2010PropOp36
 70
     1
102
RTVSPost2010Prop37
 90
       50
102
RTVSPost2010PropOp37
 70
     1
102
RTVSPost2010Prop38
140
0.0
102
RTVSPost2010PropOp38
 70
     1
102
RTVSPost2010Prop39
140
1.0
102
RTVSPost2010PropOp39
 70
     1
102
RTVSPost2010Prop40
 90
        0
102
RTVSPost2010PropOp40
 70
     1
102
RTVSPost2010Prop41ColorIndex
 90
       18
102
RTVSPost2010Prop41ColorRGB
 90
        0
102
RTVSPost2010PropOp41
 70
     1
102
RTVSPost2010Prop42
 90
       50
102
RTVSPost2010PropOp42
 70
     1
102
RTVSPost2010Prop43
 90
        3
102
RTVSPost2010PropOp43
 70
     1
102
RTVSPost2010Prop44ColorIndex
 90
        5
102
RTVSPost2010Prop44ColorRGB
 90
      255
102
RTVSPost2010PropOp44
 70
     1
102
RTVSPost2010Prop45
280
     0
102
RTVSPost2010PropOp45
 70
     1
102
RTVSPost2010Prop46
 90
       50
102
RTVSPost2010PropOp46
 70
     1
102
RTVSPost2010Prop47
 90
       50
102
RTVSPost2010PropOp47
 70
     1
102
RTVSPost2010Prop48
 90
       50
102
RTVSPost2010PropOp48
 70
     1
102
RTVSPost2010Prop49
280
     0
102
RTVSPost2010PropOp49
 70
     1
102
RTVSPost2010Prop50
 90
       50
102
RTVSPost2010PropOp50
 70
     1
102
RTVSPost2010Prop51ColorIndex
 90
      256
102
RTVSPost2010Prop51ColorRGB
 90
-16777216
102
RTVSPost2010PropOp51
 70
     0
102
RTVSPost2010Prop52
140
1.0
102
RTVSPost2010PropOp52
 70
     0
102
RTVSPost2010Prop53
 90
        2
102
RTVSPost2010PropOp53
 70
     1
102
RTVSPost2010Prop54
  1
strokes_ogs.tif
102
RTVSPost2010PropOp54
 70
     1
102
RTVSPost2010Prop55
280
     0
102
RTVSPost2010PropOp55
 70
     1
102
RTVSPost2010Prop56
140
1.0
102
RTVSPost2010PropOp56
 70
     1
102
RTVSPost2010Prop57
140
1.0
102
RTVSPost2010PropOp57
 70
     1
  0
XRECORD
  5
265
102
{ACAD_REACTORS
330
264
102
}
330
264
100
AcDbXrecord
280
     1
102
RTVSPropertyOp0
 70
     1
102
RTVSPropertyOp1
 70
     1
102
RTVSPropertyOp2
 70
     1
102
RTVSPropertyOp3
 70
     1
102
RTVSPropertyOp4
 70
     1
102
RTVSPropertyOp5
 70
     1
102
RTVSPropertyOp6
 70
     1
102
RTVSPropertyOp7
 70
     1
102
RTVSPropertyOp8
 70
     1
102
RTVSPropertyOp9
 70
     1
102
RTVSPropertyOp10
 70
     1
102
RTVSPropertyOp11
 70
     1
102
RTVSPropertyOp12
 70
     1
102
RTVSPropertyOp13
 70
     1
102
RTVSPropertyOp14
 70
     1
102
RTVSPropertyOp15
 70
     1
102
RTVSPropertyOp16
 70
     1
102
RTVSPropertyOp17
 70
     1
102
RTVSPropertyOp18
 70
     1
102
RTVSPropertyOp19
 70
     1
102
RTVSPropertyOp20
 70
     1
102
RTVSPropertyOp21
 70
     1
102
RTVSPropertyOp22
 70
     1
102
RTVSPropertyOp23
 70
     1
102
RTVSPropertyOp24
 70
     1
102
RTVSPropertyOp25
 70
     1
102
RTVSPropertyOp26
 70
     1
102
RTVSPropertyOp27
 70
     1
102
RTVSPropertyOp28
 70
     1
102
RTVSPropertyOp29
 70
     1
102
RTVSPropertyOp30
 70
     1
102
RTVSPropertyOp31
 70
     1
102
RTVSPropertyOp32
 70
     1
102
RTVSPropertyOp33
 70
     1
102
RTVSPropertyOp34
 70
     1
102
RTVSPropertyOp35
 70
     1
102
RTVSPropertyOp36
 70
     1
102
RTVSPropertyOp37
 70
     1
102
RTVSPropertyOp38
 70
     1
102
RTVSPropertyOp39
 70
     1
102
RTVSPropertyOp40
 70
     1
102
RTVSPropertyOp41
 70
     1
102
RTVSPropertyOp42
 70
     1
102
RTVSPropertyOp43
 70
     1
102
RTVSPropertyOp44
 70
     1
102
RTVSPropertyOp45
 70
     1
102
RTVSPropertyOp46
 70
     1
102
RTVSPropertyOp47
 70
     1
102
RTVSPropertyOp48
 70
     1
102
RTVSPropertyOp49
 70
     1
102
RTVSPropertyOp50
 70
     1
102
RTVSPropertyOp51
 70
     0
102
RTVSPropertyOp52
 70
     0
102
RTVSPropertyOp53
 70
     1
102
RTVSPropertyOp54
 70
     1
102
RTVSPropertyOp55
 70
     1
102
RTVSPropertyOp56
 70
     1
102
RTVSPropertyOp57
 70
     1
102
RTVSPost2010Prop28
280
     0
102
RTVSPost2010PropOp28
 70
     1
102
RTVSPost2010Prop29
280
     1
102
RTVSPost2010PropOp29
 70
     1
102
RTVSPost2010Prop30
280
     1
102
RTVSPost2010PropOp30
 70
     1
102
RTVSPost2010Prop31
280
     0
102
RTVSPost2010PropOp31
 70
     1
102
RTVSPost2010Prop32
280
     0
102
RTVSPost2010PropOp32
 70
     1
102
RTVSPost2010Prop33
280
     0
102
RTVSPost2010PropOp33
 70
     1
102
RTVSPost2010Prop34
280
     0
102
RTVSPost2010PropOp34
 70
     1
102
RTVSPost2010Prop35
280
     0
102
RTVSPost2010PropOp35
 70
     1
102
RTVSPost2010Prop36
280
     0
102
RTVSPost2010PropOp36
 70
     1
102
RTVSPost2010Prop37
 90
       50
102
RTVSPost2010PropOp37
 70
     1
102
RTVSPost2010Prop38
140
0.0
102
RTVSPost2010PropOp38
 70
     1
102
RTVSPost2010Prop39
140
1.0
102
RTVSPost2010PropOp39
 70
     1
102
RTVSPost2010Prop40
 90
        0
102
RTVSPost2010PropOp40
 70
     1
102
RTVSPost2010Prop41ColorIndex
 90
       18
102
RTVSPost2010Prop41ColorRGB
 90
        0
102
RTVSPost2010PropOp41
 70
     1
102
RTVSPost2010Prop42
 90
       50
102
RTVSPost2010PropOp42
 70
     1
102
RTVSPost2010Prop43
 90
        3
102
RTVSPost2010PropOp43
 70
     1
102
RTVSPost2010Prop44ColorIndex
 90
        5
102
RTVSPost2010Prop44ColorRGB
 90
      255
102
RTVSPost2010PropOp44
 70
     1
102
RTVSPost2010Prop45
280
     0
102
RTVSPost2010PropOp45
 70
     1
102
RTVSPost2010Prop46
 90
       50
102
RTVSPost2010PropOp46
 70
     1
102
RTVSPost2010Prop47
 90
       50
102
RTVSPost2010PropOp47
 70
     1
102
RTVSPost2010Prop48
 90
       50
102
RTVSPost2010PropOp48
 70
     1
102
RTVSPost2010Prop49
280
     0
102
RTVSPost2010PropOp49
 70
     1
102
RTVSPost2010Prop50
 90
       50
102
RTVSPost2010PropOp50
 70
     1
102
RTVSPost2010Prop51ColorIndex
 90
      256
102
RTVSPost2010Prop51ColorRGB
 90
-16777216
102
RTVSPost2010PropOp51
 70
     0
102
RTVSPost2010Prop52
140
1.0
102
RTVSPost2010PropOp52
 70
     0
102
RTVSPost2010Prop53
 90
        2
102
RTVSPost2010PropOp53
 70
     1
102
RTVSPost2010Prop54
  1
strokes_ogs.tif
102
RTVSPost2010PropOp54
 70
     1
102
RTVSPost2010Prop55
280
     0
102
RTVSPost2010PropOp55
 70
     1
102
RTVSPost2010Prop56
140
1.0
102
RTVSPost2010PropOp56
 70
     1
102
RTVSPost2010Prop57
140
1.0
102
RTVSPost2010PropOp57
 70
     1
  0
XRECORD
  5
255
102
{ACAD_REACTORS
330
254
102
}
330
254
100
AcDbXrecord
280
     1
102
RTVSPropertyOp0
 70
     1
102
RTVSPropertyOp1
 70
     1
102
RTVSPropertyOp2
 70
     1
102
RTVSPropertyOp3
 70
     1
102
RTVSPropertyOp4
 70
     1
102
RTVSPropertyOp5
 70
     1
102
RTVSPropertyOp6
 70
     1
102
RTVSPropertyOp7
 70
     1
102
RTVSPropertyOp8
 70
     1
102
RTVSPropertyOp9
 70
     1
102
RTVSPropertyOp10
 70
     1
102
RTVSPropertyOp11
 70
     1
102
RTVSPropertyOp12
 70
     1
102
RTVSPropertyOp13
 70
     1
102
RTVSPropertyOp14
 70
     1
102
RTVSPropertyOp15
 70
     1
102
RTVSPropertyOp16
 70
     1
102
RTVSPropertyOp17
 70
     1
102
RTVSPropertyOp18
 70
     1
102
RTVSPropertyOp19
 70
     1
102
RTVSPropertyOp20
 70
     1
102
RTVSPropertyOp21
 70
     1
102
RTVSPropertyOp22
 70
     1
102
RTVSPropertyOp23
 70
     1
102
RTVSPropertyOp24
 70
     1
102
RTVSPropertyOp25
 70
     1
102
RTVSPropertyOp26
 70
     1
102
RTVSPropertyOp27
 70
     1
102
RTVSPropertyOp28
 70
     1
102
RTVSPropertyOp29
 70
     1
102
RTVSPropertyOp30
 70
     1
102
RTVSPropertyOp31
 70
     1
102
RTVSPropertyOp32
 70
     1
102
RTVSPropertyOp33
 70
     1
102
RTVSPropertyOp34
 70
     1
102
RTVSPropertyOp35
 70
     1
102
RTVSPropertyOp36
 70
     1
102
RTVSPropertyOp37
 70
     1
102
RTVSPropertyOp38
 70
     1
102
RTVSPropertyOp39
 70
     1
102
RTVSPropertyOp40
 70
     1
102
RTVSPropertyOp41
 70
     1
102
RTVSPropertyOp42
 70
     1
102
RTVSPropertyOp43
 70
     1
102
RTVSPropertyOp44
 70
     1
102
RTVSPropertyOp45
 70
     1
102
RTVSPropertyOp46
 70
     1
102
RTVSPropertyOp47
 70
     1
102
RTVSPropertyOp48
 70
     1
102
RTVSPropertyOp49
 70
     1
102
RTVSPropertyOp50
 70
     1
102
RTVSPropertyOp51
 70
     0
102
RTVSPropertyOp52
 70
     0
102
RTVSPropertyOp53
 70
     1
102
RTVSPropertyOp54
 70
     1
102
RTVSPropertyOp55
 70
     1
102
RTVSPropertyOp56
 70
     1
102
RTVSPropertyOp57
 70
     1
102
RTVSPost2010Prop28
280
     0
102
RTVSPost2010PropOp28
 70
     1
102
RTVSPost2010Prop29
280
     1
102
RTVSPost2010PropOp29
 70
     1
102
RTVSPost2010Prop30
280
     1
102
RTVSPost2010PropOp30
 70
     1
102
RTVSPost2010Prop31
280
     0
102
RTVSPost2010PropOp31
 70
     1
102
RTVSPost2010Prop32
280
     0
102
RTVSPost2010PropOp32
 70
     1
102
RTVSPost2010Prop33
280
     0
102
RTVSPost2010PropOp33
 70
     1
102
RTVSPost2010Prop34
280
     0
102
RTVSPost2010PropOp34
 70
     1
102
RTVSPost2010Prop35
280
     0
102
RTVSPost2010PropOp35
 70
     1
102
RTVSPost2010Prop36
280
     0
102
RTVSPost2010PropOp36
 70
     1
102
RTVSPost2010Prop37
 90
       50
102
RTVSPost2010PropOp37
 70
     1
102
RTVSPost2010Prop38
140
0.0
102
RTVSPost2010PropOp38
 70
     1
102
RTVSPost2010Prop39
140
1.0
102
RTVSPost2010PropOp39
 70
     1
102
RTVSPost2010Prop40
 90
        0
102
RTVSPost2010PropOp40
 70
     1
102
RTVSPost2010Prop41ColorIndex
 90
       18
102
RTVSPost2010Prop41ColorRGB
 90
        0
102
RTVSPost2010PropOp41
 70
     1
102
RTVSPost2010Prop42
 90
       50
102
RTVSPost2010PropOp42
 70
     1
102
RTVSPost2010Prop43
 90
        3
102
RTVSPost2010PropOp43
 70
     1
102
RTVSPost2010Prop44ColorIndex
 90
        5
102
RTVSPost2010Prop44ColorRGB
 90
      255
102
RTVSPost2010PropOp44
 70
     1
102
RTVSPost2010Prop45
280
     0
102
RTVSPost2010PropOp45
 70
     1
102
RTVSPost2010Prop46
 90
       50
102
RTVSPost2010PropOp46
 70
     1
102
RTVSPost2010Prop47
 90
       50
102
RTVSPost2010PropOp47
 70
     1
102
RTVSPost2010Prop48
 90
       50
102
RTVSPost2010PropOp48
 70
     1
102
RTVSPost2010Prop49
280
     0
102
RTVSPost2010PropOp49
 70
     1
102
RTVSPost2010Prop50
 90
       50
102
RTVSPost2010PropOp50
 70
     1
102
RTVSPost2010Prop51ColorIndex
 90
      256
102
RTVSPost2010Prop51ColorRGB
 90
-16777216
102
RTVSPost2010PropOp51
 70
     0
102
RTVSPost2010Prop52
140
1.0
102
RTVSPost2010PropOp52
 70
     0
102
RTVSPost2010Prop53
 90
        2
102
RTVSPost2010PropOp53
 70
     1
102
RTVSPost2010Prop54
  1
strokes_ogs.tif
102
RTVSPost2010PropOp54
 70
     1
102
RTVSPost2010Prop55
280
     0
102
RTVSPost2010PropOp55
 70
     1
102
RTVSPost2010Prop56
140
1.0
102
RTVSPost2010PropOp56
 70
     1
102
RTVSPost2010Prop57
140
1.0
102
RTVSPost2010PropOp57
 70
     1
  0
XRECORD
  5
247
102
{ACAD_REACTORS
330
246
102
}
330
246
100
AcDbXrecord
280
     1
102
RTVSPropertyOp0
 70
     1
102
RTVSPropertyOp1
 70
     1
102
RTVSPropertyOp2
 70
     1
102
RTVSPropertyOp3
 70
     1
102
RTVSPropertyOp4
 70
     1
102
RTVSPropertyOp5
 70
     1
102
RTVSPropertyOp6
 70
     1
102
RTVSPropertyOp7
 70
     1
102
RTVSPropertyOp8
 70
     1
102
RTVSPropertyOp9
 70
     1
102
RTVSPropertyOp10
 70
     1
102
RTVSPropertyOp11
 70
     1
102
RTVSPropertyOp12
 70
     1
102
RTVSPropertyOp13
 70
     1
102
RTVSPropertyOp14
 70
     1
102
RTVSPropertyOp15
 70
     1
102
RTVSPropertyOp16
 70
     1
102
RTVSPropertyOp17
 70
     1
102
RTVSPropertyOp18
 70
     1
102
RTVSPropertyOp19
 70
     1
102
RTVSPropertyOp20
 70
     1
102
RTVSPropertyOp21
 70
     1
102
RTVSPropertyOp22
 70
     1
102
RTVSPropertyOp23
 70
     1
102
RTVSPropertyOp24
 70
     1
102
RTVSPropertyOp25
 70
     1
102
RTVSPropertyOp26
 70
     1
102
RTVSPropertyOp27
 70
     1
102
RTVSPropertyOp28
 70
     1
102
RTVSPropertyOp29
 70
     1
102
RTVSPropertyOp30
 70
     1
102
RTVSPropertyOp31
 70
     1
102
RTVSPropertyOp32
 70
     1
102
RTVSPropertyOp33
 70
     1
102
RTVSPropertyOp34
 70
     1
102
RTVSPropertyOp35
 70
     1
102
RTVSPropertyOp36
 70
     1
102
RTVSPropertyOp37
 70
     1
102
RTVSPropertyOp38
 70
     1
102
RTVSPropertyOp39
 70
     1
102
RTVSPropertyOp40
 70
     1
102
RTVSPropertyOp41
 70
     1
102
RTVSPropertyOp42
 70
     1
102
RTVSPropertyOp43
 70
     1
102
RTVSPropertyOp44
 70
     1
102
RTVSPropertyOp45
 70
     1
102
RTVSPropertyOp46
 70
     1
102
RTVSPropertyOp47
 70
     1
102
RTVSPropertyOp48
 70
     1
102
RTVSPropertyOp49
 70
     1
102
RTVSPropertyOp50
 70
     1
102
RTVSPropertyOp51
 70
     0
102
RTVSPropertyOp52
 70
     0
102
RTVSPropertyOp53
 70
     1
102
RTVSPropertyOp54
 70
     1
102
RTVSPropertyOp55
 70
     1
102
RTVSPropertyOp56
 70
     1
102
RTVSPropertyOp57
 70
     1
102
RTVSPost2010Prop28
280
     0
102
RTVSPost2010PropOp28
 70
     1
102
RTVSPost2010Prop29
280
     1
102
RTVSPost2010PropOp29
 70
     1
102
RTVSPost2010Prop30
280
     1
102
RTVSPost2010PropOp30
 70
     1
102
RTVSPost2010Prop31
280
     0
102
RTVSPost2010PropOp31
 70
     1
102
RTVSPost2010Prop32
280
     0
102
RTVSPost2010PropOp32
 70
     1
102
RTVSPost2010Prop33
280
     0
102
RTVSPost2010PropOp33
 70
     1
102
RTVSPost2010Prop34
280
     0
102
RTVSPost2010PropOp34
 70
     1
102
RTVSPost2010Prop35
280
     0
102
RTVSPost2010PropOp35
 70
     1
102
RTVSPost2010Prop36
280
     0
102
RTVSPost2010PropOp36
 70
     1
102
RTVSPost2010Prop37
 90
       50
102
RTVSPost2010PropOp37
 70
     1
102
RTVSPost2010Prop38
140
0.0
102
RTVSPost2010PropOp38
 70
     1
102
RTVSPost2010Prop39
140
1.0
102
RTVSPost2010PropOp39
 70
     1
102
RTVSPost2010Prop40
 90
        0
102
RTVSPost2010PropOp40
 70
     1
102
RTVSPost2010Prop41ColorIndex
 90
       18
102
RTVSPost2010Prop41ColorRGB
 90
        0
102
RTVSPost2010PropOp41
 70
     1
102
RTVSPost2010Prop42
 90
       50
102
RTVSPost2010PropOp42
 70
     1
102
RTVSPost2010Prop43
 90
        3
102
RTVSPost2010PropOp43
 70
     1
102
RTVSPost2010Prop44ColorIndex
 90
        5
102
RTVSPost2010Prop44ColorRGB
 90
      255
102
RTVSPost2010PropOp44
 70
     1
102
RTVSPost2010Prop45
280
     0
102
RTVSPost2010PropOp45
 70
     1
102
RTVSPost2010Prop46
 90
       50
102
RTVSPost2010PropOp46
 70
     1
102
RTVSPost2010Prop47
 90
       50
102
RTVSPost2010PropOp47
 70
     1
102
RTVSPost2010Prop48
 90
       50
102
RTVSPost2010PropOp48
 70
     1
102
RTVSPost2010Prop49
280
     0
102
RTVSPost2010PropOp49
 70
     1
102
RTVSPost2010Prop50
 90
       50
102
RTVSPost2010PropOp50
 70
     1
102
RTVSPost2010Prop51ColorIndex
 90
      256
102
RTVSPost2010Prop51ColorRGB
 90
-16777216
102
RTVSPost2010PropOp51
 70
     0
102
RTVSPost2010Prop52
140
1.0
102
RTVSPost2010PropOp52
 70
     0
102
RTVSPost2010Prop53
 90
        2
102
RTVSPost2010PropOp53
 70
     1
102
RTVSPost2010Prop54
  1
strokes_ogs.tif
102
RTVSPost2010PropOp54
 70
     1
102
RTVSPost2010Prop55
280
     0
102
RTVSPost2010PropOp55
 70
     1
102
RTVSPost2010Prop56
140
1.0
102
RTVSPost2010PropOp56
 70
     1
102
RTVSPost2010Prop57
140
1.0
102
RTVSPost2010PropOp57
 70
     1
  0
XRECORD
  5
267
102
{ACAD_REACTORS
330
266
102
}
330
266
100
AcDbXrecord
280
     1
102
RTVSPropertyOp0
 70
     1
102
RTVSPropertyOp1
 70
     1
102
RTVSPropertyOp2
 70
     1
102
RTVSPropertyOp3
 70
     1
102
RTVSPropertyOp4
 70
     1
102
RTVSPropertyOp5
 70
     1
102
RTVSPropertyOp6
 70
     1
102
RTVSPropertyOp7
 70
     1
102
RTVSPropertyOp8
 70
     1
102
RTVSPropertyOp9
 70
     1
102
RTVSPropertyOp10
 70
     1
102
RTVSPropertyOp11
 70
     1
102
RTVSPropertyOp12
 70
     1
102
RTVSPropertyOp13
 70
     1
102
RTVSPropertyOp14
 70
     1
102
RTVSPropertyOp15
 70
     1
102
RTVSPropertyOp16
 70
     1
102
RTVSPropertyOp17
 70
     1
102
RTVSPropertyOp18
 70
     1
102
RTVSPropertyOp19
 70
     1
102
RTVSPropertyOp20
 70
     1
102
RTVSPropertyOp21
 70
     1
102
RTVSPropertyOp22
 70
     1
102
RTVSPropertyOp23
 70
     1
102
RTVSPropertyOp24
 70
     1
102
RTVSPropertyOp25
 70
     1
102
RTVSPropertyOp26
 70
     1
102
RTVSPropertyOp27
 70
     1
102
RTVSPropertyOp28
 70
     1
102
RTVSPropertyOp29
 70
     1
102
RTVSPropertyOp30
 70
     1
102
RTVSPropertyOp31
 70
     1
102
RTVSPropertyOp32
 70
     1
102
RTVSPropertyOp33
 70
     1
102
RTVSPropertyOp34
 70
     1
102
RTVSPropertyOp35
 70
     1
102
RTVSPropertyOp36
 70
     1
102
RTVSPropertyOp37
 70
     1
102
RTVSPropertyOp38
 70
     1
102
RTVSPropertyOp39
 70
     1
102
RTVSPropertyOp40
 70
     1
102
RTVSPropertyOp41
 70
     1
102
RTVSPropertyOp42
 70
     1
102
RTVSPropertyOp43
 70
     1
102
RTVSPropertyOp44
 70
     1
102
RTVSPropertyOp45
 70
     1
102
RTVSPropertyOp46
 70
     1
102
RTVSPropertyOp47
 70
     1
102
RTVSPropertyOp48
 70
     1
102
RTVSPropertyOp49
 70
     1
102
RTVSPropertyOp50
 70
     1
102
RTVSPropertyOp51
 70
     0
102
RTVSPropertyOp52
 70
     0
102
RTVSPropertyOp53
 70
     1
102
RTVSPropertyOp54
 70
     1
102
RTVSPropertyOp55
 70
     1
102
RTVSPropertyOp56
 70
     1
102
RTVSPropertyOp57
 70
     1
102
RTVSPost2010Prop28
280
     0
102
RTVSPost2010PropOp28
 70
     1
102
RTVSPost2010Prop29
280
     1
102
RTVSPost2010PropOp29
 70
     1
102
RTVSPost2010Prop30
280
     1
102
RTVSPost2010PropOp30
 70
     1
102
RTVSPost2010Prop31
280
     0
102
RTVSPost2010PropOp31
 70
     1
102
RTVSPost2010Prop32
280
     0
102
RTVSPost2010PropOp32
 70
     1
102
RTVSPost2010Prop33
280
     0
102
RTVSPost2010PropOp33
 70
     1
102
RTVSPost2010Prop34
280
     0
102
RTVSPost2010PropOp34
 70
     1
102
RTVSPost2010Prop35
280
     0
102
RTVSPost2010PropOp35
 70
     1
102
RTVSPost2010Prop36
280
     0
102
RTVSPost2010PropOp36
 70
     1
102
RTVSPost2010Prop37
 90
       50
102
RTVSPost2010PropOp37
 70
     1
102
RTVSPost2010Prop38
140
0.0
102
RTVSPost2010PropOp38
 70
     1
102
RTVSPost2010Prop39
140
1.0
102
RTVSPost2010PropOp39
 70
     1
102
RTVSPost2010Prop40
 90
        0
102
RTVSPost2010PropOp40
 70
     1
102
RTVSPost2010Prop41ColorIndex
 90
       18
102
RTVSPost2010Prop41ColorRGB
 90
        0
102
RTVSPost2010PropOp41
 70
     1
102
RTVSPost2010Prop42
 90
       50
102
RTVSPost2010PropOp42
 70
     1
102
RTVSPost2010Prop43
 90
        3
102
RTVSPost2010PropOp43
 70
     1
102
RTVSPost2010Prop44ColorIndex
 90
        5
102
RTVSPost2010Prop44ColorRGB
 90
      255
102
RTVSPost2010PropOp44
 70
     1
102
RTVSPost2010Prop45
280
     0
102
RTVSPost2010PropOp45
 70
     1
102
RTVSPost2010Prop46
 90
       50
102
RTVSPost2010PropOp46
 70
     1
102
RTVSPost2010Prop47
 90
       50
102
RTVSPost2010PropOp47
 70
     1
102
RTVSPost2010Prop48
 90
       50
102
RTVSPost2010PropOp48
 70
     1
102
RTVSPost2010Prop49
280
     0
102
RTVSPost2010PropOp49
 70
     1
102
RTVSPost2010Prop50
 90
       50
102
RTVSPost2010PropOp50
 70
     1
102
RTVSPost2010Prop51ColorIndex
 90
      256
102
RTVSPost2010Prop51ColorRGB
 90
-16777216
102
RTVSPost2010PropOp51
 70
     0
102
RTVSPost2010Prop52
140
1.0
102
RTVSPost2010PropOp52
 70
     0
102
RTVSPost2010Prop53
 90
        2
102
RTVSPost2010PropOp53
 70
     1
102
RTVSPost2010Prop54
  1
strokes_ogs.tif
102
RTVSPost2010PropOp54
 70
     1
102
RTVSPost2010Prop55
280
     0
102
RTVSPost2010PropOp55
 70
     1
102
RTVSPost2010Prop56
140
1.0
102
RTVSPost2010PropOp56
 70
     1
102
RTVSPost2010Prop57
140
1.0
102
RTVSPost2010PropOp57
 70
     1
  0
ENDSEC
  0
EOF
