  0
SECTION
  2
HEADER
  9
$ACADVER
  1
AC1021
  9
$ACADMAINTVER
 70
    25
  9
$DWGCODEPAGE
  3
ANSI_1252
  9
$INSBASE
 10
0.0
 20
0.0
 30
0.0
  9
$EXTMIN
 10
0.0
 20
0.0
 30
0.0
  9
$EXTMAX
 10
594.0
 20
420.0
 30
0.0
  9
$LIMMIN
 10
0.0
 20
0.0
  9
$LIMMAX
 10
594.0
 20
420.0
  9
$ORTHOMODE
 70
     0
  9
$REGENMODE
 70
     1
  9
$FILLMODE
 70
     1
  9
$QTEXTMODE
 70
     0
  9
$MIRRTEXT
 70
     1
  9
$LTSCALE
 40
1.0
  9
$ATTMODE
 70
     1
  9
$TEXTSIZE
 40
4.57
  9
$TRACEWID
 40
1.0
  9
$TEXTSTYLE
  7
Standard
  9
$CLAYER
  8
0
  9
$CELTYPE
  6
ByLayer
  9
$CECOLOR
 62
   256
  9
$CELTSCALE
 40
1.0
  9
$DISPSILH
 70
     0
  9
$DIMSCALE
 40
1.0
  9
$DIMASZ
 40
2.5
  9
$DIMEXO
 40
0.625
  9
$DIMDLI
 40
3.75
  9
$DIMRND
 40
0.0
  9
$DIMDLE
 40
0.0
  9
$DIMEXE
 40
1.25
  9
$DIMTP
 40
0.0
  9
$DIMTM
 40
0.0
  9
$DIMTXT
 40
2.5
  9
$DIMCEN
 40
2.5
  9
$DIMTSZ
 40
0.0
  9
$DIMTOL
 70
     0
  9
$DIMLIM
 70
     0
  9
$DIMTIH
 70
     0
  9
$DIMTOH
 70
     0
  9
$DIMSE1
 70
     0
  9
$DIMSE2
 70
     0
  9
$DIMTAD
 70
     1
  9
$DIMZIN
 70
     8
  9
$DIMBLK
  1

  9
$DIMASO
 70
     1
  9
$DIMSHO
 70
     1
  9
$DIMPOST
  1

  9
$DIMAPOST
  1

  9
$DIMALT
 70
     0
  9
$DIMALTD
 70
     3
  9
$DIMALTF
 40
0.0393700787
  9
$DIMLFAC
 40
1.0
  9
$DIMTOFL
 70
     1
  9
$DIMTVP
 40
0.0
  9
$DIMTIX
 70
     0
  9
$DIMSOXD
 70
     0
  9
$DIMSAH
 70
     0
  9
$DIMBLK1
  1

  9
$DIMBLK2
  1

  9
$DIMSTYLE
  2
ISO-25
  9
$DIMCLRD
 70
     0
  9
$DIMCLRE
 70
     0
  9
$DIMCLRT
 70
     0
  9
$DIMTFAC
 40
1.0
  9
$DIMGAP
 40
0.625
  9
$DIMJUST
 70
     0
  9
$DIMSD1
 70
     0
  9
$DIMSD2
 70
     0
  9
$DIMTOLJ
 70
     0
  9
$DIMTZIN
 70
     8
  9
$DIMALTZ
 70
     0
  9
$DIMALTTZ
 70
     0
  9
$DIMUPT
 70
     0
  9
$DIMDEC
 70
     2
  9
$DIMTDEC
 70
     2
  9
$DIMALTU
 70
     2
  9
$DIMALTTD
 70
     3
  9
$DIMTXSTY
  7
Standard
  9
$DIMAUNIT
 70
     0
  9
$DIMADEC
 70
     0
  9
$DIMALTRND
 40
0.0
  9
$DIMAZIN
 70
     0
  9
$DIMDSEP
 70
    44
  9
$DIMATFIT
 70
     3
  9
$DIMFRAC
 70
     0
  9
$DIMLDRBLK
  1

  9
$DIMLUNIT
 70
     2
  9
$DIMLWD
 70
    -2
  9
$DIMLWE
 70
    -2
  9
$DIMTMOVE
 70
     0
  9
$DIMFXL
 40
1.0
  9
$DIMFXLON
 70
     0
  9
$DIMJOGANG
 40
0.7853981634
  9
$DIMTFILL
 70
     0
  9
$DIMTFILLCLR
 70
     0
  9
$DIMARCSYM
 70
     0
  9
$DIMLTYPE
  6

  9
$DIMLTEX1
  6

  9
$DIMLTEX2
  6

  9
$LUNITS
 70
     2
  9
$LUPREC
 70
     4
  9
$SKETCHINC
 40
1.0
  9
$FILLETRAD
 40
10.0
  9
$AUNITS
 70
     0
  9
$AUPREC
 70
     0
  9
$MENU
  1
.
  9
$ELEVATION
 40
0.0
  9
$PELEVATION
 40
0.0
  9
$THICKNESS
 40
0.0
  9
$LIMCHECK
 70
     0
  9
$CHAMFERA
 40
0.0
  9
$CHAMFERB
 40
0.0
  9
$CHAMFERC
 40
0.0
  9
$CHAMFERD
 40
0.0
  9
$SKPOLY
 70
     0
  9
$TDCREATE
 40
2460686.378911563
  9
$TDUCREATE
 40
2460686.337244896
  9
$TDUPDATE
 40
2460686.378913912
  9
$TDUUPDATE
 40
2460686.337247245
  9
$TDINDWG
 40
0.0000000116
  9
$TDUSRTIMER
 40
0.0000000116
  9
$USRTIMER
 70
     1
  9
$ANGBASE
 50
0.0
  9
$ANGDIR
 70
     0
  9
$PDMODE
 70
     0
  9
$PDSIZE
 40
0.0
  9
$PLINEWID
 40
0.0
  9
$SPLFRAME
 70
     0
  9
$SPLINETYPE
 70
     6
  9
$SPLINESEGS
 70
     8
  9
$HANDSEED
  5
277
  9
$SURFTAB1
 70
     6
  9
$SURFTAB2
 70
     6
  9
$SURFTYPE
 70
     6
  9
$SURFU
 70
     6
  9
$SURFV
 70
     6
  9
$UCSBASE
  2

  9
$UCSNAME
  2

  9
$UCSORG
 10
0.0
 20
0.0
 30
0.0
  9
$UCSXDIR
 10
1.0
 20
0.0
 30
0.0
  9
$UCSYDIR
 10
0.0
 20
1.0
 30
0.0
  9
$UCSORTHOREF
  2

  9
$UCSORTHOVIEW
 70
     0
  9
$UCSORGTOP
 10
0.0
 20
0.0
 30
0.0
  9
$UCSORGBOTTOM
 10
0.0
 20
0.0
 30
0.0
  9
$UCSORGLEFT
 10
0.0
 20
0.0
 30
0.0
  9
$UCSORGRIGHT
 10
0.0
 20
0.0
 30
0.0
  9
$UCSORGFRONT
 10
0.0
 20
0.0
 30
0.0
  9
$UCSORGBACK
 10
0.0
 20
0.0
 30
0.0
  9
$PUCSBASE
  2

  9
$PUCSNAME
  2

  9
$PUCSORG
 10
0.0
 20
0.0
 30
0.0
  9
$PUCSXDIR
 10
1.0
 20
0.0
 30
0.0
  9
$PUCSYDIR
 10
0.0
 20
1.0
 30
0.0
  9
$PUCSORTHOREF
  2

  9
$PUCSORTHOVIEW
 70
     0
  9
$PUCSORGTOP
 10
0.0
 20
0.0
 30
0.0
  9
$PUCSORGBOTTOM
 10
0.0
 20
0.0
 30
0.0
  9
$PUCSORGLEFT
 10
0.0
 20
0.0
 30
0.0
  9
$PUCSORGRIGHT
 10
0.0
 20
0.0
 30
0.0
  9
$PUCSORGFRONT
 10
0.0
 20
0.0
 30
0.0
  9
$PUCSORGBACK
 10
0.0
 20
0.0
 30
0.0
  9
$USERI1
 70
     0
  9
$USERI2
 70
     0
  9
$USERI3
 70
     0
  9
$USERI4
 70
     0
  9
$USERI5
 70
     0
  9
$USERR1
 40
0.0
  9
$USERR2
 40
0.0
  9
$USERR3
 40
0.0
  9
$USERR4
 40
0.0
  9
$USERR5
 40
0.0
  9
$WORLDVIEW
 70
     1
  9
$SHADEDGE
 70
     3
  9
$SHADEDIF
 70
    70
  9
$TILEMODE
 70
     1
  9
$MAXACTVP
 70
    64
  9
$PINSBASE
 10
0.0
 20
0.0
 30
0.0
  9
$PLIMCHECK
 70
     0
  9
$PEXTMIN
 10
0.0
 20
0.0
 30
0.0
  9
$PEXTMAX
 10
594.0
 20
420.0
 30
0.0
  9
$PLIMMIN
 10
0.0
 20
0.0
  9
$PLIMMAX
 10
594.0
 20
420.0
  9
$UNITMODE
 70
     0
  9
$VISRETAIN
 70
     1
  9
$PLINEGEN
 70
     0
  9
$PSLTSCALE
 70
     1
  9
$TREEDEPTH
 70
  3020
  9
$CMLSTYLE
  2
Standard
  9
$CMLJUST
 70
     0
  9
$CMLSCALE
 40
20.0
  9
$PROXYGRAPHICS
 70
     1
  9
$MEASUREMENT
 70
     1
  9
$CELWEIGHT
370
    -1
  9
$ENDCAPS
280
     0
  9
$JOINSTYLE
280
     0
  9
$LWDISPLAY
290
     0
  9
$INSUNITS
 70
     4
  9
$HYPERLINKBASE
  1

  9
$STYLESHEET
  1

  9
$XEDIT
290
     1
  9
$CEPSNTYPE
380
     0
  9
$PSTYLEMODE
290
     1
  9
$FINGERPRINTGUID
  2
{50549183-8ad8-42cb-90a0-ddf92951d72c}
  9
$VERSIONGUID
  2
{FAEB1C32-E019-11D5-929B-00C0DF256EC4}
  9
$EXTNAMES
290
     1
  9
$PSVPSCALE
 40
0.0
  9
$OLESTARTUP
290
     0
  9
$SORTENTS
280
   127
  9
$INDEXCTL
280
     0
  9
$HIDETEXT
280
     1
  9
$XCLIPFRAME
290
     0
  9
$HALOGAP
280
     0
  9
$OBSCOLOR
 70
   257
  9
$OBSLTYPE
280
     0
  9
$INTERSECTIONDISPLAY
280
     0
  9
$INTERSECTIONCOLOR
 70
   257
  9
$DIMASSOC
280
     2
  9
$PROJECTNAME
  1

  9
$CAMERADISPLAY
290
     0
  9
$LENSLENGTH
 40
50.0
  9
$CAMERAHEIGHT
 40
0.0
  9
$STEPSPERSEC
 40
2.0
  9
$STEPSIZE
 40
6.0
  9
$3DDWFPREC
 40
2.0
  9
$PSOLWIDTH
 40
5.0
  9
$PSOLHEIGHT
 40
80.0
  9
$LOFTANG1
 40
1.5707963268
  9
$LOFTANG2
 40
1.5707963268
  9
$LOFTMAG1
 40
0.0
  9
$LOFTMAG2
 40
0.0
  9
$LOFTPARAM
 70
     7
  9
$LOFTNORMALS
280
     1
  9
$LATITUDE
 40
37.795
  9
$LONGITUDE
 40
-122.394
  9
$NORTHDIRECTION
 40
0.0
  9
$TIMEZONE
 70
 -8000
  9
$LIGHTGLYPHDISPLAY
280
     1
  9
$TILEMODELIGHTSYNCH
280
     1
  9
$CMATERIAL
347
44
  9
$SOLIDHIST
280
     0
  9
$SHOWHIST
280
     1
  9
$DWFFRAME
280
     2
  9
$DGNFRAME
280
     2
  9
$REALWORLDSCALE
290
     1
  9
$INTERFERECOLOR
 62
   256
  9
$CSHADOW
280
     0
  9
$SHADOWPLANELOCATION
 40
0.0
  0
ENDSEC
  0
SECTION
  2
CLASSES
  0
CLASS
  1
ACDBDICTIONARYWDFLT
  2
AcDbDictionaryWithDefault
  3
ObjectDBX Classes
 90
        0
 91
        3
280
     0
281
     0
  0
CLASS
  1
VISUALSTYLE
  2
AcDbVisualStyle
  3
ObjectDBX Classes
 90
     4095
 91
        3
280
     0
281
     0
  0
CLASS
  1
MATERIAL
  2
AcDbMaterial
  3
ObjectDBX Classes
 90
     1153
 91
        3
280
     0
281
     0
  0
CLASS
  1
SCALE
  2
AcDbScale
  3
ObjectDBX Classes
 90
     1153
 91
        3
280
     0
281
     0
  0
CLASS
  1
TABLESTYLE
  2
AcDbTableStyle
  3
ObjectDBX Classes
 90
     4095
 91
        3
280
     0
281
     0
  0
CLASS
  1
MLEADERSTYLE
  2
AcDbMLeaderStyle
  3
ACDB_MLEADERSTYLE_CLASS
 90
     4095
 91
        3
280
     0
281
     0
  0
CLASS
  1
SUN
  2
AcDbSun
  3
SCENEOE
 90
     1153
 91
        3
280
     0
281
     0
  0
CLASS
  1
DICTIONARYVAR
  2
AcDbDictionaryVar
  3
ObjectDBX Classes
 90
        0
 91
        3
280
     0
281
     0
  0
CLASS
  1
CELLSTYLEMAP
  2
AcDbCellStyleMap
  3
ObjectDBX Classes
 90
     1152
 91
        3
280
     0
281
     0
  0
ENDSEC
  0
SECTION
  2
TABLES
  0
TABLE
  2
VPORT
  5
8
330
0
100
AcDbSymbolTable
 70
     1
  0
VPORT
  5
29
330
8
100
AcDbSymbolTableRecord
100
AcDbViewportTableRecord
  2
*Active
 70
     0
 10
0.0
 20
0.0
 11
1.0
 21
1.0
 12
344.1869158879
 22
148.5
 13
0.0
 23
0.0
 14
10.0
 24
10.0
 15
10.0
 25
10.0
 16
0.0
 26
0.0
 36
1.0
 17
0.0
 27
0.0
 37
0.0
 40
297.0
 41
1.9729729729
 42
50.0
 43
0.0
 44
0.0
 50
0.0
 51
0.0
 71
     0
 72
   100
 73
     1
 74
     3
 75
     0
 76
     0
 77
     0
 78
     0
281
     0
 65
     1
110
0.0
120
0.0
130
0.0
111
1.0
121
0.0
131
0.0
112
0.0
122
1.0
132
0.0
 79
     0
146
0.0
348
2F
 60
     3
 61
     5
292
     1
282
     1
141
0.0
142
0.0
 63
   250
361
6D
  0
ENDTAB
  0
TABLE
  2
LTYPE
  5
5
330
0
100
AcDbSymbolTable
 70
     3
  0
LTYPE
  5
14
330
5
100
AcDbSymbolTableRecord
100
AcDbLinetypeTableRecord
  2
ByBlock
 70
     0
  3

 72
    65
 73
     0
 40
0.0
  0
LTYPE
  5
15
330
5
100
AcDbSymbolTableRecord
100
AcDbLinetypeTableRecord
  2
ByLayer
 70
     0
  3

 72
    65
 73
     0
 40
0.0
  0
LTYPE
  5
16
330
5
100
AcDbSymbolTableRecord
100
AcDbLinetypeTableRecord
  2
Continuous
 70
     0
  3
Solid line
 72
    65
 73
     0
 40
0.0
  0
LTYPE
  5
6F
330
5
100
AcDbSymbolTableRecord
100
AcDbLinetypeTableRecord
  2
HIDDEN2
 70
     0
  3
Hidden (.5x) _ _ _ _ _ _ _ _ _ _ _ _ _ _ _ _ _ 
 72
    65
 73
     2
 40
4.7625
 49
3.175
 74
     4
 75
     0
340
0
 46
0.0
 50
0.0
 44
0.0
 45
0.0
 49
-1.5875
 74
     4
 75
     0
340
0
 46
0.0
 50
0.0
 44
0.0
 45
0.0
  0
LTYPE
  5
1CF
330
5
100
AcDbSymbolTableRecord
100
AcDbLinetypeTableRecord
  2
CENTER2
 70
     0
  3
Center (.5x) ___ _ ___ _ ___ _ ___ _ ___ _ ___
 72
    65
 73
     4
 40
28.575
 49
19.05
 74
     4
 75
     0
340
0
 46
0.0
 50
0.0
 44
0.0
 45
0.0
 49
-3.175
 74
     4
 75
     0
340
0
 46
0.0
 50
0.0
 44
0.0
 45
0.0
 49
3.175
 74
     4
 75
     0
340
0
 46
0.0
 50
0.0
 44
0.0
 45
0.0
 49
-3.175
 74
     4
 75
     0
340
0
 46
0.0
 50
0.0
 44
0.0
 45
0.0
  0
ENDTAB
  0
TABLE
  2
LAYER
  5
2
330
0
100
AcDbSymbolTable
 70
     8
  0
LAYER
  5
10
330
2
100
AcDbSymbolTableRecord
100
AcDbLayerTableRecord
  2
0
 70
     0
 62
     7
  6
Continuous
370
    -3
390
F
347
46
  0
LAYER
  5
6E
330
2
100
AcDbSymbolTableRecord
100
AcDbLayerTableRecord
  2
Verdeckt_(ISO)
 70
     0
 62
     7
  6
Continuous
370
    -3
390
F
347
46
  0
LAYER
  5
7C
330
2
100
AcDbSymbolTableRecord
100
AcDbLayerTableRecord
  2
Sichtbar_(ISO)
 70
     0
 62
     7
  6
Continuous
370
    -3
390
F
347
46
  0
LAYER
  5
1CE
330
2
100
AcDbSymbolTableRecord
100
AcDbLayerTableRecord
  2
Mittellinie_(ISO)
 70
     0
 62
     7
  6
Continuous
370
    -3
390
F
347
46
  0
LAYER
  5
1D2
330
2
100
AcDbSymbolTableRecord
100
AcDbLayerTableRecord
  2
Mittelpunktmarkierung_(ISO)
 70
     0
 62
     7
  6
Continuous
370
    -3
390
F
347
46
  0
LAYER
  5
1D7
330
2
100
AcDbSymbolTableRecord
100
AcDbLayerTableRecord
  2
_Konvertierung
 70
     1
 62
    -7
  6
Continuous
370
    -3
390
F
347
46
  0
LAYER
  5
1E4
330
2
100
AcDbSymbolTableRecord
100
AcDbLayerTableRecord
  2
6
 70
     0
 62
     7
  6
Continuous
370
    -3
390
F
347
46
  0
LAYER
  5
1E7
330
2
100
AcDbSymbolTableRecord
100
AcDbLayerTableRecord
  2
Bemaßung_(ISO)
 70
     0
 62
     7
  6
Continuous
370
    -3
390
F
347
46
  0
ENDTAB
  0
TABLE
  2
STYLE
  5
3
330
0
100
AcDbSymbolTable
 70
     2
  0
STYLE
  5
11
330
3
100
AcDbSymbolTableRecord
100
AcDbTextStyleTableRecord
  2
Standard
 70
     0
 40
0.0
 41
1.0
 50
0.0
 71
     0
 42
4.57
  3
txt
  4

  0
STYLE
  5
1F7
330
3
100
AcDbSymbolTableRecord
100
AcDbTextStyleTableRecord
  2
SEACAD_Arial
 70
     0
 40
0.0
 41
1.0
 50
0.0
 71
     0
 42
4.57
  3
arial.ttf
  4

1001
ACAD
1000
Arial
1071
        0
  0
ENDTAB
  0
TABLE
  2
VIEW
  5
6
330
0
100
AcDbSymbolTable
 70
     0
  0
ENDTAB
  0
TABLE
  2
UCS
  5
7
330
0
100
AcDbSymbolTable
 70
     0
  0
ENDTAB
  0
TABLE
  2
APPID
  5
9
330
0
100
AcDbSymbolTable
 70
     2
  0
APPID
  5
12
330
9
100
AcDbSymbolTableRecord
100
AcDbRegAppTableRecord
  2
ACAD
 70
     0
  0
APPID
  5
26D
330
9
100
AcDbSymbolTableRecord
100
AcDbRegAppTableRecord
  2
ACAD_MLEADERVER
 70
     0
  0
ENDTAB
  0
TABLE
  2
DIMSTYLE
  5
A
330
0
100
AcDbSymbolTable
 70
     3
100
AcDbDimStyleTable
  0
DIMSTYLE
105
27
330
A
100
AcDbSymbolTableRecord
100
AcDbDimStyleTableRecord
  2
ISO-25
 70
     0
 41
2.5
 42
0.625
 43
3.75
 44
1.25
 73
     0
 74
     0
 77
     1
 78
     8
140
2.5
141
2.5
143
0.0393700787
147
0.625
171
     3
172
     1
178
     0
271
     2
272
     2
274
     3
278
    44
283
     0
284
     8
340
11
  0
DIMSTYLE
105
1E8
330
A
100
AcDbSymbolTableRecord
100
AcDbDimStyleTableRecord
  2
Standard
 70
     0
178
     0
340
11
  0
DIMSTYLE
105
1F8
102
{ACAD_REACTORS
330
1F9
330
204
330
20E
330
218
330
222
330
22D
102
}
330
A
100
AcDbSymbolTableRecord
100
AcDbDimStyleTableRecord
  2
Standard_(DIN)
 70
     0
 41
2.5
 42
1.75
 44
1.75
 73
     0
 74
     0
 77
     1
140
3.5
141
1.75
143
1.0
147
0.875
173
     1
178
     0
271
     0
272
     2
278
    44
340
1F7
343
1F2
344
1F2
  0
ENDTAB
  0
TABLE
  2
BLOCK_RECORD
  5
1
330
0
100
AcDbSymbolTable
 70
     9
  0
BLOCK_RECORD
  5
1F
330
1
100
AcDbSymbolTableRecord
100
AcDbBlockTableRecord
  2
*Model_Space
340
22
 70
     0
280
     1
281
     0
  0
BLOCK_RECORD
  5
1B
330
1
100
AcDbSymbolTableRecord
100
AcDbBlockTableRecord
  2
*Paper_Space
340
1E
 70
     0
280
     1
281
     0
  0
BLOCK_RECORD
  5
1E9
330
1
100
AcDbSymbolTableRecord
100
AcDbBlockTableRecord
  2
_Oblique
340
0
 70
     0
280
     1
281
     0
  0
BLOCK_RECORD
  5
1ED
330
1
100
AcDbSymbolTableRecord
100
AcDbBlockTableRecord
  2
_Dot
340
0
 70
     0
280
     1
281
     0
  0
BLOCK_RECORD
  5
1F2
330
1
100
AcDbSymbolTableRecord
100
AcDbBlockTableRecord
  2
_SE_FILLED
340
0
 70
     0
280
     1
281
     0
  0
BLOCK_RECORD
  5
1FA
330
1
100
AcDbSymbolTableRecord
100
AcDbBlockTableRecord
  2
DMBLK139
340
0
 70
     0
280
     1
281
     0
  0
BLOCK_RECORD
  5
205
330
1
100
AcDbSymbolTableRecord
100
AcDbBlockTableRecord
  2
DMBLK140
340
0
 70
     0
280
     1
281
     0
  0
BLOCK_RECORD
  5
20F
330
1
100
AcDbSymbolTableRecord
100
AcDbBlockTableRecord
  2
DMBLK141
340
0
 70
     0
280
     1
281
     0
  0
BLOCK_RECORD
  5
219
330
1
100
AcDbSymbolTableRecord
100
AcDbBlockTableRecord
  2
DMBLK142
340
0
 70
     0
280
     1
281
     0
  0
BLOCK_RECORD
  5
223
330
1
100
AcDbSymbolTableRecord
100
AcDbBlockTableRecord
  2
DMBLK143
340
0
 70
     0
280
     1
281
     0
  0
BLOCK_RECORD
  5
22E
330
1
100
AcDbSymbolTableRecord
100
AcDbBlockTableRecord
  2
DMBLK144
340
0
 70
     0
280
     1
281
     0
  0
ENDTAB
  0
ENDSEC
  0
SECTION
  2
BLOCKS
  0
BLOCK
  5
20
330
1F
100
AcDbEntity
  8
0
100
AcDbBlockBegin
  2
*Model_Space
 70
     0
 10
0.0
 20
0.0
 30
0.0
  3
*Model_Space
  1

  0
ENDBLK
  5
21
330
1F
100
AcDbEntity
  8
0
100
AcDbBlockEnd
  0
BLOCK
  5
1C
330
1B
100
AcDbEntity
 67
     1
  8
0
100
AcDbBlockBegin
  2
*Paper_Space
 70
     0
 10
0.0
 20
0.0
 30
0.0
  3
*Paper_Space
  1

  0
ENDBLK
  5
1D
330
1B
100
AcDbEntity
 67
     1
  8
0
100
AcDbBlockEnd
  0
BLOCK
  5
1EA
330
1E9
100
AcDbEntity
  8
0
100
AcDbBlockBegin
  2
_Oblique
 70
     0
 10
0.0
 20
0.0
 30
0.0
  3
_Oblique
  1

  0
LINE
  5
1EC
330
1E9
100
AcDbEntity
  8
0
  6
ByBlock
 62
     0
370
    -2
100
AcDbLine
 10
-0.5
 20
-0.5
 30
0.0
 11
0.5
 21
0.5
 31
0.0
  0
ENDBLK
  5
1EB
330
1E9
100
AcDbEntity
  8
0
100
AcDbBlockEnd
  0
BLOCK
  5
1EE
330
1ED
100
AcDbEntity
  8
0
100
AcDbBlockBegin
  2
_Dot
 70
     0
 10
0.0
 20
0.0
 30
0.0
  3
_Dot
  1

  0
LWPOLYLINE
  5
1F0
330
1ED
100
AcDbEntity
  8
0
  6
ByBlock
 62
     0
100
AcDbPolyline
 90
        2
 70
     1
 43
0.5
 10
-0.25
 20
0.0
 42
1.0
 10
0.25
 20
0.0
 42
1.0
  0
LINE
  5
1F1
330
1ED
100
AcDbEntity
  8
0
  6
ByBlock
 62
     0
370
    -2
100
AcDbLine
 10
-0.5
 20
0.0
 30
0.0
 11
-1.0
 21
0.0
 31
0.0
  0
ENDBLK
  5
1EF
330
1ED
100
AcDbEntity
  8
0
100
AcDbBlockEnd
  0
BLOCK
  5
1F5
330
1F2
100
AcDbEntity
  8
0
100
AcDbBlockBegin
  2
_SE_FILLED
 70
     0
 10
0.0
 20
0.0
 30
0.0
  3
_SE_FILLED
  1

  0
SOLID
  5
1F3
330
1F2
100
AcDbEntity
  8
0
 62
     0
100
AcDbTrace
 10
0.0
 20
0.0
 30
0.0
 11
-1.0
 21
-0.1665
 31
0.0
 12
-1.0
 22
0.1665
 32
0.0
 13
0.0
 23
0.0
 33
0.0
  0
LINE
  5
1F4
330
1F2
100
AcDbEntity
  8
0
 62
     0
100
AcDbLine
 10
0.0
 20
0.0
 30
0.0
 11
-1.0
 21
0.0
 31
0.0
  0
ENDBLK
  5
1F6
330
1F2
100
AcDbEntity
  8
0
100
AcDbBlockEnd
  0
BLOCK
  5
202
330
1FA
100
AcDbEntity
  8
0
100
AcDbBlockBegin
  2
DMBLK139
 70
     0
 10
0.0
 20
0.0
 30
0.0
  3
DMBLK139
  1

  0
HATCH
  5
1FB
330
1FA
100
AcDbEntity
  8
Bemaßung_(ISO)
  6
Continuous
 62
     7
100
AcDbHatch
 10
0.0
 20
0.0
 30
0.0
210
0.0
220
0.0
230
1.0
  2
SOLID
 70
     1
 71
     0
 91
        1
 92
        1
 93
        3
 72
     1
 10
-29.13067434824866
 20
17.49999918293569
 11
-28.29734103354178
 21
17.49999918293569
 72
     1
 10
-28.29734103354178
 20
17.49999918293569
 11
-28.71400769089522
 21
19.99999912705633
 72
     1
 10
-28.71400769089522
 20
19.99999912705633
 11
-29.13067434824866
 21
17.49999918293569
 97
        0
 75
     0
 76
     1
 98
        0
  0
HATCH
  5
1FC
330
1FA
100
AcDbEntity
  8
Bemaßung_(ISO)
  6
Continuous
 62
     7
100
AcDbHatch
 10
0.0
 20
0.0
 30
0.0
210
0.0
220
0.0
230
1.0
  2
SOLID
 70
     1
 71
     0
 91
        1
 92
        1
 93
        3
 72
     1
 10
-29.13067434824866
 20
-17.50000003475335
 11
-28.71400769089522
 21
-19.999999978874
 72
     1
 10
-28.71400769089522
 20
-19.999999978874
 11
-28.29734103354178
 21
-17.50000003475335
 72
     1
 10
-28.29734103354178
 20
-17.50000003475335
 11
-29.13067434824866
 21
-17.50000003475335
 97
        0
 75
     0
 76
     1
 98
        0
  0
LINE
  5
1FD
330
1FA
100
AcDbEntity
  8
Bemaßung_(ISO)
  6
Continuous
 62
     7
100
AcDbLine
 10
-1.0500226564
 20
19.9999991271
 30
0.0
 11
-30.4640077449
 21
19.9999991271
 31
0.0
  0
LINE
  5
1FE
330
1FA
100
AcDbEntity
  8
Bemaßung_(ISO)
  6
Continuous
 62
     7
100
AcDbLine
 10
-1.0500226564
 20
-20.0000008729
 30
0.0
 11
-30.4640077449
 21
-20.0000008729
 31
0.0
  0
LINE
  5
1FF
330
1FA
100
AcDbEntity
  8
Bemaßung_(ISO)
  6
Continuous
 62
     7
100
AcDbLine
 10
-28.7140076909
 20
19.9999991271
 30
0.0
 11
-28.7140076909
 21
-19.9999999789
 31
0.0
  0
TEXT
  5
200
330
1FA
100
AcDbEntity
  8
Bemaßung_(ISO)
  6
Continuous
 62
     7
100
AcDbText
 10
-29.5890076909
 20
-0.1445656433
 30
0.0
 40
3.5
  1
40
 50
90.0
  7
SEACAD_Arial
 11
-33.0890076909
 21
-0.1445656433
 31
0.0
100
AcDbText
 73
     3
  0
TEXT
  5
201
330
1FA
100
AcDbEntity
  8
Bemaßung_(ISO)
  6
Continuous
 62
     7
100
AcDbText
 10
-29.5890076909
 20
-5.3336960781
 30
0.0
 40
3.5
  1
n
 50
90.0
  7
SEACAD_Arial
 11
-33.0890076909
 21
-5.3336960781
 31
0.0
100
AcDbText
 73
     3
  0
ENDBLK
  5
203
330
1FA
100
AcDbEntity
  8
0
100
AcDbBlockEnd
  0
BLOCK
  5
20C
330
205
100
AcDbEntity
  8
0
100
AcDbBlockBegin
  2
DMBLK140
 70
     0
 10
0.0
 20
0.0
 30
0.0
  3
DMBLK140
  1

  0
HATCH
  5
206
330
205
100
AcDbEntity
  8
Bemaßung_(ISO)
  6
Continuous
 62
     7
100
AcDbHatch
 10
0.0
 20
0.0
 30
0.0
210
0.0
220
0.0
230
1.0
  2
SOLID
 70
     1
 71
     0
 91
        1
 92
        1
 93
        3
 72
     1
 10
-17.50002265830697
 20
29.20660028349129
 11
-20.00002260242762
 21
28.78993362613785
 72
     1
 10
-20.00002260242762
 20
28.78993362613785
 11
-17.50002265830697
 21
28.37326696878441
 72
     1
 10
-17.50002265830697
 20
28.37326696878441
 11
-17.50002265830697
 21
29.20660028349129
 97
        0
 75
     0
 76
     1
 98
        0
  0
HATCH
  5
207
330
205
100
AcDbEntity
  8
Bemaßung_(ISO)
  6
Continuous
 62
     7
100
AcDbHatch
 10
0.0
 20
0.0
 30
0.0
210
0.0
220
0.0
230
1.0
  2
SOLID
 70
     1
 71
     0
 91
        1
 92
        1
 93
        3
 72
     1
 10
-2.500022993583102
 20
29.20660028349129
 11
-2.500022993583102
 21
28.37326696878441
 72
     1
 10
-2.500022993583102
 20
28.37326696878441
 11
-0.0000230494624569
 21
28.78993362613785
 72
     1
 10
-0.0000230494624567
 20
28.78993362613785
 11
-2.500022993583102
 21
29.20660028349129
 97
        0
 75
     0
 76
     1
 98
        0
  0
LINE
  5
208
330
205
100
AcDbEntity
  8
Bemaßung_(ISO)
  6
Continuous
 62
     7
100
AcDbLine
 10
-20.0000226024
 20
14.9056465314
 30
0.0
 11
-20.0000226024
 21
30.5399336802
 31
0.0
  0
LINE
  5
209
330
205
100
AcDbEntity
  8
Bemaßung_(ISO)
  6
Continuous
 62
     7
100
AcDbLine
 10
-0.0000226024
 20
21.0499991811
 30
0.0
 11
-0.0000226024
 21
30.5399336802
 31
0.0
  0
LINE
  5
20A
330
205
100
AcDbEntity
  8
Bemaßung_(ISO)
  6
Continuous
 62
     7
100
AcDbLine
 10
-20.0000226024
 20
28.7899336261
 30
0.0
 11
-0.0000230495
 21
28.7899336261
 31
0.0
  0
TEXT
  5
20B
330
205
100
AcDbEntity
  8
Bemaßung_(ISO)
  6
Continuous
 62
     7
100
AcDbText
 10
-12.7391532607
 20
29.6649336261
 30
0.0
 40
3.5
  1
20
  7
SEACAD_Arial
 11
-12.7391532607
 21
33.1649336261
 31
0.0
100
AcDbText
 73
     3
  0
ENDBLK
  5
20D
330
205
100
AcDbEntity
  8
0
100
AcDbBlockEnd
  0
BLOCK
  5
216
330
20F
100
AcDbEntity
  8
0
100
AcDbBlockBegin
  2
DMBLK141
 70
     0
 10
0.0
 20
0.0
 30
0.0
  3
DMBLK141
  1

  0
HATCH
  5
210
330
20F
100
AcDbEntity
  8
Bemaßung_(ISO)
  6
Continuous
 62
     7
100
AcDbHatch
 10
0.0
 20
0.0
 30
0.0
210
0.0
220
0.0
230
1.0
  2
SOLID
 70
     1
 71
     0
 91
        1
 92
        1
 93
        3
 72
     1
 10
2.499977341693023
 20
29.1595400148542
 11
-0.0000226024276229
 21
28.74287335750076
 72
     1
 10
-0.0000226024276227
 20
28.74287335750076
 11
2.499977341693023
 21
28.32620670014732
 72
     1
 10
2.499977341693023
 20
28.32620670014732
 11
2.499977341693023
 21
29.1595400148542
 97
        0
 75
     0
 76
     1
 98
        0
  0
HATCH
  5
211
330
20F
100
AcDbEntity
  8
Bemaßung_(ISO)
  6
Continuous
 62
     7
100
AcDbHatch
 10
0.0
 20
0.0
 30
0.0
210
0.0
220
0.0
230
1.0
  2
SOLID
 70
     1
 71
     0
 91
        1
 92
        1
 93
        3
 72
     1
 10
17.49997700641689
 20
29.1595400148542
 11
17.49997700641689
 21
28.32620670014732
 72
     1
 10
17.49997700641689
 20
28.32620670014732
 11
19.99997695053754
 21
28.74287335750076
 72
     1
 10
19.99997695053754
 20
28.74287335750076
 11
17.49997700641689
 21
29.1595400148542
 97
        0
 75
     0
 76
     1
 98
        0
  0
LINE
  5
212
330
20F
100
AcDbEntity
  8
Bemaßung_(ISO)
  6
Continuous
 62
     7
100
AcDbLine
 10
-0.0000226024
 20
21.0499991811
 30
0.0
 11
-0.0000226024
 21
30.4928734115
 31
0.0
  0
LINE
  5
213
330
20F
100
AcDbEntity
  8
Bemaßung_(ISO)
  6
Continuous
 62
     7
100
AcDbLine
 10
19.9999773976
 20
20.7499991811
 30
0.0
 11
19.9999773976
 21
30.4928734115
 31
0.0
  0
LINE
  5
214
330
20F
100
AcDbEntity
  8
Bemaßung_(ISO)
  6
Continuous
 62
     7
100
AcDbLine
 10
-0.0000226024
 20
28.7428733575
 30
0.0
 11
19.9999769505
 21
28.7428733575
 31
0.0
  0
TEXT
  5
215
330
20F
100
AcDbEntity
  8
Bemaßung_(ISO)
  6
Continuous
 62
     7
100
AcDbText
 10
7.2608467393
 20
29.6178733575
 30
0.0
 40
3.5
  1
20
  7
SEACAD_Arial
 11
7.2608467393
 21
33.1178733575
 31
0.0
100
AcDbText
 73
     3
  0
ENDBLK
  5
217
330
20F
100
AcDbEntity
  8
0
100
AcDbBlockEnd
  0
BLOCK
  5
220
330
219
100
AcDbEntity
  8
0
100
AcDbBlockBegin
  2
DMBLK142
 70
     0
 10
0.0
 20
0.0
 30
0.0
  3
DMBLK142
  1

  0
HATCH
  5
21A
330
219
100
AcDbEntity
  8
Bemaßung_(ISO)
  6
Continuous
 62
     7
100
AcDbHatch
 10
0.0
 20
0.0
 30
0.0
210
0.0
220
0.0
230
1.0
  2
SOLID
 70
     1
 71
     0
 91
        1
 92
        1
 93
        3
 72
     1
 10
2.499977341693023
 20
39.35305837779357
 11
-0.0000226024276229
 21
38.93639172044013
 72
     1
 10
-0.0000226024276227
 20
38.93639172044013
 11
2.499977341693023
 21
38.51972506308669
 72
     1
 10
2.499977341693023
 20
38.51972506308669
 11
2.499977341693023
 21
39.35305837779357
 97
        0
 75
     0
 76
     1
 98
        0
  0
HATCH
  5
21B
330
219
100
AcDbEntity
  8
Bemaßung_(ISO)
  6
Continuous
 62
     7
100
AcDbHatch
 10
0.0
 20
0.0
 30
0.0
210
0.0
220
0.0
230
1.0
  2
SOLID
 70
     1
 71
     0
 91
        1
 92
        1
 93
        3
 72
     1
 10
67.49997775147496
 20
39.35305837779357
 11
67.49997775147496
 21
38.51972506308669
 72
     1
 10
67.49997775147496
 20
38.51972506308669
 11
69.9999776955956
 21
38.93639172044013
 72
     1
 10
69.9999776955956
 20
38.93639172044013
 11
67.49997775147496
 21
39.35305837779357
 97
        0
 75
     0
 76
     1
 98
        0
  0
LINE
  5
21C
330
219
100
AcDbEntity
  8
Bemaßung_(ISO)
  6
Continuous
 62
     7
100
AcDbLine
 10
-0.0000226024
 20
21.0499991811
 30
0.0
 11
-0.0000226024
 21
40.6863917745
 31
0.0
  0
LINE
  5
21D
330
219
100
AcDbEntity
  8
Bemaßung_(ISO)
  6
Continuous
 62
     7
100
AcDbLine
 10
69.9999773976
 20
15.2258586595
 30
0.0
 11
69.9999773976
 21
40.6863917745
 31
0.0
  0
LINE
  5
21E
330
219
100
AcDbEntity
  8
Bemaßung_(ISO)
  6
Continuous
 62
     7
100
AcDbLine
 10
-0.0000226024
 20
38.9363917204
 30
0.0
 11
69.9999776956
 21
38.9363917204
 31
0.0
  0
TEXT
  5
21F
330
219
100
AcDbEntity
  8
Bemaßung_(ISO)
  6
Continuous
 62
     7
100
AcDbText
 10
32.2608471118
 20
39.8113917204
 30
0.0
 40
3.5
  1
70
  7
SEACAD_Arial
 11
32.2608471118
 21
43.3113917204
 31
0.0
100
AcDbText
 73
     3
  0
ENDBLK
  5
221
330
219
100
AcDbEntity
  8
0
100
AcDbBlockEnd
  0
BLOCK
  5
22B
330
223
100
AcDbEntity
  8
0
100
AcDbBlockBegin
  2
DMBLK143
 70
     0
 10
0.0
 20
0.0
 30
0.0
  3
DMBLK143
  1

  0
HATCH
  5
224
330
223
100
AcDbEntity
  8
Bemaßung_(ISO)
  6
Continuous
 62
     7
100
AcDbHatch
 10
0.0
 20
0.0
 30
0.0
210
0.0
220
0.0
230
1.0
  2
SOLID
 70
     1
 71
     0
 91
        1
 92
        1
 93
        3
 72
     1
 10
97.10621231251294
 20
18.24999918293569
 11
96.68954565515949
 21
20.74999912705633
 72
     1
 10
96.68954565515949
 20
20.74999912705633
 11
96.27287899780605
 21
18.24999918293569
 72
     1
 10
96.27287899780605
 20
18.24999918293569
 11
97.10621231251294
 21
18.24999918293569
 97
        0
 75
     0
 76
     1
 98
        0
  0
HATCH
  5
225
330
223
100
AcDbEntity
  8
Bemaßung_(ISO)
  6
Continuous
 62
     7
100
AcDbHatch
 10
0.0
 20
0.0
 30
0.0
210
0.0
220
0.0
230
1.0
  2
SOLID
 70
     1
 71
     0
 91
        1
 92
        1
 93
        3
 72
     1
 10
97.10621231251294
 20
-18.24999934929994
 11
96.27287899780605
 21
-18.24999934929994
 72
     1
 10
96.27287899780605
 20
-18.24999934929994
 11
96.68954565515949
 21
-20.74999929342058
 72
     1
 10
96.68954565515949
 20
-20.74999929342058
 11
97.10621231251294
 21
-18.24999934929994
 97
        0
 75
     0
 76
     1
 98
        0
  0
LINE
  5
226
330
223
100
AcDbEntity
  8
Bemaßung_(ISO)
  6
Continuous
 62
     7
100
AcDbLine
 10
58.4395466032
 20
20.7499991271
 30
0.0
 11
98.4395457092
 21
20.7499991271
 31
0.0
  0
LINE
  5
227
330
223
100
AcDbEntity
  8
Bemaßung_(ISO)
  6
Continuous
 62
     7
100
AcDbLine
 10
58.4395466032
 20
-20.7500008729
 30
0.0
 11
98.4395457092
 21
-20.7500008729
 31
0.0
  0
LINE
  5
228
330
223
100
AcDbEntity
  8
Bemaßung_(ISO)
  6
Continuous
 62
     7
100
AcDbLine
 10
96.6895456552
 20
20.7499991271
 30
0.0
 11
96.6895456552
 21
-20.7499992934
 31
0.0
  0
TEXT
  5
229
330
223
100
AcDbEntity
  8
Bemaßung_(ISO)
  6
Continuous
 62
     7
100
AcDbText
 10
95.8145456552
 20
-2.1989131267
 30
0.0
 40
3.5
  1
41,5
 50
90.0
  7
SEACAD_Arial
 11
92.3145456552
 21
-2.1989131267
 31
0.0
100
AcDbText
 73
     3
  0
TEXT
  5
22A
330
223
100
AcDbEntity
  8
Bemaßung_(ISO)
  6
Continuous
 62
     7
100
AcDbText
 10
95.8145456552
 20
-7.3880435614
 30
0.0
 40
3.5
  1
n
 50
90.0
  7
SEACAD_Arial
 11
92.3145456552
 21
-7.3880435614
 31
0.0
100
AcDbText
 73
     3
  0
ENDBLK
  5
22C
330
223
100
AcDbEntity
  8
0
100
AcDbBlockEnd
  0
BLOCK
  5
236
330
22E
100
AcDbEntity
  8
0
100
AcDbBlockBegin
  2
DMBLK144
 70
     0
 10
0.0
 20
0.0
 30
0.0
  3
DMBLK144
  1

  0
HATCH
  5
22F
330
22E
100
AcDbEntity
  8
Bemaßung_(ISO)
  6
Continuous
 62
     7
100
AcDbHatch
 10
0.0
 20
0.0
 30
0.0
210
0.0
220
0.0
230
1.0
  2
SOLID
 70
     1
 71
     0
 91
        1
 92
        1
 93
        3
 72
     1
 10
82.42920879600084
 20
3.499999182935689
 11
82.01254213864739
 21
5.999999127056334
 72
     1
 10
82.01254213864739
 20
5.999999127056335
 11
81.59587548129394
 21
3.49999918293569
 72
     1
 10
81.59587548129394
 20
3.499999182935689
 11
82.42920879600084
 21
3.499999182935689
 97
        0
 75
     0
 76
     1
 98
        0
  0
HATCH
  5
230
330
22E
100
AcDbEntity
  8
Bemaßung_(ISO)
  6
Continuous
 62
     7
100
AcDbHatch
 10
0.0
 20
0.0
 30
0.0
210
0.0
220
0.0
230
1.0
  2
SOLID
 70
     1
 71
     0
 91
        1
 92
        1
 93
        3
 72
     1
 10
82.42920879600084
 20
-3.500001033131148
 11
81.59587548129394
 21
-3.500001033131148
 72
     1
 10
81.59587548129394
 20
-3.500001033131148
 11
82.01254213864739
 21
-6.000000977251794
 72
     1
 10
82.01254213864739
 20
-6.000000977251793
 11
82.42920879600084
 21
-3.500001033131148
 97
        0
 75
     0
 76
     1
 98
        0
  0
LINE
  5
231
330
22E
100
AcDbEntity
  8
Bemaßung_(ISO)
  6
Continuous
 62
     7
100
AcDbLine
 10
70.7499774516
 20
5.9999991271
 30
0.0
 11
83.7625421927
 21
5.9999991271
 31
0.0
  0
LINE
  5
232
330
22E
100
AcDbEntity
  8
Bemaßung_(ISO)
  6
Continuous
 62
     7
100
AcDbLine
 10
70.7499774516
 20
-6.0000008729
 30
0.0
 11
83.7625421927
 21
-6.0000008729
 31
0.0
  0
LINE
  5
233
330
22E
100
AcDbEntity
  8
Bemaßung_(ISO)
  6
Continuous
 62
     7
100
AcDbLine
 10
82.0125421386
 20
5.9999991271
 30
0.0
 11
82.0125421386
 21
-6.0000009773
 31
0.0
  0
TEXT
  5
234
330
22E
100
AcDbEntity
  8
Bemaßung_(ISO)
  6
Continuous
 62
     7
100
AcDbText
 10
81.1375421386
 20
-0.1445661425
 30
0.0
 40
3.5
  1
12
 50
90.0
  7
SEACAD_Arial
 11
77.6375421386
 21
-0.1445661425
 31
0.0
100
AcDbText
 73
     3
  0
TEXT
  5
235
330
22E
100
AcDbEntity
  8
Bemaßung_(ISO)
  6
Continuous
 62
     7
100
AcDbText
 10
81.1375421386
 20
-5.3336965773
 30
0.0
 40
3.5
  1
n
 50
90.0
  7
SEACAD_Arial
 11
77.6375421386
 21
-5.3336965773
 31
0.0
100
AcDbText
 73
     3
  0
ENDBLK
  5
237
330
22E
100
AcDbEntity
  8
0
100
AcDbBlockEnd
  0
ENDSEC
  0
SECTION
  2
ENTITIES
  0
SPLINE
  5
70
330
1F
100
AcDbEntity
  8
Verdeckt_(ISO)
  6
HIDDEN2
 62
     7
100
AcDbSpline
210
0.0
220
0.0
230
1.0
 70
    12
 71
     3
 72
    16
 73
    12
 74
     0
 42
0.000000001
 43
0.0000000001
 40
0.0
 40
0.0
 40
0.0
 40
0.0
 40
0.1792895411337886
 40
0.1792895411337886
 40
0.4226164964660061
 40
0.4226164964660061
 40
0.6831895663601644
 40
0.6831895663601644
 40
0.9816854543941549
 40
0.9816854543941549
 40
0.9999999999999999
 40
0.9999999999999999
 40
0.9999999999999999
 40
0.9999999999999999
 10
69.69997756800564
 20
-1.399475384928145
 30
0.0
 41
1.0
 10
69.69997785481047
 20
-1.398669707261415
 30
0.0
 41
1.0
 10
69.69998446947993
 20
-1.324309212238391
 30
0.0
 41
1.0
 10
69.70000879893415
 20
-0.9938358950084842
 30
0.0
 41
1.0
 10
69.70002753619805
 20
-0.6838140752949207
 30
0.0
 41
1.0
 10
69.70004255046031
 20
0.0337757572637543
 30
0.0
 41
1.0
 10
69.7000354490891
 20
0.4419306226936133
 30
0.0
 41
1.0
 10
69.7000029016643
 20
1.129686398770747
 30
0.0
 41
1.0
 10
69.6999798332385
 20
1.372598230886953
 30
0.0
 41
1.0
 10
69.6999774705432
 20
1.399228908155215
 30
0.0
 41
1.0
 10
69.69997741478613
 20
1.399949337003206
 30
0.0
 41
1.0
 10
69.69997743479213
 20
1.399867787815419
 30
0.0
 41
1.0
  0
LINE
  5
71
330
1F
100
AcDbEntity
  8
Verdeckt_(ISO)
  6
HIDDEN2
 62
     7
100
AcDbLine
 10
69.6999773977
 20
1.3999991271
 30
0.0
 11
69.7999773976
 21
1.4999991271
 31
0.0
  0
LINE
  5
72
330
1F
100
AcDbEntity
  8
Verdeckt_(ISO)
  6
HIDDEN2
 62
     7
100
AcDbLine
 10
69.7999773976
 20
-1.5000008729
 30
0.0
 11
69.6999773977
 21
-1.4000008729
 31
0.0
  0
LINE
  5
73
330
1F
100
AcDbEntity
  8
Verdeckt_(ISO)
  6
HIDDEN2
 62
     7
100
AcDbLine
 10
25.0384938783
 20
1.3999991271
 30
0.0
 11
69.6999773977
 21
1.3999991271
 31
0.0
  0
LINE
  5
74
330
1F
100
AcDbEntity
  8
Verdeckt_(ISO)
  6
HIDDEN2
 62
     7
100
AcDbLine
 10
25.0384938783
 20
-1.4000008729
 30
0.0
 11
69.6999773977
 21
-1.4000008729
 31
0.0
  0
LINE
  5
75
330
1F
100
AcDbEntity
  8
Verdeckt_(ISO)
  6
HIDDEN2
 62
     7
100
AcDbLine
 10
69.7999773976
 20
10.5499991271
 30
0.0
 11
69.7999773976
 21
-10.5500008729
 31
0.0
  0
LINE
  5
76
330
1F
100
AcDbEntity
  8
Verdeckt_(ISO)
  6
HIDDEN2
 62
     7
100
AcDbLine
 10
69.9999773976
 20
-7.2500008729
 30
0.0
 11
69.7999773976
 21
-7.4500008729
 31
0.0
  0
LINE
  5
77
330
1F
100
AcDbEntity
  8
Verdeckt_(ISO)
  6
HIDDEN2
 62
     7
100
AcDbLine
 10
69.9999773976
 20
7.2499991271
 30
0.0
 11
69.7999773976
 21
7.4499991271
 31
0.0
  0
LINE
  5
78
330
1F
100
AcDbEntity
  8
Verdeckt_(ISO)
  6
HIDDEN2
 62
     7
100
AcDbLine
 10
69.7999773976
 20
10.5499991271
 30
0.0
 11
69.9999773976
 21
10.7499991271
 31
0.0
  0
LINE
  5
79
330
1F
100
AcDbEntity
  8
Verdeckt_(ISO)
  6
HIDDEN2
 62
     7
100
AcDbLine
 10
69.7999773976
 20
-10.5500008729
 30
0.0
 11
69.9999773976
 21
-10.7500008729
 31
0.0
  0
CIRCLE
  5
7A
330
1F
100
AcDbEntity
  8
Verdeckt_(ISO)
  6
HIDDEN2
 62
     7
100
AcDbCircle
 10
24.4999773976
 20
-0.0000008729
 30
0.0
 40
1.499999999999997
  0
CIRCLE
  5
7B
330
1F
100
AcDbEntity
  8
Verdeckt_(ISO)
  6
HIDDEN2
 62
     7
100
AcDbCircle
 10
24.4999773976
 20
-0.0000008729
 30
0.0
 40
2.0
  0
SPLINE
  5
7D
330
1F
100
AcDbEntity
  8
Sichtbar_(ISO)
  6
Continuous
 62
     7
100
AcDbSpline
210
0.0
220
0.0
230
1.0
 70
     8
 71
     3
 72
    16
 73
    12
 74
     0
 42
0.000000001
 43
0.0000000001
 40
0.0
 40
0.0
 40
0.0
 40
0.0
 40
0.3503769892847977
 40
0.3503769892847977
 40
0.5255654839271965
 40
0.5255654839271965
 40
0.7007539785695952
 40
0.7007539785695952
 40
0.8503769892847977
 40
0.8503769892847977
 40
1.0
 40
1.0
 40
1.000000000014831
 40
1.000000000014831
 10
47.99997739757236
 20
-19.50028335881938
 30
0.0
 10
49.36651813468279
 20
-19.50028335881938
 30
0.0
 10
50.80381609061089
 20
-19.61851668740352
 30
0.0
 10
52.69125583213148
 20
-19.90729424251773
 30
0.0
 10
53.27750049901545
 20
-20.01975509796332
 30
0.0
 10
54.31345542830524
 20
-20.24588984233177
 30
0.0
 10
54.76324460305104
 20
-20.3592430048792
 30
0.0
 10
55.43437159959792
 20
-20.53935383628184
 30
0.0
 10
55.70444024203761
 20
-20.61755367613696
 30
0.0
 10
56.06047440720691
 20
-20.72325747842494
 30
0.0
 10
56.14614213933887
 20
-20.75000087294367
 30
0.0
 10
56.14614213933887
 20
-20.75000087294367
 30
0.0
  0
SPLINE
  5
7E
330
1F
100
AcDbEntity
  8
Sichtbar_(ISO)
  6
Continuous
 62
     7
100
AcDbSpline
210
0.0
220
0.0
230
1.0
 70
     8
 71
     3
 72
    16
 73
    12
 74
     0
 42
0.000000001
 43
0.0000000001
 40
-0.0000000000278414
 40
-0.0000000000278414
 40
0.0
 40
0.0
 40
0.1496230106915273
 40
0.1496230106915273
 40
0.2992460214108938
 40
0.2992460214108938
 40
0.4744345160581715
 40
0.4744345160581715
 40
0.6496230107054477
 40
0.6496230107054477
 40
1.0
 40
1.0
 40
1.0
 40
1.0
 10
39.85381265580583
 20
-20.75000087294367
 30
0.0
 10
39.85381265583771
 20
-20.75000087293372
 30
0.0
 10
39.93948038797093
 20
-20.72325747841511
 30
0.0
 10
40.29551455310711
 20
-20.61755367613696
 30
0.0
 10
40.56558319554679
 20
-20.53935383628184
 30
0.0
 10
41.23671019209369
 20
-20.3592430048792
 30
0.0
 10
41.68649936683947
 20
-20.24588984233177
 30
0.0
 10
42.72245429612928
 20
-20.01975509796332
 30
0.0
 10
43.30869896301324
 20
-19.90729424251773
 30
0.0
 10
45.19613870453381
 20
-19.61851668740352
 30
0.0
 10
46.63343666046191
 20
-19.50028335881938
 30
0.0
 10
47.99997739757236
 20
-19.50028335881938
 30
0.0
  0
ARC
  5
7F
330
1F
100
AcDbEntity
  8
Verdeckt_(ISO)
  6
HIDDEN2
 62
     7
100
AcDbCircle
 10
47.9999773976
 20
-26.5500008729
 30
0.0
 40
9.999999999999998
100
AcDbArc
 50
35.4505426392
 51
144.5494573608
  0
SPLINE
  5
80
330
1F
100
AcDbEntity
  8
Verdeckt_(ISO)
  6
HIDDEN2
 62
     7
100
AcDbSpline
210
0.0
220
0.0
230
1.0
 70
     8
 71
     3
 72
    26
 73
    22
 74
     0
 42
0.000000001
 43
0.0000000001
 40
-0.0000000000060544
 40
-0.0000000000060544
 40
0.0
 40
0.0
 40
0.122017047117539
 40
0.122017047117539
 40
0.2440340942411327
 40
0.2440340942411327
 40
0.3720170471190523
 40
0.3720170471190523
 40
0.4360085235580131
 40
0.4360085235580131
 40
0.4999999999969733
 40
0.4999999999969733
 40
0.5639914764359322
 40
0.5639914764359322
 40
0.6279829528748929
 40
0.6279829528748929
 40
0.7559659057528121
 40
0.7559659057528121
 40
0.8779829528764062
 40
0.8779829528764062
 40
1.0
 40
1.0
 40
1.000000000000032
 40
1.000000000000032
 10
42.89997739757235
 20
5.999999127056335
 30
0.0
 10
42.89997739758667
 20
5.999999127044017
 30
0.0
 10
43.04434500274227
 20
5.875876579801054
 30
0.0
 10
43.57929371664251
 20
5.43231795632555
 30
0.0
 10
43.96840294790155
 20
5.115172589364687
 30
0.0
 10
44.8398587724126
 20
4.459806677578287
 30
0.0
 10
45.38988712950017
 20
4.066429760927554
 30
0.0
 10
46.30648328961259
 20
3.576484121704787
 30
0.0
 10
46.62751538135187
 20
3.431177920889176
 30
0.0
 10
47.29544157102298
 20
3.222685378358593
 30
0.0
 10
47.64268942681137
 20
3.160695252912161
 30
0.0
 10
48.35726536833337
 20
3.160695252912161
 30
0.0
 10
48.70451322412171
 20
3.222685378358595
 30
0.0
 10
49.37243941379283
 20
3.431177920889173
 30
0.0
 10
49.69347150553213
 20
3.576484121704789
 30
0.0
 10
50.61006766564455
 20
4.066429760927552
 30
0.0
 10
51.1600960227321
 20
4.459806677578288
 30
0.0
 10
52.03155184724318
 20
5.115172589364688
 30
0.0
 10
52.42066107850222
 20
5.432317956325552
 30
0.0
 10
52.95560979241571
 20
5.875876579812062
 30
0.0
 10
53.09997739757236
 20
5.999999127056335
 30
0.0
 10
53.09997739757236
 20
5.999999127056335
 30
0.0
  0
LINE
  5
81
330
1F
100
AcDbEntity
  8
Verdeckt_(ISO)
  6
HIDDEN2
 62
     7
100
AcDbLine
 10
53.0999773976
 20
18.8499991271
 30
0.0
 11
42.8999773976
 21
18.8499991271
 31
0.0
  0
LINE
  5
82
330
1F
100
AcDbEntity
  8
Verdeckt_(ISO)
  6
HIDDEN2
 62
     7
100
AcDbLine
 10
42.8999773976
 20
5.9999991271
 30
0.0
 11
42.8999773976
 21
18.8499991271
 31
0.0
  0
LINE
  5
83
330
1F
100
AcDbEntity
  8
Verdeckt_(ISO)
  6
HIDDEN2
 62
     7
100
AcDbLine
 10
53.0999773976
 20
5.9999991271
 30
0.0
 11
53.0999773976
 21
18.8499991271
 31
0.0
  0
LINE
  5
84
330
1F
100
AcDbEntity
  8
Verdeckt_(ISO)
  6
HIDDEN2
 62
     7
100
AcDbLine
 10
42.8999773976
 20
18.8499991271
 30
0.0
 11
40.9999773976
 21
20.7499991271
 31
0.0
  0
LINE
  5
85
330
1F
100
AcDbEntity
  8
Verdeckt_(ISO)
  6
HIDDEN2
 62
     7
100
AcDbLine
 10
53.0999773976
 20
18.8499991271
 30
0.0
 11
54.9999773976
 21
20.7499991271
 31
0.0
  0
SPLINE
  5
86
330
1F
100
AcDbEntity
  8
Sichtbar_(ISO)
  6
Continuous
 62
     7
100
AcDbSpline
210
0.0
220
0.0
230
1.0
 70
     8
 71
     3
 72
    23
 73
    19
 74
     0
 42
0.000000001
 43
0.0000000001
 40
0.0
 40
0.0
 40
0.0
 40
0.0
 40
0.127164181912066
 40
0.127164181912066
 40
0.2543283638241333
 40
0.2543283638241333
 40
0.3771641819120666
 40
0.3771641819120666
 40
0.5000000000000006
 40
0.5000000000000006
 40
0.5000000000000006
 40
0.6228358180879336
 40
0.6228358180879336
 40
0.7456716361758672
 40
0.7456716361758672
 40
0.8728358180879346
 40
0.8728358180879346
 40
1.0
 40
1.0
 40
1.0
 40
1.0
 10
54.99997739757237
 20
20.74999912705633
 30
0.0
 10
54.99997739757237
 20
20.74999912705633
 30
0.0
 10
54.78482907572315
 20
20.69380432499709
 30
0.0
 10
53.97371233921031
 20
20.50529712516436
 30
0.0
 10
53.37916883636483
 20
20.37628223108222
 30
0.0
 10
52.09885658439154
 20
20.15018294897309
 30
0.0
 10
51.33051330737923
 20
20.03671204132174
 30
0.0
 10
49.68764316446123
 20
19.87917381543221
 30
0.0
 10
48.81290405106145
 20
19.83708325731871
 30
0.0
 10
47.99997739757236
 20
19.83708325731871
 30
0.0
 10
47.18705074408323
 20
19.83708325731871
 30
0.0
 10
46.31231163068346
 20
19.87917381543221
 30
0.0
 10
44.66944148776545
 20
20.03671204132174
 30
0.0
 10
43.90109821075315
 20
20.15018294897309
 30
0.0
 10
42.62078595877989
 20
20.37628223108222
 30
0.0
 10
42.02624245593439
 20
20.50529712516436
 30
0.0
 10
41.21512571942156
 20
20.69380432499709
 30
0.0
 10
40.99997739757234
 20
20.74999912705633
 30
0.0
 10
40.99997739757234
 20
20.74999912705633
 30
0.0
  0
SPLINE
  5
87
330
1F
100
AcDbEntity
  8
Verdeckt_(ISO)
  6
HIDDEN2
 62
     7
100
AcDbSpline
210
0.0
220
0.0
230
1.0
 70
     8
 71
     3
 72
    12
 73
     8
 74
     0
 42
0.000000001
 43
0.0000000001
 40
0.0
 40
0.0
 40
0.0
 40
0.0
 40
0.2165717770032376
 40
0.2165717770032376
 40
0.5851696116342331
 40
0.5851696116342331
 40
1.0
 40
1.0
 40
1.0
 40
1.0
 10
19.7537005209658
 20
-4.842808773570285
 30
0.0
 10
19.71542580467065
 20
-4.873457479569584
 30
0.0
 10
19.67240277730337
 20
-4.898808929344491
 30
0.0
 10
19.5415743040658
 20
-4.952835179816403
 30
0.0
 10
19.45192214480292
 20
-4.968057573291643
 30
0.0
 10
19.25654320197809
 20
-4.98487670652597
 30
0.0
 10
19.13490322074802
 20
-4.985735942315226
 30
0.0
 10
18.99997739757238
 20
-4.985735942315226
 30
0.0
  0
LINE
  5
88
330
1F
100
AcDbEntity
  8
Verdeckt_(ISO)
  6
HIDDEN2
 62
     7
100
AcDbLine
 10
18.0615287548
 20
-4.9857359423
 30
0.0
 11
18.9999773976
 21
-4.9857359423
 31
0.0
  0
SPLINE
  5
89
330
1F
100
AcDbEntity
  8
Sichtbar_(ISO)
  6
Continuous
 62
     7
100
AcDbSpline
210
0.0
220
0.0
230
1.0
 70
     8
 71
     3
 72
    12
 73
     8
 74
     0
 42
0.000000001
 43
0.0000000001
 40
0.0
 40
0.0
 40
0.0
 40
0.0
 40
0.4495361246689855
 40
0.4495361246689855
 40
0.863843371066827
 40
0.863843371066827
 40
1.0
 40
1.0
 40
1.0
 40
1.0
 10
18.99997739757236
 20
-5.978966678137157
 30
0.0
 10
19.13959700014936
 20
-5.978966678137157
 30
0.0
 10
19.26605979633723
 20
-5.976122268861335
 30
0.0
 10
19.47337735439867
 20
-5.95130252993279
 30
0.0
 10
19.57123277991205
 20
-5.929258756303273
 30
0.0
 10
19.68946509142617
 20
-5.866508646000672
 30
0.0
 10
19.71656000599737
 20
-5.848886016155521
 30
0.0
 10
19.74165384288704
 20
-5.829243053620544
 30
0.0
  0
LINE
  5
8A
330
1F
100
AcDbEntity
  8
Sichtbar_(ISO)
  6
Continuous
 62
     7
100
AcDbLine
 10
18.9999773976
 20
-5.9789666781
 30
0.0
 11
18.0779928397
 21
-5.9789666781
 31
0.0
  0
SPLINE
  5
8B
330
1F
100
AcDbEntity
  8
Sichtbar_(ISO)
  6
Continuous
 62
     7
100
AcDbSpline
210
0.0
220
0.0
230
1.0
 70
     8
 71
     3
 72
    10
 73
     6
 74
     0
 42
0.000000001
 43
0.0000000001
 40
0.0
 40
0.0
 40
0.0
 40
0.0
 40
0.5975243076003813
 40
0.5975243076003813
 40
1.0
 40
1.0
 40
1.0
 40
1.0
 10
18.99997739757236
 20
-5.50000087294367
 30
0.0
 10
19.16207986571006
 20
-5.50000087294367
 30
0.0
 10
19.33095606600037
 20
-5.541568633359416
 30
0.0
 10
19.57749970824955
 20
-5.675843886089753
 30
0.0
 10
19.66734550983953
 20
-5.747078168295091
 30
0.0
 10
19.74165384135857
 20
-5.829243053210906
 30
0.0
  0
LINE
  5
8C
330
1F
100
AcDbEntity
  8
Sichtbar_(ISO)
  6
Continuous
 62
     7
100
AcDbLine
 10
18.3511322831
 20
-5.5000008729
 30
0.0
 11
18.9999773976
 21
-5.5000008729
 31
0.0
  0
LINE
  5
8D
330
1F
100
AcDbEntity
  8
Sichtbar_(ISO)
  6
Continuous
 62
     7
100
AcDbLine
 10
19.9999773976
 20
-19.0000008729
 30
0.0
 11
19.9999773976
 21
-6.5000008729
 31
0.0
  0
SPLINE
  5
8E
330
1F
100
AcDbEntity
  8
Sichtbar_(ISO)
  6
Continuous
 62
     7
100
AcDbSpline
210
0.0
220
0.0
230
1.0
 70
     8
 71
     3
 72
    12
 73
     8
 74
     0
 42
0.000000001
 43
0.0000000001
 40
0.0
 40
0.0
 40
0.0
 40
0.0
 40
0.267763879612698
 40
0.267763879612698
 40
0.9958638242460487
 40
0.9958638242460487
 40
1.0
 40
1.0
 40
1.0
 40
1.0
 10
19.74165384288704
 20
-5.829243053620544
 30
0.0
 10
19.78983360918561
 20
-5.882516823840731
 30
0.0
 10
19.83002321887258
 20
-5.938494186248957
 30
0.0
 10
19.95272764397203
 20
-6.148136735260228
 30
0.0
 10
19.99944661690322
 20
-6.321267677738365
 30
0.0
 10
19.99997590304994
 20
-6.498004446833931
 30
0.0
 10
19.99997739757236
 20
-6.499002700471534
 30
0.0
 10
19.99997739757236
 20
-6.500000872943669
 30
0.0
  0
SPLINE
  5
8F
330
1F
100
AcDbEntity
  8
Sichtbar_(ISO)
  6
Continuous
 62
     7
100
AcDbSpline
210
0.0
220
0.0
230
1.0
 70
     8
 71
     3
 72
    12
 73
     8
 74
     0
 42
0.000000001
 43
0.0000000001
 40
0.0
 40
0.0
 40
0.0
 40
0.0
 40
0.0041361757534215
 40
0.0041361757534215
 40
0.7322361203677135
 40
0.7322361203677135
 40
1.0
 40
1.0
 40
1.0
 40
1.0
 10
19.99997739757236
 20
6.49999912705633
 30
0.0
 10
19.99997739757236
 20
6.499000954584182
 30
0.0
 10
19.99997590304994
 20
6.498002700946601
 30
0.0
 10
19.99944661690316
 20
6.321265931831262
 30
0.0
 10
19.952727643963
 20
6.148134989357401
 30
0.0
 10
19.83002321887255
 20
5.938492440361572
 30
0.0
 10
19.78983360918561
 20
5.882515077953375
 30
0.0
 10
19.74165384288704
 20
5.829241307733204
 30
0.0
  0
LINE
  5
90
330
1F
100
AcDbEntity
  8
Sichtbar_(ISO)
  6
Continuous
 62
     7
100
AcDbLine
 10
19.9999773976
 20
6.4999991271
 30
0.0
 11
19.9999773976
 21
18.9999991271
 31
0.0
  0
LINE
  5
91
330
1F
100
AcDbEntity
  8
Sichtbar_(ISO)
  6
Continuous
 62
     7
100
AcDbLine
 10
-20.0000226024
 20
13.1556464774
 30
0.0
 11
-20.0000226024
 21
5.2923965645
 31
0.0
  0
SPLINE
  5
92
330
1F
100
AcDbEntity
  8
Sichtbar_(ISO)
  6
Continuous
 62
     7
100
AcDbSpline
210
0.0
220
0.0
230
1.0
 70
     8
 71
     3
 72
    18
 73
    14
 74
     0
 42
0.000000001
 43
0.0000000001
 40
0.0
 40
0.0
 40
0.0
 40
0.0
 40
0.0145024366821188
 40
0.0145024366821188
 40
0.2364230217438424
 40
0.2364230217438424
 40
0.4244893064321433
 40
0.4244893064321433
 40
0.6288769855356536
 40
0.6288769855356536
 40
0.9188985066506303
 40
0.9188985066506303
 40
1.0
 40
1.0
 40
1.0
 40
1.0
 10
-19.46681308722362
 20
5.747969372228914
 30
0.0
 10
-19.47070224730796
 20
5.750041074935014
 30
0.0
 10
-19.47459256005658
 20
5.752061918916277
 30
0.0
 10
-19.53802457743678
 20
5.784147802520768
 30
0.0
 10
-19.59889094443522
 20
5.802466335820052
 30
0.0
 10
-19.70908316044346
 20
5.799991650678482
 30
0.0
 10
-19.75551059345464
 20
5.784842770531324
 30
0.0
 10
-19.84320824806851
 20
5.726655314103678
 30
0.0
 10
-19.88110957306568
 20
5.682964162534706
 30
0.0
 10
-19.95330695358528
 20
5.563311948154325
 30
0.0
 10
-19.98401011834795
 20
5.474184721644537
 30
0.0
 10
-19.99845805061655
 20
5.347912855717257
 30
0.0
 10
-20.00002260242763
 20
5.320171488512003
 30
0.0
 10
-20.00002260242763
 20
5.292396564533986
 30
0.0
  0
SPLINE
  5
93
330
1F
100
AcDbEntity
  8
Sichtbar_(ISO)
  6
Continuous
 62
     7
100
AcDbSpline
210
0.0
220
0.0
230
1.0
 70
     8
 71
     3
 72
    12
 73
     8
 74
     0
 42
0.000000001
 43
0.0000000001
 40
0.0
 40
0.0
 40
0.0
 40
0.0
 40
0.2286495662171637
 40
0.2286495662171637
 40
0.5852512125378395
 40
0.5852512125378395
 40
1.0
 40
1.0
 40
1.0
 40
1.0
 10
-18.95506232399205
 20
6.136667473359251
 30
0.0
 10
-19.00240731015404
 20
6.129218804143446
 30
0.0
 10
-19.04740133551905
 20
6.112583157873037
 30
0.0
 10
-19.15591246563644
 20
6.056363167746355
 30
0.0
 10
-19.21808135273994
 20
6.007931074147138
 30
0.0
 10
-19.33720083759298
 20
5.89903351017496
 30
0.0
 10
-19.40229037933683
 20
5.828078913266718
 30
0.0
 10
-19.46681308722362
 20
5.747969372228914
 30
0.0
  0
SPLINE
  5
94
330
1F
100
AcDbEntity
  8
Sichtbar_(ISO)
  6
Continuous
 62
     7
100
AcDbSpline
210
0.0
220
0.0
230
1.0
 70
     8
 71
     3
 72
    10
 73
     6
 74
     0
 42
0.000000001
 43
0.0000000001
 40
0.0
 40
0.0
 40
0.0
 40
0.0
 40
0.6214152887962249
 40
0.6214152887962249
 40
1.0
 40
1.0
 40
1.0
 40
1.0
 10
-19.46681308722362
 20
-5.747971118116257
 30
0.0
 10
-19.35629208744406
 20
-5.885190817309833
 30
0.0
 10
-19.24168817539094
 20
-5.998877992960827
 30
0.0
 10
-19.06369404858111
 20
-6.108761734056278
 30
0.0
 10
-19.00603003961301
 20
-6.128650594992548
 30
0.0
 10
-18.95506232399205
 20
-6.136669219246586
 30
0.0
  0
SPLINE
  5
95
330
1F
100
AcDbEntity
  8
Sichtbar_(ISO)
  6
Continuous
 62
     7
100
AcDbSpline
210
0.0
220
0.0
230
1.0
 70
     8
 71
     3
 72
    16
 73
    12
 74
     0
 42
0.000000001
 43
0.0000000001
 40
0.0
 40
0.0
 40
0.0
 40
0.0
 40
0.0624800801790164
 40
0.0624800801790164
 40
0.4014666734437565
 40
0.4014666734437565
 40
0.6249670554802349
 40
0.6249670554802349
 40
0.8196407913864551
 40
0.8196407913864551
 40
1.0
 40
1.0
 40
1.0
 40
1.0
 10
-20.00002260242763
 20
-5.292398310421326
 30
0.0
 10
-20.00002260242763
 20
-5.314173103697429
 30
0.0
 10
-19.99906076872857
 20
-5.335938087935847
 30
0.0
 10
-19.98659476221838
 20
-5.475409097324078
 30
0.0
 10
-19.94813259698517
 20
-5.5814251570045
 30
0.0
 10
-19.85922711043305
 20
-5.709970509559664
 30
0.0
 10
-19.81471000990989
 20
-5.752450513305176
 30
0.0
 10
-19.71500077897833
 20
-5.798870112336103
 30
0.0
 10
-19.66517886247467
 20
-5.805612869956842
 30
0.0
 10
-19.5637465310123
 20
-5.791780944754268
 30
0.0
 10
-19.51467856662685
 20
-5.773468408291457
 30
0.0
 10
-19.46681308722362
 20
-5.747971118116257
 30
0.0
  0
LINE
  5
96
330
1F
100
AcDbEntity
  8
Sichtbar_(ISO)
  6
Continuous
 62
     7
100
AcDbLine
 10
-20.0000226024
 20
-5.2923983104
 30
0.0
 11
-20.0000226024
 21
-13.1556482233
 31
0.0
  0
ARC
  5
97
330
1F
100
AcDbEntity
  8
Sichtbar_(ISO)
  6
Continuous
 62
     7
100
AcDbCircle
 10
18.9999773976
 20
-19.0000008729
 30
0.0
 40
1.0
100
AcDbArc
 50
270.0
 51
0.0
  0
ARC
  5
98
330
1F
100
AcDbEntity
  8
Sichtbar_(ISO)
  6
Continuous
 62
     7
100
AcDbCircle
 10
18.9999773976
 20
18.9999991271
 30
0.0
 40
1.0
100
AcDbArc
 50
0.0
 51
90.0
  0
ARC
  5
99
330
1F
100
AcDbEntity
  8
Sichtbar_(ISO)
  6
Continuous
 62
     7
100
AcDbCircle
 10
-18.9000226024
 20
13.1556464774
 30
0.0
 40
1.1
100
AcDbArc
 50
92.8680555556
 51
180.0
  0
ARC
  5
9A
330
1F
100
AcDbEntity
  8
Sichtbar_(ISO)
  6
Continuous
 62
     7
100
AcDbCircle
 10
-18.9000226024
 20
-13.1556482233
 30
0.0
 40
1.1
100
AcDbArc
 50
180.0
 51
267.1319444444
  0
SPLINE
  5
9B
330
1F
100
AcDbEntity
  8
Verdeckt_(ISO)
  6
HIDDEN2
 62
     7
100
AcDbSpline
210
0.0
220
0.0
230
1.0
 70
     8
 71
     3
 72
    14
 73
    10
 74
     0
 42
0.000000001
 43
0.0000000001
 40
0.0
 40
0.0
 40
0.0
 40
0.0
 40
0.2032487312620674
 40
0.2032487312620674
 40
0.4318082170201288
 40
0.4318082170201288
 40
0.696539465647782
 40
0.696539465647782
 40
1.0
 40
1.0
 40
1.0
 40
1.0
 10
18.99997739757238
 20
15.99999912705633
 30
0.0
 10
19.11433103820967
 20
15.99999912705633
 30
0.0
 10
19.24796769259035
 20
15.96882586946554
 30
0.0
 10
19.46782958665086
 20
15.86546047912341
 30
0.0
 10
19.58890676770545
 20
15.76979004005015
 30
0.0
 10
19.77126647903118
 20
15.56056953600412
 30
0.0
 10
19.85858119462014
 20
15.40461379287792
 30
0.0
 10
19.96693504738065
 20
15.10385556059203
 30
0.0
 10
19.99997739757238
 20
14.90165470194768
 30
0.0
 10
19.99997739757238
 20
14.73091898971256
 30
0.0
  0
SPLINE
  5
9C
330
1F
100
AcDbEntity
  8
Sichtbar_(ISO)
  6
Continuous
 62
     7
100
AcDbSpline
210
0.0
220
0.0
230
1.0
 70
     8
 71
     3
 72
    12
 73
     8
 74
     0
 42
0.000000001
 43
0.0000000001
 40
0.0
 40
0.0
 40
0.0
 40
0.0
 40
0.2321778403329758
 40
0.2321778403329758
 40
0.6215391223081882
 40
0.6215391223081882
 40
1.0
 40
1.0
 40
1.0
 40
1.0
 10
19.74165384288704
 20
5.829241307733204
 30
0.0
 10
19.70059456756161
 20
5.861381701825861
 30
0.0
 10
19.65453558002476
 20
5.887815906505057
 30
0.0
 10
19.51632263731663
 20
5.943564921288371
 30
0.0
 10
19.42195786573317
 20
5.959688769492861
 30
0.0
 10
19.23034993503537
 20
5.976655284015187
 30
0.0
 10
19.12079210106562
 20
5.978964932249827
 30
0.0
 10
18.99997739757236
 20
5.978964932249827
 30
0.0
  0
LINE
  5
9D
330
1F
100
AcDbEntity
  8
Sichtbar_(ISO)
  6
Continuous
 62
     7
100
AcDbLine
 10
18.0779928397
 20
5.9789649322
 30
0.0
 11
18.9999773976
 21
5.9789649322
 31
0.0
  0
SPLINE
  5
9E
330
1F
100
AcDbEntity
  8
Sichtbar_(ISO)
  6
Continuous
 62
     7
100
AcDbSpline
210
0.0
220
0.0
230
1.0
 70
     8
 71
     3
 72
    10
 73
     6
 74
     0
 42
0.000000001
 43
0.0000000001
 40
0.0
 40
0.0
 40
0.0
 40
0.0
 40
0.4024756923996194
 40
0.4024756923996194
 40
1.0
 40
1.0
 40
1.0
 40
1.0
 10
19.74165384135857
 20
5.829241307323568
 30
0.0
 10
19.66734550983953
 20
5.747076422407753
 30
0.0
 10
19.57749970824955
 20
5.675842140202413
 30
0.0
 10
19.33095606600038
 20
5.541566887472076
 30
0.0
 10
19.16207986571006
 20
5.499999127056329
 30
0.0
 10
18.99997739757236
 20
5.499999127056329
 30
0.0
  0
LINE
  5
9F
330
1F
100
AcDbEntity
  8
Sichtbar_(ISO)
  6
Continuous
 62
     7
100
AcDbLine
 10
18.9999773976
 20
5.4999991271
 30
0.0
 11
18.3511322831
 21
5.4999991271
 31
0.0
  0
SPLINE
  5
A0
330
1F
100
AcDbEntity
  8
Verdeckt_(ISO)
  6
HIDDEN2
 62
     7
100
AcDbSpline
210
0.0
220
0.0
230
1.0
 70
     8
 71
     3
 72
    12
 73
     8
 74
     0
 42
0.000000001
 43
0.0000000001
 40
0.0
 40
0.0
 40
0.0
 40
0.0
 40
0.4359388798759612
 40
0.4359388798759612
 40
0.8374323716996106
 40
0.8374323716996106
 40
1.0
 40
1.0
 40
1.0
 40
1.0
 10
18.99997739757238
 20
4.985734196427888
 30
0.0
 10
19.13990577285967
 20
4.985734196427888
 30
0.0
 10
19.26601065694224
 20
4.984878428887628
 30
0.0
 10
19.47145551730232
 20
4.965520343938266
 30
0.0
 10
19.56821508560417
 20
4.947216577900969
 30
0.0
 10
19.69182688383377
 20
4.886961976669142
 30
0.0
 10
19.72422345960815
 20
4.866410959330858
 30
0.0
 10
19.7537005209658
 20
4.842807027682951
 30
0.0
  0
LINE
  5
A1
330
1F
100
AcDbEntity
  8
Verdeckt_(ISO)
  6
HIDDEN2
 62
     7
100
AcDbLine
 10
18.9999773976
 20
4.9857341964
 30
0.0
 11
18.0615287548
 21
4.9857341964
 31
0.0
  0
LINE
  5
A2
330
1F
100
AcDbEntity
  8
Verdeckt_(ISO)
  6
HIDDEN2
 62
     7
100
AcDbLine
 10
19.9999773976
 20
11.9999991271
 30
0.0
 11
12.4721133526
 21
11.9999991271
 31
0.0
  0
LINE
  5
A3
330
1F
100
AcDbEntity
  8
Verdeckt_(ISO)
  6
HIDDEN2
 62
     7
100
AcDbLine
 10
18.9999773976
 20
15.9999991271
 30
0.0
 11
18.0207033397
 21
15.9999991271
 31
0.0
  0
LINE
  5
A4
330
1F
100
AcDbEntity
  8
Verdeckt_(ISO)
  6
HIDDEN2
 62
     7
100
AcDbLine
 10
13.9792514554
 20
15.9999991271
 30
0.0
 11
7.9999773976
 21
15.9999991271
 31
0.0
  0
SPLINE
  5
A5
330
1F
100
AcDbEntity
  8
Verdeckt_(ISO)
  6
HIDDEN2
 62
     7
100
AcDbSpline
210
0.0
220
0.0
230
1.0
 70
    12
 71
     2
 72
     6
 73
     3
 74
     0
 42
0.000000001
 43
0.0000000001
 40
0.0
 40
0.0
 40
0.0
 40
1.0
 40
1.0
 40
1.0
 10
14.99997739757238
 20
13.72616671490738
 30
0.0
 41
1.0
 10
14.5286534267982
 20
14.81050896677491
 30
0.0
 41
1.001773314389825
 10
13.97925145540869
 20
15.99999912705633
 30
0.0
 41
1.0
  0
SPLINE
  5
A6
330
1F
100
AcDbEntity
  8
Verdeckt_(ISO)
  6
HIDDEN2
 62
     7
100
AcDbSpline
210
0.0
220
0.0
230
1.0
 70
     8
 71
     3
 72
    14
 73
    10
 74
     0
 42
0.000000001
 43
0.0000000001
 40
0.0
 40
0.0
 40
0.0
 40
0.0
 40
0.1884681587874207
 40
0.1884681587874207
 40
0.4123287851205257
 40
0.4123287851205257
 40
0.6843010521089076
 40
0.6843010521089076
 40
1.0
 40
1.0
 40
1.0
 40
1.0
 10
15.19997739757238
 20
12.59999912705632
 30
0.0
 10
15.17776432513614
 20
12.59999912705632
 30
0.0
 10
15.15191581703624
 20
12.60650914044891
 30
0.0
 10
15.10842234980852
 20
12.62818953136033
 30
0.0
 10
15.08432103103523
 20
12.64872166066852
 30
0.0
 10
15.04721495974405
 20
12.69386926944138
 30
0.0
 10
15.02934604063901
 20
12.72793290661489
 30
0.0
 10
15.0069158654576
 20
12.79346407172838
 30
0.0
 10
14.99997739757238
 20
12.83757204005626
 30
0.0
 10
14.99997739757238
 20
12.87478067860119
 30
0.0
  0
LINE
  5
A7
330
1F
100
AcDbEntity
  8
Verdeckt_(ISO)
  6
HIDDEN2
 62
     7
100
AcDbLine
 10
16.7999773976
 20
12.5999991271
 30
0.0
 11
15.1999773976
 21
12.5999991271
 31
0.0
  0
SPLINE
  5
A8
330
1F
100
AcDbEntity
  8
Verdeckt_(ISO)
  6
HIDDEN2
 62
     7
100
AcDbSpline
210
0.0
220
0.0
230
1.0
 70
     8
 71
     3
 72
    14
 73
    10
 74
     0
 42
0.000000001
 43
0.0000000001
 40
0.0
 40
0.0
 40
0.0
 40
0.0
 40
0.315698947891096
 40
0.315698947891096
 40
0.5876712148794729
 40
0.5876712148794729
 40
0.8115318412125788
 40
0.8115318412125788
 40
1.0
 40
1.0
 40
1.0
 40
1.0
 10
16.99997739757238
 20
12.87478067860119
 30
0.0
 10
16.99997739757238
 20
12.83757204005626
 30
0.0
 10
16.99303892968716
 20
12.79346407172838
 30
0.0
 10
16.97060875450576
 20
12.72793290661489
 30
0.0
 10
16.95273983540071
 20
12.69386926944138
 30
0.0
 10
16.91563376410953
 20
12.64872166066852
 30
0.0
 10
16.89153244533624
 20
12.62818953136033
 30
0.0
 10
16.84803897810853
 20
12.60650914044891
 30
0.0
 10
16.82219047000862
 20
12.59999912705632
 30
0.0
 10
16.79997739757238
 20
12.59999912705632
 30
0.0
  0
SPLINE
  5
A9
330
1F
100
AcDbEntity
  8
Verdeckt_(ISO)
  6
HIDDEN2
 62
     7
100
AcDbSpline
210
0.0
220
0.0
230
1.0
 70
    12
 71
     2
 72
     6
 73
     3
 74
     0
 42
0.000000001
 43
0.0000000001
 40
0.0
 40
0.0
 40
0.0
 40
1.0
 40
1.0
 40
1.0
 10
17.49997739757238
 20
14.85720327099468
 30
0.0
 41
1.000886370599054
 10
17.24008496284935
 20
14.278565477048
 30
0.0
 41
1.000902598094475
 10
16.99997739757238
 20
13.72616671490738
 30
0.0
 41
1.0
  0
SPLINE
  5
AA
330
1F
100
AcDbEntity
  8
Verdeckt_(ISO)
  6
HIDDEN2
 62
     7
100
AcDbSpline
210
0.0
220
0.0
230
1.0
 70
    12
 71
     2
 72
     6
 73
     3
 74
     0
 42
0.000000001
 43
0.0000000001
 40
0.0
 40
0.0
 40
0.0
 40
1.0
 40
1.0
 40
1.0
 10
18.02070333973607
 20
15.99999912705633
 30
0.0
 41
1.0
 10
17.75069783192156
 20
15.41542005473361
 30
0.0
 41
1.000427439766592
 10
17.49997739757238
 20
14.85720327099468
 30
0.0
 41
1.0
  0
ELLIPSE
  5
AB
330
1F
100
AcDbEntity
  8
Verdeckt_(ISO)
  6
HIDDEN2
 62
     7
100
AcDbEllipse
 10
11.8648006814
 20
-0.0000008729
 30
0.0
 11
22.53408931776899
 21
-19.08923747312494
 31
0.0
210
0.0
220
0.0
230
1.0
 40
0.26478365
 41
1.519794454641242
 42
1.521629075394951
  0
ELLIPSE
  5
AC
330
1F
100
AcDbEntity
  8
Verdeckt_(ISO)
  6
HIDDEN2
 62
     7
100
AcDbEllipse
 10
11.8648006814
 20
-0.0000008729
 30
0.0
 11
-22.53408931776899
 21
-19.08923747312494
 31
0.0
210
0.0
220
0.0
230
1.0
 40
0.26478365
 41
-4.663221728984746
 42
-4.661387108231035
  0
LINE
  5
AD
330
1F
100
AcDbEntity
  8
Verdeckt_(ISO)
  6
HIDDEN2
 62
     7
100
AcDbLine
 10
17.4799773976
 20
-4.5000008729
 30
0.0
 11
16.9999773976
 21
-4.9800008729
 31
0.0
  0
LINE
  5
AE
330
1F
100
AcDbEntity
  8
Verdeckt_(ISO)
  6
HIDDEN2
 62
     7
100
AcDbLine
 10
17.4799773976
 20
4.4999991271
 30
0.0
 11
16.9999773976
 21
4.9799991271
 31
0.0
  0
LINE
  5
AF
330
1F
100
AcDbEntity
  8
Verdeckt_(ISO)
  6
HIDDEN2
 62
     7
100
AcDbLine
 10
18.0615287548
 20
-4.9857359423
 30
0.0
 11
18.3270514346
 21
-4.5000008729
 31
0.0
  0
SPLINE
  5
B0
330
1F
100
AcDbEntity
  8
Verdeckt_(ISO)
  6
HIDDEN2
 62
     7
100
AcDbSpline
210
0.0
220
0.0
230
1.0
 70
    12
 71
     2
 72
     6
 73
     3
 74
     0
 42
0.000000001
 43
0.0000000001
 40
0.0
 40
0.0
 40
0.0
 40
1.0
 40
1.0
 40
1.0
 10
16.99997739757238
 20
-4.989293461592665
 30
0.0
 41
1.0
 10
17.48831407409273
 20
-5.005939698219986
 30
0.0
 41
1.00085925056217
 10
18.02070333973608
 20
-5.021261556911625
 30
0.0
 41
1.0
  0
LINE
  5
B1
330
1F
100
AcDbEntity
  8
Verdeckt_(ISO)
  6
HIDDEN2
 62
     7
100
AcDbLine
 10
18.3270514346
 20
4.4999991271
 30
0.0
 11
18.0615287548
 21
4.9857341964
 31
0.0
  0
SPLINE
  5
B2
330
1F
100
AcDbEntity
  8
Verdeckt_(ISO)
  6
HIDDEN2
 62
     7
100
AcDbSpline
210
0.0
220
0.0
230
1.0
 70
    12
 71
     2
 72
     6
 73
     3
 74
     0
 42
0.000000001
 43
0.0000000001
 40
0.0
 40
0.0
 40
0.0
 40
1.0
 40
1.0
 40
1.0
 10
18.02070333973608
 20
5.021259811024285
 30
0.0
 41
1.0
 10
17.48831407407815
 20
5.005937952332187
 30
0.0
 41
1.00085925056306
 10
16.99997739757239
 20
4.989291715705329
 30
0.0
 41
1.0
  0
ELLIPSE
  5
B3
330
1F
100
AcDbEntity
  8
Sichtbar_(ISO)
  6
Continuous
 62
     7
100
AcDbEllipse
 10
13.0380057621
 20
-0.0000008729
 30
0.0
 11
22.53408931776902
 21
-19.08923747312495
 31
0.0
210
0.0
220
0.0
230
1.0
 40
0.26478365
 41
1.571441120854369
 42
1.573982382510074
  0
ELLIPSE
  5
B4
330
1F
100
AcDbEntity
  8
Sichtbar_(ISO)
  6
Continuous
 62
     7
100
AcDbEllipse
 10
13.0380057621
 20
-0.0000008729
 30
0.0
 11
-22.53408931776902
 21
-19.08923747312495
 31
0.0
210
0.0
220
0.0
230
1.0
 40
0.26478365
 41
1.567610271079716
 42
1.570151532735421
  0
LINE
  5
B5
330
1F
100
AcDbEntity
  8
Sichtbar_(ISO)
  6
Continuous
 62
     7
100
AcDbLine
 10
18.3511322831
 20
-5.5000008729
 30
0.0
 11
18.0779928397
 21
-5.9789666781
 31
0.0
  0
LINE
  5
B6
330
1F
100
AcDbEntity
  8
Sichtbar_(ISO)
  6
Continuous
 62
     7
100
AcDbLine
 10
17.4799773976
 20
-5.5000008729
 30
0.0
 11
18.3511322831
 21
-5.5000008729
 31
0.0
  0
LINE
  5
B7
330
1F
100
AcDbEntity
  8
Sichtbar_(ISO)
  6
Continuous
 62
     7
100
AcDbLine
 10
17.4799773976
 20
-5.5000008729
 30
0.0
 11
16.9999773976
 21
-5.9800008729
 31
0.0
  0
LINE
  5
B8
330
1F
100
AcDbEntity
  8
Sichtbar_(ISO)
  6
Continuous
 62
     7
100
AcDbLine
 10
16.9999773976
 20
-5.9816607332
 30
0.0
 11
16.9999773976
 21
-5.9800008729
 31
0.0
  0
SPLINE
  5
B9
330
1F
100
AcDbEntity
  8
Sichtbar_(ISO)
  6
Continuous
 62
     7
100
AcDbSpline
210
0.0
220
0.0
230
1.0
 70
    12
 71
     2
 72
     6
 73
     3
 74
     0
 42
0.000000001
 43
0.0000000001
 40
0.0
 40
0.0
 40
0.0
 40
1.0
 40
1.0
 40
1.0
 10
18.02070333973606
 20
-6.027448280065462
 30
0.0
 41
1.0
 10
17.48821821576582
 20
-6.005490854915925
 30
0.0
 41
1.000837443207844
 10
16.99997739757237
 20
-5.981660733186587
 30
0.0
 41
1.0
  0
LINE
  5
BA
330
1F
100
AcDbEntity
  8
Sichtbar_(ISO)
  6
Continuous
 62
     7
100
AcDbLine
 10
17.4799773976
 20
5.4999991271
 30
0.0
 11
16.9999773976
 21
5.9799991271
 31
0.0
  0
LINE
  5
BB
330
1F
100
AcDbEntity
  8
Sichtbar_(ISO)
  6
Continuous
 62
     7
100
AcDbLine
 10
16.9999773976
 20
5.9799991271
 30
0.0
 11
16.9999773976
 21
5.9816589873
 31
0.0
  0
LINE
  5
BC
330
1F
100
AcDbEntity
  8
Sichtbar_(ISO)
  6
Continuous
 62
     7
100
AcDbLine
 10
18.3511322831
 20
5.4999991271
 30
0.0
 11
17.4799773976
 21
5.4999991271
 31
0.0
  0
LINE
  5
BD
330
1F
100
AcDbEntity
  8
Sichtbar_(ISO)
  6
Continuous
 62
     7
100
AcDbLine
 10
18.0779928397
 20
5.9789649322
 30
0.0
 11
18.3511322831
 21
5.4999991271
 31
0.0
  0
SPLINE
  5
BE
330
1F
100
AcDbEntity
  8
Sichtbar_(ISO)
  6
Continuous
 62
     7
100
AcDbSpline
210
0.0
220
0.0
230
1.0
 70
    12
 71
     2
 72
     6
 73
     3
 74
     0
 42
0.000000001
 43
0.0000000001
 40
0.0
 40
0.0
 40
0.0
 40
0.9999999999999999
 40
0.9999999999999999
 40
0.9999999999999999
 10
16.99997739757237
 20
5.981658987299251
 30
0.0
 41
1.0
 10
17.48821821577217
 20
6.005489109028874
 30
0.0
 41
1.000837443204152
 10
18.02070333973606
 20
6.027446534178122
 30
0.0
 41
1.0
  0
LINE
  5
BF
330
1F
100
AcDbEntity
  8
Verdeckt_(ISO)
  6
HIDDEN2
 62
     7
100
AcDbLine
 10
18.0207033397
 20
6.0274465342
 30
0.0
 11
18.0207033397
 21
5.021259811
 31
0.0
  0
LINE
  5
C0
330
1F
100
AcDbEntity
  8
Verdeckt_(ISO)
  6
HIDDEN2
 62
     7
100
AcDbLine
 10
18.0207033397
 20
-5.0212615569
 30
0.0
 11
18.0207033397
 21
-6.0274482801
 31
0.0
  0
LINE
  5
C1
330
1F
100
AcDbEntity
  8
Verdeckt_(ISO)
  6
HIDDEN2
 62
     7
100
AcDbLine
 10
-19.2000226024
 20
-4.2048619841
 30
0.0
 11
-19.2000226024
 21
-10.5000008729
 31
0.0
  0
LINE
  5
C2
330
1F
100
AcDbEntity
  8
Verdeckt_(ISO)
  6
HIDDEN2
 62
     7
100
AcDbLine
 10
-19.2000226024
 20
10.4999991271
 30
0.0
 11
-19.2000226024
 21
4.2048602382
 31
0.0
  0
LINE
  5
C3
330
1F
100
AcDbEntity
  8
Verdeckt_(ISO)
  6
HIDDEN2
 62
     7
100
AcDbLine
 10
-11.9973728716
 20
10.4999991271
 30
0.0
 11
-11.9973728716
 21
-10.5000008729
 31
0.0
  0
LINE
  5
C4
330
1F
100
AcDbEntity
  8
Verdeckt_(ISO)
  6
HIDDEN2
 62
     7
100
AcDbLine
 10
13.9792514554
 20
6.0274465342
 30
0.0
 11
13.9792514554
 21
5.021259811
 31
0.0
  0
LINE
  5
C5
330
1F
100
AcDbEntity
  8
Verdeckt_(ISO)
  6
HIDDEN2
 62
     7
100
AcDbLine
 10
13.9792514554
 20
-5.0212615569
 30
0.0
 11
13.9792514554
 21
-6.0274482801
 31
0.0
  0
LINE
  5
C6
330
1F
100
AcDbEntity
  8
Verdeckt_(ISO)
  6
HIDDEN2
 62
     7
100
AcDbLine
 10
6.1999773976
 20
10.4999991271
 30
0.0
 11
6.1999773976
 21
-10.5000008729
 31
0.0
  0
LINE
  5
C7
330
1F
100
AcDbEntity
  8
Verdeckt_(ISO)
  6
HIDDEN2
 62
     7
100
AcDbLine
 10
7.9999773976
 20
-1.0000008921
 30
0.0
 11
7.9999773976
 21
-9.9000008729
 31
0.0
  0
LINE
  5
C8
330
1F
100
AcDbEntity
  8
Verdeckt_(ISO)
  6
HIDDEN2
 62
     7
100
AcDbLine
 10
7.9999773976
 20
9.8999991271
 30
0.0
 11
7.9999773976
 21
0.9999991462
 31
0.0
  0
LINE
  5
C9
330
1F
100
AcDbEntity
  8
Verdeckt_(ISO)
  6
HIDDEN2
 62
     7
100
AcDbLine
 10
8.9999773976
 20
5.4999991271
 30
0.0
 11
8.9999773976
 21
-5.5000008729
 31
0.0
  0
LINE
  5
CA
330
1F
100
AcDbEntity
  8
Verdeckt_(ISO)
  6
HIDDEN2
 62
     7
100
AcDbLine
 10
13.9999773976
 20
6.2499991271
 30
0.0
 11
13.9999773976
 21
-6.2500008729
 31
0.0
  0
LINE
  5
CB
330
1F
100
AcDbEntity
  8
Verdeckt_(ISO)
  6
HIDDEN2
 62
     7
100
AcDbLine
 10
15.9999773976
 20
6.2499991271
 30
0.0
 11
15.9999773976
 21
-6.2500008729
 31
0.0
  0
LINE
  5
CC
330
1F
100
AcDbEntity
  8
Verdeckt_(ISO)
  6
HIDDEN2
 62
     7
100
AcDbLine
 10
21.9999773976
 20
6.4999991271
 30
0.0
 11
21.9999773976
 21
-6.5000008729
 31
0.0
  0
LINE
  5
CD
330
1F
100
AcDbEntity
  8
Verdeckt_(ISO)
  6
HIDDEN2
 62
     7
100
AcDbLine
 10
26.9999773976
 20
6.4999991271
 30
0.0
 11
26.9999773976
 21
-6.5000008729
 31
0.0
  0
ARC
  5
CE
330
1F
100
AcDbEntity
  8
Verdeckt_(ISO)
  6
HIDDEN2
 62
     7
100
AcDbCircle
 10
-4.1758458746
 20
7.7499991271
 30
0.0
 40
5.0
100
AcDbArc
 50
33.3670129692
 51
90.0
  0
ARC
  5
CF
330
1F
100
AcDbEntity
  8
Verdeckt_(ISO)
  6
HIDDEN2
 62
     7
100
AcDbCircle
 10
-4.1758458746
 20
-7.7500008729
 30
0.0
 40
5.0
100
AcDbArc
 50
270.0
 51
326.6329870308
  0
LINE
  5
D0
330
1F
100
AcDbEntity
  8
Verdeckt_(ISO)
  6
HIDDEN2
 62
     7
100
AcDbLine
 10
-4.1758458746
 20
-12.7500008729
 30
0.0
 11
-10.4673946583
 21
-12.7500008729
 31
0.0
  0
LINE
  5
D1
330
1F
100
AcDbEntity
  8
Verdeckt_(ISO)
  6
HIDDEN2
 62
     7
100
AcDbLine
 10
-4.1758458746
 20
12.7499991271
 30
0.0
 11
-10.4673946583
 21
12.7499991271
 31
0.0
  0
LINE
  5
D2
330
1F
100
AcDbEntity
  8
Verdeckt_(ISO)
  6
HIDDEN2
 62
     7
100
AcDbLine
 10
-11.9973728716
 20
-10.5000008729
 30
0.0
 11
-19.2000226024
 21
-10.5000008729
 31
0.0
  0
LINE
  5
D3
330
1F
100
AcDbEntity
  8
Verdeckt_(ISO)
  6
HIDDEN2
 62
     7
100
AcDbLine
 10
-11.9973728716
 20
10.4999991271
 30
0.0
 11
-19.2000226024
 21
10.4999991271
 31
0.0
  0
LINE
  5
D4
330
1F
100
AcDbEntity
  8
Verdeckt_(ISO)
  6
HIDDEN2
 62
     7
100
AcDbLine
 10
-19.2000226024
 20
10.4999991271
 30
0.0
 11
-20.0000226024
 21
10.9618793424
 31
0.0
  0
LINE
  5
D5
330
1F
100
AcDbEntity
  8
Verdeckt_(ISO)
  6
HIDDEN2
 62
     7
100
AcDbLine
 10
-19.2000226024
 20
-10.5000008729
 30
0.0
 11
-20.0000226024
 21
-10.9618810883
 31
0.0
  0
LINE
  5
D6
330
1F
100
AcDbEntity
  8
Verdeckt_(ISO)
  6
HIDDEN2
 62
     7
100
AcDbLine
 10
-11.9973728716
 20
10.4999991271
 30
0.0
 11
-10.8138048198
 21
12.5499991271
 31
0.0
  0
LINE
  5
D7
330
1F
100
AcDbEntity
  8
Verdeckt_(ISO)
  6
HIDDEN2
 62
     7
100
AcDbLine
 10
-11.9973728716
 20
-10.5000008729
 30
0.0
 11
-10.8138048198
 21
-12.5500008729
 31
0.0
  0
ARC
  5
D8
330
1F
100
AcDbEntity
  8
Verdeckt_(ISO)
  6
HIDDEN2
 62
     7
100
AcDbCircle
 10
-10.4673946583
 20
12.3499991271
 30
0.0
 40
0.4000000000000001
100
AcDbArc
 50
90.0
 51
150.0
  0
ARC
  5
D9
330
1F
100
AcDbEntity
  8
Verdeckt_(ISO)
  6
HIDDEN2
 62
     7
100
AcDbCircle
 10
-10.4673946583
 20
-12.3500008729
 30
0.0
 40
0.4000000000000002
100
AcDbArc
 50
210.0
 51
270.0
  0
LINE
  5
DA
330
1F
100
AcDbEntity
  8
Verdeckt_(ISO)
  6
HIDDEN2
 62
     7
100
AcDbLine
 10
6.1999773976
 20
-10.5000008729
 30
0.0
 11
-0.0000226024
 21
-10.5000008729
 31
0.0
  0
LINE
  5
DB
330
1F
100
AcDbEntity
  8
Verdeckt_(ISO)
  6
HIDDEN2
 62
     7
100
AcDbLine
 10
6.1999773976
 20
10.4999991271
 30
0.0
 11
-0.0000226024
 21
10.4999991271
 31
0.0
  0
ARC
  5
DC
330
1F
100
AcDbEntity
  8
Verdeckt_(ISO)
  6
HIDDEN2
 62
     7
100
AcDbCircle
 10
6.9999773976
 20
9.8999991271
 30
0.0
 40
1.0
100
AcDbArc
 50
0.0
 51
143.1301023542
  0
ARC
  5
DD
330
1F
100
AcDbEntity
  8
Verdeckt_(ISO)
  6
HIDDEN2
 62
     7
100
AcDbCircle
 10
6.9999773976
 20
-9.9000008729
 30
0.0
 40
0.9999999999999998
100
AcDbArc
 50
216.8698976458
 51
0.0
  0
LINE
  5
DE
330
1F
100
AcDbEntity
  8
Verdeckt_(ISO)
  6
HIDDEN2
 62
     7
100
AcDbLine
 10
8.9999773976
 20
-5.5000008729
 30
0.0
 11
7.9999773976
 21
-6.5000008729
 31
0.0
  0
LINE
  5
DF
330
1F
100
AcDbEntity
  8
Verdeckt_(ISO)
  6
HIDDEN2
 62
     7
100
AcDbLine
 10
8.9999773976
 20
5.4999991271
 30
0.0
 11
7.9999773976
 21
6.4999991271
 31
0.0
  0
LINE
  5
E0
330
1F
100
AcDbEntity
  8
Verdeckt_(ISO)
  6
HIDDEN2
 62
     7
100
AcDbLine
 10
12.4999773976
 20
-5.5000008729
 30
0.0
 11
8.9999773976
 21
-5.5000008729
 31
0.0
  0
LINE
  5
E1
330
1F
100
AcDbEntity
  8
Verdeckt_(ISO)
  6
HIDDEN2
 62
     7
100
AcDbLine
 10
12.4999773976
 20
5.4999991271
 30
0.0
 11
8.9999773976
 21
5.4999991271
 31
0.0
  0
LINE
  5
E2
330
1F
100
AcDbEntity
  8
Verdeckt_(ISO)
  6
HIDDEN2
 62
     7
100
AcDbLine
 10
15.9999773976
 20
-6.2500008729
 30
0.0
 11
13.9999773976
 21
-6.2500008729
 31
0.0
  0
LINE
  5
E3
330
1F
100
AcDbEntity
  8
Verdeckt_(ISO)
  6
HIDDEN2
 62
     7
100
AcDbLine
 10
15.9999773976
 20
6.2499991271
 30
0.0
 11
13.9999773976
 21
6.2499991271
 31
0.0
  0
LINE
  5
E4
330
1F
100
AcDbEntity
  8
Verdeckt_(ISO)
  6
HIDDEN2
 62
     7
100
AcDbLine
 10
21.9999773976
 20
-2.5000008729
 30
0.0
 11
15.9999773976
 21
-2.5000008729
 31
0.0
  0
LINE
  5
E5
330
1F
100
AcDbEntity
  8
Verdeckt_(ISO)
  6
HIDDEN2
 62
     7
100
AcDbLine
 10
21.9999773976
 20
2.4999991271
 30
0.0
 11
15.9999773976
 21
2.4999991271
 31
0.0
  0
LINE
  5
E6
330
1F
100
AcDbEntity
  8
Verdeckt_(ISO)
  6
HIDDEN2
 62
     7
100
AcDbLine
 10
26.9999773976
 20
-6.5000008729
 30
0.0
 11
21.9999773976
 21
-6.5000008729
 31
0.0
  0
LINE
  5
E7
330
1F
100
AcDbEntity
  8
Verdeckt_(ISO)
  6
HIDDEN2
 62
     7
100
AcDbLine
 10
26.9999773976
 20
6.4999991271
 30
0.0
 11
21.9999773976
 21
6.4999991271
 31
0.0
  0
LINE
  5
E8
330
1F
100
AcDbEntity
  8
Verdeckt_(ISO)
  6
HIDDEN2
 62
     7
100
AcDbLine
 10
68.9999773976
 20
-6.0000008729
 30
0.0
 11
26.9999773976
 21
-6.0000008729
 31
0.0
  0
LINE
  5
E9
330
1F
100
AcDbEntity
  8
Verdeckt_(ISO)
  6
HIDDEN2
 62
     7
100
AcDbLine
 10
68.9999773976
 20
5.9999991271
 30
0.0
 11
53.0999773976
 21
5.9999991271
 31
0.0
  0
LINE
  5
EA
330
1F
100
AcDbEntity
  8
Verdeckt_(ISO)
  6
HIDDEN2
 62
     7
100
AcDbLine
 10
42.8999773976
 20
5.9999991271
 30
0.0
 11
26.9999773976
 21
5.9999991271
 31
0.0
  0
ARC
  5
EB
330
1F
100
AcDbEntity
  8
Verdeckt_(ISO)
  6
HIDDEN2
 62
     7
100
AcDbCircle
 10
68.9999773976
 20
6.9999991271
 30
0.0
 40
0.9999999999999929
100
AcDbArc
 50
270.0
 51
0.0
  0
ARC
  5
EC
330
1F
100
AcDbEntity
  8
Verdeckt_(ISO)
  6
HIDDEN2
 62
     7
100
AcDbCircle
 10
68.9999773976
 20
-7.0000008729
 30
0.0
 40
0.9999999999999929
100
AcDbArc
 50
0.0
 51
90.0
  0
LINE
  5
ED
330
1F
100
AcDbEntity
  8
Verdeckt_(ISO)
  6
HIDDEN2
 62
     7
100
AcDbLine
 10
0.1912364379
 20
-15.3851978333
 30
0.0
 11
-0.0000226024
 21
-16.2850008729
 31
0.0
  0
LINE
  5
EE
330
1F
100
AcDbEntity
  8
Verdeckt_(ISO)
  6
HIDDEN2
 62
     7
100
AcDbLine
 10
0.1912364379
 20
15.3851960874
 30
0.0
 11
-0.0000226024
 21
16.2849991271
 31
0.0
  0
ARC
  5
EF
330
1F
100
AcDbEntity
  8
Verdeckt_(ISO)
  6
HIDDEN2
 62
     7
100
AcDbCircle
 10
-0.2000226024
 20
15.3020314111
 30
0.0
 40
0.4000000000000002
100
AcDbArc
 50
0.0
 51
12.0
  0
ARC
  5
F0
330
1F
100
AcDbEntity
  8
Verdeckt_(ISO)
  6
HIDDEN2
 62
     7
100
AcDbCircle
 10
-0.2000226024
 20
15.3020314111
 30
0.0
 40
0.4000000000000002
100
AcDbArc
 50
300.0
 51
0.0
  0
ARC
  5
F1
330
1F
100
AcDbEntity
  8
Verdeckt_(ISO)
  6
HIDDEN2
 62
     7
100
AcDbCircle
 10
-0.2000226024
 20
-15.3020331569
 30
0.0
 40
0.4000000000000002
100
AcDbArc
 50
0.0
 51
60.0
  0
ARC
  5
F2
330
1F
100
AcDbEntity
  8
Verdeckt_(ISO)
  6
HIDDEN2
 62
     7
100
AcDbCircle
 10
-0.2000226024
 20
-15.3020331569
 30
0.0
 40
0.4000000000000003
100
AcDbArc
 50
348.0
 51
0.0
  0
LINE
  5
F3
330
1F
100
AcDbEntity
  8
Verdeckt_(ISO)
  6
HIDDEN2
 62
     7
100
AcDbLine
 10
0.1999773976
 20
-15.3020331569
 30
0.0
 11
0.1999773976
 21
15.3020314111
 31
0.0
  0
LINE
  5
F4
330
1F
100
AcDbEntity
  8
Sichtbar_(ISO)
  6
Continuous
 62
     7
100
AcDbLine
 10
18.0207033397
 20
19.9999991271
 30
0.0
 11
18.0207033397
 21
6.0274465342
 31
0.0
  0
LINE
  5
F5
330
1F
100
AcDbEntity
  8
Sichtbar_(ISO)
  6
Continuous
 62
     7
100
AcDbLine
 10
18.0207033397
 20
-6.0274482801
 30
0.0
 11
18.0207033397
 21
-20.0000008729
 31
0.0
  0
LINE
  5
F6
330
1F
100
AcDbEntity
  8
Sichtbar_(ISO)
  6
Continuous
 62
     7
100
AcDbLine
 10
-2.6000226024
 20
15.0736375365
 30
0.0
 11
-2.6000226024
 21
-15.0736392824
 31
0.0
  0
LINE
  5
F7
330
1F
100
AcDbEntity
  8
Sichtbar_(ISO)
  6
Continuous
 62
     7
100
AcDbLine
 10
16.9999773976
 20
-5.9816607332
 30
0.0
 11
16.9999773976
 21
-18.2320516805
 31
0.0
  0
LINE
  5
F8
330
1F
100
AcDbEntity
  8
Sichtbar_(ISO)
  6
Continuous
 62
     7
100
AcDbLine
 10
16.9999773976
 20
18.2320499346
 30
0.0
 11
16.9999773976
 21
5.9816589873
 31
0.0
  0
LINE
  5
F9
330
1F
100
AcDbEntity
  8
Sichtbar_(ISO)
  6
Continuous
 62
     7
100
AcDbLine
 10
13.9792514554
 20
-6.0274482801
 30
0.0
 11
13.9792514554
 21
-20.0000008729
 31
0.0
  0
LINE
  5
FA
330
1F
100
AcDbEntity
  8
Sichtbar_(ISO)
  6
Continuous
 62
     7
100
AcDbLine
 10
13.9792514554
 20
19.9999991271
 30
0.0
 11
13.9792514554
 21
6.0274465342
 31
0.0
  0
LINE
  5
FB
330
1F
100
AcDbEntity
  8
Sichtbar_(ISO)
  6
Continuous
 62
     7
100
AcDbLine
 10
0.6999773976
 20
19.9999991271
 30
0.0
 11
0.6999773976
 21
-20.0000008729
 31
0.0
  0
LINE
  5
FC
330
1F
100
AcDbEntity
  8
Sichtbar_(ISO)
  6
Continuous
 62
     7
100
AcDbLine
 10
14.9999773976
 20
18.2320499346
 30
0.0
 11
14.9999773976
 21
5.9816589873
 31
0.0
  0
LINE
  5
FD
330
1F
100
AcDbEntity
  8
Sichtbar_(ISO)
  6
Continuous
 62
     7
100
AcDbLine
 10
14.9999773976
 20
-5.9816607332
 30
0.0
 11
14.9999773976
 21
-18.2320516805
 31
0.0
  0
LINE
  5
FE
330
1F
100
AcDbEntity
  8
Sichtbar_(ISO)
  6
Continuous
 62
     7
100
AcDbLine
 10
69.9999773976
 20
13.4758586054
 30
0.0
 11
69.9999773976
 21
-13.4758603513
 31
0.0
  0
LINE
  5
FF
330
1F
100
AcDbEntity
  8
Sichtbar_(ISO)
  6
Continuous
 62
     7
100
AcDbLine
 10
-0.0000226024
 20
19.2999991271
 30
0.0
 11
-0.0000226024
 21
-19.3000008729
 31
0.0
  0
LINE
  5
100
330
1F
100
AcDbEntity
  8
Sichtbar_(ISO)
  6
Continuous
 62
     7
100
AcDbLine
 10
35.0418118106
 20
-16.5000008729
 30
0.0
 11
20.4999773976
 21
-16.5000008729
 31
0.0
  0
LINE
  5
101
330
1F
100
AcDbEntity
  8
Sichtbar_(ISO)
  6
Continuous
 62
     7
100
AcDbLine
 10
35.0418118106
 20
16.4999991271
 30
0.0
 11
20.4999773976
 21
16.4999991271
 31
0.0
  0
LINE
  5
102
330
1F
100
AcDbEntity
  8
Sichtbar_(ISO)
  6
Continuous
 62
     7
100
AcDbLine
 10
18.9999773976
 20
19.9999991271
 30
0.0
 11
18.0207033397
 21
19.9999991271
 31
0.0
  0
LINE
  5
103
330
1F
100
AcDbEntity
  8
Sichtbar_(ISO)
  6
Continuous
 62
     7
100
AcDbLine
 10
18.9999773976
 20
-20.0000008729
 30
0.0
 11
18.0207033397
 21
-20.0000008729
 31
0.0
  0
LINE
  5
104
330
1F
100
AcDbEntity
  8
Sichtbar_(ISO)
  6
Continuous
 62
     7
100
AcDbLine
 10
-18.955062324
 20
14.2542686277
 30
0.0
 11
-2.6000226024
 21
15.0736375365
 31
0.0
  0
LINE
  5
105
330
1F
100
AcDbEntity
  8
Sichtbar_(ISO)
  6
Continuous
 62
     7
100
AcDbLine
 10
-18.955062324
 20
-14.2542703736
 30
0.0
 11
-2.6000226024
 21
-15.0736392824
 31
0.0
  0
ARC
  5
106
330
1F
100
AcDbEntity
  8
Sichtbar_(ISO)
  6
Continuous
 62
     7
100
AcDbCircle
 10
20.4999773976
 20
16.9999991271
 30
0.0
 40
0.5
100
AcDbArc
 50
180.0
 51
270.0
  0
ARC
  5
107
330
1F
100
AcDbEntity
  8
Sichtbar_(ISO)
  6
Continuous
 62
     7
100
AcDbCircle
 10
20.4999773976
 20
-17.0000008729
 30
0.0
 40
0.5
100
AcDbArc
 50
90.0
 51
180.0
  0
ARC
  5
108
330
1F
100
AcDbEntity
  8
Sichtbar_(ISO)
  6
Continuous
 62
     7
100
AcDbCircle
 10
16.7999773976
 20
-17.6000008729
 30
0.0
 40
0.2
100
AcDbArc
 50
0.0
 51
90.0
  0
LINE
  5
109
330
1F
100
AcDbEntity
  8
Sichtbar_(ISO)
  6
Continuous
 62
     7
100
AcDbLine
 10
16.9999773976
 20
18.2320499346
 30
0.0
 11
18.0207033397
 21
19.9999991271
 31
0.0
  0
ARC
  5
10A
330
1F
100
AcDbEntity
  8
Sichtbar_(ISO)
  6
Continuous
 62
     7
100
AcDbCircle
 10
15.1999773976
 20
-17.6000008729
 30
0.0
 40
0.2
100
AcDbArc
 50
90.0
 51
180.0
  0
LINE
  5
10B
330
1F
100
AcDbEntity
  8
Sichtbar_(ISO)
  6
Continuous
 62
     7
100
AcDbLine
 10
16.9999773976
 20
-18.2320516805
 30
0.0
 11
18.0207033397
 21
-20.0000008729
 31
0.0
  0
LINE
  5
10C
330
1F
100
AcDbEntity
  8
Sichtbar_(ISO)
  6
Continuous
 62
     7
100
AcDbLine
 10
13.9792514554
 20
-20.0000008729
 30
0.0
 11
12.8249773976
 21
-20.0000008729
 31
0.0
  0
LINE
  5
10D
330
1F
100
AcDbEntity
  8
Sichtbar_(ISO)
  6
Continuous
 62
     7
100
AcDbLine
 10
1.1749773976
 20
-20.0000008729
 30
0.0
 11
0.6999773976
 21
-20.0000008729
 31
0.0
  0
LINE
  5
10E
330
1F
100
AcDbEntity
  8
Sichtbar_(ISO)
  6
Continuous
 62
     7
100
AcDbLine
 10
13.9792514554
 20
19.9999991271
 30
0.0
 11
10.8650196441
 21
19.9999991271
 31
0.0
  0
LINE
  5
10F
330
1F
100
AcDbEntity
  8
Sichtbar_(ISO)
  6
Continuous
 62
     7
100
AcDbLine
 10
3.1349351511
 20
19.9999991271
 30
0.0
 11
0.6999773976
 21
19.9999991271
 31
0.0
  0
LINE
  5
110
330
1F
100
AcDbEntity
  8
Sichtbar_(ISO)
  6
Continuous
 62
     7
100
AcDbLine
 10
14.9999773976
 20
18.2320499346
 30
0.0
 11
13.9792514554
 21
19.9999991271
 31
0.0
  0
LINE
  5
111
330
1F
100
AcDbEntity
  8
Sichtbar_(ISO)
  6
Continuous
 62
     7
100
AcDbLine
 10
14.9999773976
 20
-18.2320516805
 30
0.0
 11
13.9792514554
 21
-20.0000008729
 31
0.0
  0
ARC
  5
112
330
1F
100
AcDbEntity
  8
Sichtbar_(ISO)
  6
Continuous
 62
     7
100
AcDbCircle
 10
15.1999773976
 20
17.5999991271
 30
0.0
 40
0.2
100
AcDbArc
 50
180.0
 51
270.0
  0
LINE
  5
113
330
1F
100
AcDbEntity
  8
Sichtbar_(ISO)
  6
Continuous
 62
     7
100
AcDbLine
 10
16.7999773976
 20
-17.4000008729
 30
0.0
 11
15.1999773976
 21
-17.4000008729
 31
0.0
  0
LINE
  5
114
330
1F
100
AcDbEntity
  8
Sichtbar_(ISO)
  6
Continuous
 62
     7
100
AcDbLine
 10
16.7999773976
 20
17.3999991271
 30
0.0
 11
15.1999773976
 21
17.3999991271
 31
0.0
  0
ARC
  5
115
330
1F
100
AcDbEntity
  8
Sichtbar_(ISO)
  6
Continuous
 62
     7
100
AcDbCircle
 10
16.7999773976
 20
17.5999991271
 30
0.0
 40
0.2
100
AcDbArc
 50
270.0
 51
0.0
  0
ARC
  5
116
330
1F
100
AcDbEntity
  8
Sichtbar_(ISO)
  6
Continuous
 62
     7
100
AcDbCircle
 10
67.9999773976
 20
13.4758586054
 30
0.0
 40
1.99999999999992
100
AcDbArc
 50
0.0
 51
65.0
  0
ARC
  5
117
330
1F
100
AcDbEntity
  8
Sichtbar_(ISO)
  6
Continuous
 62
     7
100
AcDbCircle
 10
67.9999773976
 20
-13.4758603513
 30
0.0
 40
1.99999999999992
100
AcDbArc
 50
295.0
 51
0.0
  0
LINE
  5
118
330
1F
100
AcDbEntity
  8
Sichtbar_(ISO)
  6
Continuous
 62
     7
100
AcDbLine
 10
68.8452139211
 20
-15.2884759254
 30
0.0
 11
57.5347830727
 21
-20.562616447
 31
0.0
  0
LINE
  5
119
330
1F
100
AcDbEntity
  8
Sichtbar_(ISO)
  6
Continuous
 62
     7
100
AcDbLine
 10
68.8452139211
 20
15.2884741795
 30
0.0
 11
57.5347830727
 21
20.5626147011
 31
0.0
  0
ARC
  5
11A
330
1F
100
AcDbEntity
  8
Sichtbar_(ISO)
  6
Continuous
 62
     7
100
AcDbCircle
 10
56.6895465492
 20
18.7499991271
 30
0.0
 40
1.999999999999987
100
AcDbArc
 50
65.0
 51
90.0
  0
ARC
  5
11B
330
1F
100
AcDbEntity
  8
Sichtbar_(ISO)
  6
Continuous
 62
     7
100
AcDbCircle
 10
56.6895465492
 20
-18.7500008729
 30
0.0
 40
1.999999999999987
100
AcDbArc
 50
270.0
 51
295.0
  0
LINE
  5
11C
330
1F
100
AcDbEntity
  8
Sichtbar_(ISO)
  6
Continuous
 62
     7
100
AcDbLine
 10
56.6895465492
 20
-20.7500008729
 30
0.0
 11
56.1461421393
 21
-20.7500008729
 31
0.0
  0
LINE
  5
11D
330
1F
100
AcDbEntity
  8
Sichtbar_(ISO)
  6
Continuous
 62
     7
100
AcDbLine
 10
39.8538126558
 20
-20.7500008729
 30
0.0
 11
36.7881353916
 21
-20.7500008729
 31
0.0
  0
LINE
  5
11E
330
1F
100
AcDbEntity
  8
Sichtbar_(ISO)
  6
Continuous
 62
     7
100
AcDbLine
 10
56.6895465492
 20
20.7499991271
 30
0.0
 11
54.9999773976
 21
20.7499991271
 31
0.0
  0
LINE
  5
11F
330
1F
100
AcDbEntity
  8
Sichtbar_(ISO)
  6
Continuous
 62
     7
100
AcDbLine
 10
40.9999773976
 20
20.7499991271
 30
0.0
 11
36.7881353916
 21
20.7499991271
 31
0.0
  0
ARC
  5
120
330
1F
100
AcDbEntity
  8
Sichtbar_(ISO)
  6
Continuous
 62
     7
100
AcDbCircle
 10
36.7881353916
 20
19.7499991271
 30
0.0
 40
1.0
100
AcDbArc
 50
90.0
 51
175.0
  0
ARC
  5
121
330
1F
100
AcDbEntity
  8
Sichtbar_(ISO)
  6
Continuous
 62
     7
100
AcDbCircle
 10
36.7881353916
 20
-19.7500008729
 30
0.0
 40
1.0
100
AcDbArc
 50
185.0
 51
270.0
  0
LINE
  5
122
330
1F
100
AcDbEntity
  8
Sichtbar_(ISO)
  6
Continuous
 62
     7
100
AcDbLine
 10
35.5399091596
 20
16.9564212557
 30
0.0
 11
35.7919406935
 21
19.8371548698
 31
0.0
  0
LINE
  5
123
330
1F
100
AcDbEntity
  8
Sichtbar_(ISO)
  6
Continuous
 62
     7
100
AcDbLine
 10
35.5399091596
 20
-16.9564230016
 30
0.0
 11
35.7919406935
 21
-19.8371566157
 31
0.0
  0
ARC
  5
124
330
1F
100
AcDbEntity
  8
Sichtbar_(ISO)
  6
Continuous
 62
     7
100
AcDbCircle
 10
35.0418118106
 20
16.9999991271
 30
0.0
 40
0.5000000000000001
100
AcDbArc
 50
270.0
 51
355.0
  0
ARC
  5
125
330
1F
100
AcDbEntity
  8
Sichtbar_(ISO)
  6
Continuous
 62
     7
100
AcDbCircle
 10
35.0418118106
 20
-17.0000008729
 30
0.0
 40
0.5
100
AcDbArc
 50
5.0
 51
90.0
  0
LINE
  5
126
330
1F
100
AcDbEntity
  8
Sichtbar_(ISO)
  6
Continuous
 62
     7
100
AcDbLine
 10
-0.0000226024
 20
19.2999991271
 30
0.0
 11
0.6999773976
 21
19.9999991271
 31
0.0
  0
LINE
  5
127
330
1F
100
AcDbEntity
  8
Sichtbar_(ISO)
  6
Continuous
 62
     7
100
AcDbLine
 10
-0.0000226024
 20
-19.3000008729
 30
0.0
 11
0.6999773976
 21
-20.0000008729
 31
0.0
  0
ARC
  5
128
330
1F
100
AcDbEntity
  8
Sichtbar_(ISO)
  6
Continuous
 62
     7
100
AcDbCircle
 10
-0.2000226024
 20
15.3020314111
 30
0.0
 40
0.4000000000000002
100
AcDbArc
 50
270.0
 51
300.0
  0
ARC
  5
129
330
1F
100
AcDbEntity
  8
Sichtbar_(ISO)
  6
Continuous
 62
     7
100
AcDbCircle
 10
-0.2000226024
 20
-15.3020331569
 30
0.0
 40
0.4000000000000002
100
AcDbArc
 50
60.0
 51
90.0
  0
LINE
  5
12A
330
1F
100
AcDbEntity
  8
Sichtbar_(ISO)
  6
Continuous
 62
     7
100
AcDbLine
 10
-0.2000226024
 20
-14.9020331569
 30
0.0
 11
-1.9069188244
 21
-14.9020331569
 31
0.0
  0
LINE
  5
12B
330
1F
100
AcDbEntity
  8
Sichtbar_(ISO)
  6
Continuous
 62
     7
100
AcDbLine
 10
-0.2000226024
 20
14.9020314111
 30
0.0
 11
-1.9069188244
 21
14.9020314111
 31
0.0
  0
ARC
  5
12C
330
1F
100
AcDbEntity
  8
Sichtbar_(ISO)
  6
Continuous
 62
     7
100
AcDbCircle
 10
-1.9069188244
 20
15.3020314111
 30
0.0
 40
0.4000000000000001
100
AcDbArc
 50
255.0
 51
270.0
  0
ARC
  5
12D
330
1F
100
AcDbEntity
  8
Sichtbar_(ISO)
  6
Continuous
 62
     7
100
AcDbCircle
 10
-1.9069188244
 20
-15.3020331569
 30
0.0
 40
0.4000000000000002
100
AcDbArc
 50
90.0
 51
105.0
  0
LINE
  5
12E
330
1F
100
AcDbEntity
  8
Sichtbar_(ISO)
  6
Continuous
 62
     7
100
AcDbLine
 10
-2.0104464424
 20
-14.9156628264
 30
0.0
 11
-2.6000226024
 21
-15.0736392824
 31
0.0
  0
LINE
  5
12F
330
1F
100
AcDbEntity
  8
Sichtbar_(ISO)
  6
Continuous
 62
     7
100
AcDbLine
 10
-2.0104464424
 20
14.9156610805
 30
0.0
 11
-2.6000226024
 21
15.0736375365
 31
0.0
  0
ARC
  5
130
330
1F
100
AcDbEntity
  8
Verdeckt_(ISO)
  6
HIDDEN2
 62
     7
100
AcDbCircle
 10
12.4721133526
 20
16.4999991271
 30
0.0
 40
4.500000000000001
100
AcDbArc
 50
186.3793702084
 51
270.0
  0
LINE
  5
131
330
1F
100
AcDbEntity
  8
Sichtbar_(ISO)
  6
Continuous
 62
     7
100
AcDbLine
 10
-20.0000226024
 20
-4.8250008729
 30
0.0
 11
-20.0000226024
 21
-5.2923983104
 31
0.0
  0
SPLINE
  5
132
330
1F
100
AcDbEntity
  8
Sichtbar_(ISO)
  6
Continuous
 62
     7
100
AcDbSpline
210
0.0
220
0.0
230
1.0
 70
     8
 71
     3
 72
    14
 73
    10
 74
     0
 42
0.000000001
 43
0.0000000001
 40
0.0
 40
0.0
 40
0.0
 40
0.0
 40
0.3038676250545523
 40
0.3038676250545523
 40
0.6077352501091039
 40
0.6077352501091039
 40
0.8908858686645608
 40
0.8908858686645608
 40
1.0
 40
1.0
 40
1.0
 40
1.0
 10
-19.20002260242762
 20
-4.025000872943669
 30
0.0
 10
-19.20002260242762
 20
-4.025000872943668
 30
0.0
 10
-19.20920858543203
 20
-4.088557465638138
 30
0.0
 10
-19.2462100157825
 20
-4.339740901293962
 30
0.0
 10
-19.27409728214113
 20
-4.527362553369026
 30
0.0
 10
-19.33728715320573
 20
-4.940706326341608
 30
0.0
 10
-19.37541359653617
 20
-5.185477978468232
 30
0.0
 10
-19.43331714388883
 20
-5.544265038533009
 30
0.0
 10
-19.44996300169937
 20
-5.646175058659303
 30
0.0
 10
-19.46681308331552
 20
-5.747971115466061
 30
0.0
  0
LINE
  5
133
330
1F
100
AcDbEntity
  8
Sichtbar_(ISO)
  6
Continuous
 62
     7
100
AcDbLine
 10
-20.0000226024
 20
-4.8250008729
 30
0.0
 11
-19.2000226024
 21
-4.0250008729
 31
0.0
  0
SPLINE
  5
134
330
1F
100
AcDbEntity
  8
Sichtbar_(ISO)
  6
Continuous
 62
     7
100
AcDbSpline
210
0.0
220
0.0
230
1.0
 70
     8
 71
     3
 72
    18
 73
    14
 74
     0
 42
0.000000001
 43
0.0000000001
 40
0.0
 40
0.0
 40
0.0
 40
0.0
 40
0.0052750729638364
 40
0.0052750729638364
 40
0.0293888467085036
 40
0.0293888467085036
 40
0.0776163941978566
 40
0.0776163941978566
 40
0.2960436963652651
 40
0.2960436963652651
 40
0.5144709985326785
 40
0.5144709985326785
 40
0.9999999999999999
 40
0.9999999999999999
 40
0.9999999999999999
 40
0.9999999999999999
 10
-16.75726598920126
 20
-6.758503012454017
 30
0.0
 10
-16.75859115175508
 20
-6.755326547162792
 30
0.0
 10
-16.76007129613572
 20
-6.752190695779434
 30
0.0
 10
-16.76913271384705
 20
-6.734947297808419
 30
0.0
 10
-16.77947449131768
 20
-6.721602104264183
 30
0.0
 10
-16.81623153273157
 20
-6.684012354187172
 30
0.0
 10
-16.8478298429822
 20
-6.662012652474889
 30
0.0
 10
-17.01605435617276
 20
-6.561489159249143
 30
0.0
 10
-17.18419134953762
 20
-6.509222741393936
 30
0.0
 10
-17.52606818243839
 20
-6.411216737689288
 30
0.0
 10
-17.70136264673397
 20
-6.370169982642799
 30
0.0
 10
-18.21841460128035
 20
-6.258437359839624
 30
0.0
 10
-18.58366668116691
 20
-6.195099974339679
 30
0.0
 10
-18.95506232446576
 20
-6.136669219172037
 30
0.0
  0
LINE
  5
135
330
1F
100
AcDbEntity
  8
Sichtbar_(ISO)
  6
Continuous
 62
     7
100
AcDbLine
 10
-19.2000226024
 20
-4.0250008729
 30
0.0
 11
-15.0000226024
 21
-4.0250008729
 31
0.0
  0
SPLINE
  5
136
330
1F
100
AcDbEntity
  8
Sichtbar_(ISO)
  6
Continuous
 62
     7
100
AcDbSpline
210
0.0
220
0.0
230
1.0
 70
     8
 71
     3
 72
    18
 73
    14
 74
     0
 42
0.000000001
 43
0.0000000001
 40
0.0
 40
0.0
 40
0.0
 40
0.0
 40
0.4855290014673394
 40
0.4855290014673394
 40
0.7039563036347397
 40
0.7039563036347397
 40
0.9223836058021438
 40
0.9223836058021438
 40
0.9706111532914902
 40
0.9706111532914902
 40
0.9947249270361633
 40
0.9947249270361633
 40
0.9999999999999999
 40
0.9999999999999999
 40
0.9999999999999999
 40
0.9999999999999999
 10
-18.95506232446576
 20
6.136667473284702
 30
0.0
 10
-18.58366668116692
 20
6.195098228452344
 30
0.0
 10
-18.21841460128036
 20
6.258435613952291
 30
0.0
 10
-17.701362646734
 20
6.370168236755462
 30
0.0
 10
-17.52606818243844
 20
6.411214991801947
 30
0.0
 10
-17.1841913495377
 20
6.509220995506582
 30
0.0
 10
-17.01605435617286
 20
6.561487413361809
 30
0.0
 10
-16.8478298429823
 20
6.662010906587548
 30
0.0
 10
-16.81623153273164
 20
6.68401060829979
 30
0.0
 10
-16.77947449131773
 20
6.721600358376799
 30
0.0
 10
-16.76913271384712
 20
6.734945551921048
 30
0.0
 10
-16.76007129613577
 20
6.75218894989207
 30
0.0
 10
-16.75859115175519
 20
6.755324801275451
 30
0.0
 10
-16.75726598920135
 20
6.758501266566677
 30
0.0
  0
SPLINE
  5
137
330
1F
100
AcDbEntity
  8
Sichtbar_(ISO)
  6
Continuous
 62
     7
100
AcDbSpline
210
0.0
220
0.0
230
1.0
 70
    12
 71
     2
 72
     6
 73
     3
 74
     0
 42
0.000000001
 43
0.0000000001
 40
0.0
 40
0.0
 40
0.0
 40
0.9999999999999999
 40
0.9999999999999999
 40
0.9999999999999999
 10
-16.75726598920135
 20
6.758501266566677
 30
0.0
 41
1.004808657661052
 10
-16.50757625729653
 20
7.357017097430087
 30
0.0
 41
1.004371292958686
 10
-15.00002260243744
 20
7.959201091538892
 30
0.0
 41
1.001738680692374
  0
SPLINE
  5
138
330
1F
100
AcDbEntity
  8
Sichtbar_(ISO)
  6
Continuous
 62
     7
100
AcDbSpline
210
0.0
220
0.0
230
1.0
 70
    12
 71
     2
 72
     6
 73
     3
 74
     0
 42
0.000000001
 43
0.0000000001
 40
0.0
 40
0.0
 40
0.0
 40
0.9999999999999999
 40
0.9999999999999999
 40
0.9999999999999999
 10
-15.00002260241965
 20
-7.959202837433298
 30
0.0
 41
1.001738680692346
 10
-16.50757625729496
 20
-7.357018843320925
 30
0.0
 41
1.00437129295869
 10
-16.75726598920126
 20
-6.758503012454014
 30
0.0
 41
1.004808657661059
  0
LINE
  5
139
330
1F
100
AcDbEntity
  8
Sichtbar_(ISO)
  6
Continuous
 62
     7
100
AcDbLine
 10
-19.2000226024
 20
4.0249991271
 30
0.0
 11
-15.0000226024
 21
4.0249991271
 31
0.0
  0
SPLINE
  5
13A
330
1F
100
AcDbEntity
  8
Verdeckt_(ISO)
  6
HIDDEN2
 62
     7
100
AcDbSpline
210
0.0
220
0.0
230
1.0
 70
     8
 71
     3
 72
    18
 73
    14
 74
     0
 42
0.000000001
 43
0.0000000001
 40
0.0
 40
0.0
 40
0.0
 40
0.0
 40
0.1734017919965554
 40
0.1734017919965554
 40
0.5179237066523006
 40
0.5179237066523006
 40
0.7479065312562975
 40
0.7479065312562975
 40
0.8480198196856299
 40
0.8480198196856299
 40
0.9353886164777045
 40
0.9353886164777045
 40
1.0
 40
1.0
 40
1.0
 40
1.0
 10
-16.5000226024276
 20
-4.665011677058134
 30
0.0
 10
-16.5000069760139
 20
-4.840345847187506
 30
0.0
 10
-16.52527352503209
 20
-5.024024778205436
 30
0.0
 10
-16.68239708290438
 20
-5.586335081126224
 30
0.0
 10
-16.86429900232243
 20
-5.878624656298387
 30
0.0
 10
-17.07226397422217
 20
-6.164983654274528
 30
0.0
 10
-17.17111221173154
 20
-6.280723947670455
 30
0.0
 10
-17.30150881169041
 20
-6.381566347076255
 30
0.0
 10
-17.33469653426976
 20
-6.400025617273592
 30
0.0
 10
-17.38937741517265
 20
-6.421370658694035
 30
0.0
 10
-17.41556181380941
 20
-6.427271467220113
 30
0.0
 10
-17.46249559263108
 20
-6.428127842887269
 30
0.0
 10
-17.48157420818716
 20
-6.425550540548351
 30
0.0
 10
-17.50002260242647
 20
-6.420759082666458
 30
0.0
  0
SPLINE
  5
13B
330
1F
100
AcDbEntity
  8
Verdeckt_(ISO)
  6
HIDDEN2
 62
     7
100
AcDbSpline
210
0.0
220
0.0
230
1.0
 70
     8
 71
     3
 72
    20
 73
    16
 74
     0
 42
0.000000001
 43
0.0000000001
 40
0.0
 40
0.0
 40
0.0
 40
0.0
 40
0.0470968622437531
 40
0.0470968622437531
 40
0.1053807494222284
 40
0.1053807494222284
 40
0.1720400418544697
 40
0.1720400418544697
 40
0.2926116044766481
 40
0.2926116044766481
 40
0.6127754035054304
 40
0.6127754035054304
 40
0.9577454196592778
 40
0.9577454196592778
 40
0.9999999999999999
 40
0.9999999999999999
 40
0.9999999999999999
 40
0.9999999999999999
 10
-17.5000226024265
 20
6.420757336779097
 30
0.0
 10
-17.48225558129458
 20
6.425375191849367
 30
0.0
 10
-17.46382176821451
 20
6.427952228856296
 30
0.0
 10
-17.42065199924476
 20
6.427586023023199
 30
0.0
 10
-17.39725448015956
 20
6.423151106590962
 30
0.0
 10
-17.34779836581995
 20
6.406113185763291
 30
0.0
 10
-17.31899457797841
 20
6.391516902461337
 30
0.0
 10
-17.22775276083055
 20
6.328263675304941
 30
0.0
 10
-17.17117214904181
 20
6.271209347846093
 30
0.0
 10
-17.01337034672874
 20
6.096205499262304
 30
0.0
 10
-16.869364034298
 20
5.896317185930368
 30
0.0
 10
-16.61676447168983
 20
5.386998846071809
 30
0.0
 10
-16.52260172480447
 20
5.09130754589483
 30
0.0
 10
-16.50118141896991
 20
4.740499755137459
 30
0.0
 10
-16.5000272822847
 20
4.702557688741379
 30
0.0
 10
-16.5000226024276
 20
4.665009931170795
 30
0.0
  0
LINE
  5
13C
330
1F
100
AcDbEntity
  8
Verdeckt_(ISO)
  6
HIDDEN2
 62
     7
100
AcDbLine
 10
-16.5000226024
 20
-3.0250008729
 30
0.0
 11
-16.5000226024
 21
-4.6650116771
 31
0.0
  0
LINE
  5
13D
330
1F
100
AcDbEntity
  8
Verdeckt_(ISO)
  6
HIDDEN2
 62
     7
100
AcDbLine
 10
-16.5000226024
 20
4.6650099312
 30
0.0
 11
-16.5000226024
 21
3.0249991271
 31
0.0
  0
SPLINE
  5
13E
330
1F
100
AcDbEntity
  8
Verdeckt_(ISO)
  6
HIDDEN2
 62
     7
100
AcDbSpline
210
0.0
220
0.0
230
1.0
 70
     8
 71
     3
 72
    12
 73
     8
 74
     0
 42
0.000000001
 43
0.0000000001
 40
0.0
 40
0.0
 40
0.0
 40
0.0
 40
0.01174344546337
 40
0.01174344546337
 40
0.9336088051805933
 40
0.9336088051805933
 40
1.0
 40
1.0
 40
1.0
 40
1.0
 10
-17.5000226024276
 20
-4.20486198405478
 30
0.0
 10
-17.49871944413634
 20
-4.204217095909944
 30
0.0
 10
-17.49741627347367
 20
-4.203572173306321
 30
0.0
 10
-17.39381522773278
 20
-4.152297806590024
 30
0.0
 10
-17.28441293397974
 20
-4.097829918183862
 30
0.0
 10
-17.1747507381455
 20
-4.033789716159533
 30
0.0
 10
-17.16736007363914
 20
-4.029426979842026
 30
0.0
 10
-17.15995058512772
 20
-4.025001485978464
 30
0.0
  0
SPLINE
  5
13F
330
1F
100
AcDbEntity
  8
Verdeckt_(ISO)
  6
HIDDEN2
 62
     7
100
AcDbSpline
210
0.0
220
0.0
230
1.0
 70
     8
 71
     3
 72
    14
 73
    10
 74
     0
 42
0.000000001
 43
0.0000000001
 40
0.0
 40
0.0
 40
0.0
 40
0.0
 40
0.2158394934867645
 40
0.2158394934867645
 40
0.661815444397349
 40
0.661815444397349
 40
0.9957461265782297
 40
0.9957461265782297
 40
1.0
 40
1.0
 40
1.0
 40
1.0
 10
-14.12515518951239
 20
-3.509363350659478
 30
0.0
 10
-14.16721458776587
 20
-3.585372151787804
 30
0.0
 10
-14.2186918539812
 20
-3.656276432215205
 30
0.0
 10
-14.4007836937503
 20
-3.857719440142152
 30
0.0
 10
-14.54549925285635
 20
-3.958309819309982
 30
0.0
 10
-14.78441293400807
 20
-4.0978299182004
 30
0.0
 10
-14.89381521985322
 20
-4.152297802680532
 30
0.0
 10
-14.99741627417099
 20
-4.203572173651951
 30
0.0
 10
-14.99871944343861
 20
-4.204217095564661
 30
0.0
 10
-15.00002260242762
 20
-4.20486198405478
 30
0.0
  0
SPLINE
  5
140
330
1F
100
AcDbEntity
  8
Verdeckt_(ISO)
  6
HIDDEN2
 62
     7
100
AcDbSpline
210
0.0
220
0.0
230
1.0
 70
     8
 71
     3
 72
    14
 73
    10
 74
     0
 42
0.000000001
 43
0.0000000001
 40
0.0
 40
0.0
 40
0.0
 40
0.0
 40
0.0042538711785858
 40
0.0042538711785858
 40
0.3381845540416259
 40
0.3381845540416259
 40
0.7841605060041645
 40
0.7841605060041645
 40
0.9999999999999999
 40
0.9999999999999999
 40
0.9999999999999999
 40
0.9999999999999999
 10
-15.00002260242762
 20
4.204860238167442
 30
0.0
 10
-14.9987194442438
 20
4.20421535007578
 30
0.0
 10
-14.99741627336657
 20
4.203570427365894
 30
0.0
 10
-14.89381522890182
 20
4.152296061282686
 30
0.0
 10
-14.78441293397573
 20
4.097828172294174
 30
0.0
 10
-14.54549925285639
 20
3.958308073422669
 30
0.0
 10
-14.40078369375032
 20
3.857717694254835
 30
0.0
 10
-14.2186918539812
 20
3.656274686327869
 30
0.0
 10
-14.16721458776588
 20
3.585370405900468
 30
0.0
 10
-14.12515518951239
 20
3.509361604772141
 30
0.0
  0
SPLINE
  5
141
330
1F
100
AcDbEntity
  8
Verdeckt_(ISO)
  6
HIDDEN2
 62
     7
100
AcDbSpline
210
0.0
220
0.0
230
1.0
 70
     8
 71
     3
 72
    12
 73
     8
 74
     0
 42
0.000000001
 43
0.0000000001
 40
0.0
 40
0.0
 40
0.0
 40
0.0
 40
0.0663911947198128
 40
0.0663911947198128
 40
0.9882565531198867
 40
0.9882565531198867
 40
1.0
 40
1.0
 40
1.0
 40
1.0
 10
-17.15995058512772
 20
4.024999740091128
 30
0.0
 10
-17.16736007363914
 20
4.02942523395469
 30
0.0
 10
-17.17475073814552
 20
4.033787970272197
 30
0.0
 10
-17.28441293398705
 20
4.097828172300794
 30
0.0
 10
-17.39381522568067
 20
4.152296059684511
 30
0.0
 10
-17.49741627365851
 20
4.203570427510606
 30
0.0
 10
-17.49871944395111
 20
4.204215349930941
 30
0.0
 10
-17.5000226024276
 20
4.204860238167442
 30
0.0
  0
SPLINE
  5
142
330
1F
100
AcDbEntity
  8
Sichtbar_(ISO)
  6
Continuous
 62
     7
100
AcDbSpline
210
0.0
220
0.0
230
1.0
 70
     8
 71
     3
 72
    22
 73
    18
 74
     0
 42
0.000000001
 43
0.0000000001
 40
0.0
 40
0.0
 40
0.0
 40
0.0
 40
0.3318935607355196
 40
0.3318935607355196
 40
0.5851577764610928
 40
0.5851577764610928
 40
0.838421992186666
 40
0.838421992186666
 40
0.9017436646135479
 40
0.9017436646135479
 40
0.9334045008269902
 40
0.9334045008269902
 40
0.9650653370404295
 40
0.9650653370404295
 40
0.9968045896934061
 40
0.9968045896934061
 40
1.0
 40
1.0
 40
1.0
 40
1.0
 10
-14.54212480996084
 20
6.808892013163486
 30
0.0
 10
-14.54889229597716
 20
6.961254015489653
 30
0.0
 10
-14.56284383223892
 20
7.11644266732536
 30
0.0
 10
-14.60426007743081
 20
7.380580290521121
 30
0.0
 10
-14.62757447351475
 20
7.491236820391423
 30
0.0
 10
-14.69207748963528
 20
7.700107467834513
 30
0.0
 10
-14.7285934567998
 20
7.799439420887043
 30
0.0
 10
-14.81705119270172
 20
7.906295866770837
 30
0.0
 10
-14.83890698308925
 20
7.928109198956217
 30
0.0
 10
-14.87707520592572
 20
7.952238216420219
 30
0.0
 10
-14.89067898073878
 20
7.958882060466672
 30
0.0
 10
-14.91942570454797
 20
7.967869053598317
 30
0.0
 10
-14.93456280410823
 20
7.970224667673336
 30
0.0
 10
-14.96608299509268
 20
7.96935400797184
 30
0.0
 10
-14.98126020050183
 20
7.966150566609504
 30
0.0
 10
-14.99714050903597
 20
7.960328934582983
 30
0.0
 10
-14.99858540563848
 20
7.959775195856444
 30
0.0
 10
-15.00002260242933
 20
7.9592010915462
 30
0.0
  0
SPLINE
  5
143
330
1F
100
AcDbEntity
  8
Sichtbar_(ISO)
  6
Continuous
 62
     7
100
AcDbSpline
210
0.0
220
0.0
230
1.0
 70
     8
 71
     3
 72
    14
 73
    10
 74
     0
 42
0.000000001
 43
0.0000000001
 40
0.0
 40
0.0
 40
0.0
 40
0.0
 40
0.1935957662010887
 40
0.1935957662010887
 40
0.7228996491648562
 40
0.7228996491648562
 40
0.9295213348658542
 40
0.9295213348658542
 40
1.0
 40
1.0
 40
1.0
 40
1.0
 10
-14.00085142607458
 20
4.892045043829186
 30
0.0
 10
-14.00648642262788
 20
5.091662457901357
 30
0.0
 10
-14.04005602867129
 20
5.271980545153897
 30
0.0
 10
-14.17473464065734
 20
5.810456863362581
 30
0.0
 10
-14.34409758973621
 20
6.140096889656147
 30
0.0
 10
-14.48738984896277
 20
6.518845388752737
 30
0.0
 10
-14.51723162690146
 20
6.615637414399682
 30
0.0
 10
-14.53731732847834
 20
6.744062805309465
 30
0.0
 10
-14.54066011910201
 20
6.77641644989514
 30
0.0
 10
-14.54212480996084
 20
6.808892013163485
 30
0.0
  0
SPLINE
  5
144
330
1F
100
AcDbEntity
  8
Sichtbar_(ISO)
  6
Continuous
 62
     7
100
AcDbSpline
210
0.0
220
0.0
230
1.0
 70
     8
 71
     3
 72
    16
 73
    12
 74
     0
 42
0.000000001
 43
0.0000000001
 40
0.0
 40
0.0
 40
0.0
 40
0.0
 40
0.0024207433755521
 40
0.0024207433755521
 40
0.1472564919924129
 40
0.1472564919924129
 40
0.4718700906315865
 40
0.4718700906315865
 40
0.9698645756815296
 40
0.9698645756815296
 40
1.0
 40
1.0
 40
1.0
 40
1.0
 10
-14.54212480996084
 20
-6.808893759050871
 30
0.0
 10
-14.54207233277856
 20
-6.807729774335113
 30
0.0
 10
-14.54201740610417
 20
-6.806565166383601
 30
0.0
 10
-14.53852688089479
 20
-6.735681697771495
 30
0.0
 10
-14.52646416790146
 20
-6.667874326212054
 30
0.0
 10
-14.46836797109618
 20
-6.447343627189818
 30
0.0
 10
-14.39661102687326
 20
-6.285198367446523
 30
0.0
 10
-14.19977468867302
 20
-5.820617860495328
 30
0.0
 10
-14.03439819051125
 20
-5.423841187029887
 30
0.0
 10
-14.00286046225999
 20
-4.945447336197013
 30
0.0
 10
-14.00159950132779
 20
-4.918547045064368
 30
0.0
 10
-14.00085142607491
 20
-4.892046789727988
 30
0.0
  0
SPLINE
  5
145
330
1F
100
AcDbEntity
  8
Sichtbar_(ISO)
  6
Continuous
 62
     7
100
AcDbSpline
210
0.0
220
0.0
230
1.0
 70
     8
 71
     3
 72
    22
 73
    18
 74
     0
 42
0.000000001
 43
0.0000000001
 40
0.0
 40
0.0
 40
0.0
 40
0.0
 40
0.0031954103065915
 40
0.0031954103065915
 40
0.0349346629595627
 40
0.0349346629595627
 40
0.0665954991729978
 40
0.0665954991729978
 40
0.0982563353864338
 40
0.0982563353864338
 40
0.1615780078133041
 40
0.1615780078133041
 40
0.4148422235388857
 40
0.4148422235388857
 40
0.6681064392644668
 40
0.6681064392644668
 40
1.0
 40
1.0
 40
1.0
 40
1.0
 10
-15.00002260242933
 20
-7.959202837433502
 30
0.0
 10
-14.99858540563849
 20
-7.959776941743773
 30
0.0
 10
-14.99714050903598
 20
-7.960330680470307
 30
0.0
 10
-14.98126020050186
 20
-7.966152312496833
 30
0.0
 10
-14.96608299509268
 20
-7.969355753859139
 30
0.0
 10
-14.93456280410823
 20
-7.970226413560632
 30
0.0
 10
-14.91942570454796
 20
-7.967870799485637
 30
0.0
 10
-14.89067898073877
 20
-7.958883806353995
 30
0.0
 10
-14.87707520592572
 20
-7.952239962307535
 30
0.0
 10
-14.83890698308925
 20
-7.928110944843533
 30
0.0
 10
-14.81705119270171
 20
-7.906297612658177
 30
0.0
 10
-14.7285934567998
 20
-7.79944116677439
 30
0.0
 10
-14.69207748963528
 20
-7.700109213721857
 30
0.0
 10
-14.62757447351475
 20
-7.491238566278767
 30
0.0
 10
-14.60426007743082
 20
-7.380582036408466
 30
0.0
 10
-14.56284383223893
 20
-7.116444413212701
 30
0.0
 10
-14.54889229597716
 20
-6.961255761376991
 30
0.0
 10
-14.54212480996084
 20
-6.808893759050823
 30
0.0
  0
SPLINE
  5
146
330
1F
100
AcDbEntity
  8
Sichtbar_(ISO)
  6
Continuous
 62
     7
100
AcDbSpline
210
0.0
220
0.0
230
1.0
 70
     8
 71
     3
 72
    10
 73
     6
 74
     0
 42
0.000000001
 43
0.0000000001
 40
0.0
 40
0.0
 40
0.0
 40
0.0
 40
0.2105524032304308
 40
0.2105524032304308
 40
0.9999999999999999
 40
0.9999999999999999
 40
0.9999999999999999
 40
0.9999999999999999
 10
-16.62515518951245
 20
-3.509363350659615
 30
0.0
 10
-16.60783036293549
 20
-3.477890303363865
 30
0.0
 10
-16.59200287470438
 20
-3.445472318521439
 30
0.0
 10
-16.52578455057278
 20
-3.287832402229471
 30
0.0
 10
-16.50002260242762
 20
-3.152463350550897
 30
0.0
 10
-16.50002260242762
 20
-3.025000872943668
 30
0.0
  0
SPLINE
  5
147
330
1F
100
AcDbEntity
  8
Sichtbar_(ISO)
  6
Continuous
 62
     7
100
AcDbSpline
210
0.0
220
0.0
230
1.0
 70
     8
 71
     3
 72
    10
 73
     6
 74
     0
 42
0.000000001
 43
0.0000000001
 40
0.0
 40
0.0
 40
0.0
 40
0.0
 40
0.6615696258224452
 40
0.6615696258224452
 40
1.0
 40
1.0
 40
1.0
 40
1.0
 10
-17.15995058512772
 20
-4.025001485978464
 30
0.0
 10
-17.02995576346134
 20
-3.947358976014049
 30
0.0
 10
-16.89416681922841
 20
-3.850399380613661
 30
0.0
 10
-16.71869185398119
 20
-3.656276432215205
 30
0.0
 10
-16.66721458776587
 20
-3.585372151787805
 30
0.0
 10
-16.62515518951238
 20
-3.509363350659482
 30
0.0
  0
SPLINE
  5
148
330
1F
100
AcDbEntity
  8
Sichtbar_(ISO)
  6
Continuous
 62
     7
100
AcDbSpline
210
0.0
220
0.0
230
1.0
 70
     8
 71
     3
 72
    10
 73
     6
 74
     0
 42
0.000000001
 43
0.0000000001
 40
0.0
 40
0.0
 40
0.0
 40
0.0
 40
0.3384303741775341
 40
0.3384303741775341
 40
1.0
 40
1.0
 40
1.0
 40
1.0
 10
-16.62515518951238
 20
3.509361604772144
 30
0.0
 10
-16.66721458776586
 20
3.585370405900468
 30
0.0
 10
-16.71869185398119
 20
3.656274686327867
 30
0.0
 10
-16.89416681922842
 20
3.850397634726332
 30
0.0
 10
-17.02995576346136
 20
3.947357230126725
 30
0.0
 10
-17.15995058512772
 20
4.024999740091128
 30
0.0
  0
SPLINE
  5
149
330
1F
100
AcDbEntity
  8
Sichtbar_(ISO)
  6
Continuous
 62
     7
100
AcDbSpline
210
0.0
220
0.0
230
1.0
 70
     8
 71
     3
 72
    10
 73
     6
 74
     0
 42
0.000000001
 43
0.0000000001
 40
0.0
 40
0.0
 40
0.0
 40
0.0
 40
0.7894475967695699
 40
0.7894475967695699
 40
1.0
 40
1.0
 40
1.0
 40
1.0
 10
-16.50002260242762
 20
3.024999127056332
 30
0.0
 10
-16.50002260242762
 20
3.152461604663558
 30
0.0
 10
-16.52578455057278
 20
3.287830656342134
 30
0.0
 10
-16.59200287470438
 20
3.445470572634101
 30
0.0
 10
-16.60783036293549
 20
3.477888557476527
 30
0.0
 10
-16.62515518951245
 20
3.509361604772275
 30
0.0
  0
ARC
  5
14A
330
1F
100
AcDbEntity
  8
Sichtbar_(ISO)
  6
Continuous
 62
     7
100
AcDbCircle
 10
-17.5000226024
 20
3.0249991271
 30
0.0
 40
1.0
100
AcDbArc
 50
28.9707121259
 51
90.0
  0
ARC
  5
14B
330
1F
100
AcDbEntity
  8
Sichtbar_(ISO)
  6
Continuous
 62
     7
100
AcDbCircle
 10
-17.5000226024
 20
-3.0250008729
 30
0.0
 40
1.0
100
AcDbArc
 50
270.0
 51
331.0292878741
  0
ARC
  5
14C
330
1F
100
AcDbEntity
  8
Sichtbar_(ISO)
  6
Continuous
 62
     7
100
AcDbCircle
 10
-15.0000226024
 20
-3.0250008729
 30
0.0
 40
1.0
100
AcDbArc
 50
270.0
 51
0.0
  0
ARC
  5
14D
330
1F
100
AcDbEntity
  8
Sichtbar_(ISO)
  6
Continuous
 62
     7
100
AcDbCircle
 10
-15.0000226024
 20
3.0249991271
 30
0.0
 40
1.0
100
AcDbArc
 50
0.0
 51
90.0
  0
SPLINE
  5
14E
330
1F
100
AcDbEntity
  8
Verdeckt_(ISO)
  6
HIDDEN2
 62
     7
100
AcDbSpline
210
0.0
220
0.0
230
1.0
 70
     8
 71
     3
 72
    10
 73
     6
 74
     0
 42
0.000000001
 43
0.0000000001
 40
0.0
 40
0.0
 40
0.0
 40
0.0
 40
0.9392256912199705
 40
0.9392256912199705
 40
1.0
 40
1.0
 40
1.0
 40
1.0
 10
-16.18420026198259
 20
-3.283865149312116
 30
0.0
 10
-16.18420696207155
 20
-3.684297495372865
 30
0.0
 10
-16.3111713925605
 20
-3.997486815486877
 30
0.0
 10
-16.47910026301844
 20
-4.308876425563993
 30
0.0
 10
-16.48947960546942
 20
-4.327688844756977
 30
0.0
 10
-16.50002260242749
 20
-4.346398240534568
 30
0.0
  0
SPLINE
  5
14F
330
1F
100
AcDbEntity
  8
Verdeckt_(ISO)
  6
HIDDEN2
 62
     7
100
AcDbSpline
210
0.0
220
0.0
230
1.0
 70
     8
 71
     3
 72
     8
 73
     4
 74
     0
 42
0.000000001
 43
0.0000000001
 40
0.0
 40
0.0
 40
0.0
 40
0.0
 40
1.0
 40
1.0
 40
1.0
 40
1.0
 10
-14.00002260242763
 20
-2.868095304300994
 30
0.0
 10
-13.8165171568832
 20
-2.449227435551942
 30
0.0
 10
-13.70002260242763
 20
-2.010416659000564
 30
0.0
 10
-13.70002260242763
 20
-1.562719693791706
 30
0.0
  0
SPLINE
  5
150
330
1F
100
AcDbEntity
  8
Sichtbar_(ISO)
  6
Continuous
 62
     7
100
AcDbSpline
210
0.0
220
0.0
230
1.0
 70
     8
 71
     3
 72
    10
 73
     6
 74
     0
 42
0.000000001
 43
0.0000000001
 40
0.0
 40
0.0
 40
0.0
 40
0.0
 40
0.058003433256367
 40
0.058003433256367
 40
1.0
 40
1.0
 40
1.0
 40
1.0
 10
-14.00085142607491
 20
-4.892046789727988
 30
0.0
 10
-13.99076611383341
 20
-4.874400066572128
 30
0.0
 10
-13.98083000604365
 20
-4.856658745459874
 30
0.0
 10
-13.81224870624266
 20
-4.549026460357234
 30
0.0
 10
-13.68420792711995
 20
-4.238381897370707
 30
0.0
 10
-13.6842002619826
 20
-3.839677346776991
 30
0.0
  0
LINE
  5
151
330
1F
100
AcDbEntity
  8
Sichtbar_(ISO)
  6
Continuous
 62
     7
100
AcDbLine
 10
-14.0000226024
 20
-4.7239256813
 30
0.0
 11
-14.0000226024
 21
-3.7561515349
 31
0.0
  0
SPLINE
  5
152
330
1F
100
AcDbEntity
  8
Sichtbar_(ISO)
  6
Continuous
 62
     7
100
AcDbSpline
210
0.0
220
0.0
230
1.0
 70
     8
 71
     3
 72
    10
 73
     6
 74
     0
 42
0.000000001
 43
0.0000000001
 40
0.0
 40
0.0
 40
0.0
 40
0.0
 40
0.4945986426262419
 40
0.4945986426262419
 40
1.0
 40
1.0
 40
1.0
 40
1.0
 10
-14.00085142607491
 20
-4.892046789727988
 30
0.0
 10
-14.00064632947669
 20
-4.864571870099368
 30
0.0
 10
-14.00044324947095
 20
-4.836970148368402
 30
0.0
 10
-14.00012960834416
 20
-4.780790797693475
 30
0.0
 10
-14.00002260242761
 20
-4.752373136580161
 30
0.0
 10
-14.00002260242761
 20
-4.723925681296476
 30
0.0
  0
SPLINE
  5
153
330
1F
100
AcDbEntity
  8
Sichtbar_(ISO)
  6
Continuous
 62
     7
100
AcDbSpline
210
0.0
220
0.0
230
1.0
 70
     8
 71
     3
 72
     8
 73
     4
 74
     0
 42
0.000000001
 43
0.0000000001
 40
0.0
 40
0.0
 40
0.0
 40
0.0
 40
1.0
 40
1.0
 40
1.0
 40
1.0
 10
-16.20002260242761
 20
-1.562719693792653
 30
0.0
 10
-16.20002260242761
 20
-2.0104166590015
 30
0.0
 10
-16.31651715688319
 20
-2.449227435552872
 30
0.0
 10
-16.50002260242762
 20
-2.868095304301911
 30
0.0
  0
LINE
  5
154
330
1F
100
AcDbEntity
  8
Sichtbar_(ISO)
  6
Continuous
 62
     7
100
AcDbLine
 10
-16.5000226024
 20
-2.8680953043
 30
0.0
 11
-16.5000226024
 21
-1.607368803
 31
0.0
  0
LINE
  5
155
330
1F
100
AcDbEntity
  8
Verdeckt_(ISO)
  6
HIDDEN2
 62
     7
100
AcDbLine
 10
-16.184200262
 20
3.2838348313
 30
0.0
 11
-16.184200262
 21
-3.2838651493
 31
0.0
  0
SPLINE
  5
156
330
1F
100
AcDbEntity
  8
Verdeckt_(ISO)
  6
HIDDEN2
 62
     7
100
AcDbSpline
210
0.0
220
0.0
230
1.0
 70
     8
 71
     3
 72
    10
 73
     6
 74
     0
 42
0.000000001
 43
0.0000000001
 40
0.0
 40
0.0
 40
0.0
 40
0.0
 40
0.0607729511870142
 40
0.0607729511870142
 40
1.0
 40
1.0
 40
1.0
 40
1.0
 10
-16.50002260242749
 20
4.346396494647228
 30
0.0
 10
-16.48947960546942
 20
4.327687098869642
 30
0.0
 10
-16.47910026301846
 20
4.308874679676655
 30
0.0
 10
-16.31116764123597
 20
3.997478113538441
 30
0.0
 10
-16.18420026198257
 20
3.68428088082353
 30
0.0
 10
-16.18420026198257
 20
3.283834831334013
 30
0.0
  0
SPLINE
  5
157
330
1F
100
AcDbEntity
  8
Sichtbar_(ISO)
  6
Continuous
 62
     7
100
AcDbSpline
210
0.0
220
0.0
230
1.0
 70
     8
 71
     3
 72
    10
 73
     6
 74
     0
 42
0.000000001
 43
0.0000000001
 40
0.0
 40
0.0
 40
0.0
 40
0.0
 40
0.9419980397296167
 40
0.9419980397296167
 40
1.0
 40
1.0
 40
1.0
 40
1.0
 10
-13.6842002619826
 20
3.839643354667238
 30
0.0
 10
-13.68420026198261
 20
4.238363441021335
 30
0.0
 10
-13.81224442507285
 20
4.549016902060982
 30
0.0
 10
-13.9808300060419
 20
4.856656999569332
 30
0.0
 10
-13.99076611383337
 20
4.874398320676082
 30
0.0
 10
-14.000851426073
 20
4.892045043828809
 30
0.0
  0
LINE
  5
158
330
1F
100
AcDbEntity
  8
Sichtbar_(ISO)
  6
Continuous
 62
     7
100
AcDbLine
 10
-14.0000226024
 20
3.7561182442
 30
0.0
 11
-14.0000226024
 21
4.7239239354
 31
0.0
  0
SPLINE
  5
159
330
1F
100
AcDbEntity
  8
Sichtbar_(ISO)
  6
Continuous
 62
     7
100
AcDbSpline
210
0.0
220
0.0
230
1.0
 70
     8
 71
     3
 72
     8
 73
     4
 74
     0
 42
0.000000001
 43
0.0000000001
 40
0.0
 40
0.0
 40
0.0
 40
0.0
 40
1.0
 40
1.0
 40
1.0
 40
1.0
 10
-14.00002260242761
 20
4.723923935409138
 30
0.0
 10
-14.00002260242761
 20
4.780153289109652
 30
0.0
 10
-14.00043427574039
 20
4.836163216901699
 30
0.0
 10
-14.000851426073
 20
4.892045043828809
 30
0.0
  0
LINE
  5
15A
330
1F
100
AcDbEntity
  8
Sichtbar_(ISO)
  6
Continuous
 62
     7
100
AcDbLine
 10
-13.684200262
 20
3.8396433547
 30
0.0
 11
-13.684200262
 21
-3.8396773468
 31
0.0
  0
LINE
  5
15B
330
1F
100
AcDbEntity
  8
Sichtbar_(ISO)
  6
Continuous
 62
     7
100
AcDbLine
 10
-14.0000226024
 20
-3.7561515348
 30
0.0
 11
-14.0000226024
 21
3.7561182442
 31
0.0
  0
SPLINE
  5
15C
330
1F
100
AcDbEntity
  8
Sichtbar_(ISO)
  6
Continuous
 62
     7
100
AcDbSpline
210
0.0
220
0.0
230
1.0
 70
    15
 71
     3
 72
    40
 73
    36
 74
     0
 42
0.000000001
 43
0.0000000001
 40
0.0
 40
0.0
 40
0.0
 40
0.0
 40
0.0836503169440983
 40
0.0836503169440983
 40
0.124067022557582
 40
0.124067022557582
 40
0.1719024563368028
 40
0.1719024563368028
 40
0.2344705513382475
 40
0.2344705513382475
 40
0.3031332927117849
 40
0.3031332927117849
 40
0.3753646919258209
 40
0.3753646919258209
 40
0.4548128613048397
 40
0.4548128613048397
 40
0.4966008450531024
 40
0.4966008450531024
 40
0.5398133131556316
 40
0.5398133131556316
 40
0.6225398879562972
 40
0.6225398879562972
 40
0.6854201552414242
 40
0.6854201552414242
 40
0.7483004225265512
 40
0.7483004225265512
 40
0.811180689811678
 40
0.811180689811678
 40
0.8526431755564119
 40
0.8526431755564119
 40
0.9181350975313399
 40
0.9181350975313399
 40
0.9685134990505153
 40
0.9685134990505153
 40
1.0
 40
1.0
 40
1.0
 40
1.0
 10
-6.017386266983586
 20
2.79257920691065
 30
0.0
 41
1.0
 10
-6.489252995879937
 20
2.788928507362987
 30
0.0
 41
1.0
 10
-7.001616900810482
 20
2.654055245329751
 30
0.0
 41
1.0
 10
-7.637199588467049
 20
2.277913671335129
 30
0.0
 41
1.0
 10
-7.82522595394183
 20
2.129802333992828
 30
0.0
 41
1.0
 10
-8.175746557704725
 20
1.778362357254348
 30
0.0
 41
1.0
 10
-8.346960601107114
 20
1.549536191222957
 30
0.0
 41
1.0
 10
-8.652877336040635
 20
0.9672741565423251
 30
0.0
 41
1.0
 10
-8.758721939154382
 20
0.5968052341721709
 30
0.0
 41
1.0
 10
-8.822974749508777
 20
-0.1587748883092279
 30
0.0
 41
1.0
 10
-8.773608385707808
 20
-0.558223310858594
 30
0.0
 41
1.0
 10
-8.48897661032694
 20
-1.349896502869846
 30
0.0
 41
1.0
 10
-8.245196284970746
 20
-1.718090490279279
 30
0.0
 41
1.0
 10
-7.628730880469182
 20
-2.315297675936937
 30
0.0
 41
1.0
 10
-7.197607968266655
 20
-2.567471453114439
 30
0.0
 41
1.0
 10
-6.499749721524588
 20
-2.758443260091468
 30
0.0
 41
1.0
 10
-6.253109930907564
 20
-2.79075722541786
 30
0.0
 41
1.0
 10
-5.773627167006671
 20
-2.794466848076314
 30
0.0
 41
1.0
 10
-5.518960234934816
 20
-2.763910069686875
 30
0.0
 41
1.0
 10
-4.797481199928951
 20
-2.571816292768838
 30
0.0
 41
1.0
 10
-4.353981085258237
 20
-2.309775191408458
 30
0.0
 41
1.0
 10
-3.777114667240509
 20
-1.738317897372483
 30
0.0
 41
1.0
 10
-3.560469412047245
 20
-1.424574419397311
 30
0.0
 41
1.0
 10
-3.272145786384028
 20
-0.7330166771835208
 30
0.0
 41
1.0
 10
-3.200648897762296
 20
-0.3551107518921119
 30
0.0
 41
1.0
 10
-3.200648897762296
 20
0.3551090060047781
 30
0.0
 41
1.0
 10
-3.272145786384025
 20
0.7330149312961721
 30
0.0
 41
1.0
 10
-3.511366150451779
 20
1.306796197003122
 30
0.0
 41
1.0
 10
-3.637156200175739
 20
1.521462070761099
 30
0.0
 41
1.0
 10
-4.016188028871714
 20
2.011392100608606
 30
0.0
 41
1.0
 10
-4.296693598641253
 20
2.25397156325321
 30
0.0
 41
1.0
 10
-4.89504503653215
 20
2.585721705688984
 30
0.0
 41
1.0
 10
-5.18257078562283
 20
2.689090177522543
 30
0.0
 41
1.0
 10
-5.656375691001119
 20
2.778337201589259
 30
0.0
 41
1.0
 10
-5.839772687618981
 20
2.793953352986517
 30
0.0
 41
1.0
 10
-6.017386266983586
 20
2.79257920691065
 30
0.0
 41
1.0
  0
SPLINE
  5
15D
330
1F
100
AcDbEntity
  8
Sichtbar_(ISO)
  6
Continuous
 62
     7
100
AcDbSpline
210
0.0
220
0.0
230
1.0
 70
    15
 71
     3
 72
    40
 73
    36
 74
     0
 42
0.000000001
 43
0.0000000001
 40
0.0
 40
0.0
 40
0.0
 40
0.0
 40
0.0314865009494846
 40
0.0314865009494846
 40
0.0818649024686601
 40
0.0818649024686601
 40
0.1473568244435882
 40
0.1473568244435882
 40
0.188819310188322
 40
0.188819310188322
 40
0.2516995774734489
 40
0.2516995774734489
 40
0.3145798447585759
 40
0.3145798447585759
 40
0.3774601120437028
 40
0.3774601120437028
 40
0.4601866868443684
 40
0.4601866868443684
 40
0.5033991549468976
 40
0.5033991549468976
 40
0.5451871386951603
 40
0.5451871386951603
 40
0.6246353080741791
 40
0.6246353080741791
 40
0.6968667072882152
 40
0.6968667072882152
 40
0.7655294486617525
 40
0.7655294486617525
 40
0.8280975436631973
 40
0.8280975436631973
 40
0.875932977442418
 40
0.875932977442418
 40
0.9163496830559018
 40
0.9163496830559018
 40
1.0
 40
1.0
 40
1.0
 40
1.0
 10
-5.993086839949824
 20
2.299988669467087
 30
0.0
 41
1.0
 10
-5.842493851559678
 20
2.299534546881294
 30
0.0
 41
1.0
 10
-5.687229471124527
 20
2.284016300218366
 30
0.0
 41
1.0
 10
-5.288115261675685
 20
2.201384453010106
 30
0.0
 41
1.0
 10
-5.048108784578442
 20
2.108420651412501
 30
0.0
 41
1.0
 10
-4.556106413392569
 20
1.819113839299544
 30
0.0
 41
1.0
 10
-4.331227651075833
 20
1.612344662012654
 30
0.0
 41
1.0
 10
-4.033259467867962
 20
1.208193208703649
 30
0.0
 41
1.0
 10
-3.936148790360107
 20
1.033919323740711
 30
0.0
 41
1.0
 10
-3.753186271390984
 20
0.574826498193406
 30
0.0
 41
1.0
 10
-3.700022602427628
 20
0.2783651410561321
 30
0.0
 41
1.0
 10
-3.700022602427628
 20
-0.2783668869434753
 30
0.0
 41
1.0
 10
-3.753186271390984
 20
-0.5748282440807464
 30
0.0
 41
1.0
 10
-3.973704357446204
 20
-1.128156170378368
 30
0.0
 41
1.0
 10
-4.141771933600755
 20
-1.385413475881461
 30
0.0
 41
1.0
 10
-4.602215728399481
 20
-1.865173448745831
 30
0.0
 41
1.0
 10
-4.965754409635572
 20
-2.095577524427887
 30
0.0
 41
1.0
 10
-5.570944798353569
 20
-2.269932932668198
 30
0.0
 41
1.0
 10
-5.786411137314145
 20
-2.299367171832237
 30
0.0
 41
1.0
 10
-6.192949548148039
 20
-2.300593113865299
 30
0.0
 41
1.0
 10
-6.402491299881218
 20
-2.274326177144074
 30
0.0
 41
1.0
 10
-6.993118696923073
 20
-2.112994966324007
 30
0.0
 41
1.0
 10
-7.353739886858853
 20
-1.896466530861398
 30
0.0
 41
1.0
 10
-7.859644407068616
 20
-1.395282457870647
 30
0.0
 41
1.0
 10
-8.054768676781597
 20
-1.090882399500777
 30
0.0
 41
1.0
 10
-8.28028078319289
 20
-0.4479617401476596
 30
0.0
 41
1.0
 10
-8.318518620654793
 20
-0.1277545494878898
 30
0.0
 41
1.0
 10
-8.268123114837376
 20
0.4797952472771609
 30
0.0
 41
1.0
 10
-8.18532765176495
 20
0.778962942310484
 30
0.0
 41
1.0
 10
-7.940684513500437
 20
1.256106936667424
 30
0.0
 41
1.0
 10
-7.802409119785885
 20
1.446075943541306
 30
0.0
 41
1.0
 10
-7.515161457664278
 20
1.740648163051504
 30
0.0
 41
1.0
 10
-7.359651293344292
 20
1.866058901089046
 30
0.0
 41
1.0
 10
-6.828703098654925
 20
2.185846700785893
 30
0.0
 41
1.0
 10
-6.39316785335316
 20
2.301195138813874
 30
0.0
 41
1.0
 10
-5.993086839949824
 20
2.299988669467087
 30
0.0
 41
1.0
  0
SPLINE
  5
15E
330
1F
100
AcDbEntity
  8
Verdeckt_(ISO)
  6
HIDDEN2
 62
     7
100
AcDbSpline
210
0.0
220
0.0
230
1.0
 70
    12
 71
     3
 72
    10
 73
     6
 74
     0
 42
0.000000001
 43
0.0000000001
 40
0.0
 40
0.0
 40
0.0
 40
0.0
 40
0.5
 40
0.5
 40
1.0
 40
1.0
 40
1.0
 40
1.0
 10
-3.778694297747728
 20
-1.700023152004118
 30
0.0
 41
1.0
 10
-3.838451949378345
 20
-1.778341329798961
 30
0.0
 41
1.0
 10
-3.901771848371636
 20
-1.852555638248936
 30
0.0
 41
1.0
 10
-4.033435386969435
 20
-1.991573345796248
 30
0.0
 41
1.0
 10
-4.102083954881542
 20
-2.056909867676222
 30
0.0
 41
1.0
 10
-4.175845882155873
 20
-2.119859863708937
 30
0.0
 41
1.0
  0
SPLINE
  5
15F
330
1F
100
AcDbEntity
  8
Verdeckt_(ISO)
  6
HIDDEN2
 62
     7
100
AcDbSpline
210
0.0
220
0.0
230
1.0
 70
    12
 71
     3
 72
    15
 73
    11
 74
     0
 42
0.000000001
 43
0.0000000001
 40
0.0
 40
0.0
 40
0.0
 40
0.0
 40
0.2764914248445253
 40
0.2764914248445253
 40
0.4999999999999998
 40
0.4999999999999998
 40
0.4999999999999998
 40
0.7235085751554751
 40
0.7235085751554751
 40
1.0
 40
1.0
 40
1.0
 40
1.0
 10
-3.778694297747722
 20
1.700021406116773
 30
0.0
 41
1.0
 10
-3.575373874504478
 20
1.433550341368163
 30
0.0
 41
1.0
 10
-3.420538134378581
 20
1.130209445599013
 30
0.0
 41
1.0
 10
-3.245485715228452
 20
0.5466626127819483
 30
0.0
 41
1.0
 10
-3.205371439702552
 20
0.2736411868872111
 30
0.0
 41
1.0
 10
-3.205293613314513
 20
0.000801704885258
 30
0.0
 41
1.0
 10
-3.205215786926474
 20
-0.2720377771166951
 30
0.0
 41
1.0
 10
-3.245092404532598
 20
-0.5447746719086215
 30
0.0
 41
1.0
 10
-3.419929742227001
 20
-1.128894759827394
 30
0.0
 41
1.0
 10
-3.575132838219882
 20
-1.433236185909367
 30
0.0
 41
1.0
 10
-3.778694297747726
 20
-1.700023152004118
 30
0.0
 41
1.0
  0
SPLINE
  5
160
330
1F
100
AcDbEntity
  8
Verdeckt_(ISO)
  6
HIDDEN2
 62
     7
100
AcDbSpline
210
0.0
220
0.0
230
1.0
 70
    12
 71
     3
 72
    12
 73
     8
 74
     0
 42
0.000000001
 43
0.0000000001
 40
0.0
 40
0.0
 40
0.0
 40
0.0
 40
0.1832068253035286
 40
0.1832068253035286
 40
0.6858487789628959
 40
0.6858487789628959
 40
1.0
 40
1.0
 40
1.0
 40
1.0
 10
-4.175845882155873
 20
2.119858117821598
 30
0.0
 41
1.0
 10
-4.148818505120727
 20
2.096792379980861
 30
0.0
 41
1.0
 10
-4.12237654925768
 20
2.07329731499172
 30
0.0
 41
1.0
 10
-4.025664826783855
 20
1.983945397944161
 30
0.0
 41
1.0
 10
-3.959446104665319
 20
1.915944334364935
 30
0.0
 41
1.0
 10
-3.855188340809325
 20
1.79681990355566
 30
0.0
 41
1.0
 10
-3.816240176224563
 20
1.749228908516453
 30
0.0
 41
1.0
 10
-3.778694297747722
 20
1.700021406116773
 30
0.0
 41
1.0
  0
SPLINE
  5
161
330
1F
100
AcDbEntity
  8
Verdeckt_(ISO)
  6
HIDDEN2
 62
     7
100
AcDbSpline
210
0.0
220
0.0
230
1.0
 70
    12
 71
     3
 72
    35
 73
    31
 74
     0
 42
0.000000001
 43
0.0000000001
 40
0.0
 40
0.0
 40
0.0
 40
0.0
 40
0.06886467196764
 40
0.06886467196764
 40
0.1550930076050815
 40
0.1550930076050815
 40
0.2413213432425231
 40
0.2413213432425231
 40
0.2982219456584275
 40
0.2982219456584275
 40
0.387901080916259
 40
0.387901080916259
 40
0.4568850311145912
 40
0.4568850311145912
 40
0.4999999999885488
 40
0.4999999999885488
 40
0.4999999999885488
 40
0.5431149688739576
 40
0.5431149688739576
 40
0.6120989190906119
 40
0.6120989190906119
 40
0.7017780543722624
 40
0.7017780543722624
 40
0.7586786567574767
 40
0.7586786567574767
 40
0.8449069923949184
 40
0.8449069923949184
 40
0.9311353280323601
 40
0.9311353280323601
 40
1.0
 40
1.0
 40
1.0
 40
1.0
 10
-4.175845882155873
 20
-2.119859863708938
 30
0.0
 41
1.0
 10
-4.393365120149971
 20
-2.305495403321986
 30
0.0
 41
1.0
 10
-4.649600833701189
 20
-2.464060693363348
 30
0.0
 41
1.0
 10
-5.270187659422703
 20
-2.71967715108861
 30
0.0
 41
1.0
 10
-5.64657393992485
 20
-2.789935157774143
 30
0.0
 41
1.0
 10
-6.353471264930421
 20
-2.789935157774143
 30
0.0
 41
1.0
 10
-6.729857545432538
 20
-2.719677151088616
 30
0.0
 41
1.0
 10
-7.302571523367618
 20
-2.483779268210895
 30
0.0
 41
1.0
 10
-7.517224832806967
 20
-2.35954395278658
 30
0.0
 41
1.0
 10
-8.007309432107972
 20
-1.985018744845536
 30
0.0
 41
1.0
 10
-8.250844038366807
 20
-1.70753846489123
 30
0.0
 41
1.0
 10
-8.585672657888585
 20
-1.114166680487122
 30
0.0
 41
1.0
 10
-8.690764167035198
 20
-0.8286731220032274
 30
0.0
 41
1.0
 10
-8.783126887970216
 20
-0.3582649964639522
 30
0.0
 41
1.0
 10
-8.800022602418792
 20
-0.1762098233343949
 30
0.0
 41
1.0
 10
-8.800022602427628
 20
-0.000000873084075
 30
0.0
 41
1.0
 10
-8.800022602436465
 20
0.1762080772069461
 30
0.0
 41
1.0
 10
-8.783126887998204
 20
0.3582632503837733
 30
0.0
 41
1.0
 10
-8.690764167064009
 20
0.8286713760496132
 30
0.0
 41
1.0
 10
-8.585672657891555
 20
1.114164934613707
 30
0.0
 41
1.0
 10
-8.25084403826289
 20
1.707536719163091
 30
0.0
 41
1.0
 10
-8.00730943192074
 20
1.985016999167383
 30
0.0
 41
1.0
 10
-7.517224832575756
 20
2.359542207033991
 30
0.0
 41
1.0
 10
-7.30257152324482
 20
2.483777522374138
 30
0.0
 41
1.0
 10
-6.729857545432544
 20
2.719675405201274
 30
0.0
 41
1.0
 10
-6.35347126493036
 20
2.789933411886805
 30
0.0
 41
1.0
 10
-5.646573939924854
 20
2.789933411886805
 30
0.0
 41
1.0
 10
-5.27018765942271
 20
2.719675405201274
 30
0.0
 41
1.0
 10
-4.649600833701169
 20
2.464058947476
 30
0.0
 41
1.0
 10
-4.393365120149967
 20
2.305493657434639
 30
0.0
 41
1.0
 10
-4.175845882155873
 20
2.119858117821596
 30
0.0
 41
1.0
  0
LINE
  5
162
330
1F
100
AcDbEntity
  8
Sichtbar_(ISO)
  6
Continuous
 62
     7
100
AcDbLine
 10
-16.5000226024
 20
-2.8680953043
 30
0.0
 11
-16.5000226024
 21
-3.0250008729
 31
0.0
  0
LINE
  5
163
330
1F
100
AcDbEntity
  8
Sichtbar_(ISO)
  6
Continuous
 62
     7
100
AcDbLine
 10
-16.5000226024
 20
3.0249991271
 30
0.0
 11
-16.5000226024
 21
2.8680935584
 31
0.0
  0
LINE
  5
164
330
1F
100
AcDbEntity
  8
Sichtbar_(ISO)
  6
Continuous
 62
     7
100
AcDbLine
 10
-16.5000226024
 20
1.6073670571
 30
0.0
 11
-16.5000226024
 21
-1.607368803
 31
0.0
  0
LINE
  5
165
330
1F
100
AcDbEntity
  8
Sichtbar_(ISO)
  6
Continuous
 62
     7
100
AcDbLine
 10
-16.2000226024
 20
-1.5627196938
 30
0.0
 11
-16.2000226024
 21
1.5627179479
 31
0.0
  0
LINE
  5
166
330
1F
100
AcDbEntity
  8
Sichtbar_(ISO)
  6
Continuous
 62
     7
100
AcDbLine
 10
-16.5000226024
 20
1.6073670571
 30
0.0
 11
-16.5000226024
 21
2.8680935584
 31
0.0
  0
SPLINE
  5
167
330
1F
100
AcDbEntity
  8
Sichtbar_(ISO)
  6
Continuous
 62
     7
100
AcDbSpline
210
0.0
220
0.0
230
1.0
 70
     8
 71
     3
 72
     8
 73
     4
 74
     0
 42
0.000000001
 43
0.0000000001
 40
0.0
 40
0.0
 40
0.0
 40
0.0
 40
1.0
 40
1.0
 40
1.0
 40
1.0
 10
-16.50002260242762
 20
2.868093558414571
 30
0.0
 10
-16.31651715688319
 20
2.449225689665533
 30
0.0
 10
-16.20002260242761
 20
2.010414913114161
 30
0.0
 10
-16.20002260242761
 20
1.562717947905312
 30
0.0
  0
SPLINE
  5
168
330
1F
100
AcDbEntity
  8
Verdeckt_(ISO)
  6
HIDDEN2
 62
     7
100
AcDbSpline
210
0.0
220
0.0
230
1.0
 70
     8
 71
     3
 72
     8
 73
     4
 74
     0
 42
0.000000001
 43
0.0000000001
 40
0.0
 40
0.0
 40
0.0
 40
0.0
 40
1.0
 40
1.0
 40
1.0
 40
1.0
 10
-13.70002260242763
 20
1.562717947904365
 30
0.0
 10
-13.70002260242762
 20
2.010414913113223
 30
0.0
 10
-13.8165171568832
 20
2.449225689664602
 30
0.0
 10
-14.00002260242763
 20
2.868093558413654
 30
0.0
  0
LINE
  5
169
330
1F
100
AcDbEntity
  8
Verdeckt_(ISO)
  6
HIDDEN2
 62
     7
100
AcDbLine
 10
-13.7000226024
 20
-1.5627196938
 30
0.0
 11
-13.7000226024
 21
1.5627179479
 31
0.0
  0
LINE
  5
16A
330
1F
100
AcDbEntity
  8
Sichtbar_(ISO)
  6
Continuous
 62
     7
100
AcDbLine
 10
-20.0000226024
 20
5.2923965645
 30
0.0
 11
-20.0000226024
 21
4.8249991271
 31
0.0
  0
LINE
  5
16B
330
1F
100
AcDbEntity
  8
Sichtbar_(ISO)
  6
Continuous
 62
     7
100
AcDbLine
 10
-20.0000226024
 20
4.8249991271
 30
0.0
 11
-19.2000226024
 21
4.0249991271
 31
0.0
  0
SPLINE
  5
16C
330
1F
100
AcDbEntity
  8
Sichtbar_(ISO)
  6
Continuous
 62
     7
100
AcDbSpline
210
0.0
220
0.0
230
1.0
 70
     8
 71
     3
 72
    14
 73
    10
 74
     0
 42
0.000000001
 43
0.0000000001
 40
0.0
 40
0.0
 40
0.0
 40
0.0
 40
0.1091141313354373
 40
0.1091141313354373
 40
0.3922647498908953
 40
0.3922647498908953
 40
0.6961323749454481
 40
0.6961323749454481
 40
1.0
 40
1.0
 40
1.0
 40
1.0
 10
-19.46681308331552
 20
5.747969369578714
 30
0.0
 10
-19.44996300169937
 20
5.64617331277196
 30
0.0
 10
-19.43331714388883
 20
5.54426329264567
 30
0.0
 10
-19.37541359653617
 20
5.185476232580892
 30
0.0
 10
-19.33728715320573
 20
4.940704580454268
 30
0.0
 10
-19.27409728214113
 20
4.527360807481688
 30
0.0
 10
-19.2462100157825
 20
4.339739155406625
 30
0.0
 10
-19.20920858543203
 20
4.0885557197508
 30
0.0
 10
-19.20002260242762
 20
4.02499912705633
 30
0.0
 10
-19.20002260242762
 20
4.02499912705633
 30
0.0
  0
SPLINE
  5
16D
330
1F
100
AcDbEntity
  8
Verdeckt_(ISO)
  6
HIDDEN2
 62
     7
100
AcDbSpline
210
0.0
220
0.0
230
1.0
 70
     8
 71
     3
 72
    12
 73
     8
 74
     0
 42
0.000000001
 43
0.0000000001
 40
0.0
 40
0.0
 40
0.0
 40
0.0
 40
0.375248192025911
 40
0.375248192025911
 40
0.69182795777212
 40
0.69182795777212
 40
1.0
 40
1.0
 40
1.0
 40
1.0
 10
-19.20032082694442
 20
4.19574532843621
 30
0.0
 10
-19.20229739247648
 20
4.165769933699501
 30
0.0
 10
-19.20593198454143
 20
4.136275054763085
 30
0.0
 10
-19.21048337808974
 20
4.087902997714216
 30
0.0
 10
-19.21160614474544
 20
4.069510292677893
 30
0.0
 10
-19.21019873489523
 20
4.041924099793214
 30
0.0
 10
-19.20780031458126
 20
4.032776839209963
 30
0.0
 10
-19.20329072249931
 20
4.02826724712801
 30
0.0
  0
SPLINE
  5
16E
330
1F
100
AcDbEntity
  8
Verdeckt_(ISO)
  6
HIDDEN2
 62
     7
100
AcDbSpline
210
0.0
220
0.0
230
1.0
 70
     8
 71
     3
 72
    12
 73
     8
 74
     0
 42
0.000000001
 43
0.0000000001
 40
0.0
 40
0.0
 40
0.0
 40
0.0
 40
0.3679548159524906
 40
0.3679548159524906
 40
0.6656783379445662
 40
0.6656783379445662
 40
1.0
 40
1.0
 40
1.0
 40
1.0
 10
-19.20329072249931
 20
-4.028268993015355
 30
0.0
 10
-19.20865809130805
 20
-4.033636361824092
 30
0.0
 10
-19.21101900364557
 20
-4.045558993176605
 30
0.0
 10
-19.21117936808803
 20
-4.078301269438453
 30
0.0
 10
-19.20974514855949
 20
-4.096693466639113
 30
0.0
 10
-19.20520577954899
 20
-4.142424846117921
 30
0.0
 10
-19.20208914525997
 20
-4.168929830640626
 30
0.0
 10
-19.20032082694443
 20
-4.195747074323554
 30
0.0
  0
ARC
  5
16F
330
1F
100
AcDbEntity
  8
Verdeckt_(ISO)
  6
HIDDEN2
 62
     7
100
AcDbCircle
 10
20.3999773976
 20
3.3999991271
 30
0.0
 40
0.7483314773547936
100
AcDbArc
 50
122.3115332374
 51
180.0
  0
LINE
  5
170
330
1F
100
AcDbEntity
  8
Sichtbar_(ISO)
  6
Continuous
 62
     7
100
AcDbLine
 10
19.9999773976
 20
5.0324546591
 30
0.0
 11
19.9999773976
 21
4.3999991271
 31
0.0
  0
ARC
  5
171
330
1F
100
AcDbEntity
  8
Sichtbar_(ISO)
  6
Continuous
 62
     7
100
AcDbCircle
 10
20.3999773976
 20
4.3999991271
 30
0.0
 40
0.7483314773547952
100
AcDbArc
 50
122.3115332374
 51
180.0
  0
ARC
  5
172
330
1F
100
AcDbEntity
  8
Verdeckt_(ISO)
  6
HIDDEN2
 62
     7
100
AcDbCircle
 10
20.3999773976
 20
-3.4000008729
 30
0.0
 40
0.7483314773547934
100
AcDbArc
 50
180.0
 51
237.6884667626
  0
ARC
  5
173
330
1F
100
AcDbEntity
  8
Verdeckt_(ISO)
  6
HIDDEN2
 62
     7
100
AcDbCircle
 10
18.9999773976
 20
-5.5000008729
 30
0.0
 40
1.0
100
AcDbArc
 50
0.0
 51
90.0
  0
ARC
  5
174
330
1F
100
AcDbEntity
  8
Verdeckt_(ISO)
  6
HIDDEN2
 62
     7
100
AcDbCircle
 10
18.9999773976
 20
5.4999991271
 30
0.0
 40
1.0
100
AcDbArc
 50
270.0
 51
0.0
  0
LINE
  5
175
330
1F
100
AcDbEntity
  8
Verdeckt_(ISO)
  6
HIDDEN2
 62
     7
100
AcDbLine
 10
17.4799773976
 20
-4.5000008729
 30
0.0
 11
18.9999773976
 21
-4.5000008729
 31
0.0
  0
LINE
  5
176
330
1F
100
AcDbEntity
  8
Verdeckt_(ISO)
  6
HIDDEN2
 62
     7
100
AcDbLine
 10
12.4999773976
 20
-4.5000008729
 30
0.0
 11
14.5199773976
 21
-4.5000008729
 31
0.0
  0
ARC
  5
177
330
1F
100
AcDbEntity
  8
Verdeckt_(ISO)
  6
HIDDEN2
 62
     7
100
AcDbCircle
 10
12.4999773976
 20
-0.0000008729
 30
0.0
 40
4.500000000000001
100
AcDbArc
 50
90.0
 51
270.0
  0
LINE
  5
178
330
1F
100
AcDbEntity
  8
Verdeckt_(ISO)
  6
HIDDEN2
 62
     7
100
AcDbLine
 10
14.5199773976
 20
4.4999991271
 30
0.0
 11
12.4999773976
 21
4.4999991271
 31
0.0
  0
LINE
  5
179
330
1F
100
AcDbEntity
  8
Verdeckt_(ISO)
  6
HIDDEN2
 62
     7
100
AcDbLine
 10
18.9999773976
 20
4.4999991271
 30
0.0
 11
17.4799773976
 21
4.4999991271
 31
0.0
  0
LINE
  5
17A
330
1F
100
AcDbEntity
  8
Verdeckt_(ISO)
  6
HIDDEN2
 62
     7
100
AcDbLine
 10
14.5199773976
 20
-4.5000008729
 30
0.0
 11
14.9999773976
 21
-4.9800008729
 31
0.0
  0
SPLINE
  5
17B
330
1F
100
AcDbEntity
  8
Verdeckt_(ISO)
  6
HIDDEN2
 62
     7
100
AcDbSpline
210
0.0
220
0.0
230
1.0
 70
    12
 71
     2
 72
     6
 73
     3
 74
     0
 42
0.000000001
 43
0.0000000001
 40
0.0
 40
0.0
 40
0.0
 40
1.0
 40
1.0
 40
1.0
 10
13.97925145540869
 20
-5.021261556911621
 30
0.0
 41
1.0
 10
14.5116407210664
 20
-5.005939698219535
 30
0.0
 41
1.000859250566999
 10
14.99997739757238
 20
-4.989293461592666
 30
0.0
 41
1.0
  0
ELLIPSE
  5
17C
330
1F
100
AcDbEntity
  8
Verdeckt_(ISO)
  6
HIDDEN2
 62
     7
100
AcDbEllipse
 10
20.1351541138
 20
-0.0000008729
 30
0.0
 11
22.53408931776897
 21
-19.08923747312494
 31
0.0
210
0.0
220
0.0
230
1.0
 40
0.26478365
 41
4.661387108231036
 42
4.663221728984745
  0
LINE
  5
17D
330
1F
100
AcDbEntity
  8
Verdeckt_(ISO)
  6
HIDDEN2
 62
     7
100
AcDbLine
 10
13.6729033605
 20
-4.5000008729
 30
0.0
 11
13.9384260404
 21
-4.9857359423
 31
0.0
  0
LINE
  5
17E
330
1F
100
AcDbEntity
  8
Sichtbar_(ISO)
  6
Continuous
 62
     7
100
AcDbLine
 10
14.5199773976
 20
-5.5000008729
 30
0.0
 11
14.9999773976
 21
-5.9800008729
 31
0.0
  0
LINE
  5
17F
330
1F
100
AcDbEntity
  8
Sichtbar_(ISO)
  6
Continuous
 62
     7
100
AcDbLine
 10
14.9999773976
 20
-5.9800008729
 30
0.0
 11
14.9999773976
 21
-5.9816607332
 31
0.0
  0
LINE
  5
180
330
1F
100
AcDbEntity
  8
Sichtbar_(ISO)
  6
Continuous
 62
     7
100
AcDbLine
 10
13.648822512
 20
-5.5000008729
 30
0.0
 11
14.5199773976
 21
-5.5000008729
 31
0.0
  0
LINE
  5
181
330
1F
100
AcDbEntity
  8
Sichtbar_(ISO)
  6
Continuous
 62
     7
100
AcDbLine
 10
13.9219619554
 20
-5.9789666781
 30
0.0
 11
13.648822512
 21
-5.5000008729
 31
0.0
  0
ELLIPSE
  5
182
330
1F
100
AcDbEntity
  8
Sichtbar_(ISO)
  6
Continuous
 62
     7
100
AcDbEllipse
 10
18.961949033
 20
-0.0000008729
 30
0.0
 11
22.53408931776903
 21
-19.08923747312493
 31
0.0
210
0.0
220
0.0
230
1.0
 40
0.26478365
 41
4.713033774444161
 42
4.715575036099867
  0
SPLINE
  5
183
330
1F
100
AcDbEntity
  8
Sichtbar_(ISO)
  6
Continuous
 62
     7
100
AcDbSpline
210
0.0
220
0.0
230
1.0
 70
    12
 71
     2
 72
     6
 73
     3
 74
     0
 42
0.000000001
 43
0.0000000001
 40
0.0
 40
0.0
 40
0.0
 40
1.0
 40
1.0
 40
1.0
 10
14.99997739757237
 20
-5.98166073318659
 30
0.0
 41
1.0
 10
14.51173657937489
 20
-6.005490854916108
 30
0.0
 41
1.000837443207722
 10
13.97925145540868
 20
-6.027448280065462
 30
0.0
 41
1.0
  0
LINE
  5
184
330
1F
100
AcDbEntity
  8
Verdeckt_(ISO)
  6
HIDDEN2
 62
     7
100
AcDbLine
 10
14.5199773976
 20
4.4999991271
 30
0.0
 11
14.9999773976
 21
4.9799991271
 31
0.0
  0
LINE
  5
185
330
1F
100
AcDbEntity
  8
Verdeckt_(ISO)
  6
HIDDEN2
 62
     7
100
AcDbLine
 10
13.9384260404
 20
4.9857341964
 30
0.0
 11
13.6729033605
 21
4.4999991271
 31
0.0
  0
ELLIPSE
  5
186
330
1F
100
AcDbEntity
  8
Verdeckt_(ISO)
  6
HIDDEN2
 62
     7
100
AcDbEllipse
 10
20.1351541138
 20
-0.0000008729
 30
0.0
 11
-22.53408931776897
 21
-19.08923747312494
 31
0.0
210
0.0
220
0.0
230
1.0
 40
0.26478365
 41
-1.521629075394953
 42
-1.519794454641241
  0
SPLINE
  5
187
330
1F
100
AcDbEntity
  8
Verdeckt_(ISO)
  6
HIDDEN2
 62
     7
100
AcDbSpline
210
0.0
220
0.0
230
1.0
 70
    12
 71
     2
 72
     6
 73
     3
 74
     0
 42
0.000000001
 43
0.0000000001
 40
0.0
 40
0.0
 40
0.0
 40
1.0
 40
1.0
 40
1.0
 10
14.99997739757238
 20
4.989291715705329
 30
0.0
 41
1.0
 10
14.51164072105457
 20
5.005937952332568
 30
0.0
 41
1.000859250554861
 10
13.97925145540869
 20
5.021259811024285
 30
0.0
 41
1.0
  0
LINE
  5
188
330
1F
100
AcDbEntity
  8
Sichtbar_(ISO)
  6
Continuous
 62
     7
100
AcDbLine
 10
19.9999773976
 20
6.4999991271
 30
0.0
 11
19.9999773976
 21
5.0324546591
 31
0.0
  0
LINE
  5
189
330
1F
100
AcDbEntity
  8
Sichtbar_(ISO)
  6
Continuous
 62
     7
100
AcDbLine
 10
19.9999773976
 20
-5.032456405
 30
0.0
 11
19.9999773976
 21
-6.5000008729
 31
0.0
  0
LINE
  5
18A
330
1F
100
AcDbEntity
  8
Sichtbar_(ISO)
  6
Continuous
 62
     7
100
AcDbLine
 10
16.9999773976
 20
4.556313427
 30
0.0
 11
16.9999773976
 21
5.9799991271
 31
0.0
  0
SPLINE
  5
18B
330
1F
100
AcDbEntity
  8
Sichtbar_(ISO)
  6
Continuous
 62
     7
100
AcDbSpline
210
0.0
220
0.0
230
1.0
 70
     8
 71
     3
 72
    16
 73
    12
 74
     0
 42
0.000000001
 43
0.0000000001
 40
0.0
 40
0.0
 40
0.0
 40
0.0
 40
0.0222583067542957
 40
0.0222583067542957
 40
0.0534151775390351
 40
0.0534151775390351
 40
0.1964652734750026
 40
0.1964652734750026
 40
0.5982326367375018
 40
0.5982326367375018
 40
0.9999999999999999
 40
0.9999999999999999
 40
0.9999999999999999
 40
0.9999999999999999
 10
16.79997739757237
 20
3.70944652525458
 30
0.0
 10
16.80628595108624
 20
3.70944652525458
 30
0.0
 10
16.81363886435364
 20
3.711247515757521
 30
0.0
 10
16.82741019269829
 20
3.717536019384502
 30
0.0
 10
16.83575272096265
 20
3.724070035232369
 30
0.0
 10
16.87062332254869
 20
3.759025546130888
 30
0.0
 10
16.8893580412053
 20
3.803926513290568
 30
0.0
 10
16.94236315947867
 20
3.948958791367296
 30
0.0
 10
16.96353240706971
 20
4.070959035812605
 30
0.0
 10
16.99339698143021
 20
4.317575204143073
 30
0.0
 10
16.99997739757237
 20
4.442442639840399
 30
0.0
 10
16.99997739757237
 20
4.556313427014115
 30
0.0
  0
LINE
  5
18C
330
1F
100
AcDbEntity
  8
Sichtbar_(ISO)
  6
Continuous
 62
     7
100
AcDbLine
 10
15.1999773976
 20
3.7094465253
 30
0.0
 11
16.7999773976
 21
3.7094465253
 31
0.0
  0
SPLINE
  5
18D
330
1F
100
AcDbEntity
  8
Sichtbar_(ISO)
  6
Continuous
 62
     7
100
AcDbSpline
210
0.0
220
0.0
230
1.0
 70
     8
 71
     3
 72
    16
 73
    12
 74
     0
 42
0.000000001
 43
0.0000000001
 40
0.0
 40
0.0
 40
0.0
 40
0.0
 40
0.4017673632624968
 40
0.4017673632624968
 40
0.803534726524996
 40
0.803534726524996
 40
0.9465848224609635
 40
0.9465848224609635
 40
0.9777416932457043
 40
0.9777416932457043
 40
0.9999999999999999
 40
0.9999999999999999
 40
0.9999999999999999
 40
0.9999999999999999
 10
14.99997739757237
 20
4.556313427014115
 30
0.0
 10
14.99997739757237
 20
4.442442639840396
 30
0.0
 10
15.00655781371453
 20
4.317575204143073
 30
0.0
 10
15.03642238807503
 20
4.070959035812605
 30
0.0
 10
15.05759163566607
 20
3.948958791367296
 30
0.0
 10
15.11059675393944
 20
3.803926513290568
 30
0.0
 10
15.12933147259605
 20
3.759025546130888
 30
0.0
 10
15.16420207418209
 20
3.724070035232369
 30
0.0
 10
15.17254460244645
 20
3.717536019384502
 30
0.0
 10
15.1863159307911
 20
3.711247515757521
 30
0.0
 10
15.1936688440585
 20
3.70944652525458
 30
0.0
 10
15.19997739757237
 20
3.70944652525458
 30
0.0
  0
LINE
  5
18E
330
1F
100
AcDbEntity
  8
Sichtbar_(ISO)
  6
Continuous
 62
     7
100
AcDbLine
 10
14.9999773976
 20
5.9799991271
 30
0.0
 11
14.9999773976
 21
4.556313427
 31
0.0
  0
LINE
  5
18F
330
1F
100
AcDbEntity
  8
Sichtbar_(ISO)
  6
Continuous
 62
     7
100
AcDbLine
 10
14.9999773976
 20
-4.5563151729
 30
0.0
 11
14.9999773976
 21
-5.9800008729
 31
0.0
  0
SPLINE
  5
190
330
1F
100
AcDbEntity
  8
Sichtbar_(ISO)
  6
Continuous
 62
     7
100
AcDbSpline
210
0.0
220
0.0
230
1.0
 70
     8
 71
     3
 72
    16
 73
    12
 74
     0
 42
0.000000001
 43
0.0000000001
 40
0.0
 40
0.0
 40
0.0
 40
0.0
 40
0.0222583067542957
 40
0.0222583067542957
 40
0.0534151775390364
 40
0.0534151775390364
 40
0.1964652734750039
 40
0.1964652734750039
 40
0.5982326367375018
 40
0.5982326367375018
 40
0.9999999999999999
 40
0.9999999999999999
 40
0.9999999999999999
 40
0.9999999999999999
 10
15.19997739757237
 20
-3.709448271141918
 30
0.0
 10
15.1936688440585
 20
-3.709448271141918
 30
0.0
 10
15.1863159307911
 20
-3.711249261644859
 30
0.0
 10
15.17254460244645
 20
-3.71753776527184
 30
0.0
 10
15.16420207418209
 20
-3.724071781119706
 30
0.0
 10
15.12933147259605
 20
-3.759027292018225
 30
0.0
 10
15.11059675393944
 20
-3.803928259177906
 30
0.0
 10
15.05759163566607
 20
-3.948960537254633
 30
0.0
 10
15.03642238807503
 20
-4.070960781699941
 30
0.0
 10
15.00655781371453
 20
-4.31757695003041
 30
0.0
 10
14.99997739757237
 20
-4.442444385727735
 30
0.0
 10
14.99997739757237
 20
-4.556315172901452
 30
0.0
  0
LINE
  5
191
330
1F
100
AcDbEntity
  8
Sichtbar_(ISO)
  6
Continuous
 62
     7
100
AcDbLine
 10
16.7999773976
 20
-3.7094482711
 30
0.0
 11
15.1999773976
 21
-3.7094482711
 31
0.0
  0
SPLINE
  5
192
330
1F
100
AcDbEntity
  8
Sichtbar_(ISO)
  6
Continuous
 62
     7
100
AcDbSpline
210
0.0
220
0.0
230
1.0
 70
     8
 71
     3
 72
    16
 73
    12
 74
     0
 42
0.000000001
 43
0.0000000001
 40
0.0
 40
0.0
 40
0.0
 40
0.0
 40
0.4017673632624981
 40
0.4017673632624981
 40
0.803534726524996
 40
0.803534726524996
 40
0.9465848224609649
 40
0.9465848224609649
 40
0.9777416932457043
 40
0.9777416932457043
 40
0.9999999999999999
 40
0.9999999999999999
 40
0.9999999999999999
 40
0.9999999999999999
 10
16.99997739757237
 20
-4.556315172901452
 30
0.0
 10
16.99997739757237
 20
-4.442444385727735
 30
0.0
 10
16.99339698143021
 20
-4.31757695003041
 30
0.0
 10
16.96353240706971
 20
-4.070960781699941
 30
0.0
 10
16.94236315947867
 20
-3.948960537254633
 30
0.0
 10
16.8893580412053
 20
-3.803928259177906
 30
0.0
 10
16.87062332254869
 20
-3.759027292018225
 30
0.0
 10
16.83575272096265
 20
-3.724071781119707
 30
0.0
 10
16.82741019269829
 20
-3.71753776527184
 30
0.0
 10
16.81363886435364
 20
-3.711249261644859
 30
0.0
 10
16.80628595108624
 20
-3.709448271141918
 30
0.0
 10
16.79997739757237
 20
-3.709448271141918
 30
0.0
  0
LINE
  5
193
330
1F
100
AcDbEntity
  8
Sichtbar_(ISO)
  6
Continuous
 62
     7
100
AcDbLine
 10
16.9999773976
 20
-5.9800008729
 30
0.0
 11
16.9999773976
 21
-4.5563151729
 31
0.0
  0
LINE
  5
194
330
1F
100
AcDbEntity
  8
Sichtbar_(ISO)
  6
Continuous
 62
     7
100
AcDbLine
 10
19.9999773976
 20
4.3999991271
 30
0.0
 11
19.9999773976
 21
2.2208111855
 31
0.0
  0
LINE
  5
195
330
1F
100
AcDbEntity
  8
Sichtbar_(ISO)
  6
Continuous
 62
     7
100
AcDbLine
 10
19.9999773976
 20
-2.2208129314
 30
0.0
 11
19.9999773976
 21
-4.4000008729
 31
0.0
  0
SPLINE
  5
196
330
1F
100
AcDbEntity
  8
Sichtbar_(ISO)
  6
Continuous
 62
     7
100
AcDbSpline
210
0.0
220
0.0
230
1.0
 70
     8
 71
     3
 72
    14
 73
    10
 74
     0
 42
0.000000001
 43
0.0000000001
 40
0.0
 40
0.0
 40
0.0
 40
0.0
 40
0.1459413369741071
 40
0.1459413369741071
 40
0.444896406130879
 40
0.444896406130879
 40
0.6913573747738609
 40
0.6913573747738609
 40
1.0
 40
1.0
 40
1.0
 40
1.0
 10
19.99997739757236
 20
2.220811185509902
 30
0.0
 10
19.99997739757236
 20
2.009326034471953
 30
0.0
 10
20.00224676365838
 20
1.800422468851233
 30
0.0
 10
20.01092324735362
 20
1.188410668745428
 30
0.0
 10
20.02018441732748
 20
0.7499945497760612
 30
0.0
 10
20.02504393327703
 20
-0.1074947291883638
 30
0.0
 10
20.02274793347996
 20
-0.4391738042291387
 30
0.0
 10
20.00984673558258
 20
-1.33905870213502
 30
0.0
 10
19.99997739757235
 20
-1.77849734017976
 30
0.0
 10
19.99997739757236
 20
-2.220812931397239
 30
0.0
  0
LINE
  5
197
330
1F
100
AcDbEntity
  8
Sichtbar_(ISO)
  6
Continuous
 62
     7
100
AcDbLine
 10
19.6516459202
 20
-4.4000008729
 30
0.0
 11
19.6516459202
 21
4.3999991271
 31
0.0
  0
LINE
  5
198
330
1F
100
AcDbEntity
  8
Sichtbar_(ISO)
  6
Continuous
 62
     7
100
AcDbLine
 10
19.9999773976
 20
-4.4000008729
 30
0.0
 11
19.9999773976
 21
-5.032456405
 31
0.0
  0
ARC
  5
199
330
1F
100
AcDbEntity
  8
Sichtbar_(ISO)
  6
Continuous
 62
     7
100
AcDbCircle
 10
20.3999773976
 20
-4.4000008729
 30
0.0
 40
0.7483314773547951
100
AcDbArc
 50
180.0
 51
237.6884667626
  0
LINE
  5
19A
330
1F
100
AcDbEntity
  8
Verdeckt_(ISO)
  6
HIDDEN2
 62
     7
100
AcDbLine
 10
13.9384260404
 20
-4.9857359423
 30
0.0
 11
12.4999773976
 21
-4.9857359423
 31
0.0
  0
LINE
  5
19B
330
1F
100
AcDbEntity
  8
Verdeckt_(ISO)
  6
HIDDEN2
 62
     7
100
AcDbLine
 10
12.4999773976
 20
4.9857341964
 30
0.0
 11
13.9384260404
 21
4.9857341964
 31
0.0
  0
SPLINE
  5
19C
330
1F
100
AcDbEntity
  8
Verdeckt_(ISO)
  6
HIDDEN2
 62
     7
100
AcDbSpline
210
0.0
220
0.0
230
1.0
 70
    12
 71
     3
 72
    31
 73
    27
 74
     0
 42
0.000000001
 43
0.0000000001
 40
0.0
 40
0.0
 40
0.0
 40
0.0
 40
0.1250056678265169
 40
0.1250056678265169
 40
0.2187404813489277
 40
0.2187404813489277
 40
0.2500113356530338
 40
0.2500113356530338
 40
0.3375024701802449
 40
0.3375024701802449
 40
0.4375009500693253
 40
0.4375009500693253
 40
0.5000000000000006
 40
0.5000000000000006
 40
0.5000000000000006
 40
0.5624990499306759
 40
0.5624990499306759
 40
0.6624975298197565
 40
0.6624975298197565
 40
0.7499886643469664
 40
0.7499886643469664
 40
0.7812595186510375
 40
0.7812595186510375
 40
0.8749943321734837
 40
0.8749943321734837
 40
1.0
 40
1.0
 40
1.0
 40
1.0
 10
12.49997739757238
 20
-4.985735942315224
 30
0.0
 41
1.0
 10
11.86815600280224
 20
-4.985735942315224
 30
0.0
 41
1.0
 10
11.19589403604041
 20
-4.859743040966385
 30
0.0
 41
1.0
 10
10.1180791314387
 20
-4.414783693828185
 30
0.0
 41
1.0
 10
9.686636463435661
 20
-4.153467878178225
 30
0.0
 41
1.0
 10
9.190367873863911
 20
-3.745359448765694
 30
0.0
 41
1.0
 10
9.072728710902632
 20
-3.638496967588553
 30
0.0
 41
1.0
 10
8.65292494325029
 20
-3.219946174745418
 30
0.0
 41
1.0
 10
8.37072952817123
 20
-2.854820850104717
 30
0.0
 41
1.0
 10
7.883266893710451
 20
-1.990943828231989
 30
0.0
 41
1.0
 10
7.695411195650274
 20
-1.481025596702132
 30
0.0
 41
1.0
 10
7.53022525692452
 20
-0.6404587860830016
 30
0.0
 41
1.0
 10
7.499977397572381
 20
-0.315065845758548
 30
0.0
 41
1.0
 10
7.499977397572381
 20
-0.0000008729436709
 30
0.0
 41
1.0
 10
7.499977397572381
 20
0.3150640998712091
 30
0.0
 41
1.0
 10
7.53022525692452
 20
0.6404570401956642
 30
0.0
 41
1.0
 10
7.695411195650269
 20
1.481023850814797
 30
0.0
 41
1.0
 10
7.883266893710455
 20
1.99094208234465
 30
0.0
 41
1.0
 10
8.370729528171234
 20
2.854819104217379
 30
0.0
 41
1.0
 10
8.65292494325029
 20
3.219944428858086
 30
0.0
 41
1.0
 10
9.0727287109025
 20
3.638495221701092
 30
0.0
 41
1.0
 10
9.190367873863641
 20
3.745357702878108
 30
0.0
 41
1.0
 10
9.686636463435342
 20
4.153466132290683
 30
0.0
 41
1.0
 10
10.11807913143855
 20
4.414781947940781
 30
0.0
 41
1.0
 10
11.1958940360404
 20
4.859741295079039
 30
0.0
 41
1.0
 10
11.86815600280227
 20
4.985734196427888
 30
0.0
 41
1.0
 10
12.49997739757238
 20
4.985734196427888
 30
0.0
 41
1.0
  0
LINE
  5
19D
330
1F
100
AcDbEntity
  8
Sichtbar_(ISO)
  6
Continuous
 62
     7
100
AcDbLine
 10
12.4999773976
 20
5.4999991271
 30
0.0
 11
13.648822512
 21
5.4999991271
 31
0.0
  0
LINE
  5
19E
330
1F
100
AcDbEntity
  8
Sichtbar_(ISO)
  6
Continuous
 62
     7
100
AcDbLine
 10
13.648822512
 20
-5.5000008729
 30
0.0
 11
12.4999773976
 21
-5.5000008729
 31
0.0
  0
LINE
  5
19F
330
1F
100
AcDbEntity
  8
Sichtbar_(ISO)
  6
Continuous
 62
     7
100
AcDbLine
 10
12.4999773976
 20
-5.9789666781
 30
0.0
 11
13.9219619554
 21
-5.9789666781
 31
0.0
  0
SPLINE
  5
1A0
330
1F
100
AcDbEntity
  8
Sichtbar_(ISO)
  6
Continuous
 62
     7
100
AcDbSpline
210
0.0
220
0.0
230
1.0
 70
    12
 71
     3
 72
    19
 73
    15
 74
     0
 42
0.000000001
 43
0.0000000001
 40
0.0
 40
0.0
 40
0.0
 40
0.0
 40
0.1727282203489348
 40
0.1727282203489348
 40
0.3729658957072459
 40
0.3729658957072459
 40
0.4981144428061889
 40
0.4981144428061889
 40
0.4981144428061889
 40
0.7002399539944945
 40
0.7002399539944945
 40
0.9022007101666296
 40
0.9022007101666296
 40
1.0
 40
1.0
 40
1.0
 40
1.0
 10
7.500058542485829
 20
-1.028482947334673
 30
0.0
 41
1.0
 10
7.502538665401896
 20
-1.46374116757096
 30
0.0
 41
1.0
 10
7.563648206169968
 20
-1.916851881907139
 30
0.0
 41
1.0
 10
7.831135304765523
 20
-2.864433609657753
 30
0.0
 41
1.0
 10
8.05900824524535
 20
-3.353085471580036
 30
0.0
 41
1.0
 10
8.5324732079546
 20
-4.054534148147518
 30
0.0
 41
1.0
 10
8.738667533397491
 20
-4.301942046714549
 30
0.0
 41
1.0
 10
8.95847791136318
 20
-4.521152239042838
 30
0.0
 41
1.0
 10
9.313490302962771
 20
-4.875195279966135
 30
0.0
 41
1.0
 10
9.743728668725142
 20
-5.192884072499877
 30
0.0
 41
1.0
 10
10.69791920699465
 20
-5.677012375707248
 30
0.0
 41
1.0
 10
11.22113808789652
 20
-5.843191848002533
 30
0.0
 41
1.0
 10
11.99909073146715
 20
-5.960650016537661
 30
0.0
 41
1.0
 10
12.25262835671294
 20
-5.978966678137156
 30
0.0
 41
1.0
 10
12.49997739757236
 20
-5.978966678137156
 30
0.0
 41
1.0
  0
SPLINE
  5
1A1
330
1F
100
AcDbEntity
  8
Sichtbar_(ISO)
  6
Continuous
 62
     7
100
AcDbSpline
210
0.0
220
0.0
230
1.0
 70
    12
 71
     3
 72
    19
 73
    15
 74
     0
 42
0.000000001
 43
0.0000000001
 40
0.0
 40
0.0
 40
0.0
 40
0.0
 40
0.0977992898333704
 40
0.0977992898333704
 40
0.2997600460055055
 40
0.2997600460055055
 40
0.5018855571938111
 40
0.5018855571938111
 40
0.5018855571938111
 40
0.6270341042927541
 40
0.6270341042927541
 40
0.8272717796510651
 40
0.8272717796510651
 40
1.0
 40
1.0
 40
1.0
 40
1.0
 10
12.49997739757236
 20
-5.50000087294367
 30
0.0
 41
1.0
 10
12.27120395160506
 20
-5.50000087294367
 30
0.0
 41
1.0
 10
12.036703026216
 20
-5.482373648413313
 30
0.0
 41
1.0
 10
11.31830336567188
 20
-5.369633258147063
 30
0.0
 41
1.0
 10
10.83697173555025
 20
-5.210195681104437
 30
0.0
 41
1.0
 10
9.967384850378181
 20
-4.752026598492278
 30
0.0
 41
1.0
 10
9.57985238710912
 20
-4.453956872858045
 30
0.0
 41
1.0
 10
9.263761039564121
 20
-4.126804941663018
 30
0.0
 41
1.0
 10
9.068049114516961
 20
-3.924244717429236
 30
0.0
 41
1.0
 10
8.88609017347803
 20
-3.69728278287011
 30
0.0
 41
1.0
 10
8.471798042546286
 20
-3.059777109132622
 30
0.0
 41
1.0
 10
8.276298644990266
 20
-2.621432359915549
 30
0.0
 41
1.0
 10
8.049912651571287
 20
-1.780713805599392
 30
0.0
 41
1.0
 10
7.999977399203169
 20
-1.382067491081953
 30
0.0
 41
1.0
 10
7.99997739757236
 20
-1.000000892151402
 30
0.0
 41
1.0
  0
LINE
  5
1A2
330
1F
100
AcDbEntity
  8
Sichtbar_(ISO)
  6
Continuous
 62
     7
100
AcDbLine
 10
7.4999773976
 20
-1.0000008729
 30
0.0
 11
7.4999773976
 21
0.9999991271
 31
0.0
  0
LINE
  5
1A3
330
1F
100
AcDbEntity
  8
Sichtbar_(ISO)
  6
Continuous
 62
     7
100
AcDbLine
 10
7.9999773976
 20
0.9749991271
 30
0.0
 11
7.9999773976
 21
-0.9750008729
 31
0.0
  0
SPLINE
  5
1A4
330
1F
100
AcDbEntity
  8
Sichtbar_(ISO)
  6
Continuous
 62
     7
100
AcDbSpline
210
0.0
220
0.0
230
1.0
 70
    12
 71
     3
 72
    10
 73
     6
 74
     0
 42
0.000000001
 43
0.0000000001
 40
0.0
 40
0.0
 40
0.0
 40
0.0
 40
0.4999999999999135
 40
0.4999999999999135
 40
1.0
 40
1.0
 40
1.0
 40
1.0
 10
7.49997739757236
 20
-1.000000872943671
 30
0.0
 41
1.0
 10
7.49997739757236
 20
-1.004743593074533
 30
0.0
 41
1.0
 10
7.499984147297844
 20
-1.009488484133268
 30
0.0
 41
1.0
 10
7.500011183311343
 20
-1.018982533785234
 30
0.0
 41
1.0
 10
7.500031469599552
 20
-1.02373169237807
 30
0.0
 41
1.0
 10
7.500058542485829
 20
-1.028482947334671
 30
0.0
 41
1.0
  0
LINE
  5
1A5
330
1F
100
AcDbEntity
  8
Sichtbar_(ISO)
  6
Continuous
 62
     7
100
AcDbLine
 10
7.9999773976
 20
-1.0000008922
 30
0.0
 11
7.9999773976
 21
-0.9750008729
 31
0.0
  0
SPLINE
  5
1A6
330
1F
100
AcDbEntity
  8
Sichtbar_(ISO)
  6
Continuous
 62
     7
100
AcDbSpline
210
0.0
220
0.0
230
1.0
 70
    12
 71
     3
 72
    19
 73
    15
 74
     0
 42
0.000000001
 43
0.0000000001
 40
0.0
 40
0.0
 40
0.0
 40
0.0
 40
0.1727282203489367
 40
0.1727282203489367
 40
0.3729658957072457
 40
0.3729658957072457
 40
0.4981144428061886
 40
0.4981144428061886
 40
0.4981144428061886
 40
0.7002399539944922
 40
0.7002399539944922
 40
0.9022007101668876
 40
0.9022007101668876
 40
1.0
 40
1.0
 40
1.0
 40
1.0
 10
7.99997739757236
 20
0.9999991462640644
 30
0.0
 41
1.0
 10
7.999977399203169
 20
1.382065745194614
 30
0.0
 41
1.0
 10
8.04991265157129
 20
1.780712059712055
 30
0.0
 41
1.0
 10
8.276298644990266
 20
2.621430614028211
 30
0.0
 41
1.0
 10
8.471798042546286
 20
3.059775363245285
 30
0.0
 41
1.0
 10
8.88609017347803
 20
3.697281036982771
 30
0.0
 41
1.0
 10
9.068049114516961
 20
3.924242971541894
 30
0.0
 41
1.0
 10
9.263761039564121
 20
4.126803195775677
 30
0.0
 41
1.0
 10
9.57985238710912
 20
4.453955126970703
 30
0.0
 41
1.0
 10
9.967384850378174
 20
4.752024852604933
 30
0.0
 41
1.0
 10
10.83697173555081
 20
5.21019393521739
 30
0.0
 41
1.0
 10
11.31830336567313
 20
5.369631512260128
 30
0.0
 41
1.0
 10
12.03670302621725
 20
5.482371902526067
 30
0.0
 41
1.0
 10
12.27120395160567
 20
5.49999912705633
 30
0.0
 41
1.0
 10
12.49997739757236
 20
5.49999912705633
 30
0.0
 41
1.0
  0
SPLINE
  5
1A7
330
1F
100
AcDbEntity
  8
Sichtbar_(ISO)
  6
Continuous
 62
     7
100
AcDbSpline
210
0.0
220
0.0
230
1.0
 70
    12
 71
     3
 72
    19
 73
    15
 74
     0
 42
0.000000001
 43
0.0000000001
 40
0.0
 40
0.0
 40
0.0
 40
0.0
 40
0.0977992898331123
 40
0.0977992898331123
 40
0.2997600460055078
 40
0.2997600460055078
 40
0.5018855571938114
 40
0.5018855571938114
 40
0.5018855571938114
 40
0.6270341042927543
 40
0.6270341042927543
 40
0.8272717796510634
 40
0.8272717796510634
 40
1.0
 40
1.0
 40
1.0
 40
1.0
 10
12.49997739757236
 20
5.978964932249818
 30
0.0
 41
1.0
 10
12.25262835671359
 20
5.978964932249818
 30
0.0
 41
1.0
 10
11.9990907314685
 20
5.960648270650419
 30
0.0
 41
1.0
 10
11.22113808789787
 20
5.843190102115617
 30
0.0
 41
1.0
 10
10.69791920699526
 20
5.677010629820221
 30
0.0
 41
1.0
 10
9.743728668725131
 20
5.192882326612532
 30
0.0
 41
1.0
 10
9.313490302962771
 20
4.875193534078791
 30
0.0
 41
1.0
 10
8.95847791136318
 20
4.521150493155498
 30
0.0
 41
1.0
 10
8.738667533397482
 20
4.301940300827207
 30
0.0
 41
1.0
 10
8.5324732079546
 20
4.054532402260178
 30
0.0
 41
1.0
 10
8.05900824524535
 20
3.353083725692696
 30
0.0
 41
1.0
 10
7.831135304765523
 20
2.864431863770415
 30
0.0
 41
1.0
 10
7.563648206169968
 20
1.916850136019801
 30
0.0
 41
1.0
 10
7.502538665401899
 20
1.463739421683622
 30
0.0
 41
1.0
 10
7.500058542485829
 20
1.028481201447335
 30
0.0
 41
1.0
  0
LINE
  5
1A8
330
1F
100
AcDbEntity
  8
Sichtbar_(ISO)
  6
Continuous
 62
     7
100
AcDbLine
 10
13.9219619554
 20
5.9789649322
 30
0.0
 11
12.4999773976
 21
5.9789649322
 31
0.0
  0
SPLINE
  5
1A9
330
1F
100
AcDbEntity
  8
Sichtbar_(ISO)
  6
Continuous
 62
     7
100
AcDbSpline
210
0.0
220
0.0
230
1.0
 70
    12
 71
     3
 72
    10
 73
     6
 74
     0
 42
0.000000001
 43
0.0000000001
 40
0.0
 40
0.0
 40
0.0
 40
0.0
 40
0.5000000000000216
 40
0.5000000000000216
 40
1.0
 40
1.0
 40
1.0
 40
1.0
 10
7.500058542485829
 20
1.028481201447335
 30
0.0
 41
1.0
 10
7.500031469599553
 20
1.023729946490734
 30
0.0
 41
1.0
 10
7.500011183311347
 20
1.018980787897897
 30
0.0
 41
1.0
 10
7.499984147297848
 20
1.00948673824593
 30
0.0
 41
1.0
 10
7.499977397572365
 20
1.004741847187192
 30
0.0
 41
1.0
 10
7.499977397572365
 20
0.9999991270563302
 30
0.0
 41
1.0
  0
LINE
  5
1AA
330
1F
100
AcDbEntity
  8
Sichtbar_(ISO)
  6
Continuous
 62
     7
100
AcDbLine
 10
7.9999773976
 20
0.9749991271
 30
0.0
 11
7.9999773976
 21
0.9999991463
 31
0.0
  0
LINE
  5
1AB
330
1F
100
AcDbEntity
  8
Sichtbar_(ISO)
  6
Continuous
 62
     7
100
AcDbLine
 10
14.5199773976
 20
5.4999991271
 30
0.0
 11
14.9999773976
 21
5.9799991271
 31
0.0
  0
LINE
  5
1AC
330
1F
100
AcDbEntity
  8
Sichtbar_(ISO)
  6
Continuous
 62
     7
100
AcDbLine
 10
14.9999773976
 20
5.9816589873
 30
0.0
 11
14.9999773976
 21
5.9799991271
 31
0.0
  0
SPLINE
  5
1AD
330
1F
100
AcDbEntity
  8
Sichtbar_(ISO)
  6
Continuous
 62
     7
100
AcDbSpline
210
0.0
220
0.0
230
1.0
 70
    12
 71
     2
 72
     6
 73
     3
 74
     0
 42
0.000000001
 43
0.0000000001
 40
0.0
 40
0.0
 40
0.0
 40
1.0
 40
1.0
 40
1.0
 10
13.97925145540868
 20
6.027446534178122
 30
0.0
 41
1.0
 10
14.51173657936966
 20
6.005489109029006
 30
0.0
 41
1.000837443208219
 10
14.99997739757237
 20
5.981658987299252
 30
0.0
 41
1.0
  0
ELLIPSE
  5
1AE
330
1F
100
AcDbEntity
  8
Sichtbar_(ISO)
  6
Continuous
 62
     7
100
AcDbEllipse
 10
18.961949033
 20
-0.0000008729
 30
0.0
 11
-22.53408931776903
 21
-19.08923747312493
 31
0.0
210
0.0
220
0.0
230
1.0
 40
0.26478365
 41
4.709202924669508
 42
4.711744186325214
  0
LINE
  5
1AF
330
1F
100
AcDbEntity
  8
Sichtbar_(ISO)
  6
Continuous
 62
     7
100
AcDbLine
 10
13.648822512
 20
5.4999991271
 30
0.0
 11
13.9219619554
 21
5.9789649322
 31
0.0
  0
LINE
  5
1B0
330
1F
100
AcDbEntity
  8
Sichtbar_(ISO)
  6
Continuous
 62
     7
100
AcDbLine
 10
14.5199773976
 20
5.4999991271
 30
0.0
 11
13.648822512
 21
5.4999991271
 31
0.0
  0
SPLINE
  5
1B1
330
1F
100
AcDbEntity
  8
Sichtbar_(ISO)
  6
Continuous
 62
     7
100
AcDbSpline
210
0.0
220
0.0
230
1.0
 70
    12
 71
     3
 72
    22
 73
    18
 74
     0
 42
0.000000001
 43
0.0000000001
 40
0.0
 40
0.0
 40
0.0
 40
0.0
 40
0.124991079202773
 40
0.124991079202773
 40
0.2499821584055459
 40
0.2499821584055459
 40
0.3749910792027729
 40
0.3749910792027729
 40
0.4999999999999991
 40
0.4999999999999991
 40
0.625008920797226
 40
0.625008920797226
 40
0.7500178415944535
 40
0.7500178415944535
 40
0.8750089207972259
 40
0.8750089207972259
 40
1.0
 40
1.0
 40
1.00000000000766
 40
1.00000000000766
 10
12.82497739757237
 20
-20.00000087294367
 30
0.0
 41
1.0
 10
12.82497739757237
 20
-20.00000087294367
 30
0.0
 41
1.0
 10
12.6773792520309
 20
-19.95540932841786
 30
0.0
 41
1.0
 10
12.08315923421283
 20
-19.79502946872221
 30
0.0
 41
1.0
 10
11.63701717865913
 20
-19.68150916521787
 30
0.0
 41
1.0
 10
10.6096375987524
 20
-19.46728337463946
 30
0.0
 41
1.0
 10
9.95847473318061
 20
-19.35221635559663
 30
0.0
 41
1.0
 10
8.522987398184107
 20
-19.18821841542177
 30
0.0
 41
1.0
 10
7.738157507604425
 20
-19.14199886111941
 30
0.0
 41
1.0
 10
6.261797287540308
 20
-19.14199886111941
 30
0.0
 41
1.0
 10
5.476967396960593
 20
-19.18821841542177
 30
0.0
 41
1.0
 10
4.041480061964106
 20
-19.35221635559663
 30
0.0
 41
1.0
 10
3.390317196392336
 20
-19.46728337463946
 30
0.0
 41
1.0
 10
2.362937616485656
 20
-19.68150916521787
 30
0.0
 41
1.0
 10
1.916795560931905
 20
-19.79502946872221
 30
0.0
 41
1.0
 10
1.32257554311386
 20
-19.95540932841785
 30
0.0
 41
1.0
 10
1.174977397572375
 20
-20.00000087294367
 30
0.0
 41
1.0
 10
1.174977397572375
 20
-20.00000087294367
 30
0.0
 41
1.0
  0
SPLINE
  5
1B2
330
1F
100
AcDbEntity
  8
Verdeckt_(ISO)
  6
HIDDEN2
 62
     7
100
AcDbSpline
210
0.0
220
0.0
230
1.0
 70
    12
 71
     3
 72
    22
 73
    18
 74
     0
 42
0.000000001
 43
0.0000000001
 40
-0.0000000000007949
 40
-0.0000000000007949
 40
0.0
 40
0.0
 40
0.1249910792020786
 40
0.1249910792020786
 40
0.2499821584049504
 40
0.2499821584049504
 40
0.3749910792022772
 40
0.3749910792022772
 40
0.4999999999996034
 40
0.4999999999996034
 40
0.625008920796929
 40
0.625008920796929
 40
0.7500178415942553
 40
0.7500178415942553
 40
0.8750089207971277
 40
0.8750089207971277
 40
1.0
 40
1.0
 40
1.0
 40
1.0
 10
1.974977397572375
 20
-19.20000087294367
 30
0.0
 41
1.0
 10
1.974977397573849
 20
-19.20000087294327
 30
0.0
 41
1.0
 10
2.091187944724167
 20
-19.16833227326831
 30
0.0
 41
1.0
 10
2.573207144057604
 20
-19.05197415856423
 30
0.0
 41
1.0
 10
2.940605331304413
 20
-18.96848806981395
 30
0.0
 41
1.0
 10
3.811169352877989
 20
-18.80805608794651
 30
0.0
 41
1.0
 10
4.373896869591017
 20
-18.72042286358541
 30
0.0
 41
1.0
 10
5.638347404300889
 20
-18.59441839436152
 30
0.0
 41
1.0
 10
6.339847984476052
 20
-18.55844541273043
 30
0.0
 41
1.0
 10
7.660106810668686
 20
-18.55844541273043
 30
0.0
 41
1.0
 10
8.361607390843844
 20
-18.59441839436152
 30
0.0
 41
1.0
 10
9.62605792555372
 20
-18.72042286358541
 30
0.0
 41
1.0
 10
10.18878544226675
 20
-18.80805608794651
 30
0.0
 41
1.0
 10
11.05934946384033
 20
-18.96848806981395
 30
0.0
 41
1.0
 10
11.42674765108714
 20
-19.05197415856423
 30
0.0
 41
1.0
 10
11.90876685042211
 20
-19.16833227326867
 30
0.0
 41
1.0
 10
12.02497739757237
 20
-19.20000087294367
 30
0.0
 41
1.0
 10
12.02497739757237
 20
-19.20000087294367
 30
0.0
 41
1.0
  0
LINE
  5
1B3
330
1F
100
AcDbEntity
  8
Verdeckt_(ISO)
  6
HIDDEN2
 62
     7
100
AcDbLine
 10
12.0249773976
 20
-19.2000008729
 30
0.0
 11
12.8249773976
 21
-20.0000008729
 31
0.0
  0
LINE
  5
1B4
330
1F
100
AcDbEntity
  8
Verdeckt_(ISO)
  6
HIDDEN2
 62
     7
100
AcDbLine
 10
1.1749773976
 20
-20.0000008729
 30
0.0
 11
1.9749773976
 21
-19.2000008729
 31
0.0
  0
SPLINE
  5
1B5
330
1F
100
AcDbEntity
  8
Verdeckt_(ISO)
  6
HIDDEN2
 62
     7
100
AcDbSpline
210
0.0
220
0.0
230
1.0
 70
     8
 71
     3
 72
    22
 73
    18
 74
     0
 42
0.000000001
 43
0.0000000001
 40
0.0
 40
0.0
 40
0.0
 40
0.0
 40
0.126772376835149
 40
0.126772376835149
 40
0.2535447536702981
 40
0.2535447536702981
 40
0.3767723768351481
 40
0.3767723768351481
 40
0.4999999999999994
 40
0.4999999999999994
 40
0.6232276231648506
 40
0.6232276231648506
 40
0.7464552463297013
 40
0.7464552463297013
 40
0.8732276231648509
 40
0.8732276231648509
 40
1.0
 40
1.0
 40
1.0
 40
1.0
 10
1.499977397572371
 20
19.69615418730049
 30
0.0
 10
1.49997739757237
 20
19.58070749185647
 30
0.0
 10
1.663082492799873
 20
19.42413789280277
 30
0.0
 10
2.287335900035014
 20
19.08590687214823
 30
0.0
 10
2.747555708673072
 20
18.90625201941969
 30
0.0
 10
3.750288079635369
 20
18.6131968759071
 30
0.0
 10
4.357205272924225
 20
18.47811862107731
 30
0.0
 10
5.658875447282788
 20
18.29498019743891
 30
0.0
 10
6.353736089293394
 20
18.24821603422542
 30
0.0
 10
7.646218705851369
 20
18.24821603422542
 30
0.0
 10
8.341079347861974
 20
18.29498019743891
 30
0.0
 10
9.64274952222053
 20
18.47811862107731
 30
0.0
 10
10.24966671550939
 20
18.6131968759071
 30
0.0
 10
11.25239908647168
 20
18.90625201941969
 30
0.0
 10
11.71261889510974
 20
19.08590687214823
 30
0.0
 10
12.33687230234488
 20
19.42413789280277
 30
0.0
 10
12.49997739757239
 20
19.58070749185647
 30
0.0
 10
12.49997739757239
 20
19.69615418730049
 30
0.0
  0
SPLINE
  5
1B6
330
1F
100
AcDbEntity
  8
Verdeckt_(ISO)
  6
HIDDEN2
 62
     7
100
AcDbSpline
210
0.0
220
0.0
230
1.0
 70
     8
 71
     3
 72
    10
 73
     6
 74
     0
 42
0.000000001
 43
0.0000000001
 40
0.0
 40
0.0
 40
0.0
 40
0.0
 40
0.5208249059754483
 40
0.5208249059754483
 40
1.0
 40
1.0
 40
1.0
 40
1.0
 10
12.49997739757239
 20
19.69615418730049
 30
0.0
 10
12.49997739757239
 20
19.81160088274452
 30
0.0
 10
12.33687230234488
 20
19.89633933631457
 30
0.0
 10
11.73757933452302
 20
19.98664336350509
 30
0.0
 10
11.32505860056755
 20
19.99989657299526
 30
0.0
 10
10.86493380838333
 20
19.99998675067084
 30
0.0
  0
SPLINE
  5
1B7
330
1F
100
AcDbEntity
  8
Verdeckt_(ISO)
  6
HIDDEN2
 62
     7
100
AcDbSpline
210
0.0
220
0.0
230
1.0
 70
     8
 71
     3
 72
    10
 73
     6
 74
     0
 42
0.000000001
 43
0.0000000001
 40
0.0
 40
0.0
 40
0.0
 40
0.0
 40
0.4791750940245506
 40
0.4791750940245506
 40
1.0
 40
1.0
 40
1.0
 40
1.0
 10
3.135020986761433
 20
19.99998675067084
 30
0.0
 10
2.674896194577211
 20
19.99989657299526
 30
0.0
 10
2.262375460621739
 20
19.98664336350509
 30
0.0
 10
1.663082492799877
 20
19.89633933631457
 30
0.0
 10
1.499977397572372
 20
19.81160088274452
 30
0.0
 10
1.499977397572371
 20
19.69615418730049
 30
0.0
  0
ELLIPSE
  5
1B8
330
1F
100
AcDbEntity
  8
Verdeckt_(ISO)
  6
HIDDEN2
 62
     7
100
AcDbEllipse
 10
6.9999773976
 20
13.9842692198
 30
0.0
 11
4.500000000000001
 21
9.999999999999999E-17
 31
0.0
210
0.0
220
0.0
230
1.0
 40
0.1736481777
 41
0.0
 42
6.283185307179586
  0
ELLIPSE
  5
1B9
330
1F
100
AcDbEntity
  8
Verdeckt_(ISO)
  6
HIDDEN2
 62
     7
100
AcDbEllipse
 10
6.9999773976
 20
13.9842692198
 30
0.0
 11
1.75
 21
0.0
 31
0.0
210
0.0
220
0.0
230
1.0
 40
0.1736481777
 41
0.0
 42
6.283185307179586
  0
ELLIPSE
  5
1BA
330
1F
100
AcDbEntity
  8
Verdeckt_(ISO)
  6
HIDDEN2
 62
     7
100
AcDbEllipse
 10
6.9999773976
 20
18.7113464343
 30
0.0
 11
4.500000000000004
 21
1.000000000000000E-16
 31
0.0
210
0.0
220
0.0
230
1.0
 40
0.1736481777
 41
0.0
 42
6.283185307179586
  0
LINE
  5
1BB
330
1F
100
AcDbEntity
  8
Verdeckt_(ISO)
  6
HIDDEN2
 62
     7
100
AcDbLine
 10
2.4999773976
 20
13.9842692198
 30
0.0
 11
2.4999773976
 21
18.7113464343
 31
0.0
  0
LINE
  5
1BC
330
1F
100
AcDbEntity
  8
Verdeckt_(ISO)
  6
HIDDEN2
 62
     7
100
AcDbLine
 10
11.4999773976
 20
13.9842692198
 30
0.0
 11
11.4999773976
 21
18.7113464343
 31
0.0
  0
LINE
  5
1BD
330
1F
100
AcDbEntity
  8
Verdeckt_(ISO)
  6
HIDDEN2
 62
     7
100
AcDbLine
 10
2.5704849756
 20
18.5735615694
 30
0.0
 11
1.6091151258
 21
19.505491813
 31
0.0
  0
LINE
  5
1BE
330
1F
100
AcDbEntity
  8
Verdeckt_(ISO)
  6
HIDDEN2
 62
     7
100
AcDbLine
 10
11.4294698196
 20
18.5735615694
 30
0.0
 11
12.3908396694
 21
19.505491813
 31
0.0
  0
LINE
  5
1BF
330
1F
100
AcDbEntity
  8
Verdeckt_(ISO)
  6
HIDDEN2
 62
     7
100
AcDbLine
 10
6.9999773976
 20
13.3569979798
 30
0.0
 11
5.4690484949
 21
13.8370511289
 31
0.0
  0
LINE
  5
1C0
330
1F
100
AcDbEntity
  8
Verdeckt_(ISO)
  6
HIDDEN2
 62
     7
100
AcDbLine
 10
6.9999773976
 20
13.3569979798
 30
0.0
 11
8.5309063002
 21
13.8370511289
 31
0.0
  0
SPLINE
  5
1C1
330
1F
100
AcDbEntity
  8
Sichtbar_(ISO)
  6
Continuous
 62
     7
100
AcDbSpline
210
0.0
220
0.0
230
1.0
 70
     8
 71
     3
 72
    19
 73
    15
 74
     0
 42
0.000000001
 43
0.0000000001
 40
0.0
 40
0.0
 40
0.0
 40
0.0
 40
0.019754724060933
 40
0.019754724060933
 40
0.2598773620304683
 40
0.2598773620304683
 40
0.4999999999999992
 40
0.4999999999999992
 40
0.4999999999999992
 40
0.7401226379695334
 40
0.7401226379695334
 40
0.9802452759390653
 40
0.9802452759390653
 40
0.9999999999999999
 40
0.9999999999999999
 40
0.9999999999999999
 40
0.9999999999999999
 10
10.86493380838333
 20
19.99998675067084
 30
0.0
 10
10.82493984520076
 20
19.99999458889798
 30
0.0
 10
10.78458623075162
 20
19.99990297969899
 30
0.0
 10
10.24966671550938
 20
19.99753520028898
 30
0.0
 10
9.64274952222053
 20
19.98223373593369
 30
0.0
 10
8.341079347861964
 20
19.95648019441464
 30
0.0
 10
7.646218705851364
 20
19.94732332072045
 30
0.0
 10
6.999977397572376
 20
19.94732332072045
 30
0.0
 10
6.35373608929339
 20
19.94732332072045
 30
0.0
 10
5.658875447282787
 20
19.95648019441464
 30
0.0
 10
4.357205272924225
 20
19.98223373593369
 30
0.0
 10
3.750288079635369
 20
19.99753520028898
 30
0.0
 10
3.21536856439313
 20
19.99990297969899
 30
0.0
 10
3.175014949943999
 20
19.99999458889798
 30
0.0
 10
3.135020986761433
 20
19.99998675067084
 30
0.0
  0
LINE
  5
1C2
330
1F
100
AcDbEntity
  8
Verdeckt_(ISO)
  6
HIDDEN2
 62
     7
100
AcDbLine
 10
11.9749773976
 20
-14.7000008729
 30
0.0
 11
2.0249773976
 21
-14.7000008729
 31
0.0
  0
LINE
  5
1C3
330
1F
100
AcDbEntity
  8
Verdeckt_(ISO)
  6
HIDDEN2
 62
     7
100
AcDbLine
 10
1.9749773976
 20
-19.2000008729
 30
0.0
 11
1.9749773976
 21
-14.7500008729
 31
0.0
  0
LINE
  5
1C4
330
1F
100
AcDbEntity
  8
Verdeckt_(ISO)
  6
HIDDEN2
 62
     7
100
AcDbLine
 10
12.0249773976
 20
-19.2000008729
 30
0.0
 11
12.0249773976
 21
-14.7500008729
 31
0.0
  0
ARC
  5
1C5
330
1F
100
AcDbEntity
  8
Verdeckt_(ISO)
  6
HIDDEN2
 62
     7
100
AcDbCircle
 10
11.9749773976
 20
-14.7500008729
 30
0.0
 40
0.05
100
AcDbArc
 50
0.0
 51
90.0
  0
ARC
  5
1C6
330
1F
100
AcDbEntity
  8
Verdeckt_(ISO)
  6
HIDDEN2
 62
     7
100
AcDbCircle
 10
2.0249773976
 20
-14.7500008729
 30
0.0
 40
0.05
100
AcDbArc
 50
90.0
 51
180.0
  0
LINE
  5
1C7
330
1F
100
AcDbEntity
  8
Verdeckt_(ISO)
  6
HIDDEN2
 62
     7
100
AcDbLine
 10
6.9999773976
 20
-14.063052963
 30
0.0
 11
8.7499773976
 21
-14.7000008729
 31
0.0
  0
LINE
  5
1C8
330
1F
100
AcDbEntity
  8
Verdeckt_(ISO)
  6
HIDDEN2
 62
     7
100
AcDbLine
 10
6.9999773976
 20
-14.063052963
 30
0.0
 11
5.2499773976
 21
-14.7000008729
 31
0.0
  0
LINE
  5
1C9
330
1F
100
AcDbEntity
  8
Verdeckt_(ISO)
  6
HIDDEN2
 62
     7
100
AcDbLine
 10
41.9529773976
 20
18.8499991271
 30
0.0
 11
41.9529773976
 21
5.9999991271
 31
0.0
  0
LINE
  5
1CA
330
1F
100
AcDbEntity
  8
Verdeckt_(ISO)
  6
HIDDEN2
 62
     7
100
AcDbLine
 10
54.0469773976
 20
5.9999991271
 30
0.0
 11
54.0469773976
 21
18.8499991271
 31
0.0
  0
LINE
  5
1CB
330
1F
100
AcDbEntity
  8
Verdeckt_(ISO)
  6
HIDDEN2
 62
     7
100
AcDbLine
 10
51.2490094073
 20
3.1606952529
 30
0.0
 11
44.7509453879
 21
3.1606952529
 31
0.0
  0
LINE
  5
1CC
330
1F
100
AcDbEntity
  8
Verdeckt_(ISO)
  6
HIDDEN2
 62
     7
100
AcDbLine
 10
8.4584773976
 20
-6.0415008729
 30
0.0
 11
13.9999773976
 21
-6.0415008729
 31
0.0
  0
LINE
  5
1CD
330
1F
100
AcDbEntity
  8
Verdeckt_(ISO)
  6
HIDDEN2
 62
     7
100
AcDbLine
 10
13.9999773976
 20
6.0414991271
 30
0.0
 11
8.4584773976
 21
6.0414991271
 31
0.0
  0
LINE
  5
1D0
330
1F
100
AcDbEntity
  8
Mittellinie_(ISO)
  6
CENTER2
 62
     7
100
AcDbLine
 10
71.8401930761
 20
-0.0000008729
 30
0.0
 11
-20.5560946513
 21
-0.0000008729
 31
0.0
  0
LINE
  5
1D1
330
1F
100
AcDbEntity
  8
Mittellinie_(ISO)
  6
CENTER2
 62
     7
100
AcDbLine
 10
47.9999773976
 20
21.3499991271
 30
0.0
 11
47.9999773976
 21
3.4999991271
 31
0.0
  0
LINE
  5
1D3
330
1F
100
AcDbEntity
  8
Mittelpunktmarkierung_(ISO)
  6
CENTER2
 62
     7
100
AcDbLine
 10
-0.714846993
 20
0.0003912067
 30
0.0
 11
-11.2992612261
 21
0.0003912067
 31
0.0
  0
LINE
  5
1D4
330
1F
100
AcDbEntity
  8
Mittelpunktmarkierung_(ISO)
  6
CENTER2
 62
     7
100
AcDbLine
 10
-6.0070541096
 20
5.2925983233
 30
0.0
 11
-6.0070541096
 21
-5.2918159098
 31
0.0
  0
LINE
  5
1D5
330
1F
100
AcDbEntity
  8
Mittelpunktmarkierung_(ISO)
  6
CENTER2
 62
     7
100
AcDbLine
 10
28.9999773976
 20
-0.0000008729
 30
0.0
 11
19.9999773976
 21
-0.0000008729
 31
0.0
  0
LINE
  5
1D6
330
1F
100
AcDbEntity
  8
Mittelpunktmarkierung_(ISO)
  6
CENTER2
 62
     7
100
AcDbLine
 10
24.4999773976
 20
4.4999991271
 30
0.0
 11
24.4999773976
 21
-4.5000008729
 31
0.0
  0
CIRCLE
  5
1D8
330
1F
100
AcDbEntity
  8
_Konvertierung
  6
Continuous
 62
     7
100
AcDbCircle
 10
0.6999773976
 20
19.9999991271
 30
0.0
 40
0.01
  0
CIRCLE
  5
1D9
330
1F
100
AcDbEntity
  8
_Konvertierung
  6
Continuous
 62
     7
100
AcDbCircle
 10
0.6999773976
 20
-20.0000008729
 30
0.0
 40
0.01
  0
CIRCLE
  5
1DA
330
1F
100
AcDbEntity
  8
_Konvertierung
  6
Continuous
 62
     7
100
AcDbCircle
 10
-20.0000226024
 20
13.1556464774
 30
0.0
 40
0.01
  0
CIRCLE
  5
1DB
330
1F
100
AcDbEntity
  8
_Konvertierung
  6
Continuous
 62
     7
100
AcDbCircle
 10
-0.0000226024
 20
19.2999991271
 30
0.0
 40
0.01
  0
CIRCLE
  5
1DC
330
1F
100
AcDbEntity
  8
_Konvertierung
  6
Continuous
 62
     7
100
AcDbCircle
 10
-0.0000226024
 20
19.2999991271
 30
0.0
 40
0.01
  0
CIRCLE
  5
1DD
330
1F
100
AcDbEntity
  8
_Konvertierung
  6
Continuous
 62
     7
100
AcDbCircle
 10
19.9999773976
 20
18.9999991271
 30
0.0
 40
0.01
  0
CIRCLE
  5
1DE
330
1F
100
AcDbEntity
  8
_Konvertierung
  6
Continuous
 62
     7
100
AcDbCircle
 10
-0.0000226024
 20
19.2999991271
 30
0.0
 40
0.01
  0
CIRCLE
  5
1DF
330
1F
100
AcDbEntity
  8
_Konvertierung
  6
Continuous
 62
     7
100
AcDbCircle
 10
69.9999773976
 20
13.4758586054
 30
0.0
 40
0.01
  0
CIRCLE
  5
1E0
330
1F
100
AcDbEntity
  8
_Konvertierung
  6
Continuous
 62
     7
100
AcDbCircle
 10
56.6895465492
 20
20.7499991271
 30
0.0
 40
0.01
  0
CIRCLE
  5
1E1
330
1F
100
AcDbEntity
  8
_Konvertierung
  6
Continuous
 62
     7
100
AcDbCircle
 10
56.6895465492
 20
-20.7500008729
 30
0.0
 40
0.01
  0
CIRCLE
  5
1E2
330
1F
100
AcDbEntity
  8
_Konvertierung
  6
Continuous
 62
     7
100
AcDbCircle
 10
68.9999773976
 20
5.9999991271
 30
0.0
 40
0.01
  0
CIRCLE
  5
1E3
330
1F
100
AcDbEntity
  8
_Konvertierung
  6
Continuous
 62
     7
100
AcDbCircle
 10
68.9999773976
 20
-6.0000008729
 30
0.0
 40
0.01
  0
MTEXT
  5
1E5
330
1F
100
AcDbEntity
  8
6
100
AcDbMText
 10
-19.9390981983
 20
-32.9459209364
 30
0.0
 40
4.57
 41
78.3798213208
 46
7.6741609434
 71
     7
 72
     1
  1
{\fsimplex|b0||i0||c0|p34;\C7;\H4.57;\W0.94;HSK-A40 DIN 69893-1}
 73
     1
 44
1.0
1001
ACAD
1000
ACAD_MTEXT_DEFINED_HEIGHT_BEGIN
1070
    46
1040
7.6741609434
1000
ACAD_MTEXT_DEFINED_HEIGHT_END
  0
MTEXT
  5
1E6
330
1F
100
AcDbEntity
  8
6
100
AcDbMText
 10
-19.781159155
 20
-52.3782791543
 30
0.0
 40
4.57
 41
55.7022741509
 46
7.6741609434
 71
     7
 72
     1
  1
{\fsimplex|b0||i0||c0|p34;\C7;\H4.57;\W0.94;HSK A40-12-70}
 73
     1
 44
1.0
1001
ACAD
1000
ACAD_MTEXT_DEFINED_HEIGHT_BEGIN
1070
    46
1040
7.6741609434
1000
ACAD_MTEXT_DEFINED_HEIGHT_END
  0
DIMENSION
  5
1F9
330
1F
100
AcDbEntity
  8
Bemaßung_(ISO)
  6
Continuous
 62
     7
100
AcDbDimension
  2
DMBLK139
 10
-28.7140076909
 20
19.9999991271
 30
0.0
 11
-28.7140076909
 21
-0.0000004259
 31
0.0
 70
   161
  1
\A1;n <>
 71
     5
 42
-1.0
 73
     0
 74
     0
 75
     0
  3
Standard_(DIN)
100
AcDbAlignedDimension
 13
0.6999773976
 23
19.9999991271
 33
0.0
 14
0.6999773976
 24
-20.0000008729
 34
0.0
  0
DIMENSION
  5
204
330
1F
100
AcDbEntity
  8
Bemaßung_(ISO)
  6
Continuous
 62
     7
100
AcDbDimension
  2
DMBLK140
 10
-0.0000226024
 20
28.7899336261
 30
0.0
 11
-10.0000228259
 21
28.7899336261
 31
0.0
 70
   160
  1
\A1;<>
 71
     5
 42
-1.0
 73
     0
 74
     0
 75
     0
  3
Standard_(DIN)
100
AcDbAlignedDimension
 13
-20.0000226024
 23
13.1556464774
 33
0.0
 14
-0.0000226024
 24
19.2999991271
 34
0.0
100
AcDbRotatedDimension
  0
DIMENSION
  5
20E
330
1F
100
AcDbEntity
  8
Bemaßung_(ISO)
  6
Continuous
 62
     7
100
AcDbDimension
  2
DMBLK141
 10
19.9999773976
 20
28.7428733575
 30
0.0
 11
9.9999771741
 21
28.7428733575
 31
0.0
 70
   160
  1
\A1;<>
 71
     5
 42
-1.0
 73
     0
 74
     0
 75
     0
  3
Standard_(DIN)
100
AcDbAlignedDimension
 13
-0.0000226024
 23
19.2999991271
 33
0.0
 14
19.9999773976
 24
18.9999991271
 34
0.0
100
AcDbRotatedDimension
  0
DIMENSION
  5
218
330
1F
100
AcDbEntity
  8
Bemaßung_(ISO)
  6
Continuous
 62
     7
100
AcDbDimension
  2
DMBLK142
 10
69.9999773976
 20
38.9363917204
 30
0.0
 11
34.9999775466
 21
38.9363917204
 31
0.0
 70
   160
  1
\A1;<>
 71
     5
 42
-1.0
 73
     0
 74
     0
 75
     0
  3
Standard_(DIN)
100
AcDbAlignedDimension
 13
-0.0000226024
 23
19.2999991271
 33
0.0
 14
69.9999773976
 24
13.4758586054
 34
0.0
100
AcDbRotatedDimension
  0
DIMENSION
  5
222
330
1F
100
AcDbEntity
  8
Bemaßung_(ISO)
  6
Continuous
 62
     7
100
AcDbDimension
  2
DMBLK143
 10
96.6895456552
 20
20.7499991271
 30
0.0
 11
96.6895456552
 21
-0.0000000832
 31
0.0
 70
   161
  1
\A1;n <>
 71
     5
 42
-1.0
 73
     0
 74
     0
 75
     0
  3
Standard_(DIN)
100
AcDbAlignedDimension
 13
56.6895465492
 23
20.7499991271
 33
0.0
 14
56.6895465492
 24
-20.7500008729
 34
0.0
1001
ACAD
1000
DSTYLE
1002
{
1070
   271
1070
     1
1070
     0
1002
}
  0
DIMENSION
  5
22D
330
1F
100
AcDbEntity
  8
Bemaßung_(ISO)
  6
Continuous
 62
     7
100
AcDbDimension
  2
DMBLK144
 10
82.0125421386
 20
5.9999991271
 30
0.0
 11
82.0125421386
 21
-0.0000009251
 31
0.0
 70
   161
  1
\A1;n <>
 71
     5
 42
-1.0
 73
     0
 74
     0
 75
     0
  3
Standard_(DIN)
100
AcDbAlignedDimension
 13
68.9999773976
 23
5.9999991271
 33
0.0
 14
68.9999773976
 24
-6.0000008729
 34
0.0
1001
ACAD
1000
DSTYLE
1002
{
1070
   144
1041
1.0
1070
     0
1002
}
  0
ENDSEC
  0
SECTION
  2
OBJECTS
  0
DICTIONARY
  5
C
330
0
100
AcDbDictionary
281
     1
  3
ACAD_DETAILVIEWSTYLE
350
273
  3
ACAD_GROUP
350
D
  3
ACAD_LAYOUT
350
1A
  3
ACAD_MATERIAL
350
43
  3
ACAD_MLEADERSTYLE
350
6B
  3
ACAD_MLINESTYLE
350
17
  3
ACAD_PLOTSETTINGS
350
19
  3
ACAD_PLOTSTYLENAME
350
E
  3
ACAD_SCALELIST
350
47
  3
ACAD_SECTIONVIEWSTYLE
350
274
  3
ACAD_TABLESTYLE
350
69
  3
ACAD_VISUALSTYLE
350
2A
  3
ACDB_RECOMPOSE_DATA
350
270
  3
AcDbVariableDictionary
350
238
  0
SUN
  5
6D
330
29
100
AcDbSun
 90
        1
290
     0
 63
     7
421
 16777215
 40
1.0
291
     1
 91
  2455826
 92
 54000000
292
     0
 70
     2
 71
   256
280
     1
  0
DICTIONARY
  5
273
102
{ACAD_REACTORS
330
C
102
}
330
C
100
AcDbDictionary
281
     1
  0
DICTIONARY
  5
D
102
{ACAD_REACTORS
330
C
102
}
330
C
100
AcDbDictionary
281
     1
  0
DICTIONARY
  5
1A
102
{ACAD_REACTORS
330
C
102
}
330
C
100
AcDbDictionary
281
     1
  3
Layout1
350
1E
  3
Model
350
22
  0
DICTIONARY
  5
43
102
{ACAD_REACTORS
330
C
102
}
330
C
100
AcDbDictionary
281
     1
  3
ByBlock
350
45
  3
ByLayer
350
44
  3
Global
350
46
  0
DICTIONARY
  5
6B
102
{ACAD_REACTORS
330
C
102
}
330
C
100
AcDbDictionary
281
     1
  3
Standard
350
6C
  0
DICTIONARY
  5
17
102
{ACAD_REACTORS
330
C
102
}
330
C
100
AcDbDictionary
281
     1
  3
Standard
350
18
  0
DICTIONARY
  5
19
102
{ACAD_REACTORS
330
C
102
}
330
C
100
AcDbDictionary
281
     1
  0
ACDBDICTIONARYWDFLT
  5
E
102
{ACAD_REACTORS
330
C
102
}
330
C
100
AcDbDictionary
281
     1
  3
Normal
350
F
100
AcDbDictionaryWithDefault
340
F
  0
DICTIONARY
  5
47
102
{ACAD_REACTORS
330
C
102
}
330
C
100
AcDbDictionary
281
     1
  3
A0
350
48
  3
A1
350
49
  3
A2
350
4A
  3
A3
350
4B
  3
A4
350
4C
  3
A5
350
4D
  3
A6
350
4E
  3
A7
350
4F
  3
A8
350
50
  3
A9
350
51
  3
B0
350
52
  3
B1
350
53
  3
B2
350
54
  3
B3
350
55
  3
B4
350
56
  3
B5
350
57
  3
B6
350
58
  3
B7
350
59
  3
B8
350
5A
  3
B9
350
5B
  3
C0
350
5C
  3
C1
350
5D
  3
C2
350
5E
  3
C3
350
5F
  3
C4
350
60
  3
C5
350
61
  3
C6
350
62
  3
C7
350
63
  3
C8
350
64
  3
C9
350
65
  3
D0
350
66
  3
D1
350
67
  3
D2
350
68
  0
DICTIONARY
  5
274
102
{ACAD_REACTORS
330
C
102
}
330
C
100
AcDbDictionary
281
     1
  0
DICTIONARY
  5
69
102
{ACAD_REACTORS
330
C
102
}
330
C
100
AcDbDictionary
281
     1
  3
Standard
350
6A
  0
DICTIONARY
  5
2A
102
{ACAD_REACTORS
330
C
102
}
330
C
100
AcDbDictionary
281
     1
  3
2dWireframe
350
2F
  3
Basic
350
32
  3
Brighten
350
36
  3
ColorChange
350
3A
  3
Conceptual
350
34
  3
Dim
350
35
  3
EdgeColorOff
350
3D
  3
Facepattern
350
39
  3
Flat
350
2B
  3
FlatWithEdges
350
2C
  3
Gouraud
350
2D
  3
GouraudWithEdges
350
2E
  3
Hidden
350
31
  3
JitterOff
350
3B
  3
Linepattern
350
38
  3
OverhangOff
350
3C
  3
Realistic
350
33
  3
Shaded
350
42
  3
Shaded with edges
350
41
  3
Shades of Gray
350
3E
  3
Sketchy
350
3F
  3
Thicken
350
37
  3
Wireframe
350
30
  3
X-Ray
350
40
  0
XRECORD
  5
270
102
{ACAD_REACTORS
330
C
102
}
330
C
100
AcDbXrecord
280
     1
 90
        1
330
6A
  0
DICTIONARY
  5
238
102
{ACAD_REACTORS
330
C
102
}
330
C
100
AcDbDictionary
281
     1
  3
CANNOSCALE
350
239
  3
CENTEREXE
350
275
  3
CENTERLTYPEFILE
350
276
  3
CMLEADERSTYLE
350
272
  3
CTABLESTYLE
350
271
  3
XCLIPFRAME
350
23A
  0
LAYOUT
  5
1E
102
{ACAD_REACTORS
330
1A
102
}
330
1A
100
AcDbPlotSettings
  1

  2
none_device
  4

  6

 40
0.0
 41
0.0
 42
0.0
 43
0.0
 44
0.0
 45
0.0
 46
0.0
 47
0.0
 48
0.0
 49
0.0
140
0.0
141
0.0
142
1.0
143
1.0
 70
   688
 72
     1
 73
     0
 74
     5
  7

 75
    16
 76
     0
 77
     2
 78
   300
147
1.0
148
0.0
149
0.0
100
AcDbLayout
  1
Layout1
 70
     1
 71
     1
 10
0.0
 20
0.0
 11
594.0
 21
420.0
 12
0.0
 22
0.0
 32
0.0
 14
0.0
 24
0.0
 34
0.0
 15
594.0
 25
420.0
 35
0.0
146
0.0
 13
0.0
 23
0.0
 33
0.0
 16
1.0
 26
0.0
 36
0.0
 17
0.0
 27
1.0
 37
0.0
 76
     0
330
1B
  0
LAYOUT
  5
22
102
{ACAD_REACTORS
330
1A
102
}
330
1A
100
AcDbPlotSettings
  1

  2
none_device
  4
Letter_(8.50_x_11.00_Inches)
  6

 40
6.35
 41
6.35
 42
6.35000508
 43
6.35000508
 44
215.9
 45
279.4
 46
0.0
 47
0.0
 48
0.0
 49
0.0
140
0.0
141
0.0
142
1.0
143
1.0
 70
  1712
 72
     1
 73
     0
 74
     0
  7

 75
     0
 76
     0
 77
     2
 78
   300
147
1.0
148
0.0
149
0.0
100
AcDbLayout
  1
Model
 70
     1
 71
     0
 10
0.0
 20
0.0
 11
594.0
 21
420.0
 12
0.0
 22
0.0
 32
0.0
 14
0.0
 24
0.0
 34
0.0
 15
594.0
 25
420.0
 35
0.0
146
0.0
 13
0.0
 23
0.0
 33
0.0
 16
1.0
 26
0.0
 36
0.0
 17
0.0
 27
1.0
 37
0.0
 76
     0
330
1F
331
29
  0
MATERIAL
  5
45
102
{ACAD_REACTORS
330
43
102
}
330
43
100
AcDbMaterial
  1
ByBlock
 72
     1
 94
      127
  0
MATERIAL
  5
44
102
{ACAD_REACTORS
330
43
102
}
330
43
100
AcDbMaterial
  1
ByLayer
 72
     1
 94
      127
  0
MATERIAL
  5
46
102
{ACAD_REACTORS
330
43
102
}
330
43
100
AcDbMaterial
  1
Global
 72
     1
 94
      127
  0
MLEADERSTYLE
  5
6C
102
{ACAD_REACTORS
330
6B
102
}
102
{ACAD_XDICTIONARY
360
26E
102
}
330
6B
100
AcDbMLeaderStyle
170
     2
171
     1
172
     0
 90
        2
 40
0.0
 41
0.0
173
     1
 91
-1056964608
340
14
 92
       -2
290
     1
 42
2.0
291
     1
 43
8.0
  3
Standard
341
0
 44
4.0
300

342
11
174
     1
178
     6
175
     1
176
     0
 93
-1056964608
 45
4.0
292
     0
297
     0
 46
4.0
343
0
 94
-1056964608
 47
1.0
 49
1.0
140
1.0
293
     1
141
0.0
294
     1
177
     0
142
1.0
295
     0
296
     0
143
3.75
1001
ACAD_MLEADERVER
1070
     2
  0
MLINESTYLE
  5
18
102
{ACAD_REACTORS
330
17
102
}
330
17
100
AcDbMlineStyle
  2
Standard
 70
     0
  3

 62
   256
 51
90.0
 52
90.0
 71
     2
 49
0.5
 62
   256
  6
BYLAYER
 49
-0.5
 62
   256
  6
BYLAYER
  0
ACDBPLACEHOLDER
  5
F
102
{ACAD_REACTORS
330
E
102
}
330
E
  0
SCALE
  5
48
102
{ACAD_REACTORS
330
47
102
}
330
47
100
AcDbScale
 70
     0
300
1:1
140
1.0
141
1.0
290
     1
  0
SCALE
  5
49
102
{ACAD_REACTORS
330
47
102
}
330
47
100
AcDbScale
 70
     0
300
1:2
140
1.0
141
2.0
290
     0
  0
SCALE
  5
4A
102
{ACAD_REACTORS
330
47
102
}
330
47
100
AcDbScale
 70
     0
300
1:4
140
1.0
141
4.0
290
     0
  0
SCALE
  5
4B
102
{ACAD_REACTORS
330
47
102
}
330
47
100
AcDbScale
 70
     0
300
1:5
140
1.0
141
5.0
290
     0
  0
SCALE
  5
4C
102
{ACAD_REACTORS
330
47
102
}
330
47
100
AcDbScale
 70
     0
300
1:8
140
1.0
141
8.0
290
     0
  0
SCALE
  5
4D
102
{ACAD_REACTORS
330
47
102
}
330
47
100
AcDbScale
 70
     0
300
1:10
140
1.0
141
10.0
290
     0
  0
SCALE
  5
4E
102
{ACAD_REACTORS
330
47
102
}
330
47
100
AcDbScale
 70
     0
300
1:16
140
1.0
141
16.0
290
     0
  0
SCALE
  5
4F
102
{ACAD_REACTORS
330
47
102
}
330
47
100
AcDbScale
 70
     0
300
1:20
140
1.0
141
20.0
290
     0
  0
SCALE
  5
50
102
{ACAD_REACTORS
330
47
102
}
330
47
100
AcDbScale
 70
     0
300
1:30
140
1.0
141
30.0
290
     0
  0
SCALE
  5
51
102
{ACAD_REACTORS
330
47
102
}
330
47
100
AcDbScale
 70
     0
300
1:40
140
1.0
141
40.0
290
     0
  0
SCALE
  5
52
102
{ACAD_REACTORS
330
47
102
}
330
47
100
AcDbScale
 70
     0
300
1:50
140
1.0
141
50.0
290
     0
  0
SCALE
  5
53
102
{ACAD_REACTORS
330
47
102
}
330
47
100
AcDbScale
 70
     0
300
1:100
140
1.0
141
100.0
290
     0
  0
SCALE
  5
54
102
{ACAD_REACTORS
330
47
102
}
330
47
100
AcDbScale
 70
     0
300
2:1
140
2.0
141
1.0
290
     0
  0
SCALE
  5
55
102
{ACAD_REACTORS
330
47
102
}
330
47
100
AcDbScale
 70
     0
300
4:1
140
4.0
141
1.0
290
     0
  0
SCALE
  5
56
102
{ACAD_REACTORS
330
47
102
}
330
47
100
AcDbScale
 70
     0
300
8:1
140
8.0
141
1.0
290
     0
  0
SCALE
  5
57
102
{ACAD_REACTORS
330
47
102
}
330
47
100
AcDbScale
 70
     0
300
10:1
140
10.0
141
1.0
290
     0
  0
SCALE
  5
58
102
{ACAD_REACTORS
330
47
102
}
330
47
100
AcDbScale
 70
     0
300
100:1
140
100.0
141
1.0
290
     0
  0
SCALE
  5
59
102
{ACAD_REACTORS
330
47
102
}
330
47
100
AcDbScale
 70
     0
300
1/128" = 1'-0"
140
0.0078125
141
12.0
290
     0
  0
SCALE
  5
5A
102
{ACAD_REACTORS
330
47
102
}
330
47
100
AcDbScale
 70
     0
300
1/64" = 1'-0"
140
0.015625
141
12.0
290
     0
  0
SCALE
  5
5B
102
{ACAD_REACTORS
330
47
102
}
330
47
100
AcDbScale
 70
     0
300
1/32" = 1'-0"
140
0.03125
141
12.0
290
     0
  0
SCALE
  5
5C
102
{ACAD_REACTORS
330
47
102
}
330
47
100
AcDbScale
 70
     0
300
1/16" = 1'-0"
140
0.0625
141
12.0
290
     0
  0
SCALE
  5
5D
102
{ACAD_REACTORS
330
47
102
}
330
47
100
AcDbScale
 70
     0
300
3/32" = 1'-0"
140
0.09375
141
12.0
290
     0
  0
SCALE
  5
5E
102
{ACAD_REACTORS
330
47
102
}
330
47
100
AcDbScale
 70
     0
300
1/8" = 1'-0"
140
0.125
141
12.0
290
     0
  0
SCALE
  5
5F
102
{ACAD_REACTORS
330
47
102
}
330
47
100
AcDbScale
 70
     0
300
3/16" = 1'-0"
140
0.1875
141
12.0
290
     0
  0
SCALE
  5
60
102
{ACAD_REACTORS
330
47
102
}
330
47
100
AcDbScale
 70
     0
300
1/4" = 1'-0"
140
0.25
141
12.0
290
     0
  0
SCALE
  5
61
102
{ACAD_REACTORS
330
47
102
}
330
47
100
AcDbScale
 70
     0
300
3/8" = 1'-0"
140
0.375
141
12.0
290
     0
  0
SCALE
  5
62
102
{ACAD_REACTORS
330
47
102
}
330
47
100
AcDbScale
 70
     0
300
1/2" = 1'-0"
140
0.5
141
12.0
290
     0
  0
SCALE
  5
63
102
{ACAD_REACTORS
330
47
102
}
330
47
100
AcDbScale
 70
     0
300
3/4" = 1'-0"
140
0.75
141
12.0
290
     0
  0
SCALE
  5
64
102
{ACAD_REACTORS
330
47
102
}
330
47
100
AcDbScale
 70
     0
300
1" = 1'-0"
140
1.0
141
12.0
290
     0
  0
SCALE
  5
65
102
{ACAD_REACTORS
330
47
102
}
330
47
100
AcDbScale
 70
     0
300
1-1/2" = 1'-0"
140
1.5
141
12.0
290
     0
  0
SCALE
  5
66
102
{ACAD_REACTORS
330
47
102
}
330
47
100
AcDbScale
 70
     0
300
3" = 1'-0"
140
3.0
141
12.0
290
     0
  0
SCALE
  5
67
102
{ACAD_REACTORS
330
47
102
}
330
47
100
AcDbScale
 70
     0
300
6" = 1'-0"
140
6.0
141
12.0
290
     0
  0
SCALE
  5
68
102
{ACAD_REACTORS
330
47
102
}
330
47
100
AcDbScale
 70
     0
300
1'-0" = 1'-0"
140
12.0
141
12.0
290
     0
  0
TABLESTYLE
  5
6A
102
{ACAD_REACTORS
330
69
102
}
102
{ACAD_XDICTIONARY
360
26B
102
}
330
69
100
AcDbTableStyle
  3
Standard
 70
     0
 71
     0
 40
0.06
 41
0.06
280
     0
281
     0
  7
Standard
140
4.5
170
     2
 62
     0
 63
   257
283
     0
 90
        4
 91
        0
  1

274
    -2
284
     1
 64
     0
275
    -2
285
     1
 65
     0
276
    -2
286
     1
 66
     0
277
    -2
287
     1
 67
     0
278
    -2
288
     1
 68
     0
279
    -2
289
     1
 69
     0
  7
Standard
140
6.0
170
     5
 62
     0
 63
   257
283
     0
 90
        4
 91
        0
  1

274
    -2
284
     1
 64
     0
275
    -2
285
     1
 65
     0
276
    -2
286
     1
 66
     0
277
    -2
287
     1
 67
     0
278
    -2
288
     1
 68
     0
279
    -2
289
     1
 69
     0
  7
Standard
140
4.5
170
     5
 62
     0
 63
   257
283
     0
 90
        4
 91
        0
  1

274
    -2
284
     1
 64
     0
275
    -2
285
     1
 65
     0
276
    -2
286
     1
 66
     0
277
    -2
287
     1
 67
     0
278
    -2
288
     1
 68
     0
279
    -2
289
     1
 69
     0
  0
VISUALSTYLE
  5
2F
102
{ACAD_REACTORS
330
2A
102
}
102
{ACAD_XDICTIONARY
360
243
102
}
330
2A
100
AcDbVisualStyle
  2
2dWireframe
 70
     4
 71
     0
 72
     2
 73
     0
 90
        0
 40
0.6
 41
30.0
 62
     5
 63
     7
421
 16777215
 74
     1
 91
        4
 64
     7
 65
   257
 75
     1
175
     1
 42
1.0
 92
        0
 66
   257
 43
1.0
 76
     1
 77
     6
 78
     2
 67
     7
 79
     5
170
     0
171
     0
290
     0
174
     0
 93
        1
 44
0.0
173
     0
291
     0
 45
0.0
  0
VISUALSTYLE
  5
32
102
{ACAD_REACTORS
330
2A
102
}
102
{ACAD_XDICTIONARY
360
249
102
}
330
2A
100
AcDbVisualStyle
  2
Basic
 70
     7
 71
     1
 72
     0
 73
     1
 90
        0
 40
0.6
 41
30.0
 62
     5
 63
     7
421
 16777215
 74
     0
 91
        4
 64
     7
 65
   257
 75
     1
175
     1
 42
1.0
 92
        8
 66
     7
 43
1.0
 76
     1
 77
     6
 78
     2
 67
     7
 79
     5
170
     0
171
     0
290
     0
174
     0
 93
        1
 44
0.0
173
     0
291
     1
 45
0.0
  0
VISUALSTYLE
  5
36
102
{ACAD_REACTORS
330
2A
102
}
102
{ACAD_XDICTIONARY
360
251
102
}
330
2A
100
AcDbVisualStyle
  2
Brighten
 70
    12
 71
     2
 72
     2
 73
     0
 90
        0
 40
0.6
 41
30.0
 62
     5
 63
     7
421
 16777215
 74
     1
 91
        4
 64
     7
 65
   257
 75
     1
175
     1
 42
1.0
 92
        8
 66
     7
 43
1.0
 76
     1
 77
     6
 78
     2
 67
     7
 79
     5
170
     0
171
     0
290
     0
174
     0
 93
        1
 44
50.0
173
     0
291
     1
 45
0.0
  0
VISUALSTYLE
  5
3A
102
{ACAD_REACTORS
330
2A
102
}
102
{ACAD_XDICTIONARY
360
259
102
}
330
2A
100
AcDbVisualStyle
  2
ColorChange
 70
    16
 71
     2
 72
     2
 73
     3
 90
        0
 40
0.6
 41
30.0
 62
     5
 63
     8
421
  8421504
 74
     1
 91
        4
 64
     7
 65
   257
 75
     1
175
     1
 42
1.0
 92
        8
 66
     8
424
  8421504
 43
1.0
 76
     1
 77
     6
 78
     2
 67
     7
 79
     5
170
     0
171
     0
290
     0
174
     0
 93
        1
 44
0.0
173
     0
291
     1
 45
0.0
  0
VISUALSTYLE
  5
34
102
{ACAD_REACTORS
330
2A
102
}
102
{ACAD_XDICTIONARY
360
24D
102
}
330
2A
100
AcDbVisualStyle
  2
Conceptual
 70
     9
 71
     3
 72
     2
 73
     0
 90
        0
 40
0.6
 41
30.0
 62
     5
 63
     7
421
 16777215
 74
     2
 91
        2
 64
     7
 65
   257
 75
     1
175
     1
 42
179.0
 92
        8
 66
     7
 43
1.0
 76
     1
 77
     6
 78
     2
 67
     7
 79
     3
170
     0
171
     0
290
     0
174
     0
 93
        1
 44
0.0
173
     0
291
     0
 45
0.0
  0
VISUALSTYLE
  5
35
102
{ACAD_REACTORS
330
2A
102
}
102
{ACAD_XDICTIONARY
360
24F
102
}
330
2A
100
AcDbVisualStyle
  2
Dim
 70
    11
 71
     2
 72
     2
 73
     0
 90
        0
 40
0.6
 41
30.0
 62
     5
 63
     7
421
 16777215
 74
     1
 91
        4
 64
     7
 65
   257
 75
     1
175
     1
 42
1.0
 92
        8
 66
     7
 43
1.0
 76
     1
 77
     6
 78
     2
 67
     7
 79
     5
170
     0
171
     0
290
     0
174
     0
 93
        1
 44
-50.0
173
     0
291
     1
 45
0.0
  0
VISUALSTYLE
  5
3D
102
{ACAD_REACTORS
330
2A
102
}
102
{ACAD_XDICTIONARY
360
25F
102
}
330
2A
100
AcDbVisualStyle
  2
EdgeColorOff
 70
    22
 71
     2
 72
     2
 73
     0
 90
        0
 40
0.6
 41
30.0
 62
     5
 63
     7
421
 16777215
 74
     1
 91
        4
 64
     7
 65
   257
 75
     1
175
     1
 42
1.0
 92
        8
 66
     7
 43
1.0
 76
     1
 77
     6
 78
     2
 67
     7
 79
     5
170
     0
171
     0
290
     0
174
     0
 93
        1
 44
0.0
173
     0
291
     1
 45
0.0
  0
VISUALSTYLE
  5
39
102
{ACAD_REACTORS
330
2A
102
}
102
{ACAD_XDICTIONARY
360
257
102
}
330
2A
100
AcDbVisualStyle
  2
Facepattern
 70
    15
 71
     2
 72
     2
 73
     0
 90
        0
 40
0.6
 41
30.0
 62
     5
 63
     7
421
 16777215
 74
     1
 91
        4
 64
     7
 65
   257
 75
     1
175
     1
 42
1.0
 92
        8
 66
     7
 43
1.0
 76
     1
 77
     6
 78
     2
 67
     7
 79
     5
170
     0
171
     0
290
     0
174
     0
 93
        1
 44
0.0
173
     0
291
     1
 45
0.0
  0
VISUALSTYLE
  5
2B
102
{ACAD_REACTORS
330
2A
102
}
102
{ACAD_XDICTIONARY
360
23B
102
}
330
2A
100
AcDbVisualStyle
  2
Flat
 70
     0
 71
     2
 72
     1
 73
     1
 90
        2
 40
0.6
 41
30.0
 62
     5
 63
     7
421
 16777215
 74
     0
 91
        0
 64
     7
 65
   257
 75
     1
175
     1
 42
1.0
 92
        8
 66
     7
 43
1.0
 76
     1
 77
     6
 78
     2
 67
     7
 79
     5
170
     0
171
     0
290
     0
174
     0
 93
       13
 44
0.0
173
     0
291
     1
 45
0.0
  0
VISUALSTYLE
  5
2C
102
{ACAD_REACTORS
330
2A
102
}
102
{ACAD_XDICTIONARY
360
23D
102
}
330
2A
100
AcDbVisualStyle
  2
FlatWithEdges
 70
     1
 71
     2
 72
     1
 73
     1
 90
        2
 40
0.6
 41
30.0
 62
     5
 63
     7
421
 16777215
 74
     1
 91
        0
 64
     7
 65
   257
 75
     1
175
     1
 42
1.0
 92
        0
 66
   257
 43
1.0
 76
     1
 77
     6
 78
     2
 67
     7
 79
     5
170
     0
171
     0
290
     0
174
     0
 93
       13
 44
0.0
173
     0
291
     1
 45
0.0
  0
VISUALSTYLE
  5
2D
102
{ACAD_REACTORS
330
2A
102
}
102
{ACAD_XDICTIONARY
360
23F
102
}
330
2A
100
AcDbVisualStyle
  2
Gouraud
 70
     2
 71
     2
 72
     2
 73
     1
 90
        2
 40
0.6
 41
30.0
 62
     5
 63
     7
421
 16777215
 74
     0
 91
        0
 64
     7
 65
   257
 75
     1
175
     1
 42
1.0
 92
        0
 66
     7
 43
1.0
 76
     1
 77
     6
 78
     2
 67
     7
 79
     5
170
     0
171
     0
290
     0
174
     0
 93
       13
 44
0.0
173
     0
291
     1
 45
0.0
  0
VISUALSTYLE
  5
2E
102
{ACAD_REACTORS
330
2A
102
}
102
{ACAD_XDICTIONARY
360
241
102
}
330
2A
100
AcDbVisualStyle
  2
GouraudWithEdges
 70
     3
 71
     2
 72
     2
 73
     1
 90
        2
 40
0.6
 41
30.0
 62
     5
 63
     7
421
 16777215
 74
     1
 91
        0
 64
     7
 65
   257
 75
     1
175
     1
 42
1.0
 92
        0
 66
   257
 43
1.0
 76
     1
 77
     6
 78
     2
 67
     7
 79
     5
170
     0
171
     0
290
     0
174
     0
 93
       13
 44
0.0
173
     0
291
     1
 45
0.0
  0
VISUALSTYLE
  5
31
102
{ACAD_REACTORS
330
2A
102
}
102
{ACAD_XDICTIONARY
360
247
102
}
330
2A
100
AcDbVisualStyle
  2
Hidden
 70
     6
 71
     1
 72
     2
 73
     2
 90
        0
 40
0.6
 41
30.0
 62
     5
 63
     7
421
 16777215
 74
     2
 91
        2
 64
     7
 65
   257
 75
     2
175
     1
 42
40.0
 92
        0
 66
   257
 43
1.0
 76
     1
 77
     6
 78
     2
 67
     7
 79
     3
170
     0
171
     0
290
     0
174
     0
 93
        1
 44
0.0
173
     0
291
     0
 45
0.0
  0
VISUALSTYLE
  5
3B
102
{ACAD_REACTORS
330
2A
102
}
102
{ACAD_XDICTIONARY
360
25B
102
}
330
2A
100
AcDbVisualStyle
  2
JitterOff
 70
    20
 71
     2
 72
     2
 73
     0
 90
        0
 40
0.6
 41
30.0
 62
     5
 63
     7
421
 16777215
 74
     1
 91
        4
 64
     7
 65
   257
 75
     1
175
     1
 42
1.0
 92
       10
 66
     7
 43
1.0
 76
     1
 77
     6
 78
     2
 67
     7
 79
     5
170
     0
171
     0
290
     0
174
     0
 93
        1
 44
0.0
173
     0
291
     1
 45
0.0
  0
VISUALSTYLE
  5
38
102
{ACAD_REACTORS
330
2A
102
}
102
{ACAD_XDICTIONARY
360
255
102
}
330
2A
100
AcDbVisualStyle
  2
Linepattern
 70
    14
 71
     2
 72
     2
 73
     0
 90
        0
 40
0.6
 41
30.0
 62
     5
 63
     7
421
 16777215
 74
     1
 91
        4
 64
     7
 65
   257
 75
     7
175
     7
 42
1.0
 92
        8
 66
     7
 43
1.0
 76
     1
 77
     6
 78
     2
 67
     7
 79
     5
170
     0
171
     0
290
     0
174
     0
 93
        1
 44
0.0
173
     0
291
     1
 45
0.0
  0
VISUALSTYLE
  5
3C
102
{ACAD_REACTORS
330
2A
102
}
102
{ACAD_XDICTIONARY
360
25D
102
}
330
2A
100
AcDbVisualStyle
  2
OverhangOff
 70
    21
 71
     2
 72
     2
 73
     0
 90
        0
 40
0.6
 41
30.0
 62
     5
 63
     7
421
 16777215
 74
     1
 91
        4
 64
     7
 65
   257
 75
     1
175
     1
 42
1.0
 92
        9
 66
     7
 43
1.0
 76
     1
 77
     6
 78
     2
 67
     7
 79
     5
170
     0
171
     0
290
     0
174
     0
 93
        1
 44
0.0
173
     0
291
     1
 45
0.0
  0
VISUALSTYLE
  5
33
102
{ACAD_REACTORS
330
2A
102
}
102
{ACAD_XDICTIONARY
360
24B
102
}
330
2A
100
AcDbVisualStyle
  2
Realistic
 70
     8
 71
     2
 72
     3
 73
     0
 90
        2
 40
0.6
 41
30.0
 62
     5
 63
     7
421
 16777215
 74
     0
 91
        0
 64
     7
 65
   257
 75
     1
175
     1
 42
1.0
 92
        8
 66
   257
 43
1.0
 76
     1
 77
     6
 78
     2
 67
     7
 79
     3
170
     0
171
     0
290
     0
174
     0
 93
       13
 44
0.0
173
     0
291
     0
 45
0.0
  0
VISUALSTYLE
  5
42
102
{ACAD_REACTORS
330
2A
102
}
102
{ACAD_XDICTIONARY
360
269
102
}
330
2A
100
AcDbVisualStyle
  2
Shaded
 70
    27
 71
     2
 72
     2
 73
     1
 90
        2
 40
0.6
 41
30.0
 62
     5
 63
     7
421
 16777215
 74
     0
 91
        4
 64
     7
 65
   257
 75
     1
175
     1
 42
1.0
 92
        8
 66
   257
 43
1.0
 76
     1
 77
     6
 78
     2
 67
     8
425
  7895160
 79
     3
170
     0
171
     0
290
     0
174
     0
 93
        5
 44
0.0
173
     0
291
     0
 45
0.0
  0
VISUALSTYLE
  5
41
102
{ACAD_REACTORS
330
2A
102
}
102
{ACAD_XDICTIONARY
360
267
102
}
330
2A
100
AcDbVisualStyle
  2
Shaded with edges
 70
    26
 71
     2
 72
     2
 73
     1
 90
        2
 40
0.6
 41
30.0
 62
     5
 63
     7
421
 16777215
 74
     1
 91
       10
 64
     7
 65
   257
 75
     2
175
     1
 42
1.0
 92
        8
 66
   257
 43
1.0
 76
     1
 77
     6
 78
     2
 67
     7
 79
     3
170
     0
171
     0
290
     0
174
     0
 93
        5
 44
0.0
173
     0
291
     0
 45
0.0
  0
VISUALSTYLE
  5
3E
102
{ACAD_REACTORS
330
2A
102
}
102
{ACAD_XDICTIONARY
360
261
102
}
330
2A
100
AcDbVisualStyle
  2
Shades of Gray
 70
    23
 71
     2
 72
     2
 73
     3
 90
        0
 40
0.6
 41
30.0
 62
     5
 63
     7
421
 16777215
 74
     2
 91
        2
 64
     7
 65
     7
 75
     1
175
     1
 42
40.0
 92
        8
 66
     7
 43
1.0
 76
     1
 77
     6
 78
     2
 67
     7
 79
     3
170
     0
171
     0
290
     0
174
     0
 93
        1
 44
0.0
173
     0
291
     0
 45
0.0
  0
VISUALSTYLE
  5
3F
102
{ACAD_REACTORS
330
2A
102
}
102
{ACAD_XDICTIONARY
360
263
102
}
330
2A
100
AcDbVisualStyle
  2
Sketchy
 70
    24
 71
     1
 72
     2
 73
     2
 90
        0
 40
0.6
 41
30.0
 62
     5
 63
     7
421
 16777215
 74
     2
 91
        2
 64
     7
 65
     7
 75
     1
175
     1
 42
40.0
 92
       11
 66
     7
 43
1.0
 76
     1
 77
     6
 78
     2
 67
     7
 79
     6
170
     0
171
     0
290
     0
174
     0
 93
        1
 44
0.0
173
     0
291
     0
 45
0.0
  0
VISUALSTYLE
  5
37
102
{ACAD_REACTORS
330
2A
102
}
102
{ACAD_XDICTIONARY
360
253
102
}
330
2A
100
AcDbVisualStyle
  2
Thicken
 70
    13
 71
     2
 72
     2
 73
     0
 90
        0
 40
0.6
 41
30.0
 62
     5
 63
     7
421
 16777215
 74
     1
 91
        4
 64
     7
 65
   257
 75
     1
175
     1
 42
1.0
 92
       12
 66
     7
 43
1.0
 76
     1
 77
     6
 78
     2
 67
     7
 79
     5
170
     0
171
     0
290
     0
174
     0
 93
        1
 44
0.0
173
     0
291
     1
 45
0.0
  0
VISUALSTYLE
  5
30
102
{ACAD_REACTORS
330
2A
102
}
102
{ACAD_XDICTIONARY
360
245
102
}
330
2A
100
AcDbVisualStyle
  2
Wireframe
 70
     5
 71
     0
 72
     2
 73
     0
 90
        0
 40
0.6
 41
30.0
 62
     5
 63
     7
421
 16777215
 74
     1
 91
        4
 64
     7
 65
   257
 75
     1
175
     1
 42
1.0
 92
        0
 66
   257
 43
1.0
 76
     1
 77
     6
 78
     2
 67
     7
 79
     3
170
     0
171
     0
290
     0
174
     0
 93
        1
 44
0.0
173
     0
291
     0
 45
0.0
  0
VISUALSTYLE
  5
40
102
{ACAD_REACTORS
330
2A
102
}
102
{ACAD_XDICTIONARY
360
265
102
}
330
2A
100
AcDbVisualStyle
  2
X-Ray
 70
    25
 71
     2
 72
     2
 73
     1
 90
        1
 40
0.5
 41
30.0
 62
     5
 63
     7
421
 16777215
 74
     1
 91
        0
 64
     7
 65
   257
 75
     1
175
     1
 42
1.0
 92
        8
 66
     7
 43
1.0
 76
     1
 77
     6
 78
     2
 67
     7
 79
     3
170
     0
171
     0
290
     0
174
     0
 93
       13
 44
0.0
173
     0
291
     0
 45
0.0
  0
DICTIONARYVAR
  5
239
102
{ACAD_REACTORS
330
238
102
}
330
238
100
DictionaryVariables
280
     0
  1
1:1
  0
DICTIONARYVAR
  5
275
102
{ACAD_REACTORS
330
238
102
}
330
238
100
DictionaryVariables
280
     0
  1
3.500000
  0
DICTIONARYVAR
  5
276
102
{ACAD_REACTORS
330
238
102
}
330
238
100
DictionaryVariables
280
     0
  1
acadiso.lin
  0
DICTIONARYVAR
  5
272
102
{ACAD_REACTORS
330
238
102
}
330
238
100
DictionaryVariables
280
     0
  1
Standard
  0
DICTIONARYVAR
  5
271
102
{ACAD_REACTORS
330
238
102
}
330
238
100
DictionaryVariables
280
     0
  1
Standard
  0
DICTIONARYVAR
  5
23A
102
{ACAD_REACTORS
330
238
102
}
330
238
100
DictionaryVariables
280
     0
  1
2
  0
DICTIONARY
  5
26E
330
6C
100
AcDbDictionary
280
     1
281
     1
  3
ACAD_XREC_ROUNDTRIP
360
26F
  0
DICTIONARY
  5
26B
330
6A
100
AcDbDictionary
280
     1
281
     1
  3
ACAD_ROUNDTRIP_2008_TABLESTYLE_CELLSTYLEMAP
360
26C
  0
DICTIONARY
  5
243
330
2F
100
AcDbDictionary
280
     1
281
     1
  3
ACAD_XREC_ROUNDTRIP
360
244
  0
DICTIONARY
  5
249
330
32
100
AcDbDictionary
280
     1
281
     1
  3
ACAD_XREC_ROUNDTRIP
360
24A
  0
DICTIONARY
  5
251
330
36
100
AcDbDictionary
280
     1
281
     1
  3
ACAD_XREC_ROUNDTRIP
360
252
  0
DICTIONARY
  5
259
330
3A
100
AcDbDictionary
280
     1
281
     1
  3
ACAD_XREC_ROUNDTRIP
360
25A
  0
DICTIONARY
  5
24D
330
34
100
AcDbDictionary
280
     1
281
     1
  3
ACAD_XREC_ROUNDTRIP
360
24E
  0
DICTIONARY
  5
24F
330
35
100
AcDbDictionary
280
     1
281
     1
  3
ACAD_XREC_ROUNDTRIP
360
250
  0
DICTIONARY
  5
25F
330
3D
100
AcDbDictionary
280
     1
281
     1
  3
ACAD_XREC_ROUNDTRIP
360
260
  0
DICTIONARY
  5
257
330
39
100
AcDbDictionary
280
     1
281
     1
  3
ACAD_XREC_ROUNDTRIP
360
258
  0
DICTIONARY
  5
23B
330
2B
100
AcDbDictionary
280
     1
281
     1
  3
ACAD_XREC_ROUNDTRIP
360
23C
  0
DICTIONARY
  5
23D
330
2C
100
AcDbDictionary
280
     1
281
     1
  3
ACAD_XREC_ROUNDTRIP
360
23E
  0
DICTIONARY
  5
23F
330
2D
100
AcDbDictionary
280
     1
281
     1
  3
ACAD_XREC_ROUNDTRIP
360
240
  0
DICTIONARY
  5
241
330
2E
100
AcDbDictionary
280
     1
281
     1
  3
ACAD_XREC_ROUNDTRIP
360
242
  0
DICTIONARY
  5
247
330
31
100
AcDbDictionary
280
     1
281
     1
  3
ACAD_XREC_ROUNDTRIP
360
248
  0
DICTIONARY
  5
25B
330
3B
100
AcDbDictionary
280
     1
281
     1
  3
ACAD_XREC_ROUNDTRIP
360
25C
  0
DICTIONARY
  5
255
330
38
100
AcDbDictionary
280
     1
281
     1
  3
ACAD_XREC_ROUNDTRIP
360
256
  0
DICTIONARY
  5
25D
330
3C
100
AcDbDictionary
280
     1
281
     1
  3
ACAD_XREC_ROUNDTRIP
360
25E
  0
DICTIONARY
  5
24B
330
33
100
AcDbDictionary
280
     1
281
     1
  3
ACAD_XREC_ROUNDTRIP
360
24C
  0
DICTIONARY
  5
269
330
42
100
AcDbDictionary
280
     1
281
     1
  3
ACAD_XREC_ROUNDTRIP
360
26A
  0
DICTIONARY
  5
267
330
41
100
AcDbDictionary
280
     1
281
     1
  3
ACAD_XREC_ROUNDTRIP
360
268
  0
DICTIONARY
  5
261
330
3E
100
AcDbDictionary
280
     1
281
     1
  3
ACAD_XREC_ROUNDTRIP
360
262
  0
DICTIONARY
  5
263
330
3F
100
AcDbDictionary
280
     1
281
     1
  3
ACAD_XREC_ROUNDTRIP
360
264
  0
DICTIONARY
  5
253
330
37
100
AcDbDictionary
280
     1
281
     1
  3
ACAD_XREC_ROUNDTRIP
360
254
  0
DICTIONARY
  5
245
330
30
100
AcDbDictionary
280
     1
281
     1
  3
ACAD_XREC_ROUNDTRIP
360
246
  0
DICTIONARY
  5
265
330
40
100
AcDbDictionary
280
     1
281
     1
  3
ACAD_XREC_ROUNDTRIP
360
266
  0
XRECORD
  5
26F
102
{ACAD_REACTORS
330
26E
102
}
330
26E
100
AcDbXrecord
280
     1
102
ACAD_ROUNDTRIP_2010_MLEADER_STYLE
  0
CELLSTYLEMAP
  5
26C
102
{ACAD_REACTORS
330
26B
102
}
330
26B
100
AcDbCellStyleMap
 90
        3
300
CELLSTYLE
  1
TABLEFORMAT_BEGIN
 90
        5
170
     1
 91
        0
 92
    32768
 62
   257
 93
        1
300
CONTENTFORMAT
  1
CONTENTFORMAT_BEGIN
 90
        0
 91
        0
 92
        4
 93
        0
300

 40
0.0
140
1.0
 94
        5
 62
     0
340
11
144
6.0
309
CONTENTFORMAT_END
171
     1
301
MARGIN
  1
CELLMARGIN_BEGIN
 40
1.5
 40
1.5
 40
1.5
 40
1.5
 40
1.5
 40
1.5
309
CELLMARGIN_END
 94
        6
 95
        1
302
GRIDFORMAT
  1
GRIDFORMAT_BEGIN
 90
        0
 91
        1
 62
     0
 92
       -2
340
14
 93
        0
 40
0.045
309
GRIDFORMAT_END
 95
        2
302
GRIDFORMAT
  1
GRIDFORMAT_BEGIN
 90
        0
 91
        1
 62
     0
 92
       -2
340
14
 93
        0
 40
0.045
309
GRIDFORMAT_END
 95
        4
302
GRIDFORMAT
  1
GRIDFORMAT_BEGIN
 90
        0
 91
        1
 62
     0
 92
       -2
340
14
 93
        0
 40
0.045
309
GRIDFORMAT_END
 95
        8
302
GRIDFORMAT
  1
GRIDFORMAT_BEGIN
 90
        0
 91
        1
 62
     0
 92
       -2
340
14
 93
        0
 40
0.045
309
GRIDFORMAT_END
 95
       16
302
GRIDFORMAT
  1
GRIDFORMAT_BEGIN
 90
        0
 91
        1
 62
     0
 92
       -2
340
14
 93
        0
 40
0.045
309
GRIDFORMAT_END
 95
       32
302
GRIDFORMAT
  1
GRIDFORMAT_BEGIN
 90
        0
 91
        1
 62
     0
 92
       -2
340
14
 93
        0
 40
0.045
309
GRIDFORMAT_END
309
TABLEFORMAT_END
  1
CELLSTYLE_BEGIN
 90
        1
 91
        1
300
_TITLE
309
CELLSTYLE_END
300
CELLSTYLE
  1
TABLEFORMAT_BEGIN
 90
        5
170
     1
 91
        0
 92
        0
 62
   257
 93
        1
300
CONTENTFORMAT
  1
CONTENTFORMAT_BEGIN
 90
        0
 91
        0
 92
        4
 93
        0
300

 40
0.0
140
1.0
 94
        5
 62
     0
340
11
144
4.5
309
CONTENTFORMAT_END
171
     1
301
MARGIN
  1
CELLMARGIN_BEGIN
 40
1.5
 40
1.5
 40
1.5
 40
1.5
 40
1.5
 40
1.5
309
CELLMARGIN_END
 94
        6
 95
        1
302
GRIDFORMAT
  1
GRIDFORMAT_BEGIN
 90
        0
 91
        1
 62
     0
 92
       -2
340
14
 93
        0
 40
0.045
309
GRIDFORMAT_END
 95
        2
302
GRIDFORMAT
  1
GRIDFORMAT_BEGIN
 90
        0
 91
        1
 62
     0
 92
       -2
340
14
 93
        0
 40
0.045
309
GRIDFORMAT_END
 95
        4
302
GRIDFORMAT
  1
GRIDFORMAT_BEGIN
 90
        0
 91
        1
 62
     0
 92
       -2
340
14
 93
        0
 40
0.045
309
GRIDFORMAT_END
 95
        8
302
GRIDFORMAT
  1
GRIDFORMAT_BEGIN
 90
        0
 91
        1
 62
     0
 92
       -2
340
14
 93
        0
 40
0.045
309
GRIDFORMAT_END
 95
       16
302
GRIDFORMAT
  1
GRIDFORMAT_BEGIN
 90
        0
 91
        1
 62
     0
 92
       -2
340
14
 93
        0
 40
0.045
309
GRIDFORMAT_END
 95
       32
302
GRIDFORMAT
  1
GRIDFORMAT_BEGIN
 90
        0
 91
        1
 62
     0
 92
       -2
340
14
 93
        0
 40
0.045
309
GRIDFORMAT_END
309
TABLEFORMAT_END
  1
CELLSTYLE_BEGIN
 90
        2
 91
        1
300
_HEADER
309
CELLSTYLE_END
300
CELLSTYLE
  1
TABLEFORMAT_BEGIN
 90
        5
170
     1
 91
        0
 92
        0
 62
   257
 93
        1
300
CONTENTFORMAT
  1
CONTENTFORMAT_BEGIN
 90
        0
 91
        0
 92
        4
 93
        0
300

 40
0.0
140
1.0
 94
        2
 62
     0
340
11
144
4.5
309
CONTENTFORMAT_END
171
     1
301
MARGIN
  1
CELLMARGIN_BEGIN
 40
1.5
 40
1.5
 40
1.5
 40
1.5
 40
1.5
 40
1.5
309
CELLMARGIN_END
 94
        6
 95
        1
302
GRIDFORMAT
  1
GRIDFORMAT_BEGIN
 90
        0
 91
        1
 62
     0
 92
       -2
340
14
 93
        0
 40
0.045
309
GRIDFORMAT_END
 95
        2
302
GRIDFORMAT
  1
GRIDFORMAT_BEGIN
 90
        0
 91
        1
 62
     0
 92
       -2
340
14
 93
        0
 40
0.045
309
GRIDFORMAT_END
 95
        4
302
GRIDFORMAT
  1
GRIDFORMAT_BEGIN
 90
        0
 91
        1
 62
     0
 92
       -2
340
14
 93
        0
 40
0.045
309
GRIDFORMAT_END
 95
        8
302
GRIDFORMAT
  1
GRIDFORMAT_BEGIN
 90
        0
 91
        1
 62
     0
 92
       -2
340
14
 93
        0
 40
0.045
309
GRIDFORMAT_END
 95
       16
302
GRIDFORMAT
  1
GRIDFORMAT_BEGIN
 90
        0
 91
        1
 62
     0
 92
       -2
340
14
 93
        0
 40
0.045
309
GRIDFORMAT_END
 95
       32
302
GRIDFORMAT
  1
GRIDFORMAT_BEGIN
 90
        0
 91
        1
 62
     0
 92
       -2
340
14
 93
        0
 40
0.045
309
GRIDFORMAT_END
309
TABLEFORMAT_END
  1
CELLSTYLE_BEGIN
 90
        3
 91
        2
300
_DATA
309
CELLSTYLE_END
  0
XRECORD
  5
244
102
{ACAD_REACTORS
330
243
102
}
330
243
100
AcDbXrecord
280
     1
102
RTVSPropertyOp0
 70
     1
102
RTVSPropertyOp1
 70
     1
102
RTVSPropertyOp2
 70
     1
102
RTVSPropertyOp3
 70
     1
102
RTVSPropertyOp4
 70
     1
102
RTVSPropertyOp5
 70
     1
102
RTVSPropertyOp6
 70
     1
102
RTVSPropertyOp7
 70
     1
102
RTVSPropertyOp8
 70
     1
102
RTVSPropertyOp9
 70
     1
102
RTVSPropertyOp10
 70
     1
102
RTVSPropertyOp11
 70
     1
102
RTVSPropertyOp12
 70
     1
102
RTVSPropertyOp13
 70
     1
102
RTVSPropertyOp14
 70
     1
102
RTVSPropertyOp15
 70
     1
102
RTVSPropertyOp16
 70
     1
102
RTVSPropertyOp17
 70
     1
102
RTVSPropertyOp18
 70
     1
102
RTVSPropertyOp19
 70
     1
102
RTVSPropertyOp20
 70
     1
102
RTVSPropertyOp21
 70
     1
102
RTVSPropertyOp22
 70
     1
102
RTVSPropertyOp23
 70
     1
102
RTVSPropertyOp24
 70
     1
102
RTVSPropertyOp25
 70
     1
102
RTVSPropertyOp26
 70
     1
102
RTVSPropertyOp27
 70
     1
102
RTVSPropertyOp28
 70
     1
102
RTVSPropertyOp29
 70
     1
102
RTVSPropertyOp30
 70
     1
102
RTVSPropertyOp31
 70
     1
102
RTVSPropertyOp32
 70
     1
102
RTVSPropertyOp33
 70
     1
102
RTVSPropertyOp34
 70
     1
102
RTVSPropertyOp35
 70
     1
102
RTVSPropertyOp36
 70
     1
102
RTVSPropertyOp37
 70
     1
102
RTVSPropertyOp38
 70
     1
102
RTVSPropertyOp39
 70
     1
102
RTVSPropertyOp40
 70
     1
102
RTVSPropertyOp41
 70
     1
102
RTVSPropertyOp42
 70
     1
102
RTVSPropertyOp43
 70
     1
102
RTVSPropertyOp44
 70
     1
102
RTVSPropertyOp45
 70
     1
102
RTVSPropertyOp46
 70
     1
102
RTVSPropertyOp47
 70
     1
102
RTVSPropertyOp48
 70
     1
102
RTVSPropertyOp49
 70
     1
102
RTVSPropertyOp50
 70
     1
102
RTVSPropertyOp51
 70
     0
102
RTVSPropertyOp52
 70
     0
102
RTVSPropertyOp53
 70
     1
102
RTVSPropertyOp54
 70
     1
102
RTVSPropertyOp55
 70
     1
102
RTVSPropertyOp56
 70
     1
102
RTVSPropertyOp57
 70
     1
102
RTVSPost2010Prop28
280
     1
102
RTVSPost2010PropOp28
 70
     1
102
RTVSPost2010Prop29
280
     1
102
RTVSPost2010PropOp29
 70
     1
102
RTVSPost2010Prop30
280
     0
102
RTVSPost2010PropOp30
 70
     1
102
RTVSPost2010Prop31
280
     0
102
RTVSPost2010PropOp31
 70
     1
102
RTVSPost2010Prop32
280
     0
102
RTVSPost2010PropOp32
 70
     1
102
RTVSPost2010Prop33
280
     0
102
RTVSPost2010PropOp33
 70
     1
102
RTVSPost2010Prop34
280
     0
102
RTVSPost2010PropOp34
 70
     1
102
RTVSPost2010Prop35
280
     0
102
RTVSPost2010PropOp35
 70
     1
102
RTVSPost2010Prop36
280
     0
102
RTVSPost2010PropOp36
 70
     1
102
RTVSPost2010Prop37
 90
       50
102
RTVSPost2010PropOp37
 70
     1
102
RTVSPost2010Prop38
140
0.0
102
RTVSPost2010PropOp38
 70
     1
102
RTVSPost2010Prop39
140
1.0
102
RTVSPost2010PropOp39
 70
     1
102
RTVSPost2010Prop40
 90
        0
102
RTVSPost2010PropOp40
 70
     1
102
RTVSPost2010Prop41ColorIndex
 90
       18
102
RTVSPost2010Prop41ColorRGB
 90
        0
102
RTVSPost2010PropOp41
 70
     1
102
RTVSPost2010Prop42
 90
       50
102
RTVSPost2010PropOp42
 70
     1
102
RTVSPost2010Prop43
 90
        3
102
RTVSPost2010PropOp43
 70
     1
102
RTVSPost2010Prop44ColorIndex
 90
        5
102
RTVSPost2010Prop44ColorRGB
 90
      255
102
RTVSPost2010PropOp44
 70
     1
102
RTVSPost2010Prop45
280
     0
102
RTVSPost2010PropOp45
 70
     1
102
RTVSPost2010Prop46
 90
       50
102
RTVSPost2010PropOp46
 70
     1
102
RTVSPost2010Prop47
 90
       50
102
RTVSPost2010PropOp47
 70
     1
102
RTVSPost2010Prop48
 90
       50
102
RTVSPost2010PropOp48
 70
     1
102
RTVSPost2010Prop49
280
     0
102
RTVSPost2010PropOp49
 70
     1
102
RTVSPost2010Prop50
 90
       50
102
RTVSPost2010PropOp50
 70
     1
102
RTVSPost2010Prop51ColorIndex
 90
      256
102
RTVSPost2010Prop51ColorRGB
 90
-16777216
102
RTVSPost2010PropOp51
 70
     0
102
RTVSPost2010Prop52
140
1.0
102
RTVSPost2010PropOp52
 70
     0
102
RTVSPost2010Prop53
 90
        2
102
RTVSPost2010PropOp53
 70
     1
102
RTVSPost2010Prop54
  1
strokes_ogs.tif
102
RTVSPost2010PropOp54
 70
     1
102
RTVSPost2010Prop55
280
     0
102
RTVSPost2010PropOp55
 70
     1
102
RTVSPost2010Prop56
140
1.0
102
RTVSPost2010PropOp56
 70
     1
102
RTVSPost2010Prop57
140
1.0
102
RTVSPost2010PropOp57
 70
     1
  0
XRECORD
  5
24A
102
{ACAD_REACTORS
330
249
102
}
330
249
100
AcDbXrecord
280
     1
102
RTVSPropertyOp0
 70
     1
102
RTVSPropertyOp1
 70
     1
102
RTVSPropertyOp2
 70
     1
102
RTVSPropertyOp3
 70
     1
102
RTVSPropertyOp4
 70
     1
102
RTVSPropertyOp5
 70
     1
102
RTVSPropertyOp6
 70
     1
102
RTVSPropertyOp7
 70
     1
102
RTVSPropertyOp8
 70
     1
102
RTVSPropertyOp9
 70
     1
102
RTVSPropertyOp10
 70
     1
102
RTVSPropertyOp11
 70
     1
102
RTVSPropertyOp12
 70
     1
102
RTVSPropertyOp13
 70
     1
102
RTVSPropertyOp14
 70
     1
102
RTVSPropertyOp15
 70
     1
102
RTVSPropertyOp16
 70
     1
102
RTVSPropertyOp17
 70
     1
102
RTVSPropertyOp18
 70
     1
102
RTVSPropertyOp19
 70
     1
102
RTVSPropertyOp20
 70
     1
102
RTVSPropertyOp21
 70
     1
102
RTVSPropertyOp22
 70
     1
102
RTVSPropertyOp23
 70
     1
102
RTVSPropertyOp24
 70
     1
102
RTVSPropertyOp25
 70
     1
102
RTVSPropertyOp26
 70
     1
102
RTVSPropertyOp27
 70
     1
102
RTVSPropertyOp28
 70
     1
102
RTVSPropertyOp29
 70
     1
102
RTVSPropertyOp30
 70
     1
102
RTVSPropertyOp31
 70
     1
102
RTVSPropertyOp32
 70
     1
102
RTVSPropertyOp33
 70
     1
102
RTVSPropertyOp34
 70
     1
102
RTVSPropertyOp35
 70
     1
102
RTVSPropertyOp36
 70
     1
102
RTVSPropertyOp37
 70
     1
102
RTVSPropertyOp38
 70
     1
102
RTVSPropertyOp39
 70
     1
102
RTVSPropertyOp40
 70
     1
102
RTVSPropertyOp41
 70
     1
102
RTVSPropertyOp42
 70
     1
102
RTVSPropertyOp43
 70
     1
102
RTVSPropertyOp44
 70
     1
102
RTVSPropertyOp45
 70
     1
102
RTVSPropertyOp46
 70
     1
102
RTVSPropertyOp47
 70
     1
102
RTVSPropertyOp48
 70
     1
102
RTVSPropertyOp49
 70
     1
102
RTVSPropertyOp50
 70
     1
102
RTVSPropertyOp51
 70
     0
102
RTVSPropertyOp52
 70
     0
102
RTVSPropertyOp53
 70
     1
102
RTVSPropertyOp54
 70
     1
102
RTVSPropertyOp55
 70
     1
102
RTVSPropertyOp56
 70
     1
102
RTVSPropertyOp57
 70
     1
102
RTVSPost2010Prop28
280
     0
102
RTVSPost2010PropOp28
 70
     1
102
RTVSPost2010Prop29
280
     1
102
RTVSPost2010PropOp29
 70
     1
102
RTVSPost2010Prop30
280
     1
102
RTVSPost2010PropOp30
 70
     1
102
RTVSPost2010Prop31
280
     0
102
RTVSPost2010PropOp31
 70
     1
102
RTVSPost2010Prop32
280
     0
102
RTVSPost2010PropOp32
 70
     1
102
RTVSPost2010Prop33
280
     0
102
RTVSPost2010PropOp33
 70
     1
102
RTVSPost2010Prop34
280
     0
102
RTVSPost2010PropOp34
 70
     1
102
RTVSPost2010Prop35
280
     0
102
RTVSPost2010PropOp35
 70
     1
102
RTVSPost2010Prop36
280
     0
102
RTVSPost2010PropOp36
 70
     1
102
RTVSPost2010Prop37
 90
       50
102
RTVSPost2010PropOp37
 70
     1
102
RTVSPost2010Prop38
140
0.0
102
RTVSPost2010PropOp38
 70
     1
102
RTVSPost2010Prop39
140
1.0
102
RTVSPost2010PropOp39
 70
     1
102
RTVSPost2010Prop40
 90
        0
102
RTVSPost2010PropOp40
 70
     1
102
RTVSPost2010Prop41ColorIndex
 90
       18
102
RTVSPost2010Prop41ColorRGB
 90
        0
102
RTVSPost2010PropOp41
 70
     1
102
RTVSPost2010Prop42
 90
       50
102
RTVSPost2010PropOp42
 70
     1
102
RTVSPost2010Prop43
 90
        3
102
RTVSPost2010PropOp43
 70
     1
102
RTVSPost2010Prop44ColorIndex
 90
        5
102
RTVSPost2010Prop44ColorRGB
 90
      255
102
RTVSPost2010PropOp44
 70
     1
102
RTVSPost2010Prop45
280
     0
102
RTVSPost2010PropOp45
 70
     1
102
RTVSPost2010Prop46
 90
       50
102
RTVSPost2010PropOp46
 70
     1
102
RTVSPost2010Prop47
 90
       50
102
RTVSPost2010PropOp47
 70
     1
102
RTVSPost2010Prop48
 90
       50
102
RTVSPost2010PropOp48
 70
     1
102
RTVSPost2010Prop49
280
     0
102
RTVSPost2010PropOp49
 70
     1
102
RTVSPost2010Prop50
 90
       50
102
RTVSPost2010PropOp50
 70
     1
102
RTVSPost2010Prop51ColorIndex
 90
      256
102
RTVSPost2010Prop51ColorRGB
 90
-16777216
102
RTVSPost2010PropOp51
 70
     0
102
RTVSPost2010Prop52
140
1.0
102
RTVSPost2010PropOp52
 70
     0
102
RTVSPost2010Prop53
 90
        2
102
RTVSPost2010PropOp53
 70
     1
102
RTVSPost2010Prop54
  1
strokes_ogs.tif
102
RTVSPost2010PropOp54
 70
     1
102
RTVSPost2010Prop55
280
     0
102
RTVSPost2010PropOp55
 70
     1
102
RTVSPost2010Prop56
140
1.0
102
RTVSPost2010PropOp56
 70
     1
102
RTVSPost2010Prop57
140
1.0
102
RTVSPost2010PropOp57
 70
     1
  0
XRECORD
  5
252
102
{ACAD_REACTORS
330
251
102
}
330
251
100
AcDbXrecord
280
     1
102
RTVSPropertyOp0
 70
     1
102
RTVSPropertyOp1
 70
     1
102
RTVSPropertyOp2
 70
     1
102
RTVSPropertyOp3
 70
     1
102
RTVSPropertyOp4
 70
     1
102
RTVSPropertyOp5
 70
     1
102
RTVSPropertyOp6
 70
     1
102
RTVSPropertyOp7
 70
     1
102
RTVSPropertyOp8
 70
     1
102
RTVSPropertyOp9
 70
     1
102
RTVSPropertyOp10
 70
     1
102
RTVSPropertyOp11
 70
     1
102
RTVSPropertyOp12
 70
     1
102
RTVSPropertyOp13
 70
     1
102
RTVSPropertyOp14
 70
     1
102
RTVSPropertyOp15
 70
     1
102
RTVSPropertyOp16
 70
     1
102
RTVSPropertyOp17
 70
     1
102
RTVSPropertyOp18
 70
     1
102
RTVSPropertyOp19
 70
     1
102
RTVSPropertyOp20
 70
     1
102
RTVSPropertyOp21
 70
     1
102
RTVSPropertyOp22
 70
     1
102
RTVSPropertyOp23
 70
     1
102
RTVSPropertyOp24
 70
     1
102
RTVSPropertyOp25
 70
     1
102
RTVSPropertyOp26
 70
     1
102
RTVSPropertyOp27
 70
     1
102
RTVSPropertyOp28
 70
     1
102
RTVSPropertyOp29
 70
     1
102
RTVSPropertyOp30
 70
     1
102
RTVSPropertyOp31
 70
     1
102
RTVSPropertyOp32
 70
     1
102
RTVSPropertyOp33
 70
     1
102
RTVSPropertyOp34
 70
     1
102
RTVSPropertyOp35
 70
     1
102
RTVSPropertyOp36
 70
     1
102
RTVSPropertyOp37
 70
     1
102
RTVSPropertyOp38
 70
     1
102
RTVSPropertyOp39
 70
     1
102
RTVSPropertyOp40
 70
     1
102
RTVSPropertyOp41
 70
     1
102
RTVSPropertyOp42
 70
     1
102
RTVSPropertyOp43
 70
     1
102
RTVSPropertyOp44
 70
     1
102
RTVSPropertyOp45
 70
     1
102
RTVSPropertyOp46
 70
     1
102
RTVSPropertyOp47
 70
     1
102
RTVSPropertyOp48
 70
     1
102
RTVSPropertyOp49
 70
     1
102
RTVSPropertyOp50
 70
     1
102
RTVSPropertyOp51
 70
     0
102
RTVSPropertyOp52
 70
     0
102
RTVSPropertyOp53
 70
     1
102
RTVSPropertyOp54
 70
     1
102
RTVSPropertyOp55
 70
     1
102
RTVSPropertyOp56
 70
     1
102
RTVSPropertyOp57
 70
     1
102
RTVSPost2010Prop28
280
     0
102
RTVSPost2010PropOp28
 70
     1
102
RTVSPost2010Prop29
280
     1
102
RTVSPost2010PropOp29
 70
     1
102
RTVSPost2010Prop30
280
     1
102
RTVSPost2010PropOp30
 70
     1
102
RTVSPost2010Prop31
280
     0
102
RTVSPost2010PropOp31
 70
     1
102
RTVSPost2010Prop32
280
     0
102
RTVSPost2010PropOp32
 70
     1
102
RTVSPost2010Prop33
280
     0
102
RTVSPost2010PropOp33
 70
     1
102
RTVSPost2010Prop34
280
     0
102
RTVSPost2010PropOp34
 70
     1
102
RTVSPost2010Prop35
280
     0
102
RTVSPost2010PropOp35
 70
     1
102
RTVSPost2010Prop36
280
     0
102
RTVSPost2010PropOp36
 70
     1
102
RTVSPost2010Prop37
 90
       50
102
RTVSPost2010PropOp37
 70
     1
102
RTVSPost2010Prop38
140
0.0
102
RTVSPost2010PropOp38
 70
     1
102
RTVSPost2010Prop39
140
1.0
102
RTVSPost2010PropOp39
 70
     1
102
RTVSPost2010Prop40
 90
        0
102
RTVSPost2010PropOp40
 70
     1
102
RTVSPost2010Prop41ColorIndex
 90
       18
102
RTVSPost2010Prop41ColorRGB
 90
        0
102
RTVSPost2010PropOp41
 70
     1
102
RTVSPost2010Prop42
 90
       50
102
RTVSPost2010PropOp42
 70
     1
102
RTVSPost2010Prop43
 90
        3
102
RTVSPost2010PropOp43
 70
     1
102
RTVSPost2010Prop44ColorIndex
 90
        5
102
RTVSPost2010Prop44ColorRGB
 90
      255
102
RTVSPost2010PropOp44
 70
     1
102
RTVSPost2010Prop45
280
     0
102
RTVSPost2010PropOp45
 70
     1
102
RTVSPost2010Prop46
 90
       50
102
RTVSPost2010PropOp46
 70
     1
102
RTVSPost2010Prop47
 90
       50
102
RTVSPost2010PropOp47
 70
     1
102
RTVSPost2010Prop48
 90
       50
102
RTVSPost2010PropOp48
 70
     1
102
RTVSPost2010Prop49
280
     0
102
RTVSPost2010PropOp49
 70
     1
102
RTVSPost2010Prop50
 90
       50
102
RTVSPost2010PropOp50
 70
     1
102
RTVSPost2010Prop51ColorIndex
 90
      256
102
RTVSPost2010Prop51ColorRGB
 90
-16777216
102
RTVSPost2010PropOp51
 70
     0
102
RTVSPost2010Prop52
140
1.0
102
RTVSPost2010PropOp52
 70
     0
102
RTVSPost2010Prop53
 90
        2
102
RTVSPost2010PropOp53
 70
     1
102
RTVSPost2010Prop54
  1
strokes_ogs.tif
102
RTVSPost2010PropOp54
 70
     1
102
RTVSPost2010Prop55
280
     0
102
RTVSPost2010PropOp55
 70
     1
102
RTVSPost2010Prop56
140
1.0
102
RTVSPost2010PropOp56
 70
     1
102
RTVSPost2010Prop57
140
1.0
102
RTVSPost2010PropOp57
 70
     1
  0
XRECORD
  5
25A
102
{ACAD_REACTORS
330
259
102
}
330
259
100
AcDbXrecord
280
     1
102
RTVSPropertyOp0
 70
     1
102
RTVSPropertyOp1
 70
     1
102
RTVSPropertyOp2
 70
     1
102
RTVSPropertyOp3
 70
     1
102
RTVSPropertyOp4
 70
     1
102
RTVSPropertyOp5
 70
     1
102
RTVSPropertyOp6
 70
     1
102
RTVSPropertyOp7
 70
     1
102
RTVSPropertyOp8
 70
     1
102
RTVSPropertyOp9
 70
     1
102
RTVSPropertyOp10
 70
     1
102
RTVSPropertyOp11
 70
     1
102
RTVSPropertyOp12
 70
     1
102
RTVSPropertyOp13
 70
     1
102
RTVSPropertyOp14
 70
     1
102
RTVSPropertyOp15
 70
     1
102
RTVSPropertyOp16
 70
     1
102
RTVSPropertyOp17
 70
     1
102
RTVSPropertyOp18
 70
     1
102
RTVSPropertyOp19
 70
     1
102
RTVSPropertyOp20
 70
     1
102
RTVSPropertyOp21
 70
     1
102
RTVSPropertyOp22
 70
     1
102
RTVSPropertyOp23
 70
     1
102
RTVSPropertyOp24
 70
     1
102
RTVSPropertyOp25
 70
     1
102
RTVSPropertyOp26
 70
     1
102
RTVSPropertyOp27
 70
     1
102
RTVSPropertyOp28
 70
     1
102
RTVSPropertyOp29
 70
     1
102
RTVSPropertyOp30
 70
     1
102
RTVSPropertyOp31
 70
     1
102
RTVSPropertyOp32
 70
     1
102
RTVSPropertyOp33
 70
     1
102
RTVSPropertyOp34
 70
     1
102
RTVSPropertyOp35
 70
     1
102
RTVSPropertyOp36
 70
     1
102
RTVSPropertyOp37
 70
     1
102
RTVSPropertyOp38
 70
     1
102
RTVSPropertyOp39
 70
     1
102
RTVSPropertyOp40
 70
     1
102
RTVSPropertyOp41
 70
     1
102
RTVSPropertyOp42
 70
     1
102
RTVSPropertyOp43
 70
     1
102
RTVSPropertyOp44
 70
     1
102
RTVSPropertyOp45
 70
     1
102
RTVSPropertyOp46
 70
     1
102
RTVSPropertyOp47
 70
     1
102
RTVSPropertyOp48
 70
     1
102
RTVSPropertyOp49
 70
     1
102
RTVSPropertyOp50
 70
     1
102
RTVSPropertyOp51
 70
     0
102
RTVSPropertyOp52
 70
     0
102
RTVSPropertyOp53
 70
     1
102
RTVSPropertyOp54
 70
     1
102
RTVSPropertyOp55
 70
     1
102
RTVSPropertyOp56
 70
     1
102
RTVSPropertyOp57
 70
     1
102
RTVSPost2010Prop28
280
     0
102
RTVSPost2010PropOp28
 70
     1
102
RTVSPost2010Prop29
280
     1
102
RTVSPost2010PropOp29
 70
     1
102
RTVSPost2010Prop30
280
     1
102
RTVSPost2010PropOp30
 70
     1
102
RTVSPost2010Prop31
280
     0
102
RTVSPost2010PropOp31
 70
     1
102
RTVSPost2010Prop32
280
     0
102
RTVSPost2010PropOp32
 70
     1
102
RTVSPost2010Prop33
280
     0
102
RTVSPost2010PropOp33
 70
     1
102
RTVSPost2010Prop34
280
     0
102
RTVSPost2010PropOp34
 70
     1
102
RTVSPost2010Prop35
280
     0
102
RTVSPost2010PropOp35
 70
     1
102
RTVSPost2010Prop36
280
     0
102
RTVSPost2010PropOp36
 70
     1
102
RTVSPost2010Prop37
 90
       50
102
RTVSPost2010PropOp37
 70
     1
102
RTVSPost2010Prop38
140
0.0
102
RTVSPost2010PropOp38
 70
     1
102
RTVSPost2010Prop39
140
1.0
102
RTVSPost2010PropOp39
 70
     1
102
RTVSPost2010Prop40
 90
        0
102
RTVSPost2010PropOp40
 70
     1
102
RTVSPost2010Prop41ColorIndex
 90
       18
102
RTVSPost2010Prop41ColorRGB
 90
        0
102
RTVSPost2010PropOp41
 70
     1
102
RTVSPost2010Prop42
 90
       50
102
RTVSPost2010PropOp42
 70
     1
102
RTVSPost2010Prop43
 90
        3
102
RTVSPost2010PropOp43
 70
     1
102
RTVSPost2010Prop44ColorIndex
 90
        5
102
RTVSPost2010Prop44ColorRGB
 90
      255
102
RTVSPost2010PropOp44
 70
     1
102
RTVSPost2010Prop45
280
     0
102
RTVSPost2010PropOp45
 70
     1
102
RTVSPost2010Prop46
 90
       50
102
RTVSPost2010PropOp46
 70
     1
102
RTVSPost2010Prop47
 90
       50
102
RTVSPost2010PropOp47
 70
     1
102
RTVSPost2010Prop48
 90
       50
102
RTVSPost2010PropOp48
 70
     1
102
RTVSPost2010Prop49
280
     0
102
RTVSPost2010PropOp49
 70
     1
102
RTVSPost2010Prop50
 90
       50
102
RTVSPost2010PropOp50
 70
     1
102
RTVSPost2010Prop51ColorIndex
 90
      256
102
RTVSPost2010Prop51ColorRGB
 90
-16777216
102
RTVSPost2010PropOp51
 70
     0
102
RTVSPost2010Prop52
140
1.0
102
RTVSPost2010PropOp52
 70
     0
102
RTVSPost2010Prop53
 90
        2
102
RTVSPost2010PropOp53
 70
     1
102
RTVSPost2010Prop54
  1
strokes_ogs.tif
102
RTVSPost2010PropOp54
 70
     1
102
RTVSPost2010Prop55
280
     0
102
RTVSPost2010PropOp55
 70
     1
102
RTVSPost2010Prop56
140
1.0
102
RTVSPost2010PropOp56
 70
     1
102
RTVSPost2010Prop57
140
1.0
102
RTVSPost2010PropOp57
 70
     1
  0
XRECORD
  5
24E
102
{ACAD_REACTORS
330
24D
102
}
330
24D
100
AcDbXrecord
280
     1
102
RTVSPropertyOp0
 70
     1
102
RTVSPropertyOp1
 70
     1
102
RTVSPropertyOp2
 70
     1
102
RTVSPropertyOp3
 70
     1
102
RTVSPropertyOp4
 70
     1
102
RTVSPropertyOp5
 70
     1
102
RTVSPropertyOp6
 70
     1
102
RTVSPropertyOp7
 70
     1
102
RTVSPropertyOp8
 70
     1
102
RTVSPropertyOp9
 70
     1
102
RTVSPropertyOp10
 70
     1
102
RTVSPropertyOp11
 70
     1
102
RTVSPropertyOp12
 70
     1
102
RTVSPropertyOp13
 70
     1
102
RTVSPropertyOp14
 70
     1
102
RTVSPropertyOp15
 70
     1
102
RTVSPropertyOp16
 70
     1
102
RTVSPropertyOp17
 70
     1
102
RTVSPropertyOp18
 70
     1
102
RTVSPropertyOp19
 70
     1
102
RTVSPropertyOp20
 70
     1
102
RTVSPropertyOp21
 70
     1
102
RTVSPropertyOp22
 70
     1
102
RTVSPropertyOp23
 70
     1
102
RTVSPropertyOp24
 70
     1
102
RTVSPropertyOp25
 70
     1
102
RTVSPropertyOp26
 70
     1
102
RTVSPropertyOp27
 70
     1
102
RTVSPropertyOp28
 70
     1
102
RTVSPropertyOp29
 70
     1
102
RTVSPropertyOp30
 70
     1
102
RTVSPropertyOp31
 70
     1
102
RTVSPropertyOp32
 70
     1
102
RTVSPropertyOp33
 70
     1
102
RTVSPropertyOp34
 70
     1
102
RTVSPropertyOp35
 70
     1
102
RTVSPropertyOp36
 70
     1
102
RTVSPropertyOp37
 70
     1
102
RTVSPropertyOp38
 70
     1
102
RTVSPropertyOp39
 70
     1
102
RTVSPropertyOp40
 70
     1
102
RTVSPropertyOp41
 70
     1
102
RTVSPropertyOp42
 70
     1
102
RTVSPropertyOp43
 70
     1
102
RTVSPropertyOp44
 70
     1
102
RTVSPropertyOp45
 70
     1
102
RTVSPropertyOp46
 70
     1
102
RTVSPropertyOp47
 70
     1
102
RTVSPropertyOp48
 70
     1
102
RTVSPropertyOp49
 70
     1
102
RTVSPropertyOp50
 70
     1
102
RTVSPropertyOp51
 70
     0
102
RTVSPropertyOp52
 70
     0
102
RTVSPropertyOp53
 70
     1
102
RTVSPropertyOp54
 70
     1
102
RTVSPropertyOp55
 70
     1
102
RTVSPropertyOp56
 70
     1
102
RTVSPropertyOp57
 70
     1
102
RTVSPost2010Prop28
280
     0
102
RTVSPost2010PropOp28
 70
     1
102
RTVSPost2010Prop29
280
     1
102
RTVSPost2010PropOp29
 70
     1
102
RTVSPost2010Prop30
280
     1
102
RTVSPost2010PropOp30
 70
     1
102
RTVSPost2010Prop31
280
     0
102
RTVSPost2010PropOp31
 70
     1
102
RTVSPost2010Prop32
280
     0
102
RTVSPost2010PropOp32
 70
     1
102
RTVSPost2010Prop33
280
     0
102
RTVSPost2010PropOp33
 70
     1
102
RTVSPost2010Prop34
280
     0
102
RTVSPost2010PropOp34
 70
     1
102
RTVSPost2010Prop35
280
     0
102
RTVSPost2010PropOp35
 70
     1
102
RTVSPost2010Prop36
280
     0
102
RTVSPost2010PropOp36
 70
     1
102
RTVSPost2010Prop37
 90
       50
102
RTVSPost2010PropOp37
 70
     1
102
RTVSPost2010Prop38
140
0.0
102
RTVSPost2010PropOp38
 70
     1
102
RTVSPost2010Prop39
140
1.0
102
RTVSPost2010PropOp39
 70
     1
102
RTVSPost2010Prop40
 90
        0
102
RTVSPost2010PropOp40
 70
     1
102
RTVSPost2010Prop41ColorIndex
 90
       18
102
RTVSPost2010Prop41ColorRGB
 90
        0
102
RTVSPost2010PropOp41
 70
     1
102
RTVSPost2010Prop42
 90
       50
102
RTVSPost2010PropOp42
 70
     1
102
RTVSPost2010Prop43
 90
        3
102
RTVSPost2010PropOp43
 70
     1
102
RTVSPost2010Prop44ColorIndex
 90
        5
102
RTVSPost2010Prop44ColorRGB
 90
      255
102
RTVSPost2010PropOp44
 70
     1
102
RTVSPost2010Prop45
280
     0
102
RTVSPost2010PropOp45
 70
     1
102
RTVSPost2010Prop46
 90
       50
102
RTVSPost2010PropOp46
 70
     1
102
RTVSPost2010Prop47
 90
       50
102
RTVSPost2010PropOp47
 70
     1
102
RTVSPost2010Prop48
 90
       50
102
RTVSPost2010PropOp48
 70
     1
102
RTVSPost2010Prop49
280
     0
102
RTVSPost2010PropOp49
 70
     1
102
RTVSPost2010Prop50
 90
       50
102
RTVSPost2010PropOp50
 70
     1
102
RTVSPost2010Prop51ColorIndex
 90
      256
102
RTVSPost2010Prop51ColorRGB
 90
-16777216
102
RTVSPost2010PropOp51
 70
     0
102
RTVSPost2010Prop52
140
1.0
102
RTVSPost2010PropOp52
 70
     0
102
RTVSPost2010Prop53
 90
        2
102
RTVSPost2010PropOp53
 70
     1
102
RTVSPost2010Prop54
  1
strokes_ogs.tif
102
RTVSPost2010PropOp54
 70
     1
102
RTVSPost2010Prop55
280
     0
102
RTVSPost2010PropOp55
 70
     1
102
RTVSPost2010Prop56
140
1.0
102
RTVSPost2010PropOp56
 70
     1
102
RTVSPost2010Prop57
140
1.0
102
RTVSPost2010PropOp57
 70
     1
  0
XRECORD
  5
250
102
{ACAD_REACTORS
330
24F
102
}
330
24F
100
AcDbXrecord
280
     1
102
RTVSPropertyOp0
 70
     1
102
RTVSPropertyOp1
 70
     1
102
RTVSPropertyOp2
 70
     1
102
RTVSPropertyOp3
 70
     1
102
RTVSPropertyOp4
 70
     1
102
RTVSPropertyOp5
 70
     1
102
RTVSPropertyOp6
 70
     1
102
RTVSPropertyOp7
 70
     1
102
RTVSPropertyOp8
 70
     1
102
RTVSPropertyOp9
 70
     1
102
RTVSPropertyOp10
 70
     1
102
RTVSPropertyOp11
 70
     1
102
RTVSPropertyOp12
 70
     1
102
RTVSPropertyOp13
 70
     1
102
RTVSPropertyOp14
 70
     1
102
RTVSPropertyOp15
 70
     1
102
RTVSPropertyOp16
 70
     1
102
RTVSPropertyOp17
 70
     1
102
RTVSPropertyOp18
 70
     1
102
RTVSPropertyOp19
 70
     1
102
RTVSPropertyOp20
 70
     1
102
RTVSPropertyOp21
 70
     1
102
RTVSPropertyOp22
 70
     1
102
RTVSPropertyOp23
 70
     1
102
RTVSPropertyOp24
 70
     1
102
RTVSPropertyOp25
 70
     1
102
RTVSPropertyOp26
 70
     1
102
RTVSPropertyOp27
 70
     1
102
RTVSPropertyOp28
 70
     1
102
RTVSPropertyOp29
 70
     1
102
RTVSPropertyOp30
 70
     1
102
RTVSPropertyOp31
 70
     1
102
RTVSPropertyOp32
 70
     1
102
RTVSPropertyOp33
 70
     1
102
RTVSPropertyOp34
 70
     1
102
RTVSPropertyOp35
 70
     1
102
RTVSPropertyOp36
 70
     1
102
RTVSPropertyOp37
 70
     1
102
RTVSPropertyOp38
 70
     1
102
RTVSPropertyOp39
 70
     1
102
RTVSPropertyOp40
 70
     1
102
RTVSPropertyOp41
 70
     1
102
RTVSPropertyOp42
 70
     1
102
RTVSPropertyOp43
 70
     1
102
RTVSPropertyOp44
 70
     1
102
RTVSPropertyOp45
 70
     1
102
RTVSPropertyOp46
 70
     1
102
RTVSPropertyOp47
 70
     1
102
RTVSPropertyOp48
 70
     1
102
RTVSPropertyOp49
 70
     1
102
RTVSPropertyOp50
 70
     1
102
RTVSPropertyOp51
 70
     0
102
RTVSPropertyOp52
 70
     0
102
RTVSPropertyOp53
 70
     1
102
RTVSPropertyOp54
 70
     1
102
RTVSPropertyOp55
 70
     1
102
RTVSPropertyOp56
 70
     1
102
RTVSPropertyOp57
 70
     1
102
RTVSPost2010Prop28
280
     0
102
RTVSPost2010PropOp28
 70
     1
102
RTVSPost2010Prop29
280
     1
102
RTVSPost2010PropOp29
 70
     1
102
RTVSPost2010Prop30
280
     1
102
RTVSPost2010PropOp30
 70
     1
102
RTVSPost2010Prop31
280
     0
102
RTVSPost2010PropOp31
 70
     1
102
RTVSPost2010Prop32
280
     0
102
RTVSPost2010PropOp32
 70
     1
102
RTVSPost2010Prop33
280
     0
102
RTVSPost2010PropOp33
 70
     1
102
RTVSPost2010Prop34
280
     0
102
RTVSPost2010PropOp34
 70
     1
102
RTVSPost2010Prop35
280
     0
102
RTVSPost2010PropOp35
 70
     1
102
RTVSPost2010Prop36
280
     0
102
RTVSPost2010PropOp36
 70
     1
102
RTVSPost2010Prop37
 90
       50
102
RTVSPost2010PropOp37
 70
     1
102
RTVSPost2010Prop38
140
0.0
102
RTVSPost2010PropOp38
 70
     1
102
RTVSPost2010Prop39
140
1.0
102
RTVSPost2010PropOp39
 70
     1
102
RTVSPost2010Prop40
 90
        0
102
RTVSPost2010PropOp40
 70
     1
102
RTVSPost2010Prop41ColorIndex
 90
       18
102
RTVSPost2010Prop41ColorRGB
 90
        0
102
RTVSPost2010PropOp41
 70
     1
102
RTVSPost2010Prop42
 90
       50
102
RTVSPost2010PropOp42
 70
     1
102
RTVSPost2010Prop43
 90
        3
102
RTVSPost2010PropOp43
 70
     1
102
RTVSPost2010Prop44ColorIndex
 90
        5
102
RTVSPost2010Prop44ColorRGB
 90
      255
102
RTVSPost2010PropOp44
 70
     1
102
RTVSPost2010Prop45
280
     0
102
RTVSPost2010PropOp45
 70
     1
102
RTVSPost2010Prop46
 90
       50
102
RTVSPost2010PropOp46
 70
     1
102
RTVSPost2010Prop47
 90
       50
102
RTVSPost2010PropOp47
 70
     1
102
RTVSPost2010Prop48
 90
       50
102
RTVSPost2010PropOp48
 70
     1
102
RTVSPost2010Prop49
280
     0
102
RTVSPost2010PropOp49
 70
     1
102
RTVSPost2010Prop50
 90
       50
102
RTVSPost2010PropOp50
 70
     1
102
RTVSPost2010Prop51ColorIndex
 90
      256
102
RTVSPost2010Prop51ColorRGB
 90
-16777216
102
RTVSPost2010PropOp51
 70
     0
102
RTVSPost2010Prop52
140
1.0
102
RTVSPost2010PropOp52
 70
     0
102
RTVSPost2010Prop53
 90
        2
102
RTVSPost2010PropOp53
 70
     1
102
RTVSPost2010Prop54
  1
strokes_ogs.tif
102
RTVSPost2010PropOp54
 70
     1
102
RTVSPost2010Prop55
280
     0
102
RTVSPost2010PropOp55
 70
     1
102
RTVSPost2010Prop56
140
1.0
102
RTVSPost2010PropOp56
 70
     1
102
RTVSPost2010Prop57
140
1.0
102
RTVSPost2010PropOp57
 70
     1
  0
XRECORD
  5
260
102
{ACAD_REACTORS
330
25F
102
}
330
25F
100
AcDbXrecord
280
     1
102
RTVSPropertyOp0
 70
     0
102
RTVSPropertyOp1
 70
     0
102
RTVSPropertyOp2
 70
     0
102
RTVSPropertyOp3
 70
     0
102
RTVSPropertyOp4
 70
     0
102
RTVSPropertyOp5
 70
     0
102
RTVSPropertyOp6
 70
     0
102
RTVSPropertyOp7
 70
     0
102
RTVSPropertyOp8
 70
     0
102
RTVSPropertyOp9
 70
     0
102
RTVSPropertyOp10
 70
     0
102
RTVSPropertyOp11
 70
     0
102
RTVSPropertyOp12
 70
     0
102
RTVSPropertyOp13
 70
     0
102
RTVSPropertyOp14
 70
     2
102
RTVSPropertyOp15
 70
     0
102
RTVSPropertyOp16
 70
     0
102
RTVSPropertyOp17
 70
     0
102
RTVSPropertyOp18
 70
     0
102
RTVSPropertyOp19
 70
     0
102
RTVSPropertyOp20
 70
     0
102
RTVSPropertyOp21
 70
     0
102
RTVSPropertyOp22
 70
     0
102
RTVSPropertyOp23
 70
     0
102
RTVSPropertyOp24
 70
     0
102
RTVSPropertyOp25
 70
     0
102
RTVSPropertyOp26
 70
     0
102
RTVSPropertyOp27
 70
     0
102
RTVSPropertyOp28
 70
     0
102
RTVSPropertyOp29
 70
     0
102
RTVSPropertyOp30
 70
     0
102
RTVSPropertyOp31
 70
     0
102
RTVSPropertyOp32
 70
     0
102
RTVSPropertyOp33
 70
     0
102
RTVSPropertyOp34
 70
     0
102
RTVSPropertyOp35
 70
     0
102
RTVSPropertyOp36
 70
     0
102
RTVSPropertyOp37
 70
     0
102
RTVSPropertyOp38
 70
     0
102
RTVSPropertyOp39
 70
     0
102
RTVSPropertyOp40
 70
     0
102
RTVSPropertyOp41
 70
     0
102
RTVSPropertyOp42
 70
     0
102
RTVSPropertyOp43
 70
     0
102
RTVSPropertyOp44
 70
     0
102
RTVSPropertyOp45
 70
     0
102
RTVSPropertyOp46
 70
     0
102
RTVSPropertyOp47
 70
     0
102
RTVSPropertyOp48
 70
     0
102
RTVSPropertyOp49
 70
     0
102
RTVSPropertyOp50
 70
     0
102
RTVSPropertyOp51
 70
     0
102
RTVSPropertyOp52
 70
     0
102
RTVSPropertyOp53
 70
     0
102
RTVSPropertyOp54
 70
     0
102
RTVSPropertyOp55
 70
     0
102
RTVSPropertyOp56
 70
     0
102
RTVSPropertyOp57
 70
     0
102
RTVSPost2010Prop28
280
     0
102
RTVSPost2010PropOp28
 70
     0
102
RTVSPost2010Prop29
280
     1
102
RTVSPost2010PropOp29
 70
     0
102
RTVSPost2010Prop30
280
     1
102
RTVSPost2010PropOp30
 70
     0
102
RTVSPost2010Prop31
280
     0
102
RTVSPost2010PropOp31
 70
     0
102
RTVSPost2010Prop32
280
     0
102
RTVSPost2010PropOp32
 70
     0
102
RTVSPost2010Prop33
280
     0
102
RTVSPost2010PropOp33
 70
     0
102
RTVSPost2010Prop34
280
     0
102
RTVSPost2010PropOp34
 70
     0
102
RTVSPost2010Prop35
280
     0
102
RTVSPost2010PropOp35
 70
     0
102
RTVSPost2010Prop36
280
     0
102
RTVSPost2010PropOp36
 70
     0
102
RTVSPost2010Prop37
 90
       50
102
RTVSPost2010PropOp37
 70
     0
102
RTVSPost2010Prop38
140
0.0
102
RTVSPost2010PropOp38
 70
     0
102
RTVSPost2010Prop39
140
1.0
102
RTVSPost2010PropOp39
 70
     0
102
RTVSPost2010Prop40
 90
        0
102
RTVSPost2010PropOp40
 70
     0
102
RTVSPost2010Prop41ColorIndex
 90
       18
102
RTVSPost2010Prop41ColorRGB
 90
        0
102
RTVSPost2010PropOp41
 70
     0
102
RTVSPost2010Prop42
 90
       50
102
RTVSPost2010PropOp42
 70
     0
102
RTVSPost2010Prop43
 90
        3
102
RTVSPost2010PropOp43
 70
     0
102
RTVSPost2010Prop44ColorIndex
 90
        5
102
RTVSPost2010Prop44ColorRGB
 90
      255
102
RTVSPost2010PropOp44
 70
     0
102
RTVSPost2010Prop45
280
     0
102
RTVSPost2010PropOp45
 70
     0
102
RTVSPost2010Prop46
 90
       50
102
RTVSPost2010PropOp46
 70
     0
102
RTVSPost2010Prop47
 90
       50
102
RTVSPost2010PropOp47
 70
     0
102
RTVSPost2010Prop48
 90
       50
102
RTVSPost2010PropOp48
 70
     0
102
RTVSPost2010Prop49
280
     0
102
RTVSPost2010PropOp49
 70
     0
102
RTVSPost2010Prop50
 90
       50
102
RTVSPost2010PropOp50
 70
     0
102
RTVSPost2010Prop51ColorIndex
 90
      256
102
RTVSPost2010Prop51ColorRGB
 90
-16777216
102
RTVSPost2010PropOp51
 70
     0
102
RTVSPost2010Prop52
140
1.0
102
RTVSPost2010PropOp52
 70
     0
102
RTVSPost2010Prop53
 90
        2
102
RTVSPost2010PropOp53
 70
     0
102
RTVSPost2010Prop54
  1
strokes_ogs.tif
102
RTVSPost2010PropOp54
 70
     0
102
RTVSPost2010Prop55
280
     0
102
RTVSPost2010PropOp55
 70
     0
102
RTVSPost2010Prop56
140
1.0
102
RTVSPost2010PropOp56
 70
     0
102
RTVSPost2010Prop57
140
1.0
102
RTVSPost2010PropOp57
 70
     0
  0
XRECORD
  5
258
102
{ACAD_REACTORS
330
257
102
}
330
257
100
AcDbXrecord
280
     1
102
RTVSPropertyOp0
 70
     1
102
RTVSPropertyOp1
 70
     1
102
RTVSPropertyOp2
 70
     1
102
RTVSPropertyOp3
 70
     1
102
RTVSPropertyOp4
 70
     1
102
RTVSPropertyOp5
 70
     1
102
RTVSPropertyOp6
 70
     1
102
RTVSPropertyOp7
 70
     1
102
RTVSPropertyOp8
 70
     1
102
RTVSPropertyOp9
 70
     1
102
RTVSPropertyOp10
 70
     1
102
RTVSPropertyOp11
 70
     1
102
RTVSPropertyOp12
 70
     1
102
RTVSPropertyOp13
 70
     1
102
RTVSPropertyOp14
 70
     1
102
RTVSPropertyOp15
 70
     1
102
RTVSPropertyOp16
 70
     1
102
RTVSPropertyOp17
 70
     1
102
RTVSPropertyOp18
 70
     1
102
RTVSPropertyOp19
 70
     1
102
RTVSPropertyOp20
 70
     1
102
RTVSPropertyOp21
 70
     1
102
RTVSPropertyOp22
 70
     1
102
RTVSPropertyOp23
 70
     1
102
RTVSPropertyOp24
 70
     1
102
RTVSPropertyOp25
 70
     1
102
RTVSPropertyOp26
 70
     1
102
RTVSPropertyOp27
 70
     1
102
RTVSPropertyOp28
 70
     1
102
RTVSPropertyOp29
 70
     1
102
RTVSPropertyOp30
 70
     1
102
RTVSPropertyOp31
 70
     1
102
RTVSPropertyOp32
 70
     1
102
RTVSPropertyOp33
 70
     1
102
RTVSPropertyOp34
 70
     1
102
RTVSPropertyOp35
 70
     1
102
RTVSPropertyOp36
 70
     1
102
RTVSPropertyOp37
 70
     1
102
RTVSPropertyOp38
 70
     1
102
RTVSPropertyOp39
 70
     1
102
RTVSPropertyOp40
 70
     1
102
RTVSPropertyOp41
 70
     1
102
RTVSPropertyOp42
 70
     1
102
RTVSPropertyOp43
 70
     1
102
RTVSPropertyOp44
 70
     1
102
RTVSPropertyOp45
 70
     1
102
RTVSPropertyOp46
 70
     1
102
RTVSPropertyOp47
 70
     1
102
RTVSPropertyOp48
 70
     1
102
RTVSPropertyOp49
 70
     1
102
RTVSPropertyOp50
 70
     1
102
RTVSPropertyOp51
 70
     0
102
RTVSPropertyOp52
 70
     0
102
RTVSPropertyOp53
 70
     1
102
RTVSPropertyOp54
 70
     1
102
RTVSPropertyOp55
 70
     1
102
RTVSPropertyOp56
 70
     1
102
RTVSPropertyOp57
 70
     1
102
RTVSPost2010Prop28
280
     0
102
RTVSPost2010PropOp28
 70
     1
102
RTVSPost2010Prop29
280
     1
102
RTVSPost2010PropOp29
 70
     1
102
RTVSPost2010Prop30
280
     1
102
RTVSPost2010PropOp30
 70
     1
102
RTVSPost2010Prop31
280
     0
102
RTVSPost2010PropOp31
 70
     1
102
RTVSPost2010Prop32
280
     0
102
RTVSPost2010PropOp32
 70
     1
102
RTVSPost2010Prop33
280
     0
102
RTVSPost2010PropOp33
 70
     1
102
RTVSPost2010Prop34
280
     0
102
RTVSPost2010PropOp34
 70
     1
102
RTVSPost2010Prop35
280
     0
102
RTVSPost2010PropOp35
 70
     1
102
RTVSPost2010Prop36
280
     0
102
RTVSPost2010PropOp36
 70
     1
102
RTVSPost2010Prop37
 90
       50
102
RTVSPost2010PropOp37
 70
     1
102
RTVSPost2010Prop38
140
0.0
102
RTVSPost2010PropOp38
 70
     1
102
RTVSPost2010Prop39
140
1.0
102
RTVSPost2010PropOp39
 70
     1
102
RTVSPost2010Prop40
 90
        0
102
RTVSPost2010PropOp40
 70
     1
102
RTVSPost2010Prop41ColorIndex
 90
       18
102
RTVSPost2010Prop41ColorRGB
 90
        0
102
RTVSPost2010PropOp41
 70
     1
102
RTVSPost2010Prop42
 90
       50
102
RTVSPost2010PropOp42
 70
     1
102
RTVSPost2010Prop43
 90
        3
102
RTVSPost2010PropOp43
 70
     1
102
RTVSPost2010Prop44ColorIndex
 90
        5
102
RTVSPost2010Prop44ColorRGB
 90
      255
102
RTVSPost2010PropOp44
 70
     1
102
RTVSPost2010Prop45
280
     0
102
RTVSPost2010PropOp45
 70
     1
102
RTVSPost2010Prop46
 90
       50
102
RTVSPost2010PropOp46
 70
     1
102
RTVSPost2010Prop47
 90
       50
102
RTVSPost2010PropOp47
 70
     1
102
RTVSPost2010Prop48
 90
       50
102
RTVSPost2010PropOp48
 70
     1
102
RTVSPost2010Prop49
280
     0
102
RTVSPost2010PropOp49
 70
     1
102
RTVSPost2010Prop50
 90
       50
102
RTVSPost2010PropOp50
 70
     1
102
RTVSPost2010Prop51ColorIndex
 90
      256
102
RTVSPost2010Prop51ColorRGB
 90
-16777216
102
RTVSPost2010PropOp51
 70
     0
102
RTVSPost2010Prop52
140
1.0
102
RTVSPost2010PropOp52
 70
     0
102
RTVSPost2010Prop53
 90
        2
102
RTVSPost2010PropOp53
 70
     1
102
RTVSPost2010Prop54
  1
strokes_ogs.tif
102
RTVSPost2010PropOp54
 70
     1
102
RTVSPost2010Prop55
280
     0
102
RTVSPost2010PropOp55
 70
     1
102
RTVSPost2010Prop56
140
1.0
102
RTVSPost2010PropOp56
 70
     1
102
RTVSPost2010Prop57
140
1.0
102
RTVSPost2010PropOp57
 70
     1
  0
XRECORD
  5
23C
102
{ACAD_REACTORS
330
23B
102
}
330
23B
100
AcDbXrecord
280
     1
102
RTVSPropertyOp0
 70
     1
102
RTVSPropertyOp1
 70
     1
102
RTVSPropertyOp2
 70
     1
102
RTVSPropertyOp3
 70
     1
102
RTVSPropertyOp4
 70
     1
102
RTVSPropertyOp5
 70
     1
102
RTVSPropertyOp6
 70
     1
102
RTVSPropertyOp7
 70
     1
102
RTVSPropertyOp8
 70
     1
102
RTVSPropertyOp9
 70
     1
102
RTVSPropertyOp10
 70
     1
102
RTVSPropertyOp11
 70
     1
102
RTVSPropertyOp12
 70
     1
102
RTVSPropertyOp13
 70
     1
102
RTVSPropertyOp14
 70
     1
102
RTVSPropertyOp15
 70
     1
102
RTVSPropertyOp16
 70
     1
102
RTVSPropertyOp17
 70
     1
102
RTVSPropertyOp18
 70
     1
102
RTVSPropertyOp19
 70
     1
102
RTVSPropertyOp20
 70
     1
102
RTVSPropertyOp21
 70
     1
102
RTVSPropertyOp22
 70
     1
102
RTVSPropertyOp23
 70
     1
102
RTVSPropertyOp24
 70
     1
102
RTVSPropertyOp25
 70
     1
102
RTVSPropertyOp26
 70
     1
102
RTVSPropertyOp27
 70
     1
102
RTVSPropertyOp28
 70
     1
102
RTVSPropertyOp29
 70
     1
102
RTVSPropertyOp30
 70
     1
102
RTVSPropertyOp31
 70
     1
102
RTVSPropertyOp32
 70
     1
102
RTVSPropertyOp33
 70
     1
102
RTVSPropertyOp34
 70
     1
102
RTVSPropertyOp35
 70
     1
102
RTVSPropertyOp36
 70
     1
102
RTVSPropertyOp37
 70
     1
102
RTVSPropertyOp38
 70
     1
102
RTVSPropertyOp39
 70
     1
102
RTVSPropertyOp40
 70
     1
102
RTVSPropertyOp41
 70
     1
102
RTVSPropertyOp42
 70
     1
102
RTVSPropertyOp43
 70
     1
102
RTVSPropertyOp44
 70
     1
102
RTVSPropertyOp45
 70
     1
102
RTVSPropertyOp46
 70
     1
102
RTVSPropertyOp47
 70
     1
102
RTVSPropertyOp48
 70
     1
102
RTVSPropertyOp49
 70
     1
102
RTVSPropertyOp50
 70
     1
102
RTVSPropertyOp51
 70
     0
102
RTVSPropertyOp52
 70
     0
102
RTVSPropertyOp53
 70
     1
102
RTVSPropertyOp54
 70
     1
102
RTVSPropertyOp55
 70
     1
102
RTVSPropertyOp56
 70
     1
102
RTVSPropertyOp57
 70
     1
102
RTVSPost2010Prop28
280
     0
102
RTVSPost2010PropOp28
 70
     1
102
RTVSPost2010Prop29
280
     1
102
RTVSPost2010PropOp29
 70
     1
102
RTVSPost2010Prop30
280
     1
102
RTVSPost2010PropOp30
 70
     1
102
RTVSPost2010Prop31
280
     0
102
RTVSPost2010PropOp31
 70
     1
102
RTVSPost2010Prop32
280
     0
102
RTVSPost2010PropOp32
 70
     1
102
RTVSPost2010Prop33
280
     0
102
RTVSPost2010PropOp33
 70
     1
102
RTVSPost2010Prop34
280
     0
102
RTVSPost2010PropOp34
 70
     1
102
RTVSPost2010Prop35
280
     0
102
RTVSPost2010PropOp35
 70
     1
102
RTVSPost2010Prop36
280
     0
102
RTVSPost2010PropOp36
 70
     1
102
RTVSPost2010Prop37
 90
       50
102
RTVSPost2010PropOp37
 70
     1
102
RTVSPost2010Prop38
140
0.0
102
RTVSPost2010PropOp38
 70
     1
102
RTVSPost2010Prop39
140
1.0
102
RTVSPost2010PropOp39
 70
     1
102
RTVSPost2010Prop40
 90
        0
102
RTVSPost2010PropOp40
 70
     1
102
RTVSPost2010Prop41ColorIndex
 90
       18
102
RTVSPost2010Prop41ColorRGB
 90
        0
102
RTVSPost2010PropOp41
 70
     1
102
RTVSPost2010Prop42
 90
       50
102
RTVSPost2010PropOp42
 70
     1
102
RTVSPost2010Prop43
 90
        3
102
RTVSPost2010PropOp43
 70
     1
102
RTVSPost2010Prop44ColorIndex
 90
        5
102
RTVSPost2010Prop44ColorRGB
 90
      255
102
RTVSPost2010PropOp44
 70
     1
102
RTVSPost2010Prop45
280
     0
102
RTVSPost2010PropOp45
 70
     1
102
RTVSPost2010Prop46
 90
       50
102
RTVSPost2010PropOp46
 70
     1
102
RTVSPost2010Prop47
 90
       50
102
RTVSPost2010PropOp47
 70
     1
102
RTVSPost2010Prop48
 90
       50
102
RTVSPost2010PropOp48
 70
     1
102
RTVSPost2010Prop49
280
     0
102
RTVSPost2010PropOp49
 70
     1
102
RTVSPost2010Prop50
 90
       50
102
RTVSPost2010PropOp50
 70
     1
102
RTVSPost2010Prop51ColorIndex
 90
      256
102
RTVSPost2010Prop51ColorRGB
 90
-16777216
102
RTVSPost2010PropOp51
 70
     0
102
RTVSPost2010Prop52
140
1.0
102
RTVSPost2010PropOp52
 70
     0
102
RTVSPost2010Prop53
 90
        2
102
RTVSPost2010PropOp53
 70
     1
102
RTVSPost2010Prop54
  1
strokes_ogs.tif
102
RTVSPost2010PropOp54
 70
     1
102
RTVSPost2010Prop55
280
     0
102
RTVSPost2010PropOp55
 70
     1
102
RTVSPost2010Prop56
140
1.0
102
RTVSPost2010PropOp56
 70
     1
102
RTVSPost2010Prop57
140
1.0
102
RTVSPost2010PropOp57
 70
     1
  0
XRECORD
  5
23E
102
{ACAD_REACTORS
330
23D
102
}
330
23D
100
AcDbXrecord
280
     1
102
RTVSPropertyOp0
 70
     1
102
RTVSPropertyOp1
 70
     1
102
RTVSPropertyOp2
 70
     1
102
RTVSPropertyOp3
 70
     1
102
RTVSPropertyOp4
 70
     1
102
RTVSPropertyOp5
 70
     1
102
RTVSPropertyOp6
 70
     1
102
RTVSPropertyOp7
 70
     1
102
RTVSPropertyOp8
 70
     1
102
RTVSPropertyOp9
 70
     1
102
RTVSPropertyOp10
 70
     1
102
RTVSPropertyOp11
 70
     1
102
RTVSPropertyOp12
 70
     1
102
RTVSPropertyOp13
 70
     1
102
RTVSPropertyOp14
 70
     1
102
RTVSPropertyOp15
 70
     1
102
RTVSPropertyOp16
 70
     1
102
RTVSPropertyOp17
 70
     1
102
RTVSPropertyOp18
 70
     1
102
RTVSPropertyOp19
 70
     1
102
RTVSPropertyOp20
 70
     1
102
RTVSPropertyOp21
 70
     1
102
RTVSPropertyOp22
 70
     1
102
RTVSPropertyOp23
 70
     1
102
RTVSPropertyOp24
 70
     1
102
RTVSPropertyOp25
 70
     1
102
RTVSPropertyOp26
 70
     1
102
RTVSPropertyOp27
 70
     1
102
RTVSPropertyOp28
 70
     1
102
RTVSPropertyOp29
 70
     1
102
RTVSPropertyOp30
 70
     1
102
RTVSPropertyOp31
 70
     1
102
RTVSPropertyOp32
 70
     1
102
RTVSPropertyOp33
 70
     1
102
RTVSPropertyOp34
 70
     1
102
RTVSPropertyOp35
 70
     1
102
RTVSPropertyOp36
 70
     1
102
RTVSPropertyOp37
 70
     1
102
RTVSPropertyOp38
 70
     1
102
RTVSPropertyOp39
 70
     1
102
RTVSPropertyOp40
 70
     1
102
RTVSPropertyOp41
 70
     1
102
RTVSPropertyOp42
 70
     1
102
RTVSPropertyOp43
 70
     1
102
RTVSPropertyOp44
 70
     1
102
RTVSPropertyOp45
 70
     1
102
RTVSPropertyOp46
 70
     1
102
RTVSPropertyOp47
 70
     1
102
RTVSPropertyOp48
 70
     1
102
RTVSPropertyOp49
 70
     1
102
RTVSPropertyOp50
 70
     1
102
RTVSPropertyOp51
 70
     0
102
RTVSPropertyOp52
 70
     0
102
RTVSPropertyOp53
 70
     1
102
RTVSPropertyOp54
 70
     1
102
RTVSPropertyOp55
 70
     1
102
RTVSPropertyOp56
 70
     1
102
RTVSPropertyOp57
 70
     1
102
RTVSPost2010Prop28
280
     0
102
RTVSPost2010PropOp28
 70
     1
102
RTVSPost2010Prop29
280
     1
102
RTVSPost2010PropOp29
 70
     1
102
RTVSPost2010Prop30
280
     1
102
RTVSPost2010PropOp30
 70
     1
102
RTVSPost2010Prop31
280
     0
102
RTVSPost2010PropOp31
 70
     1
102
RTVSPost2010Prop32
280
     0
102
RTVSPost2010PropOp32
 70
     1
102
RTVSPost2010Prop33
280
     0
102
RTVSPost2010PropOp33
 70
     1
102
RTVSPost2010Prop34
280
     0
102
RTVSPost2010PropOp34
 70
     1
102
RTVSPost2010Prop35
280
     0
102
RTVSPost2010PropOp35
 70
     1
102
RTVSPost2010Prop36
280
     0
102
RTVSPost2010PropOp36
 70
     1
102
RTVSPost2010Prop37
 90
       50
102
RTVSPost2010PropOp37
 70
     1
102
RTVSPost2010Prop38
140
0.0
102
RTVSPost2010PropOp38
 70
     1
102
RTVSPost2010Prop39
140
1.0
102
RTVSPost2010PropOp39
 70
     1
102
RTVSPost2010Prop40
 90
        0
102
RTVSPost2010PropOp40
 70
     1
102
RTVSPost2010Prop41ColorIndex
 90
       18
102
RTVSPost2010Prop41ColorRGB
 90
        0
102
RTVSPost2010PropOp41
 70
     1
102
RTVSPost2010Prop42
 90
       50
102
RTVSPost2010PropOp42
 70
     1
102
RTVSPost2010Prop43
 90
        3
102
RTVSPost2010PropOp43
 70
     1
102
RTVSPost2010Prop44ColorIndex
 90
        5
102
RTVSPost2010Prop44ColorRGB
 90
      255
102
RTVSPost2010PropOp44
 70
     1
102
RTVSPost2010Prop45
280
     0
102
RTVSPost2010PropOp45
 70
     1
102
RTVSPost2010Prop46
 90
       50
102
RTVSPost2010PropOp46
 70
     1
102
RTVSPost2010Prop47
 90
       50
102
RTVSPost2010PropOp47
 70
     1
102
RTVSPost2010Prop48
 90
       50
102
RTVSPost2010PropOp48
 70
     1
102
RTVSPost2010Prop49
280
     0
102
RTVSPost2010PropOp49
 70
     1
102
RTVSPost2010Prop50
 90
       50
102
RTVSPost2010PropOp50
 70
     1
102
RTVSPost2010Prop51ColorIndex
 90
      256
102
RTVSPost2010Prop51ColorRGB
 90
-16777216
102
RTVSPost2010PropOp51
 70
     0
102
RTVSPost2010Prop52
140
1.0
102
RTVSPost2010PropOp52
 70
     0
102
RTVSPost2010Prop53
 90
        2
102
RTVSPost2010PropOp53
 70
     1
102
RTVSPost2010Prop54
  1
strokes_ogs.tif
102
RTVSPost2010PropOp54
 70
     1
102
RTVSPost2010Prop55
280
     0
102
RTVSPost2010PropOp55
 70
     1
102
RTVSPost2010Prop56
140
1.0
102
RTVSPost2010PropOp56
 70
     1
102
RTVSPost2010Prop57
140
1.0
102
RTVSPost2010PropOp57
 70
     1
  0
XRECORD
  5
240
102
{ACAD_REACTORS
330
23F
102
}
330
23F
100
AcDbXrecord
280
     1
102
RTVSPropertyOp0
 70
     1
102
RTVSPropertyOp1
 70
     1
102
RTVSPropertyOp2
 70
     1
102
RTVSPropertyOp3
 70
     1
102
RTVSPropertyOp4
 70
     1
102
RTVSPropertyOp5
 70
     1
102
RTVSPropertyOp6
 70
     1
102
RTVSPropertyOp7
 70
     1
102
RTVSPropertyOp8
 70
     1
102
RTVSPropertyOp9
 70
     1
102
RTVSPropertyOp10
 70
     1
102
RTVSPropertyOp11
 70
     1
102
RTVSPropertyOp12
 70
     1
102
RTVSPropertyOp13
 70
     1
102
RTVSPropertyOp14
 70
     1
102
RTVSPropertyOp15
 70
     1
102
RTVSPropertyOp16
 70
     1
102
RTVSPropertyOp17
 70
     1
102
RTVSPropertyOp18
 70
     1
102
RTVSPropertyOp19
 70
     1
102
RTVSPropertyOp20
 70
     1
102
RTVSPropertyOp21
 70
     1
102
RTVSPropertyOp22
 70
     1
102
RTVSPropertyOp23
 70
     1
102
RTVSPropertyOp24
 70
     1
102
RTVSPropertyOp25
 70
     1
102
RTVSPropertyOp26
 70
     1
102
RTVSPropertyOp27
 70
     1
102
RTVSPropertyOp28
 70
     1
102
RTVSPropertyOp29
 70
     1
102
RTVSPropertyOp30
 70
     1
102
RTVSPropertyOp31
 70
     1
102
RTVSPropertyOp32
 70
     1
102
RTVSPropertyOp33
 70
     1
102
RTVSPropertyOp34
 70
     1
102
RTVSPropertyOp35
 70
     1
102
RTVSPropertyOp36
 70
     1
102
RTVSPropertyOp37
 70
     1
102
RTVSPropertyOp38
 70
     1
102
RTVSPropertyOp39
 70
     1
102
RTVSPropertyOp40
 70
     1
102
RTVSPropertyOp41
 70
     1
102
RTVSPropertyOp42
 70
     1
102
RTVSPropertyOp43
 70
     1
102
RTVSPropertyOp44
 70
     1
102
RTVSPropertyOp45
 70
     1
102
RTVSPropertyOp46
 70
     1
102
RTVSPropertyOp47
 70
     1
102
RTVSPropertyOp48
 70
     1
102
RTVSPropertyOp49
 70
     1
102
RTVSPropertyOp50
 70
     1
102
RTVSPropertyOp51
 70
     0
102
RTVSPropertyOp52
 70
     0
102
RTVSPropertyOp53
 70
     1
102
RTVSPropertyOp54
 70
     1
102
RTVSPropertyOp55
 70
     1
102
RTVSPropertyOp56
 70
     1
102
RTVSPropertyOp57
 70
     1
102
RTVSPost2010Prop28
280
     0
102
RTVSPost2010PropOp28
 70
     1
102
RTVSPost2010Prop29
280
     1
102
RTVSPost2010PropOp29
 70
     1
102
RTVSPost2010Prop30
280
     1
102
RTVSPost2010PropOp30
 70
     1
102
RTVSPost2010Prop31
280
     0
102
RTVSPost2010PropOp31
 70
     1
102
RTVSPost2010Prop32
280
     0
102
RTVSPost2010PropOp32
 70
     1
102
RTVSPost2010Prop33
280
     0
102
RTVSPost2010PropOp33
 70
     1
102
RTVSPost2010Prop34
280
     0
102
RTVSPost2010PropOp34
 70
     1
102
RTVSPost2010Prop35
280
     0
102
RTVSPost2010PropOp35
 70
     1
102
RTVSPost2010Prop36
280
     0
102
RTVSPost2010PropOp36
 70
     1
102
RTVSPost2010Prop37
 90
       50
102
RTVSPost2010PropOp37
 70
     1
102
RTVSPost2010Prop38
140
0.0
102
RTVSPost2010PropOp38
 70
     1
102
RTVSPost2010Prop39
140
1.0
102
RTVSPost2010PropOp39
 70
     1
102
RTVSPost2010Prop40
 90
        0
102
RTVSPost2010PropOp40
 70
     1
102
RTVSPost2010Prop41ColorIndex
 90
       18
102
RTVSPost2010Prop41ColorRGB
 90
        0
102
RTVSPost2010PropOp41
 70
     1
102
RTVSPost2010Prop42
 90
       50
102
RTVSPost2010PropOp42
 70
     1
102
RTVSPost2010Prop43
 90
        3
102
RTVSPost2010PropOp43
 70
     1
102
RTVSPost2010Prop44ColorIndex
 90
        5
102
RTVSPost2010Prop44ColorRGB
 90
      255
102
RTVSPost2010PropOp44
 70
     1
102
RTVSPost2010Prop45
280
     0
102
RTVSPost2010PropOp45
 70
     1
102
RTVSPost2010Prop46
 90
       50
102
RTVSPost2010PropOp46
 70
     1
102
RTVSPost2010Prop47
 90
       50
102
RTVSPost2010PropOp47
 70
     1
102
RTVSPost2010Prop48
 90
       50
102
RTVSPost2010PropOp48
 70
     1
102
RTVSPost2010Prop49
280
     0
102
RTVSPost2010PropOp49
 70
     1
102
RTVSPost2010Prop50
 90
       50
102
RTVSPost2010PropOp50
 70
     1
102
RTVSPost2010Prop51ColorIndex
 90
      256
102
RTVSPost2010Prop51ColorRGB
 90
-16777216
102
RTVSPost2010PropOp51
 70
     0
102
RTVSPost2010Prop52
140
1.0
102
RTVSPost2010PropOp52
 70
     0
102
RTVSPost2010Prop53
 90
        2
102
RTVSPost2010PropOp53
 70
     1
102
RTVSPost2010Prop54
  1
strokes_ogs.tif
102
RTVSPost2010PropOp54
 70
     1
102
RTVSPost2010Prop55
280
     0
102
RTVSPost2010PropOp55
 70
     1
102
RTVSPost2010Prop56
140
1.0
102
RTVSPost2010PropOp56
 70
     1
102
RTVSPost2010Prop57
140
1.0
102
RTVSPost2010PropOp57
 70
     1
  0
XRECORD
  5
242
102
{ACAD_REACTORS
330
241
102
}
330
241
100
AcDbXrecord
280
     1
102
RTVSPropertyOp0
 70
     1
102
RTVSPropertyOp1
 70
     1
102
RTVSPropertyOp2
 70
     1
102
RTVSPropertyOp3
 70
     1
102
RTVSPropertyOp4
 70
     1
102
RTVSPropertyOp5
 70
     1
102
RTVSPropertyOp6
 70
     1
102
RTVSPropertyOp7
 70
     1
102
RTVSPropertyOp8
 70
     1
102
RTVSPropertyOp9
 70
     1
102
RTVSPropertyOp10
 70
     1
102
RTVSPropertyOp11
 70
     1
102
RTVSPropertyOp12
 70
     1
102
RTVSPropertyOp13
 70
     1
102
RTVSPropertyOp14
 70
     1
102
RTVSPropertyOp15
 70
     1
102
RTVSPropertyOp16
 70
     1
102
RTVSPropertyOp17
 70
     1
102
RTVSPropertyOp18
 70
     1
102
RTVSPropertyOp19
 70
     1
102
RTVSPropertyOp20
 70
     1
102
RTVSPropertyOp21
 70
     1
102
RTVSPropertyOp22
 70
     1
102
RTVSPropertyOp23
 70
     1
102
RTVSPropertyOp24
 70
     1
102
RTVSPropertyOp25
 70
     1
102
RTVSPropertyOp26
 70
     1
102
RTVSPropertyOp27
 70
     1
102
RTVSPropertyOp28
 70
     1
102
RTVSPropertyOp29
 70
     1
102
RTVSPropertyOp30
 70
     1
102
RTVSPropertyOp31
 70
     1
102
RTVSPropertyOp32
 70
     1
102
RTVSPropertyOp33
 70
     1
102
RTVSPropertyOp34
 70
     1
102
RTVSPropertyOp35
 70
     1
102
RTVSPropertyOp36
 70
     1
102
RTVSPropertyOp37
 70
     1
102
RTVSPropertyOp38
 70
     1
102
RTVSPropertyOp39
 70
     1
102
RTVSPropertyOp40
 70
     1
102
RTVSPropertyOp41
 70
     1
102
RTVSPropertyOp42
 70
     1
102
RTVSPropertyOp43
 70
     1
102
RTVSPropertyOp44
 70
     1
102
RTVSPropertyOp45
 70
     1
102
RTVSPropertyOp46
 70
     1
102
RTVSPropertyOp47
 70
     1
102
RTVSPropertyOp48
 70
     1
102
RTVSPropertyOp49
 70
     1
102
RTVSPropertyOp50
 70
     1
102
RTVSPropertyOp51
 70
     0
102
RTVSPropertyOp52
 70
     0
102
RTVSPropertyOp53
 70
     1
102
RTVSPropertyOp54
 70
     1
102
RTVSPropertyOp55
 70
     1
102
RTVSPropertyOp56
 70
     1
102
RTVSPropertyOp57
 70
     1
102
RTVSPost2010Prop28
280
     0
102
RTVSPost2010PropOp28
 70
     1
102
RTVSPost2010Prop29
280
     1
102
RTVSPost2010PropOp29
 70
     1
102
RTVSPost2010Prop30
280
     1
102
RTVSPost2010PropOp30
 70
     1
102
RTVSPost2010Prop31
280
     0
102
RTVSPost2010PropOp31
 70
     1
102
RTVSPost2010Prop32
280
     0
102
RTVSPost2010PropOp32
 70
     1
102
RTVSPost2010Prop33
280
     0
102
RTVSPost2010PropOp33
 70
     1
102
RTVSPost2010Prop34
280
     0
102
RTVSPost2010PropOp34
 70
     1
102
RTVSPost2010Prop35
280
     0
102
RTVSPost2010PropOp35
 70
     1
102
RTVSPost2010Prop36
280
     0
102
RTVSPost2010PropOp36
 70
     1
102
RTVSPost2010Prop37
 90
       50
102
RTVSPost2010PropOp37
 70
     1
102
RTVSPost2010Prop38
140
0.0
102
RTVSPost2010PropOp38
 70
     1
102
RTVSPost2010Prop39
140
1.0
102
RTVSPost2010PropOp39
 70
     1
102
RTVSPost2010Prop40
 90
        0
102
RTVSPost2010PropOp40
 70
     1
102
RTVSPost2010Prop41ColorIndex
 90
       18
102
RTVSPost2010Prop41ColorRGB
 90
        0
102
RTVSPost2010PropOp41
 70
     1
102
RTVSPost2010Prop42
 90
       50
102
RTVSPost2010PropOp42
 70
     1
102
RTVSPost2010Prop43
 90
        3
102
RTVSPost2010PropOp43
 70
     1
102
RTVSPost2010Prop44ColorIndex
 90
        5
102
RTVSPost2010Prop44ColorRGB
 90
      255
102
RTVSPost2010PropOp44
 70
     1
102
RTVSPost2010Prop45
280
     0
102
RTVSPost2010PropOp45
 70
     1
102
RTVSPost2010Prop46
 90
       50
102
RTVSPost2010PropOp46
 70
     1
102
RTVSPost2010Prop47
 90
       50
102
RTVSPost2010PropOp47
 70
     1
102
RTVSPost2010Prop48
 90
       50
102
RTVSPost2010PropOp48
 70
     1
102
RTVSPost2010Prop49
280
     0
102
RTVSPost2010PropOp49
 70
     1
102
RTVSPost2010Prop50
 90
       50
102
RTVSPost2010PropOp50
 70
     1
102
RTVSPost2010Prop51ColorIndex
 90
      256
102
RTVSPost2010Prop51ColorRGB
 90
-16777216
102
RTVSPost2010PropOp51
 70
     0
102
RTVSPost2010Prop52
140
1.0
102
RTVSPost2010PropOp52
 70
     0
102
RTVSPost2010Prop53
 90
        2
102
RTVSPost2010PropOp53
 70
     1
102
RTVSPost2010Prop54
  1
strokes_ogs.tif
102
RTVSPost2010PropOp54
 70
     1
102
RTVSPost2010Prop55
280
     0
102
RTVSPost2010PropOp55
 70
     1
102
RTVSPost2010Prop56
140
1.0
102
RTVSPost2010PropOp56
 70
     1
102
RTVSPost2010Prop57
140
1.0
102
RTVSPost2010PropOp57
 70
     1
  0
XRECORD
  5
248
102
{ACAD_REACTORS
330
247
102
}
330
247
100
AcDbXrecord
280
     1
102
RTVSPropertyOp0
 70
     1
102
RTVSPropertyOp1
 70
     1
102
RTVSPropertyOp2
 70
     1
102
RTVSPropertyOp3
 70
     1
102
RTVSPropertyOp4
 70
     1
102
RTVSPropertyOp5
 70
     1
102
RTVSPropertyOp6
 70
     1
102
RTVSPropertyOp7
 70
     1
102
RTVSPropertyOp8
 70
     1
102
RTVSPropertyOp9
 70
     1
102
RTVSPropertyOp10
 70
     1
102
RTVSPropertyOp11
 70
     1
102
RTVSPropertyOp12
 70
     1
102
RTVSPropertyOp13
 70
     1
102
RTVSPropertyOp14
 70
     1
102
RTVSPropertyOp15
 70
     1
102
RTVSPropertyOp16
 70
     1
102
RTVSPropertyOp17
 70
     1
102
RTVSPropertyOp18
 70
     1
102
RTVSPropertyOp19
 70
     1
102
RTVSPropertyOp20
 70
     1
102
RTVSPropertyOp21
 70
     1
102
RTVSPropertyOp22
 70
     1
102
RTVSPropertyOp23
 70
     1
102
RTVSPropertyOp24
 70
     1
102
RTVSPropertyOp25
 70
     1
102
RTVSPropertyOp26
 70
     1
102
RTVSPropertyOp27
 70
     1
102
RTVSPropertyOp28
 70
     1
102
RTVSPropertyOp29
 70
     1
102
RTVSPropertyOp30
 70
     1
102
RTVSPropertyOp31
 70
     1
102
RTVSPropertyOp32
 70
     1
102
RTVSPropertyOp33
 70
     1
102
RTVSPropertyOp34
 70
     1
102
RTVSPropertyOp35
 70
     1
102
RTVSPropertyOp36
 70
     1
102
RTVSPropertyOp37
 70
     1
102
RTVSPropertyOp38
 70
     1
102
RTVSPropertyOp39
 70
     1
102
RTVSPropertyOp40
 70
     1
102
RTVSPropertyOp41
 70
     1
102
RTVSPropertyOp42
 70
     1
102
RTVSPropertyOp43
 70
     1
102
RTVSPropertyOp44
 70
     1
102
RTVSPropertyOp45
 70
     1
102
RTVSPropertyOp46
 70
     1
102
RTVSPropertyOp47
 70
     1
102
RTVSPropertyOp48
 70
     1
102
RTVSPropertyOp49
 70
     1
102
RTVSPropertyOp50
 70
     1
102
RTVSPropertyOp51
 70
     0
102
RTVSPropertyOp52
 70
     0
102
RTVSPropertyOp53
 70
     1
102
RTVSPropertyOp54
 70
     1
102
RTVSPropertyOp55
 70
     1
102
RTVSPropertyOp56
 70
     1
102
RTVSPropertyOp57
 70
     1
102
RTVSPost2010Prop28
280
     0
102
RTVSPost2010PropOp28
 70
     1
102
RTVSPost2010Prop29
280
     1
102
RTVSPost2010PropOp29
 70
     1
102
RTVSPost2010Prop30
280
     1
102
RTVSPost2010PropOp30
 70
     1
102
RTVSPost2010Prop31
280
     0
102
RTVSPost2010PropOp31
 70
     1
102
RTVSPost2010Prop32
280
     0
102
RTVSPost2010PropOp32
 70
     1
102
RTVSPost2010Prop33
280
     0
102
RTVSPost2010PropOp33
 70
     1
102
RTVSPost2010Prop34
280
     0
102
RTVSPost2010PropOp34
 70
     1
102
RTVSPost2010Prop35
280
     0
102
RTVSPost2010PropOp35
 70
     1
102
RTVSPost2010Prop36
280
     0
102
RTVSPost2010PropOp36
 70
     1
102
RTVSPost2010Prop37
 90
       50
102
RTVSPost2010PropOp37
 70
     1
102
RTVSPost2010Prop38
140
0.0
102
RTVSPost2010PropOp38
 70
     1
102
RTVSPost2010Prop39
140
1.0
102
RTVSPost2010PropOp39
 70
     1
102
RTVSPost2010Prop40
 90
        0
102
RTVSPost2010PropOp40
 70
     1
102
RTVSPost2010Prop41ColorIndex
 90
       18
102
RTVSPost2010Prop41ColorRGB
 90
        0
102
RTVSPost2010PropOp41
 70
     1
102
RTVSPost2010Prop42
 90
       50
102
RTVSPost2010PropOp42
 70
     1
102
RTVSPost2010Prop43
 90
        3
102
RTVSPost2010PropOp43
 70
     1
102
RTVSPost2010Prop44ColorIndex
 90
        5
102
RTVSPost2010Prop44ColorRGB
 90
      255
102
RTVSPost2010PropOp44
 70
     1
102
RTVSPost2010Prop45
280
     0
102
RTVSPost2010PropOp45
 70
     1
102
RTVSPost2010Prop46
 90
       50
102
RTVSPost2010PropOp46
 70
     1
102
RTVSPost2010Prop47
 90
       50
102
RTVSPost2010PropOp47
 70
     1
102
RTVSPost2010Prop48
 90
       50
102
RTVSPost2010PropOp48
 70
     1
102
RTVSPost2010Prop49
280
     0
102
RTVSPost2010PropOp49
 70
     1
102
RTVSPost2010Prop50
 90
       50
102
RTVSPost2010PropOp50
 70
     1
102
RTVSPost2010Prop51ColorIndex
 90
      256
102
RTVSPost2010Prop51ColorRGB
 90
-16777216
102
RTVSPost2010PropOp51
 70
     0
102
RTVSPost2010Prop52
140
1.0
102
RTVSPost2010PropOp52
 70
     0
102
RTVSPost2010Prop53
 90
        2
102
RTVSPost2010PropOp53
 70
     1
102
RTVSPost2010Prop54
  1
strokes_ogs.tif
102
RTVSPost2010PropOp54
 70
     1
102
RTVSPost2010Prop55
280
     0
102
RTVSPost2010PropOp55
 70
     1
102
RTVSPost2010Prop56
140
1.0
102
RTVSPost2010PropOp56
 70
     1
102
RTVSPost2010Prop57
140
1.0
102
RTVSPost2010PropOp57
 70
     1
  0
XRECORD
  5
25C
102
{ACAD_REACTORS
330
25B
102
}
330
25B
100
AcDbXrecord
280
     1
102
RTVSPropertyOp0
 70
     0
102
RTVSPropertyOp1
 70
     0
102
RTVSPropertyOp2
 70
     0
102
RTVSPropertyOp3
 70
     0
102
RTVSPropertyOp4
 70
     0
102
RTVSPropertyOp5
 70
     0
102
RTVSPropertyOp6
 70
     0
102
RTVSPropertyOp7
 70
     0
102
RTVSPropertyOp8
 70
     0
102
RTVSPropertyOp9
 70
     0
102
RTVSPropertyOp10
 70
     0
102
RTVSPropertyOp11
 70
     0
102
RTVSPropertyOp12
 70
     0
102
RTVSPropertyOp13
 70
     0
102
RTVSPropertyOp14
 70
     2
102
RTVSPropertyOp15
 70
     0
102
RTVSPropertyOp16
 70
     0
102
RTVSPropertyOp17
 70
     0
102
RTVSPropertyOp18
 70
     0
102
RTVSPropertyOp19
 70
     0
102
RTVSPropertyOp20
 70
     0
102
RTVSPropertyOp21
 70
     0
102
RTVSPropertyOp22
 70
     0
102
RTVSPropertyOp23
 70
     0
102
RTVSPropertyOp24
 70
     0
102
RTVSPropertyOp25
 70
     0
102
RTVSPropertyOp26
 70
     0
102
RTVSPropertyOp27
 70
     0
102
RTVSPropertyOp28
 70
     0
102
RTVSPropertyOp29
 70
     0
102
RTVSPropertyOp30
 70
     0
102
RTVSPropertyOp31
 70
     0
102
RTVSPropertyOp32
 70
     0
102
RTVSPropertyOp33
 70
     0
102
RTVSPropertyOp34
 70
     0
102
RTVSPropertyOp35
 70
     0
102
RTVSPropertyOp36
 70
     0
102
RTVSPropertyOp37
 70
     0
102
RTVSPropertyOp38
 70
     0
102
RTVSPropertyOp39
 70
     0
102
RTVSPropertyOp40
 70
     0
102
RTVSPropertyOp41
 70
     0
102
RTVSPropertyOp42
 70
     0
102
RTVSPropertyOp43
 70
     0
102
RTVSPropertyOp44
 70
     0
102
RTVSPropertyOp45
 70
     0
102
RTVSPropertyOp46
 70
     0
102
RTVSPropertyOp47
 70
     0
102
RTVSPropertyOp48
 70
     0
102
RTVSPropertyOp49
 70
     0
102
RTVSPropertyOp50
 70
     0
102
RTVSPropertyOp51
 70
     0
102
RTVSPropertyOp52
 70
     0
102
RTVSPropertyOp53
 70
     0
102
RTVSPropertyOp54
 70
     0
102
RTVSPropertyOp55
 70
     0
102
RTVSPropertyOp56
 70
     0
102
RTVSPropertyOp57
 70
     0
102
RTVSPost2010Prop28
280
     0
102
RTVSPost2010PropOp28
 70
     0
102
RTVSPost2010Prop29
280
     1
102
RTVSPost2010PropOp29
 70
     0
102
RTVSPost2010Prop30
280
     1
102
RTVSPost2010PropOp30
 70
     0
102
RTVSPost2010Prop31
280
     0
102
RTVSPost2010PropOp31
 70
     0
102
RTVSPost2010Prop32
280
     0
102
RTVSPost2010PropOp32
 70
     0
102
RTVSPost2010Prop33
280
     0
102
RTVSPost2010PropOp33
 70
     0
102
RTVSPost2010Prop34
280
     0
102
RTVSPost2010PropOp34
 70
     0
102
RTVSPost2010Prop35
280
     0
102
RTVSPost2010PropOp35
 70
     0
102
RTVSPost2010Prop36
280
     0
102
RTVSPost2010PropOp36
 70
     0
102
RTVSPost2010Prop37
 90
       50
102
RTVSPost2010PropOp37
 70
     0
102
RTVSPost2010Prop38
140
0.0
102
RTVSPost2010PropOp38
 70
     0
102
RTVSPost2010Prop39
140
1.0
102
RTVSPost2010PropOp39
 70
     0
102
RTVSPost2010Prop40
 90
        0
102
RTVSPost2010PropOp40
 70
     0
102
RTVSPost2010Prop41ColorIndex
 90
       18
102
RTVSPost2010Prop41ColorRGB
 90
        0
102
RTVSPost2010PropOp41
 70
     0
102
RTVSPost2010Prop42
 90
       50
102
RTVSPost2010PropOp42
 70
     0
102
RTVSPost2010Prop43
 90
        3
102
RTVSPost2010PropOp43
 70
     0
102
RTVSPost2010Prop44ColorIndex
 90
        5
102
RTVSPost2010Prop44ColorRGB
 90
      255
102
RTVSPost2010PropOp44
 70
     0
102
RTVSPost2010Prop45
280
     0
102
RTVSPost2010PropOp45
 70
     0
102
RTVSPost2010Prop46
 90
       50
102
RTVSPost2010PropOp46
 70
     0
102
RTVSPost2010Prop47
 90
       50
102
RTVSPost2010PropOp47
 70
     0
102
RTVSPost2010Prop48
 90
       50
102
RTVSPost2010PropOp48
 70
     0
102
RTVSPost2010Prop49
280
     0
102
RTVSPost2010PropOp49
 70
     0
102
RTVSPost2010Prop50
 90
       50
102
RTVSPost2010PropOp50
 70
     0
102
RTVSPost2010Prop51ColorIndex
 90
      256
102
RTVSPost2010Prop51ColorRGB
 90
-16777216
102
RTVSPost2010PropOp51
 70
     0
102
RTVSPost2010Prop52
140
1.0
102
RTVSPost2010PropOp52
 70
     0
102
RTVSPost2010Prop53
 90
        2
102
RTVSPost2010PropOp53
 70
     0
102
RTVSPost2010Prop54
  1
strokes_ogs.tif
102
RTVSPost2010PropOp54
 70
     0
102
RTVSPost2010Prop55
280
     0
102
RTVSPost2010PropOp55
 70
     0
102
RTVSPost2010Prop56
140
1.0
102
RTVSPost2010PropOp56
 70
     0
102
RTVSPost2010Prop57
140
1.0
102
RTVSPost2010PropOp57
 70
     0
  0
XRECORD
  5
256
102
{ACAD_REACTORS
330
255
102
}
330
255
100
AcDbXrecord
280
     1
102
RTVSPropertyOp0
 70
     1
102
RTVSPropertyOp1
 70
     1
102
RTVSPropertyOp2
 70
     1
102
RTVSPropertyOp3
 70
     1
102
RTVSPropertyOp4
 70
     1
102
RTVSPropertyOp5
 70
     1
102
RTVSPropertyOp6
 70
     1
102
RTVSPropertyOp7
 70
     1
102
RTVSPropertyOp8
 70
     1
102
RTVSPropertyOp9
 70
     1
102
RTVSPropertyOp10
 70
     1
102
RTVSPropertyOp11
 70
     1
102
RTVSPropertyOp12
 70
     1
102
RTVSPropertyOp13
 70
     1
102
RTVSPropertyOp14
 70
     1
102
RTVSPropertyOp15
 70
     1
102
RTVSPropertyOp16
 70
     1
102
RTVSPropertyOp17
 70
     1
102
RTVSPropertyOp18
 70
     1
102
RTVSPropertyOp19
 70
     1
102
RTVSPropertyOp20
 70
     1
102
RTVSPropertyOp21
 70
     1
102
RTVSPropertyOp22
 70
     1
102
RTVSPropertyOp23
 70
     1
102
RTVSPropertyOp24
 70
     1
102
RTVSPropertyOp25
 70
     1
102
RTVSPropertyOp26
 70
     1
102
RTVSPropertyOp27
 70
     1
102
RTVSPropertyOp28
 70
     1
102
RTVSPropertyOp29
 70
     1
102
RTVSPropertyOp30
 70
     1
102
RTVSPropertyOp31
 70
     1
102
RTVSPropertyOp32
 70
     1
102
RTVSPropertyOp33
 70
     1
102
RTVSPropertyOp34
 70
     1
102
RTVSPropertyOp35
 70
     1
102
RTVSPropertyOp36
 70
     1
102
RTVSPropertyOp37
 70
     1
102
RTVSPropertyOp38
 70
     1
102
RTVSPropertyOp39
 70
     1
102
RTVSPropertyOp40
 70
     1
102
RTVSPropertyOp41
 70
     1
102
RTVSPropertyOp42
 70
     1
102
RTVSPropertyOp43
 70
     1
102
RTVSPropertyOp44
 70
     1
102
RTVSPropertyOp45
 70
     1
102
RTVSPropertyOp46
 70
     1
102
RTVSPropertyOp47
 70
     1
102
RTVSPropertyOp48
 70
     1
102
RTVSPropertyOp49
 70
     1
102
RTVSPropertyOp50
 70
     1
102
RTVSPropertyOp51
 70
     0
102
RTVSPropertyOp52
 70
     0
102
RTVSPropertyOp53
 70
     1
102
RTVSPropertyOp54
 70
     1
102
RTVSPropertyOp55
 70
     1
102
RTVSPropertyOp56
 70
     1
102
RTVSPropertyOp57
 70
     1
102
RTVSPost2010Prop28
280
     0
102
RTVSPost2010PropOp28
 70
     1
102
RTVSPost2010Prop29
280
     1
102
RTVSPost2010PropOp29
 70
     1
102
RTVSPost2010Prop30
280
     1
102
RTVSPost2010PropOp30
 70
     1
102
RTVSPost2010Prop31
280
     0
102
RTVSPost2010PropOp31
 70
     1
102
RTVSPost2010Prop32
280
     0
102
RTVSPost2010PropOp32
 70
     1
102
RTVSPost2010Prop33
280
     0
102
RTVSPost2010PropOp33
 70
     1
102
RTVSPost2010Prop34
280
     0
102
RTVSPost2010PropOp34
 70
     1
102
RTVSPost2010Prop35
280
     0
102
RTVSPost2010PropOp35
 70
     1
102
RTVSPost2010Prop36
280
     0
102
RTVSPost2010PropOp36
 70
     1
102
RTVSPost2010Prop37
 90
       50
102
RTVSPost2010PropOp37
 70
     1
102
RTVSPost2010Prop38
140
0.0
102
RTVSPost2010PropOp38
 70
     1
102
RTVSPost2010Prop39
140
1.0
102
RTVSPost2010PropOp39
 70
     1
102
RTVSPost2010Prop40
 90
        0
102
RTVSPost2010PropOp40
 70
     1
102
RTVSPost2010Prop41ColorIndex
 90
       18
102
RTVSPost2010Prop41ColorRGB
 90
        0
102
RTVSPost2010PropOp41
 70
     1
102
RTVSPost2010Prop42
 90
       50
102
RTVSPost2010PropOp42
 70
     1
102
RTVSPost2010Prop43
 90
        3
102
RTVSPost2010PropOp43
 70
     1
102
RTVSPost2010Prop44ColorIndex
 90
        5
102
RTVSPost2010Prop44ColorRGB
 90
      255
102
RTVSPost2010PropOp44
 70
     1
102
RTVSPost2010Prop45
280
     0
102
RTVSPost2010PropOp45
 70
     1
102
RTVSPost2010Prop46
 90
       50
102
RTVSPost2010PropOp46
 70
     1
102
RTVSPost2010Prop47
 90
       50
102
RTVSPost2010PropOp47
 70
     1
102
RTVSPost2010Prop48
 90
       50
102
RTVSPost2010PropOp48
 70
     1
102
RTVSPost2010Prop49
280
     0
102
RTVSPost2010PropOp49
 70
     1
102
RTVSPost2010Prop50
 90
       50
102
RTVSPost2010PropOp50
 70
     1
102
RTVSPost2010Prop51ColorIndex
 90
      256
102
RTVSPost2010Prop51ColorRGB
 90
-16777216
102
RTVSPost2010PropOp51
 70
     0
102
RTVSPost2010Prop52
140
1.0
102
RTVSPost2010PropOp52
 70
     0
102
RTVSPost2010Prop53
 90
        2
102
RTVSPost2010PropOp53
 70
     1
102
RTVSPost2010Prop54
  1
strokes_ogs.tif
102
RTVSPost2010PropOp54
 70
     1
102
RTVSPost2010Prop55
280
     0
102
RTVSPost2010PropOp55
 70
     1
102
RTVSPost2010Prop56
140
1.0
102
RTVSPost2010PropOp56
 70
     1
102
RTVSPost2010Prop57
140
1.0
102
RTVSPost2010PropOp57
 70
     1
  0
XRECORD
  5
25E
102
{ACAD_REACTORS
330
25D
102
}
330
25D
100
AcDbXrecord
280
     1
102
RTVSPropertyOp0
 70
     0
102
RTVSPropertyOp1
 70
     0
102
RTVSPropertyOp2
 70
     0
102
RTVSPropertyOp3
 70
     0
102
RTVSPropertyOp4
 70
     0
102
RTVSPropertyOp5
 70
     0
102
RTVSPropertyOp6
 70
     0
102
RTVSPropertyOp7
 70
     0
102
RTVSPropertyOp8
 70
     0
102
RTVSPropertyOp9
 70
     0
102
RTVSPropertyOp10
 70
     0
102
RTVSPropertyOp11
 70
     0
102
RTVSPropertyOp12
 70
     0
102
RTVSPropertyOp13
 70
     0
102
RTVSPropertyOp14
 70
     2
102
RTVSPropertyOp15
 70
     0
102
RTVSPropertyOp16
 70
     0
102
RTVSPropertyOp17
 70
     0
102
RTVSPropertyOp18
 70
     0
102
RTVSPropertyOp19
 70
     0
102
RTVSPropertyOp20
 70
     0
102
RTVSPropertyOp21
 70
     0
102
RTVSPropertyOp22
 70
     0
102
RTVSPropertyOp23
 70
     0
102
RTVSPropertyOp24
 70
     0
102
RTVSPropertyOp25
 70
     0
102
RTVSPropertyOp26
 70
     0
102
RTVSPropertyOp27
 70
     0
102
RTVSPropertyOp28
 70
     0
102
RTVSPropertyOp29
 70
     0
102
RTVSPropertyOp30
 70
     0
102
RTVSPropertyOp31
 70
     0
102
RTVSPropertyOp32
 70
     0
102
RTVSPropertyOp33
 70
     0
102
RTVSPropertyOp34
 70
     0
102
RTVSPropertyOp35
 70
     0
102
RTVSPropertyOp36
 70
     0
102
RTVSPropertyOp37
 70
     0
102
RTVSPropertyOp38
 70
     0
102
RTVSPropertyOp39
 70
     0
102
RTVSPropertyOp40
 70
     0
102
RTVSPropertyOp41
 70
     0
102
RTVSPropertyOp42
 70
     0
102
RTVSPropertyOp43
 70
     0
102
RTVSPropertyOp44
 70
     0
102
RTVSPropertyOp45
 70
     0
102
RTVSPropertyOp46
 70
     0
102
RTVSPropertyOp47
 70
     0
102
RTVSPropertyOp48
 70
     0
102
RTVSPropertyOp49
 70
     0
102
RTVSPropertyOp50
 70
     0
102
RTVSPropertyOp51
 70
     0
102
RTVSPropertyOp52
 70
     0
102
RTVSPropertyOp53
 70
     0
102
RTVSPropertyOp54
 70
     0
102
RTVSPropertyOp55
 70
     0
102
RTVSPropertyOp56
 70
     0
102
RTVSPropertyOp57
 70
     0
102
RTVSPost2010Prop28
280
     0
102
RTVSPost2010PropOp28
 70
     0
102
RTVSPost2010Prop29
280
     1
102
RTVSPost2010PropOp29
 70
     0
102
RTVSPost2010Prop30
280
     1
102
RTVSPost2010PropOp30
 70
     0
102
RTVSPost2010Prop31
280
     0
102
RTVSPost2010PropOp31
 70
     0
102
RTVSPost2010Prop32
280
     0
102
RTVSPost2010PropOp32
 70
     0
102
RTVSPost2010Prop33
280
     0
102
RTVSPost2010PropOp33
 70
     0
102
RTVSPost2010Prop34
280
     0
102
RTVSPost2010PropOp34
 70
     0
102
RTVSPost2010Prop35
280
     0
102
RTVSPost2010PropOp35
 70
     0
102
RTVSPost2010Prop36
280
     0
102
RTVSPost2010PropOp36
 70
     0
102
RTVSPost2010Prop37
 90
       50
102
RTVSPost2010PropOp37
 70
     0
102
RTVSPost2010Prop38
140
0.0
102
RTVSPost2010PropOp38
 70
     0
102
RTVSPost2010Prop39
140
1.0
102
RTVSPost2010PropOp39
 70
     0
102
RTVSPost2010Prop40
 90
        0
102
RTVSPost2010PropOp40
 70
     0
102
RTVSPost2010Prop41ColorIndex
 90
       18
102
RTVSPost2010Prop41ColorRGB
 90
        0
102
RTVSPost2010PropOp41
 70
     0
102
RTVSPost2010Prop42
 90
       50
102
RTVSPost2010PropOp42
 70
     0
102
RTVSPost2010Prop43
 90
        3
102
RTVSPost2010PropOp43
 70
     0
102
RTVSPost2010Prop44ColorIndex
 90
        5
102
RTVSPost2010Prop44ColorRGB
 90
      255
102
RTVSPost2010PropOp44
 70
     0
102
RTVSPost2010Prop45
280
     0
102
RTVSPost2010PropOp45
 70
     0
102
RTVSPost2010Prop46
 90
       50
102
RTVSPost2010PropOp46
 70
     0
102
RTVSPost2010Prop47
 90
       50
102
RTVSPost2010PropOp47
 70
     0
102
RTVSPost2010Prop48
 90
       50
102
RTVSPost2010PropOp48
 70
     0
102
RTVSPost2010Prop49
280
     0
102
RTVSPost2010PropOp49
 70
     0
102
RTVSPost2010Prop50
 90
       50
102
RTVSPost2010PropOp50
 70
     0
102
RTVSPost2010Prop51ColorIndex
 90
      256
102
RTVSPost2010Prop51ColorRGB
 90
-16777216
102
RTVSPost2010PropOp51
 70
     0
102
RTVSPost2010Prop52
140
1.0
102
RTVSPost2010PropOp52
 70
     0
102
RTVSPost2010Prop53
 90
        2
102
RTVSPost2010PropOp53
 70
     0
102
RTVSPost2010Prop54
  1
strokes_ogs.tif
102
RTVSPost2010PropOp54
 70
     0
102
RTVSPost2010Prop55
280
     0
102
RTVSPost2010PropOp55
 70
     0
102
RTVSPost2010Prop56
140
1.0
102
RTVSPost2010PropOp56
 70
     0
102
RTVSPost2010Prop57
140
1.0
102
RTVSPost2010PropOp57
 70
     0
  0
XRECORD
  5
24C
102
{ACAD_REACTORS
330
24B
102
}
330
24B
100
AcDbXrecord
280
     1
102
RTVSPropertyOp0
 70
     1
102
RTVSPropertyOp1
 70
     1
102
RTVSPropertyOp2
 70
     1
102
RTVSPropertyOp3
 70
     1
102
RTVSPropertyOp4
 70
     1
102
RTVSPropertyOp5
 70
     1
102
RTVSPropertyOp6
 70
     1
102
RTVSPropertyOp7
 70
     1
102
RTVSPropertyOp8
 70
     1
102
RTVSPropertyOp9
 70
     1
102
RTVSPropertyOp10
 70
     1
102
RTVSPropertyOp11
 70
     1
102
RTVSPropertyOp12
 70
     1
102
RTVSPropertyOp13
 70
     1
102
RTVSPropertyOp14
 70
     1
102
RTVSPropertyOp15
 70
     1
102
RTVSPropertyOp16
 70
     1
102
RTVSPropertyOp17
 70
     1
102
RTVSPropertyOp18
 70
     1
102
RTVSPropertyOp19
 70
     1
102
RTVSPropertyOp20
 70
     1
102
RTVSPropertyOp21
 70
     1
102
RTVSPropertyOp22
 70
     1
102
RTVSPropertyOp23
 70
     1
102
RTVSPropertyOp24
 70
     1
102
RTVSPropertyOp25
 70
     1
102
RTVSPropertyOp26
 70
     1
102
RTVSPropertyOp27
 70
     1
102
RTVSPropertyOp28
 70
     1
102
RTVSPropertyOp29
 70
     1
102
RTVSPropertyOp30
 70
     1
102
RTVSPropertyOp31
 70
     1
102
RTVSPropertyOp32
 70
     1
102
RTVSPropertyOp33
 70
     1
102
RTVSPropertyOp34
 70
     1
102
RTVSPropertyOp35
 70
     1
102
RTVSPropertyOp36
 70
     1
102
RTVSPropertyOp37
 70
     1
102
RTVSPropertyOp38
 70
     1
102
RTVSPropertyOp39
 70
     1
102
RTVSPropertyOp40
 70
     1
102
RTVSPropertyOp41
 70
     1
102
RTVSPropertyOp42
 70
     1
102
RTVSPropertyOp43
 70
     1
102
RTVSPropertyOp44
 70
     1
102
RTVSPropertyOp45
 70
     1
102
RTVSPropertyOp46
 70
     1
102
RTVSPropertyOp47
 70
     1
102
RTVSPropertyOp48
 70
     1
102
RTVSPropertyOp49
 70
     1
102
RTVSPropertyOp50
 70
     1
102
RTVSPropertyOp51
 70
     0
102
RTVSPropertyOp52
 70
     0
102
RTVSPropertyOp53
 70
     1
102
RTVSPropertyOp54
 70
     1
102
RTVSPropertyOp55
 70
     1
102
RTVSPropertyOp56
 70
     1
102
RTVSPropertyOp57
 70
     1
102
RTVSPost2010Prop28
280
     0
102
RTVSPost2010PropOp28
 70
     1
102
RTVSPost2010Prop29
280
     1
102
RTVSPost2010PropOp29
 70
     1
102
RTVSPost2010Prop30
280
     1
102
RTVSPost2010PropOp30
 70
     1
102
RTVSPost2010Prop31
280
     0
102
RTVSPost2010PropOp31
 70
     1
102
RTVSPost2010Prop32
280
     0
102
RTVSPost2010PropOp32
 70
     1
102
RTVSPost2010Prop33
280
     0
102
RTVSPost2010PropOp33
 70
     1
102
RTVSPost2010Prop34
280
     0
102
RTVSPost2010PropOp34
 70
     1
102
RTVSPost2010Prop35
280
     0
102
RTVSPost2010PropOp35
 70
     1
102
RTVSPost2010Prop36
280
     0
102
RTVSPost2010PropOp36
 70
     1
102
RTVSPost2010Prop37
 90
       50
102
RTVSPost2010PropOp37
 70
     1
102
RTVSPost2010Prop38
140
0.0
102
RTVSPost2010PropOp38
 70
     1
102
RTVSPost2010Prop39
140
1.0
102
RTVSPost2010PropOp39
 70
     1
102
RTVSPost2010Prop40
 90
        0
102
RTVSPost2010PropOp40
 70
     1
102
RTVSPost2010Prop41ColorIndex
 90
       18
102
RTVSPost2010Prop41ColorRGB
 90
        0
102
RTVSPost2010PropOp41
 70
     1
102
RTVSPost2010Prop42
 90
       50
102
RTVSPost2010PropOp42
 70
     1
102
RTVSPost2010Prop43
 90
        3
102
RTVSPost2010PropOp43
 70
     1
102
RTVSPost2010Prop44ColorIndex
 90
        5
102
RTVSPost2010Prop44ColorRGB
 90
      255
102
RTVSPost2010PropOp44
 70
     1
102
RTVSPost2010Prop45
280
     0
102
RTVSPost2010PropOp45
 70
     1
102
RTVSPost2010Prop46
 90
       50
102
RTVSPost2010PropOp46
 70
     1
102
RTVSPost2010Prop47
 90
       50
102
RTVSPost2010PropOp47
 70
     1
102
RTVSPost2010Prop48
 90
       50
102
RTVSPost2010PropOp48
 70
     1
102
RTVSPost2010Prop49
280
     0
102
RTVSPost2010PropOp49
 70
     1
102
RTVSPost2010Prop50
 90
       50
102
RTVSPost2010PropOp50
 70
     1
102
RTVSPost2010Prop51ColorIndex
 90
      256
102
RTVSPost2010Prop51ColorRGB
 90
-16777216
102
RTVSPost2010PropOp51
 70
     0
102
RTVSPost2010Prop52
140
1.0
102
RTVSPost2010PropOp52
 70
     0
102
RTVSPost2010Prop53
 90
        2
102
RTVSPost2010PropOp53
 70
     1
102
RTVSPost2010Prop54
  1
strokes_ogs.tif
102
RTVSPost2010PropOp54
 70
     1
102
RTVSPost2010Prop55
280
     0
102
RTVSPost2010PropOp55
 70
     1
102
RTVSPost2010Prop56
140
1.0
102
RTVSPost2010PropOp56
 70
     1
102
RTVSPost2010Prop57
140
1.0
102
RTVSPost2010PropOp57
 70
     1
  0
XRECORD
  5
26A
102
{ACAD_REACTORS
330
269
102
}
330
269
100
AcDbXrecord
280
     1
102
RTVSPropertyOp0
 70
     1
102
RTVSPropertyOp1
 70
     1
102
RTVSPropertyOp2
 70
     1
102
RTVSPropertyOp3
 70
     1
102
RTVSPropertyOp4
 70
     1
102
RTVSPropertyOp5
 70
     1
102
RTVSPropertyOp6
 70
     1
102
RTVSPropertyOp7
 70
     1
102
RTVSPropertyOp8
 70
     1
102
RTVSPropertyOp9
 70
     1
102
RTVSPropertyOp10
 70
     1
102
RTVSPropertyOp11
 70
     1
102
RTVSPropertyOp12
 70
     1
102
RTVSPropertyOp13
 70
     1
102
RTVSPropertyOp14
 70
     1
102
RTVSPropertyOp15
 70
     1
102
RTVSPropertyOp16
 70
     1
102
RTVSPropertyOp17
 70
     1
102
RTVSPropertyOp18
 70
     1
102
RTVSPropertyOp19
 70
     1
102
RTVSPropertyOp20
 70
     1
102
RTVSPropertyOp21
 70
     1
102
RTVSPropertyOp22
 70
     1
102
RTVSPropertyOp23
 70
     1
102
RTVSPropertyOp24
 70
     1
102
RTVSPropertyOp25
 70
     1
102
RTVSPropertyOp26
 70
     1
102
RTVSPropertyOp27
 70
     1
102
RTVSPropertyOp28
 70
     1
102
RTVSPropertyOp29
 70
     1
102
RTVSPropertyOp30
 70
     1
102
RTVSPropertyOp31
 70
     1
102
RTVSPropertyOp32
 70
     1
102
RTVSPropertyOp33
 70
     1
102
RTVSPropertyOp34
 70
     1
102
RTVSPropertyOp35
 70
     1
102
RTVSPropertyOp36
 70
     1
102
RTVSPropertyOp37
 70
     1
102
RTVSPropertyOp38
 70
     1
102
RTVSPropertyOp39
 70
     1
102
RTVSPropertyOp40
 70
     1
102
RTVSPropertyOp41
 70
     1
102
RTVSPropertyOp42
 70
     1
102
RTVSPropertyOp43
 70
     1
102
RTVSPropertyOp44
 70
     1
102
RTVSPropertyOp45
 70
     1
102
RTVSPropertyOp46
 70
     1
102
RTVSPropertyOp47
 70
     1
102
RTVSPropertyOp48
 70
     1
102
RTVSPropertyOp49
 70
     1
102
RTVSPropertyOp50
 70
     1
102
RTVSPropertyOp51
 70
     0
102
RTVSPropertyOp52
 70
     0
102
RTVSPropertyOp53
 70
     1
102
RTVSPropertyOp54
 70
     1
102
RTVSPropertyOp55
 70
     1
102
RTVSPropertyOp56
 70
     1
102
RTVSPropertyOp57
 70
     1
102
RTVSPost2010Prop28
280
     0
102
RTVSPost2010PropOp28
 70
     1
102
RTVSPost2010Prop29
280
     1
102
RTVSPost2010PropOp29
 70
     1
102
RTVSPost2010Prop30
280
     1
102
RTVSPost2010PropOp30
 70
     1
102
RTVSPost2010Prop31
280
     0
102
RTVSPost2010PropOp31
 70
     1
102
RTVSPost2010Prop32
280
     0
102
RTVSPost2010PropOp32
 70
     1
102
RTVSPost2010Prop33
280
     0
102
RTVSPost2010PropOp33
 70
     1
102
RTVSPost2010Prop34
280
     0
102
RTVSPost2010PropOp34
 70
     1
102
RTVSPost2010Prop35
280
     0
102
RTVSPost2010PropOp35
 70
     1
102
RTVSPost2010Prop36
280
     0
102
RTVSPost2010PropOp36
 70
     1
102
RTVSPost2010Prop37
 90
       50
102
RTVSPost2010PropOp37
 70
     1
102
RTVSPost2010Prop38
140
0.0
102
RTVSPost2010PropOp38
 70
     1
102
RTVSPost2010Prop39
140
1.0
102
RTVSPost2010PropOp39
 70
     1
102
RTVSPost2010Prop40
 90
        0
102
RTVSPost2010PropOp40
 70
     1
102
RTVSPost2010Prop41ColorIndex
 90
       18
102
RTVSPost2010Prop41ColorRGB
 90
        0
102
RTVSPost2010PropOp41
 70
     1
102
RTVSPost2010Prop42
 90
       50
102
RTVSPost2010PropOp42
 70
     1
102
RTVSPost2010Prop43
 90
        3
102
RTVSPost2010PropOp43
 70
     1
102
RTVSPost2010Prop44ColorIndex
 90
        5
102
RTVSPost2010Prop44ColorRGB
 90
      255
102
RTVSPost2010PropOp44
 70
     1
102
RTVSPost2010Prop45
280
     0
102
RTVSPost2010PropOp45
 70
     1
102
RTVSPost2010Prop46
 90
       50
102
RTVSPost2010PropOp46
 70
     1
102
RTVSPost2010Prop47
 90
       50
102
RTVSPost2010PropOp47
 70
     1
102
RTVSPost2010Prop48
 90
       50
102
RTVSPost2010PropOp48
 70
     1
102
RTVSPost2010Prop49
280
     0
102
RTVSPost2010PropOp49
 70
     1
102
RTVSPost2010Prop50
 90
       50
102
RTVSPost2010PropOp50
 70
     1
102
RTVSPost2010Prop51ColorIndex
 90
      256
102
RTVSPost2010Prop51ColorRGB
 90
-16777216
102
RTVSPost2010PropOp51
 70
     0
102
RTVSPost2010Prop52
140
1.0
102
RTVSPost2010PropOp52
 70
     0
102
RTVSPost2010Prop53
 90
        2
102
RTVSPost2010PropOp53
 70
     1
102
RTVSPost2010Prop54
  1
strokes_ogs.tif
102
RTVSPost2010PropOp54
 70
     1
102
RTVSPost2010Prop55
280
     0
102
RTVSPost2010PropOp55
 70
     1
102
RTVSPost2010Prop56
140
1.0
102
RTVSPost2010PropOp56
 70
     1
102
RTVSPost2010Prop57
140
1.0
102
RTVSPost2010PropOp57
 70
     1
  0
XRECORD
  5
268
102
{ACAD_REACTORS
330
267
102
}
330
267
100
AcDbXrecord
280
     1
102
RTVSPropertyOp0
 70
     1
102
RTVSPropertyOp1
 70
     1
102
RTVSPropertyOp2
 70
     1
102
RTVSPropertyOp3
 70
     1
102
RTVSPropertyOp4
 70
     1
102
RTVSPropertyOp5
 70
     1
102
RTVSPropertyOp6
 70
     1
102
RTVSPropertyOp7
 70
     1
102
RTVSPropertyOp8
 70
     1
102
RTVSPropertyOp9
 70
     1
102
RTVSPropertyOp10
 70
     1
102
RTVSPropertyOp11
 70
     1
102
RTVSPropertyOp12
 70
     1
102
RTVSPropertyOp13
 70
     1
102
RTVSPropertyOp14
 70
     1
102
RTVSPropertyOp15
 70
     1
102
RTVSPropertyOp16
 70
     1
102
RTVSPropertyOp17
 70
     1
102
RTVSPropertyOp18
 70
     1
102
RTVSPropertyOp19
 70
     1
102
RTVSPropertyOp20
 70
     1
102
RTVSPropertyOp21
 70
     1
102
RTVSPropertyOp22
 70
     1
102
RTVSPropertyOp23
 70
     1
102
RTVSPropertyOp24
 70
     1
102
RTVSPropertyOp25
 70
     1
102
RTVSPropertyOp26
 70
     1
102
RTVSPropertyOp27
 70
     1
102
RTVSPropertyOp28
 70
     1
102
RTVSPropertyOp29
 70
     1
102
RTVSPropertyOp30
 70
     1
102
RTVSPropertyOp31
 70
     1
102
RTVSPropertyOp32
 70
     1
102
RTVSPropertyOp33
 70
     1
102
RTVSPropertyOp34
 70
     1
102
RTVSPropertyOp35
 70
     1
102
RTVSPropertyOp36
 70
     1
102
RTVSPropertyOp37
 70
     1
102
RTVSPropertyOp38
 70
     1
102
RTVSPropertyOp39
 70
     1
102
RTVSPropertyOp40
 70
     1
102
RTVSPropertyOp41
 70
     1
102
RTVSPropertyOp42
 70
     1
102
RTVSPropertyOp43
 70
     1
102
RTVSPropertyOp44
 70
     1
102
RTVSPropertyOp45
 70
     1
102
RTVSPropertyOp46
 70
     1
102
RTVSPropertyOp47
 70
     1
102
RTVSPropertyOp48
 70
     1
102
RTVSPropertyOp49
 70
     1
102
RTVSPropertyOp50
 70
     1
102
RTVSPropertyOp51
 70
     0
102
RTVSPropertyOp52
 70
     0
102
RTVSPropertyOp53
 70
     1
102
RTVSPropertyOp54
 70
     1
102
RTVSPropertyOp55
 70
     1
102
RTVSPropertyOp56
 70
     1
102
RTVSPropertyOp57
 70
     1
102
RTVSPost2010Prop28
280
     0
102
RTVSPost2010PropOp28
 70
     1
102
RTVSPost2010Prop29
280
     1
102
RTVSPost2010PropOp29
 70
     1
102
RTVSPost2010Prop30
280
     1
102
RTVSPost2010PropOp30
 70
     1
102
RTVSPost2010Prop31
280
     0
102
RTVSPost2010PropOp31
 70
     1
102
RTVSPost2010Prop32
280
     0
102
RTVSPost2010PropOp32
 70
     1
102
RTVSPost2010Prop33
280
     0
102
RTVSPost2010PropOp33
 70
     1
102
RTVSPost2010Prop34
280
     0
102
RTVSPost2010PropOp34
 70
     1
102
RTVSPost2010Prop35
280
     0
102
RTVSPost2010PropOp35
 70
     1
102
RTVSPost2010Prop36
280
     0
102
RTVSPost2010PropOp36
 70
     1
102
RTVSPost2010Prop37
 90
       50
102
RTVSPost2010PropOp37
 70
     1
102
RTVSPost2010Prop38
140
0.0
102
RTVSPost2010PropOp38
 70
     1
102
RTVSPost2010Prop39
140
1.0
102
RTVSPost2010PropOp39
 70
     1
102
RTVSPost2010Prop40
 90
        0
102
RTVSPost2010PropOp40
 70
     1
102
RTVSPost2010Prop41ColorIndex
 90
       18
102
RTVSPost2010Prop41ColorRGB
 90
        0
102
RTVSPost2010PropOp41
 70
     1
102
RTVSPost2010Prop42
 90
       50
102
RTVSPost2010PropOp42
 70
     1
102
RTVSPost2010Prop43
 90
        3
102
RTVSPost2010PropOp43
 70
     1
102
RTVSPost2010Prop44ColorIndex
 90
        5
102
RTVSPost2010Prop44ColorRGB
 90
      255
102
RTVSPost2010PropOp44
 70
     1
102
RTVSPost2010Prop45
280
     0
102
RTVSPost2010PropOp45
 70
     1
102
RTVSPost2010Prop46
 90
       50
102
RTVSPost2010PropOp46
 70
     1
102
RTVSPost2010Prop47
 90
       50
102
RTVSPost2010PropOp47
 70
     1
102
RTVSPost2010Prop48
 90
       50
102
RTVSPost2010PropOp48
 70
     1
102
RTVSPost2010Prop49
280
     0
102
RTVSPost2010PropOp49
 70
     1
102
RTVSPost2010Prop50
 90
       50
102
RTVSPost2010PropOp50
 70
     1
102
RTVSPost2010Prop51ColorIndex
 90
      256
102
RTVSPost2010Prop51ColorRGB
 90
-16777216
102
RTVSPost2010PropOp51
 70
     0
102
RTVSPost2010Prop52
140
1.0
102
RTVSPost2010PropOp52
 70
     0
102
RTVSPost2010Prop53
 90
        2
102
RTVSPost2010PropOp53
 70
     1
102
RTVSPost2010Prop54
  1
strokes_ogs.tif
102
RTVSPost2010PropOp54
 70
     1
102
RTVSPost2010Prop55
280
     0
102
RTVSPost2010PropOp55
 70
     1
102
RTVSPost2010Prop56
140
1.0
102
RTVSPost2010PropOp56
 70
     1
102
RTVSPost2010Prop57
140
1.0
102
RTVSPost2010PropOp57
 70
     1
  0
XRECORD
  5
262
102
{ACAD_REACTORS
330
261
102
}
330
261
100
AcDbXrecord
280
     1
102
RTVSPropertyOp0
 70
     1
102
RTVSPropertyOp1
 70
     1
102
RTVSPropertyOp2
 70
     1
102
RTVSPropertyOp3
 70
     1
102
RTVSPropertyOp4
 70
     1
102
RTVSPropertyOp5
 70
     1
102
RTVSPropertyOp6
 70
     1
102
RTVSPropertyOp7
 70
     1
102
RTVSPropertyOp8
 70
     1
102
RTVSPropertyOp9
 70
     1
102
RTVSPropertyOp10
 70
     1
102
RTVSPropertyOp11
 70
     1
102
RTVSPropertyOp12
 70
     1
102
RTVSPropertyOp13
 70
     1
102
RTVSPropertyOp14
 70
     1
102
RTVSPropertyOp15
 70
     1
102
RTVSPropertyOp16
 70
     1
102
RTVSPropertyOp17
 70
     1
102
RTVSPropertyOp18
 70
     1
102
RTVSPropertyOp19
 70
     1
102
RTVSPropertyOp20
 70
     1
102
RTVSPropertyOp21
 70
     1
102
RTVSPropertyOp22
 70
     1
102
RTVSPropertyOp23
 70
     1
102
RTVSPropertyOp24
 70
     1
102
RTVSPropertyOp25
 70
     1
102
RTVSPropertyOp26
 70
     1
102
RTVSPropertyOp27
 70
     1
102
RTVSPropertyOp28
 70
     1
102
RTVSPropertyOp29
 70
     1
102
RTVSPropertyOp30
 70
     1
102
RTVSPropertyOp31
 70
     1
102
RTVSPropertyOp32
 70
     1
102
RTVSPropertyOp33
 70
     1
102
RTVSPropertyOp34
 70
     1
102
RTVSPropertyOp35
 70
     1
102
RTVSPropertyOp36
 70
     1
102
RTVSPropertyOp37
 70
     1
102
RTVSPropertyOp38
 70
     1
102
RTVSPropertyOp39
 70
     1
102
RTVSPropertyOp40
 70
     1
102
RTVSPropertyOp41
 70
     1
102
RTVSPropertyOp42
 70
     1
102
RTVSPropertyOp43
 70
     1
102
RTVSPropertyOp44
 70
     1
102
RTVSPropertyOp45
 70
     1
102
RTVSPropertyOp46
 70
     1
102
RTVSPropertyOp47
 70
     1
102
RTVSPropertyOp48
 70
     1
102
RTVSPropertyOp49
 70
     1
102
RTVSPropertyOp50
 70
     1
102
RTVSPropertyOp51
 70
     0
102
RTVSPropertyOp52
 70
     0
102
RTVSPropertyOp53
 70
     1
102
RTVSPropertyOp54
 70
     1
102
RTVSPropertyOp55
 70
     1
102
RTVSPropertyOp56
 70
     1
102
RTVSPropertyOp57
 70
     1
102
RTVSPost2010Prop28
280
     0
102
RTVSPost2010PropOp28
 70
     1
102
RTVSPost2010Prop29
280
     1
102
RTVSPost2010PropOp29
 70
     1
102
RTVSPost2010Prop30
280
     1
102
RTVSPost2010PropOp30
 70
     1
102
RTVSPost2010Prop31
280
     0
102
RTVSPost2010PropOp31
 70
     1
102
RTVSPost2010Prop32
280
     0
102
RTVSPost2010PropOp32
 70
     1
102
RTVSPost2010Prop33
280
     0
102
RTVSPost2010PropOp33
 70
     1
102
RTVSPost2010Prop34
280
     0
102
RTVSPost2010PropOp34
 70
     1
102
RTVSPost2010Prop35
280
     0
102
RTVSPost2010PropOp35
 70
     1
102
RTVSPost2010Prop36
280
     0
102
RTVSPost2010PropOp36
 70
     1
102
RTVSPost2010Prop37
 90
       50
102
RTVSPost2010PropOp37
 70
     1
102
RTVSPost2010Prop38
140
0.0
102
RTVSPost2010PropOp38
 70
     1
102
RTVSPost2010Prop39
140
1.0
102
RTVSPost2010PropOp39
 70
     1
102
RTVSPost2010Prop40
 90
        0
102
RTVSPost2010PropOp40
 70
     1
102
RTVSPost2010Prop41ColorIndex
 90
       18
102
RTVSPost2010Prop41ColorRGB
 90
        0
102
RTVSPost2010PropOp41
 70
     1
102
RTVSPost2010Prop42
 90
       50
102
RTVSPost2010PropOp42
 70
     1
102
RTVSPost2010Prop43
 90
        3
102
RTVSPost2010PropOp43
 70
     1
102
RTVSPost2010Prop44ColorIndex
 90
        5
102
RTVSPost2010Prop44ColorRGB
 90
      255
102
RTVSPost2010PropOp44
 70
     1
102
RTVSPost2010Prop45
280
     0
102
RTVSPost2010PropOp45
 70
     1
102
RTVSPost2010Prop46
 90
       50
102
RTVSPost2010PropOp46
 70
     1
102
RTVSPost2010Prop47
 90
       50
102
RTVSPost2010PropOp47
 70
     1
102
RTVSPost2010Prop48
 90
       50
102
RTVSPost2010PropOp48
 70
     1
102
RTVSPost2010Prop49
280
     0
102
RTVSPost2010PropOp49
 70
     1
102
RTVSPost2010Prop50
 90
       50
102
RTVSPost2010PropOp50
 70
     1
102
RTVSPost2010Prop51ColorIndex
 90
      256
102
RTVSPost2010Prop51ColorRGB
 90
-16777216
102
RTVSPost2010PropOp51
 70
     0
102
RTVSPost2010Prop52
140
1.0
102
RTVSPost2010PropOp52
 70
     0
102
RTVSPost2010Prop53
 90
        2
102
RTVSPost2010PropOp53
 70
     1
102
RTVSPost2010Prop54
  1
strokes_ogs.tif
102
RTVSPost2010PropOp54
 70
     1
102
RTVSPost2010Prop55
280
     0
102
RTVSPost2010PropOp55
 70
     1
102
RTVSPost2010Prop56
140
1.0
102
RTVSPost2010PropOp56
 70
     1
102
RTVSPost2010Prop57
140
1.0
102
RTVSPost2010PropOp57
 70
     1
  0
XRECORD
  5
264
102
{ACAD_REACTORS
330
263
102
}
330
263
100
AcDbXrecord
280
     1
102
RTVSPropertyOp0
 70
     1
102
RTVSPropertyOp1
 70
     1
102
RTVSPropertyOp2
 70
     1
102
RTVSPropertyOp3
 70
     1
102
RTVSPropertyOp4
 70
     1
102
RTVSPropertyOp5
 70
     1
102
RTVSPropertyOp6
 70
     1
102
RTVSPropertyOp7
 70
     1
102
RTVSPropertyOp8
 70
     1
102
RTVSPropertyOp9
 70
     1
102
RTVSPropertyOp10
 70
     1
102
RTVSPropertyOp11
 70
     1
102
RTVSPropertyOp12
 70
     1
102
RTVSPropertyOp13
 70
     1
102
RTVSPropertyOp14
 70
     1
102
RTVSPropertyOp15
 70
     1
102
RTVSPropertyOp16
 70
     1
102
RTVSPropertyOp17
 70
     1
102
RTVSPropertyOp18
 70
     1
102
RTVSPropertyOp19
 70
     1
102
RTVSPropertyOp20
 70
     1
102
RTVSPropertyOp21
 70
     1
102
RTVSPropertyOp22
 70
     1
102
RTVSPropertyOp23
 70
     1
102
RTVSPropertyOp24
 70
     1
102
RTVSPropertyOp25
 70
     1
102
RTVSPropertyOp26
 70
     1
102
RTVSPropertyOp27
 70
     1
102
RTVSPropertyOp28
 70
     1
102
RTVSPropertyOp29
 70
     1
102
RTVSPropertyOp30
 70
     1
102
RTVSPropertyOp31
 70
     1
102
RTVSPropertyOp32
 70
     1
102
RTVSPropertyOp33
 70
     1
102
RTVSPropertyOp34
 70
     1
102
RTVSPropertyOp35
 70
     1
102
RTVSPropertyOp36
 70
     1
102
RTVSPropertyOp37
 70
     1
102
RTVSPropertyOp38
 70
     1
102
RTVSPropertyOp39
 70
     1
102
RTVSPropertyOp40
 70
     1
102
RTVSPropertyOp41
 70
     1
102
RTVSPropertyOp42
 70
     1
102
RTVSPropertyOp43
 70
     1
102
RTVSPropertyOp44
 70
     1
102
RTVSPropertyOp45
 70
     1
102
RTVSPropertyOp46
 70
     1
102
RTVSPropertyOp47
 70
     1
102
RTVSPropertyOp48
 70
     1
102
RTVSPropertyOp49
 70
     1
102
RTVSPropertyOp50
 70
     1
102
RTVSPropertyOp51
 70
     0
102
RTVSPropertyOp52
 70
     0
102
RTVSPropertyOp53
 70
     1
102
RTVSPropertyOp54
 70
     1
102
RTVSPropertyOp55
 70
     1
102
RTVSPropertyOp56
 70
     1
102
RTVSPropertyOp57
 70
     1
102
RTVSPost2010Prop28
280
     0
102
RTVSPost2010PropOp28
 70
     1
102
RTVSPost2010Prop29
280
     1
102
RTVSPost2010PropOp29
 70
     1
102
RTVSPost2010Prop30
280
     1
102
RTVSPost2010PropOp30
 70
     1
102
RTVSPost2010Prop31
280
     0
102
RTVSPost2010PropOp31
 70
     1
102
RTVSPost2010Prop32
280
     0
102
RTVSPost2010PropOp32
 70
     1
102
RTVSPost2010Prop33
280
     0
102
RTVSPost2010PropOp33
 70
     1
102
RTVSPost2010Prop34
280
     0
102
RTVSPost2010PropOp34
 70
     1
102
RTVSPost2010Prop35
280
     0
102
RTVSPost2010PropOp35
 70
     1
102
RTVSPost2010Prop36
280
     0
102
RTVSPost2010PropOp36
 70
     1
102
RTVSPost2010Prop37
 90
       50
102
RTVSPost2010PropOp37
 70
     1
102
RTVSPost2010Prop38
140
0.0
102
RTVSPost2010PropOp38
 70
     1
102
RTVSPost2010Prop39
140
1.0
102
RTVSPost2010PropOp39
 70
     1
102
RTVSPost2010Prop40
 90
        0
102
RTVSPost2010PropOp40
 70
     1
102
RTVSPost2010Prop41ColorIndex
 90
       18
102
RTVSPost2010Prop41ColorRGB
 90
        0
102
RTVSPost2010PropOp41
 70
     1
102
RTVSPost2010Prop42
 90
       50
102
RTVSPost2010PropOp42
 70
     1
102
RTVSPost2010Prop43
 90
        3
102
RTVSPost2010PropOp43
 70
     1
102
RTVSPost2010Prop44ColorIndex
 90
        5
102
RTVSPost2010Prop44ColorRGB
 90
      255
102
RTVSPost2010PropOp44
 70
     1
102
RTVSPost2010Prop45
280
     0
102
RTVSPost2010PropOp45
 70
     1
102
RTVSPost2010Prop46
 90
       50
102
RTVSPost2010PropOp46
 70
     1
102
RTVSPost2010Prop47
 90
       50
102
RTVSPost2010PropOp47
 70
     1
102
RTVSPost2010Prop48
 90
       50
102
RTVSPost2010PropOp48
 70
     1
102
RTVSPost2010Prop49
280
     0
102
RTVSPost2010PropOp49
 70
     1
102
RTVSPost2010Prop50
 90
       50
102
RTVSPost2010PropOp50
 70
     1
102
RTVSPost2010Prop51ColorIndex
 90
      256
102
RTVSPost2010Prop51ColorRGB
 90
-16777216
102
RTVSPost2010PropOp51
 70
     0
102
RTVSPost2010Prop52
140
1.0
102
RTVSPost2010PropOp52
 70
     0
102
RTVSPost2010Prop53
 90
        2
102
RTVSPost2010PropOp53
 70
     1
102
RTVSPost2010Prop54
  1
strokes_ogs.tif
102
RTVSPost2010PropOp54
 70
     1
102
RTVSPost2010Prop55
280
     0
102
RTVSPost2010PropOp55
 70
     1
102
RTVSPost2010Prop56
140
1.0
102
RTVSPost2010PropOp56
 70
     1
102
RTVSPost2010Prop57
140
1.0
102
RTVSPost2010PropOp57
 70
     1
  0
XRECORD
  5
254
102
{ACAD_REACTORS
330
253
102
}
330
253
100
AcDbXrecord
280
     1
102
RTVSPropertyOp0
 70
     1
102
RTVSPropertyOp1
 70
     1
102
RTVSPropertyOp2
 70
     1
102
RTVSPropertyOp3
 70
     1
102
RTVSPropertyOp4
 70
     1
102
RTVSPropertyOp5
 70
     1
102
RTVSPropertyOp6
 70
     1
102
RTVSPropertyOp7
 70
     1
102
RTVSPropertyOp8
 70
     1
102
RTVSPropertyOp9
 70
     1
102
RTVSPropertyOp10
 70
     1
102
RTVSPropertyOp11
 70
     1
102
RTVSPropertyOp12
 70
     1
102
RTVSPropertyOp13
 70
     1
102
RTVSPropertyOp14
 70
     1
102
RTVSPropertyOp15
 70
     1
102
RTVSPropertyOp16
 70
     1
102
RTVSPropertyOp17
 70
     1
102
RTVSPropertyOp18
 70
     1
102
RTVSPropertyOp19
 70
     1
102
RTVSPropertyOp20
 70
     1
102
RTVSPropertyOp21
 70
     1
102
RTVSPropertyOp22
 70
     1
102
RTVSPropertyOp23
 70
     1
102
RTVSPropertyOp24
 70
     1
102
RTVSPropertyOp25
 70
     1
102
RTVSPropertyOp26
 70
     1
102
RTVSPropertyOp27
 70
     1
102
RTVSPropertyOp28
 70
     1
102
RTVSPropertyOp29
 70
     1
102
RTVSPropertyOp30
 70
     1
102
RTVSPropertyOp31
 70
     1
102
RTVSPropertyOp32
 70
     1
102
RTVSPropertyOp33
 70
     1
102
RTVSPropertyOp34
 70
     1
102
RTVSPropertyOp35
 70
     1
102
RTVSPropertyOp36
 70
     1
102
RTVSPropertyOp37
 70
     1
102
RTVSPropertyOp38
 70
     1
102
RTVSPropertyOp39
 70
     1
102
RTVSPropertyOp40
 70
     1
102
RTVSPropertyOp41
 70
     1
102
RTVSPropertyOp42
 70
     1
102
RTVSPropertyOp43
 70
     1
102
RTVSPropertyOp44
 70
     1
102
RTVSPropertyOp45
 70
     1
102
RTVSPropertyOp46
 70
     1
102
RTVSPropertyOp47
 70
     1
102
RTVSPropertyOp48
 70
     1
102
RTVSPropertyOp49
 70
     1
102
RTVSPropertyOp50
 70
     1
102
RTVSPropertyOp51
 70
     0
102
RTVSPropertyOp52
 70
     0
102
RTVSPropertyOp53
 70
     1
102
RTVSPropertyOp54
 70
     1
102
RTVSPropertyOp55
 70
     1
102
RTVSPropertyOp56
 70
     1
102
RTVSPropertyOp57
 70
     1
102
RTVSPost2010Prop28
280
     0
102
RTVSPost2010PropOp28
 70
     1
102
RTVSPost2010Prop29
280
     1
102
RTVSPost2010PropOp29
 70
     1
102
RTVSPost2010Prop30
280
     1
102
RTVSPost2010PropOp30
 70
     1
102
RTVSPost2010Prop31
280
     0
102
RTVSPost2010PropOp31
 70
     1
102
RTVSPost2010Prop32
280
     0
102
RTVSPost2010PropOp32
 70
     1
102
RTVSPost2010Prop33
280
     0
102
RTVSPost2010PropOp33
 70
     1
102
RTVSPost2010Prop34
280
     0
102
RTVSPost2010PropOp34
 70
     1
102
RTVSPost2010Prop35
280
     0
102
RTVSPost2010PropOp35
 70
     1
102
RTVSPost2010Prop36
280
     0
102
RTVSPost2010PropOp36
 70
     1
102
RTVSPost2010Prop37
 90
       50
102
RTVSPost2010PropOp37
 70
     1
102
RTVSPost2010Prop38
140
0.0
102
RTVSPost2010PropOp38
 70
     1
102
RTVSPost2010Prop39
140
1.0
102
RTVSPost2010PropOp39
 70
     1
102
RTVSPost2010Prop40
 90
        0
102
RTVSPost2010PropOp40
 70
     1
102
RTVSPost2010Prop41ColorIndex
 90
       18
102
RTVSPost2010Prop41ColorRGB
 90
        0
102
RTVSPost2010PropOp41
 70
     1
102
RTVSPost2010Prop42
 90
       50
102
RTVSPost2010PropOp42
 70
     1
102
RTVSPost2010Prop43
 90
        3
102
RTVSPost2010PropOp43
 70
     1
102
RTVSPost2010Prop44ColorIndex
 90
        5
102
RTVSPost2010Prop44ColorRGB
 90
      255
102
RTVSPost2010PropOp44
 70
     1
102
RTVSPost2010Prop45
280
     0
102
RTVSPost2010PropOp45
 70
     1
102
RTVSPost2010Prop46
 90
       50
102
RTVSPost2010PropOp46
 70
     1
102
RTVSPost2010Prop47
 90
       50
102
RTVSPost2010PropOp47
 70
     1
102
RTVSPost2010Prop48
 90
       50
102
RTVSPost2010PropOp48
 70
     1
102
RTVSPost2010Prop49
280
     0
102
RTVSPost2010PropOp49
 70
     1
102
RTVSPost2010Prop50
 90
       50
102
RTVSPost2010PropOp50
 70
     1
102
RTVSPost2010Prop51ColorIndex
 90
      256
102
RTVSPost2010Prop51ColorRGB
 90
-16777216
102
RTVSPost2010PropOp51
 70
     0
102
RTVSPost2010Prop52
140
1.0
102
RTVSPost2010PropOp52
 70
     0
102
RTVSPost2010Prop53
 90
        2
102
RTVSPost2010PropOp53
 70
     1
102
RTVSPost2010Prop54
  1
strokes_ogs.tif
102
RTVSPost2010PropOp54
 70
     1
102
RTVSPost2010Prop55
280
     0
102
RTVSPost2010PropOp55
 70
     1
102
RTVSPost2010Prop56
140
1.0
102
RTVSPost2010PropOp56
 70
     1
102
RTVSPost2010Prop57
140
1.0
102
RTVSPost2010PropOp57
 70
     1
  0
XRECORD
  5
246
102
{ACAD_REACTORS
330
245
102
}
330
245
100
AcDbXrecord
280
     1
102
RTVSPropertyOp0
 70
     1
102
RTVSPropertyOp1
 70
     1
102
RTVSPropertyOp2
 70
     1
102
RTVSPropertyOp3
 70
     1
102
RTVSPropertyOp4
 70
     1
102
RTVSPropertyOp5
 70
     1
102
RTVSPropertyOp6
 70
     1
102
RTVSPropertyOp7
 70
     1
102
RTVSPropertyOp8
 70
     1
102
RTVSPropertyOp9
 70
     1
102
RTVSPropertyOp10
 70
     1
102
RTVSPropertyOp11
 70
     1
102
RTVSPropertyOp12
 70
     1
102
RTVSPropertyOp13
 70
     1
102
RTVSPropertyOp14
 70
     1
102
RTVSPropertyOp15
 70
     1
102
RTVSPropertyOp16
 70
     1
102
RTVSPropertyOp17
 70
     1
102
RTVSPropertyOp18
 70
     1
102
RTVSPropertyOp19
 70
     1
102
RTVSPropertyOp20
 70
     1
102
RTVSPropertyOp21
 70
     1
102
RTVSPropertyOp22
 70
     1
102
RTVSPropertyOp23
 70
     1
102
RTVSPropertyOp24
 70
     1
102
RTVSPropertyOp25
 70
     1
102
RTVSPropertyOp26
 70
     1
102
RTVSPropertyOp27
 70
     1
102
RTVSPropertyOp28
 70
     1
102
RTVSPropertyOp29
 70
     1
102
RTVSPropertyOp30
 70
     1
102
RTVSPropertyOp31
 70
     1
102
RTVSPropertyOp32
 70
     1
102
RTVSPropertyOp33
 70
     1
102
RTVSPropertyOp34
 70
     1
102
RTVSPropertyOp35
 70
     1
102
RTVSPropertyOp36
 70
     1
102
RTVSPropertyOp37
 70
     1
102
RTVSPropertyOp38
 70
     1
102
RTVSPropertyOp39
 70
     1
102
RTVSPropertyOp40
 70
     1
102
RTVSPropertyOp41
 70
     1
102
RTVSPropertyOp42
 70
     1
102
RTVSPropertyOp43
 70
     1
102
RTVSPropertyOp44
 70
     1
102
RTVSPropertyOp45
 70
     1
102
RTVSPropertyOp46
 70
     1
102
RTVSPropertyOp47
 70
     1
102
RTVSPropertyOp48
 70
     1
102
RTVSPropertyOp49
 70
     1
102
RTVSPropertyOp50
 70
     1
102
RTVSPropertyOp51
 70
     0
102
RTVSPropertyOp52
 70
     0
102
RTVSPropertyOp53
 70
     1
102
RTVSPropertyOp54
 70
     1
102
RTVSPropertyOp55
 70
     1
102
RTVSPropertyOp56
 70
     1
102
RTVSPropertyOp57
 70
     1
102
RTVSPost2010Prop28
280
     0
102
RTVSPost2010PropOp28
 70
     1
102
RTVSPost2010Prop29
280
     1
102
RTVSPost2010PropOp29
 70
     1
102
RTVSPost2010Prop30
280
     1
102
RTVSPost2010PropOp30
 70
     1
102
RTVSPost2010Prop31
280
     0
102
RTVSPost2010PropOp31
 70
     1
102
RTVSPost2010Prop32
280
     0
102
RTVSPost2010PropOp32
 70
     1
102
RTVSPost2010Prop33
280
     0
102
RTVSPost2010PropOp33
 70
     1
102
RTVSPost2010Prop34
280
     0
102
RTVSPost2010PropOp34
 70
     1
102
RTVSPost2010Prop35
280
     0
102
RTVSPost2010PropOp35
 70
     1
102
RTVSPost2010Prop36
280
     0
102
RTVSPost2010PropOp36
 70
     1
102
RTVSPost2010Prop37
 90
       50
102
RTVSPost2010PropOp37
 70
     1
102
RTVSPost2010Prop38
140
0.0
102
RTVSPost2010PropOp38
 70
     1
102
RTVSPost2010Prop39
140
1.0
102
RTVSPost2010PropOp39
 70
     1
102
RTVSPost2010Prop40
 90
        0
102
RTVSPost2010PropOp40
 70
     1
102
RTVSPost2010Prop41ColorIndex
 90
       18
102
RTVSPost2010Prop41ColorRGB
 90
        0
102
RTVSPost2010PropOp41
 70
     1
102
RTVSPost2010Prop42
 90
       50
102
RTVSPost2010PropOp42
 70
     1
102
RTVSPost2010Prop43
 90
        3
102
RTVSPost2010PropOp43
 70
     1
102
RTVSPost2010Prop44ColorIndex
 90
        5
102
RTVSPost2010Prop44ColorRGB
 90
      255
102
RTVSPost2010PropOp44
 70
     1
102
RTVSPost2010Prop45
280
     0
102
RTVSPost2010PropOp45
 70
     1
102
RTVSPost2010Prop46
 90
       50
102
RTVSPost2010PropOp46
 70
     1
102
RTVSPost2010Prop47
 90
       50
102
RTVSPost2010PropOp47
 70
     1
102
RTVSPost2010Prop48
 90
       50
102
RTVSPost2010PropOp48
 70
     1
102
RTVSPost2010Prop49
280
     0
102
RTVSPost2010PropOp49
 70
     1
102
RTVSPost2010Prop50
 90
       50
102
RTVSPost2010PropOp50
 70
     1
102
RTVSPost2010Prop51ColorIndex
 90
      256
102
RTVSPost2010Prop51ColorRGB
 90
-16777216
102
RTVSPost2010PropOp51
 70
     0
102
RTVSPost2010Prop52
140
1.0
102
RTVSPost2010PropOp52
 70
     0
102
RTVSPost2010Prop53
 90
        2
102
RTVSPost2010PropOp53
 70
     1
102
RTVSPost2010Prop54
  1
strokes_ogs.tif
102
RTVSPost2010PropOp54
 70
     1
102
RTVSPost2010Prop55
280
     0
102
RTVSPost2010PropOp55
 70
     1
102
RTVSPost2010Prop56
140
1.0
102
RTVSPost2010PropOp56
 70
     1
102
RTVSPost2010Prop57
140
1.0
102
RTVSPost2010PropOp57
 70
     1
  0
XRECORD
  5
266
102
{ACAD_REACTORS
330
265
102
}
330
265
100
AcDbXrecord
280
     1
102
RTVSPropertyOp0
 70
     1
102
RTVSPropertyOp1
 70
     1
102
RTVSPropertyOp2
 70
     1
102
RTVSPropertyOp3
 70
     1
102
RTVSPropertyOp4
 70
     1
102
RTVSPropertyOp5
 70
     1
102
RTVSPropertyOp6
 70
     1
102
RTVSPropertyOp7
 70
     1
102
RTVSPropertyOp8
 70
     1
102
RTVSPropertyOp9
 70
     1
102
RTVSPropertyOp10
 70
     1
102
RTVSPropertyOp11
 70
     1
102
RTVSPropertyOp12
 70
     1
102
RTVSPropertyOp13
 70
     1
102
RTVSPropertyOp14
 70
     1
102
RTVSPropertyOp15
 70
     1
102
RTVSPropertyOp16
 70
     1
102
RTVSPropertyOp17
 70
     1
102
RTVSPropertyOp18
 70
     1
102
RTVSPropertyOp19
 70
     1
102
RTVSPropertyOp20
 70
     1
102
RTVSPropertyOp21
 70
     1
102
RTVSPropertyOp22
 70
     1
102
RTVSPropertyOp23
 70
     1
102
RTVSPropertyOp24
 70
     1
102
RTVSPropertyOp25
 70
     1
102
RTVSPropertyOp26
 70
     1
102
RTVSPropertyOp27
 70
     1
102
RTVSPropertyOp28
 70
     1
102
RTVSPropertyOp29
 70
     1
102
RTVSPropertyOp30
 70
     1
102
RTVSPropertyOp31
 70
     1
102
RTVSPropertyOp32
 70
     1
102
RTVSPropertyOp33
 70
     1
102
RTVSPropertyOp34
 70
     1
102
RTVSPropertyOp35
 70
     1
102
RTVSPropertyOp36
 70
     1
102
RTVSPropertyOp37
 70
     1
102
RTVSPropertyOp38
 70
     1
102
RTVSPropertyOp39
 70
     1
102
RTVSPropertyOp40
 70
     1
102
RTVSPropertyOp41
 70
     1
102
RTVSPropertyOp42
 70
     1
102
RTVSPropertyOp43
 70
     1
102
RTVSPropertyOp44
 70
     1
102
RTVSPropertyOp45
 70
     1
102
RTVSPropertyOp46
 70
     1
102
RTVSPropertyOp47
 70
     1
102
RTVSPropertyOp48
 70
     1
102
RTVSPropertyOp49
 70
     1
102
RTVSPropertyOp50
 70
     1
102
RTVSPropertyOp51
 70
     0
102
RTVSPropertyOp52
 70
     0
102
RTVSPropertyOp53
 70
     1
102
RTVSPropertyOp54
 70
     1
102
RTVSPropertyOp55
 70
     1
102
RTVSPropertyOp56
 70
     1
102
RTVSPropertyOp57
 70
     1
102
RTVSPost2010Prop28
280
     0
102
RTVSPost2010PropOp28
 70
     1
102
RTVSPost2010Prop29
280
     1
102
RTVSPost2010PropOp29
 70
     1
102
RTVSPost2010Prop30
280
     1
102
RTVSPost2010PropOp30
 70
     1
102
RTVSPost2010Prop31
280
     0
102
RTVSPost2010PropOp31
 70
     1
102
RTVSPost2010Prop32
280
     0
102
RTVSPost2010PropOp32
 70
     1
102
RTVSPost2010Prop33
280
     0
102
RTVSPost2010PropOp33
 70
     1
102
RTVSPost2010Prop34
280
     0
102
RTVSPost2010PropOp34
 70
     1
102
RTVSPost2010Prop35
280
     0
102
RTVSPost2010PropOp35
 70
     1
102
RTVSPost2010Prop36
280
     0
102
RTVSPost2010PropOp36
 70
     1
102
RTVSPost2010Prop37
 90
       50
102
RTVSPost2010PropOp37
 70
     1
102
RTVSPost2010Prop38
140
0.0
102
RTVSPost2010PropOp38
 70
     1
102
RTVSPost2010Prop39
140
1.0
102
RTVSPost2010PropOp39
 70
     1
102
RTVSPost2010Prop40
 90
        0
102
RTVSPost2010PropOp40
 70
     1
102
RTVSPost2010Prop41ColorIndex
 90
       18
102
RTVSPost2010Prop41ColorRGB
 90
        0
102
RTVSPost2010PropOp41
 70
     1
102
RTVSPost2010Prop42
 90
       50
102
RTVSPost2010PropOp42
 70
     1
102
RTVSPost2010Prop43
 90
        3
102
RTVSPost2010PropOp43
 70
     1
102
RTVSPost2010Prop44ColorIndex
 90
        5
102
RTVSPost2010Prop44ColorRGB
 90
      255
102
RTVSPost2010PropOp44
 70
     1
102
RTVSPost2010Prop45
280
     0
102
RTVSPost2010PropOp45
 70
     1
102
RTVSPost2010Prop46
 90
       50
102
RTVSPost2010PropOp46
 70
     1
102
RTVSPost2010Prop47
 90
       50
102
RTVSPost2010PropOp47
 70
     1
102
RTVSPost2010Prop48
 90
       50
102
RTVSPost2010PropOp48
 70
     1
102
RTVSPost2010Prop49
280
     0
102
RTVSPost2010PropOp49
 70
     1
102
RTVSPost2010Prop50
 90
       50
102
RTVSPost2010PropOp50
 70
     1
102
RTVSPost2010Prop51ColorIndex
 90
      256
102
RTVSPost2010Prop51ColorRGB
 90
-16777216
102
RTVSPost2010PropOp51
 70
     0
102
RTVSPost2010Prop52
140
1.0
102
RTVSPost2010PropOp52
 70
     0
102
RTVSPost2010Prop53
 90
        2
102
RTVSPost2010PropOp53
 70
     1
102
RTVSPost2010Prop54
  1
strokes_ogs.tif
102
RTVSPost2010PropOp54
 70
     1
102
RTVSPost2010Prop55
280
     0
102
RTVSPost2010PropOp55
 70
     1
102
RTVSPost2010Prop56
140
1.0
102
RTVSPost2010PropOp56
 70
     1
102
RTVSPost2010Prop57
140
1.0
102
RTVSPost2010PropOp57
 70
     1
  0
ENDSEC
  0
EOF
