  0
SECTION
  2
HEADER
  9
$ACADVER
  1
AC1021
  9
$ACADMAINTVER
 70
    25
  9
$DWGCODEPAGE
  3
ANSI_1252
  9
$INSBASE
 10
0.0
 20
0.0
 30
0.0
  9
$EXTMIN
 10
0.0
 20
0.0
 30
0.0
  9
$EXTMAX
 10
594.0
 20
420.0
 30
0.0
  9
$LIMMIN
 10
0.0
 20
0.0
  9
$LIMMAX
 10
594.0
 20
420.0
  9
$ORTHOMODE
 70
     0
  9
$REGENMODE
 70
     1
  9
$FILLMODE
 70
     1
  9
$QTEXTMODE
 70
     0
  9
$MIRRTEXT
 70
     1
  9
$LTSCALE
 40
1.0
  9
$ATTMODE
 70
     1
  9
$TEXTSIZE
 40
4.57
  9
$TRACEWID
 40
1.0
  9
$TEXTSTYLE
  7
Standard
  9
$CLAYER
  8
0
  9
$CELTYPE
  6
ByLayer
  9
$CECOLOR
 62
   256
  9
$CELTSCALE
 40
1.0
  9
$DISPSILH
 70
     0
  9
$DIMSCALE
 40
1.0
  9
$DIMASZ
 40
2.5
  9
$DIMEXO
 40
0.625
  9
$DIMDLI
 40
3.75
  9
$DIMRND
 40
0.0
  9
$DIMDLE
 40
0.0
  9
$DIMEXE
 40
1.25
  9
$DIMTP
 40
0.0
  9
$DIMTM
 40
0.0
  9
$DIMTXT
 40
2.5
  9
$DIMCEN
 40
2.5
  9
$DIMTSZ
 40
0.0
  9
$DIMTOL
 70
     0
  9
$DIMLIM
 70
     0
  9
$DIMTIH
 70
     0
  9
$DIMTOH
 70
     0
  9
$DIMSE1
 70
     0
  9
$DIMSE2
 70
     0
  9
$DIMTAD
 70
     1
  9
$DIMZIN
 70
     8
  9
$DIMBLK
  1

  9
$DIMASO
 70
     1
  9
$DIMSHO
 70
     1
  9
$DIMPOST
  1

  9
$DIMAPOST
  1

  9
$DIMALT
 70
     0
  9
$DIMALTD
 70
     3
  9
$DIMALTF
 40
0.0393700787
  9
$DIMLFAC
 40
1.0
  9
$DIMTOFL
 70
     1
  9
$DIMTVP
 40
0.0
  9
$DIMTIX
 70
     0
  9
$DIMSOXD
 70
     0
  9
$DIMSAH
 70
     0
  9
$DIMBLK1
  1

  9
$DIMBLK2
  1

  9
$DIMSTYLE
  2
ISO-25
  9
$DIMCLRD
 70
     0
  9
$DIMCLRE
 70
     0
  9
$DIMCLRT
 70
     0
  9
$DIMTFAC
 40
1.0
  9
$DIMGAP
 40
0.625
  9
$DIMJUST
 70
     0
  9
$DIMSD1
 70
     0
  9
$DIMSD2
 70
     0
  9
$DIMTOLJ
 70
     0
  9
$DIMTZIN
 70
     8
  9
$DIMALTZ
 70
     0
  9
$DIMALTTZ
 70
     0
  9
$DIMUPT
 70
     0
  9
$DIMDEC
 70
     2
  9
$DIMTDEC
 70
     2
  9
$DIMALTU
 70
     2
  9
$DIMALTTD
 70
     3
  9
$DIMTXSTY
  7
Standard
  9
$DIMAUNIT
 70
     0
  9
$DIMADEC
 70
     0
  9
$DIMALTRND
 40
0.0
  9
$DIMAZIN
 70
     0
  9
$DIMDSEP
 70
    44
  9
$DIMATFIT
 70
     3
  9
$DIMFRAC
 70
     0
  9
$DIMLDRBLK
  1

  9
$DIMLUNIT
 70
     2
  9
$DIMLWD
 70
    -2
  9
$DIMLWE
 70
    -2
  9
$DIMTMOVE
 70
     0
  9
$DIMFXL
 40
1.0
  9
$DIMFXLON
 70
     0
  9
$DIMJOGANG
 40
0.7853981634
  9
$DIMTFILL
 70
     0
  9
$DIMTFILLCLR
 70
     0
  9
$DIMARCSYM
 70
     0
  9
$DIMLTYPE
  6

  9
$DIMLTEX1
  6

  9
$DIMLTEX2
  6

  9
$LUNITS
 70
     2
  9
$LUPREC
 70
     4
  9
$SKETCHINC
 40
1.0
  9
$FILLETRAD
 40
10.0
  9
$AUNITS
 70
     0
  9
$AUPREC
 70
     0
  9
$MENU
  1
.
  9
$ELEVATION
 40
0.0
  9
$PELEVATION
 40
0.0
  9
$THICKNESS
 40
0.0
  9
$LIMCHECK
 70
     0
  9
$CHAMFERA
 40
0.0
  9
$CHAMFERB
 40
0.0
  9
$CHAMFERC
 40
0.0
  9
$CHAMFERD
 40
0.0
  9
$SKPOLY
 70
     0
  9
$TDCREATE
 40
2460686.379157639
  9
$TDUCREATE
 40
2460686.337490972
  9
$TDUPDATE
 40
2460686.379160058
  9
$TDUUPDATE
 40
2460686.337493391
  9
$TDINDWG
 40
0.0000000116
  9
$TDUSRTIMER
 40
0.0000000116
  9
$USRTIMER
 70
     1
  9
$ANGBASE
 50
0.0
  9
$ANGDIR
 70
     0
  9
$PDMODE
 70
     0
  9
$PDSIZE
 40
0.0
  9
$PLINEWID
 40
0.0
  9
$SPLFRAME
 70
     0
  9
$SPLINETYPE
 70
     6
  9
$SPLINESEGS
 70
     8
  9
$HANDSEED
  5
283
  9
$SURFTAB1
 70
     6
  9
$SURFTAB2
 70
     6
  9
$SURFTYPE
 70
     6
  9
$SURFU
 70
     6
  9
$SURFV
 70
     6
  9
$UCSBASE
  2

  9
$UCSNAME
  2

  9
$UCSORG
 10
0.0
 20
0.0
 30
0.0
  9
$UCSXDIR
 10
1.0
 20
0.0
 30
0.0
  9
$UCSYDIR
 10
0.0
 20
1.0
 30
0.0
  9
$UCSORTHOREF
  2

  9
$UCSORTHOVIEW
 70
     0
  9
$UCSORGTOP
 10
0.0
 20
0.0
 30
0.0
  9
$UCSORGBOTTOM
 10
0.0
 20
0.0
 30
0.0
  9
$UCSORGLEFT
 10
0.0
 20
0.0
 30
0.0
  9
$UCSORGRIGHT
 10
0.0
 20
0.0
 30
0.0
  9
$UCSORGFRONT
 10
0.0
 20
0.0
 30
0.0
  9
$UCSORGBACK
 10
0.0
 20
0.0
 30
0.0
  9
$PUCSBASE
  2

  9
$PUCSNAME
  2

  9
$PUCSORG
 10
0.0
 20
0.0
 30
0.0
  9
$PUCSXDIR
 10
1.0
 20
0.0
 30
0.0
  9
$PUCSYDIR
 10
0.0
 20
1.0
 30
0.0
  9
$PUCSORTHOREF
  2

  9
$PUCSORTHOVIEW
 70
     0
  9
$PUCSORGTOP
 10
0.0
 20
0.0
 30
0.0
  9
$PUCSORGBOTTOM
 10
0.0
 20
0.0
 30
0.0
  9
$PUCSORGLEFT
 10
0.0
 20
0.0
 30
0.0
  9
$PUCSORGRIGHT
 10
0.0
 20
0.0
 30
0.0
  9
$PUCSORGFRONT
 10
0.0
 20
0.0
 30
0.0
  9
$PUCSORGBACK
 10
0.0
 20
0.0
 30
0.0
  9
$USERI1
 70
     0
  9
$USERI2
 70
     0
  9
$USERI3
 70
     0
  9
$USERI4
 70
     0
  9
$USERI5
 70
     0
  9
$USERR1
 40
0.0
  9
$USERR2
 40
0.0
  9
$USERR3
 40
0.0
  9
$USERR4
 40
0.0
  9
$USERR5
 40
0.0
  9
$WORLDVIEW
 70
     1
  9
$SHADEDGE
 70
     3
  9
$SHADEDIF
 70
    70
  9
$TILEMODE
 70
     1
  9
$MAXACTVP
 70
    64
  9
$PINSBASE
 10
0.0
 20
0.0
 30
0.0
  9
$PLIMCHECK
 70
     0
  9
$PEXTMIN
 10
0.0
 20
0.0
 30
0.0
  9
$PEXTMAX
 10
594.0
 20
420.0
 30
0.0
  9
$PLIMMIN
 10
0.0
 20
0.0
  9
$PLIMMAX
 10
594.0
 20
420.0
  9
$UNITMODE
 70
     0
  9
$VISRETAIN
 70
     1
  9
$PLINEGEN
 70
     0
  9
$PSLTSCALE
 70
     1
  9
$TREEDEPTH
 70
  3020
  9
$CMLSTYLE
  2
Standard
  9
$CMLJUST
 70
     0
  9
$CMLSCALE
 40
20.0
  9
$PROXYGRAPHICS
 70
     1
  9
$MEASUREMENT
 70
     1
  9
$CELWEIGHT
370
    -1
  9
$ENDCAPS
280
     0
  9
$JOINSTYLE
280
     0
  9
$LWDISPLAY
290
     0
  9
$INSUNITS
 70
     4
  9
$HYPERLINKBASE
  1

  9
$STYLESHEET
  1

  9
$XEDIT
290
     1
  9
$CEPSNTYPE
380
     0
  9
$PSTYLEMODE
290
     1
  9
$FINGERPRINTGUID
  2
{3ab8006c-d535-407c-8cfc-1595bf2bf1ad}
  9
$VERSIONGUID
  2
{FAEB1C32-E019-11D5-929B-00C0DF256EC4}
  9
$EXTNAMES
290
     1
  9
$PSVPSCALE
 40
0.0
  9
$OLESTARTUP
290
     0
  9
$SORTENTS
280
   127
  9
$INDEXCTL
280
     0
  9
$HIDETEXT
280
     1
  9
$XCLIPFRAME
290
     0
  9
$HALOGAP
280
     0
  9
$OBSCOLOR
 70
   257
  9
$OBSLTYPE
280
     0
  9
$INTERSECTIONDISPLAY
280
     0
  9
$INTERSECTIONCOLOR
 70
   257
  9
$DIMASSOC
280
     2
  9
$PROJECTNAME
  1

  9
$CAMERADISPLAY
290
     0
  9
$LENSLENGTH
 40
50.0
  9
$CAMERAHEIGHT
 40
0.0
  9
$STEPSPERSEC
 40
2.0
  9
$STEPSIZE
 40
6.0
  9
$3DDWFPREC
 40
2.0
  9
$PSOLWIDTH
 40
5.0
  9
$PSOLHEIGHT
 40
80.0
  9
$LOFTANG1
 40
1.5707963268
  9
$LOFTANG2
 40
1.5707963268
  9
$LOFTMAG1
 40
0.0
  9
$LOFTMAG2
 40
0.0
  9
$LOFTPARAM
 70
     7
  9
$LOFTNORMALS
280
     1
  9
$LATITUDE
 40
37.795
  9
$LONGITUDE
 40
-122.394
  9
$NORTHDIRECTION
 40
0.0
  9
$TIMEZONE
 70
 -8000
  9
$LIGHTGLYPHDISPLAY
280
     1
  9
$TILEMODELIGHTSYNCH
280
     1
  9
$CMATERIAL
347
44
  9
$SOLIDHIST
280
     0
  9
$SHOWHIST
280
     1
  9
$DWFFRAME
280
     2
  9
$DGNFRAME
280
     2
  9
$REALWORLDSCALE
290
     1
  9
$INTERFERECOLOR
 62
   256
  9
$CSHADOW
280
     0
  9
$SHADOWPLANELOCATION
 40
0.0
  0
ENDSEC
  0
SECTION
  2
CLASSES
  0
CLASS
  1
ACDBDICTIONARYWDFLT
  2
AcDbDictionaryWithDefault
  3
ObjectDBX Classes
 90
        0
 91
        3
280
     0
281
     0
  0
CLASS
  1
VISUALSTYLE
  2
AcDbVisualStyle
  3
ObjectDBX Classes
 90
     4095
 91
        3
280
     0
281
     0
  0
CLASS
  1
MATERIAL
  2
AcDbMaterial
  3
ObjectDBX Classes
 90
     1153
 91
        3
280
     0
281
     0
  0
CLASS
  1
SCALE
  2
AcDbScale
  3
ObjectDBX Classes
 90
     1153
 91
        3
280
     0
281
     0
  0
CLASS
  1
TABLESTYLE
  2
AcDbTableStyle
  3
ObjectDBX Classes
 90
     4095
 91
        3
280
     0
281
     0
  0
CLASS
  1
MLEADERSTYLE
  2
AcDbMLeaderStyle
  3
ACDB_MLEADERSTYLE_CLASS
 90
     4095
 91
        3
280
     0
281
     0
  0
CLASS
  1
SUN
  2
AcDbSun
  3
SCENEOE
 90
     1153
 91
        3
280
     0
281
     0
  0
CLASS
  1
DICTIONARYVAR
  2
AcDbDictionaryVar
  3
ObjectDBX Classes
 90
        0
 91
        3
280
     0
281
     0
  0
CLASS
  1
CELLSTYLEMAP
  2
AcDbCellStyleMap
  3
ObjectDBX Classes
 90
     1152
 91
        3
280
     0
281
     0
  0
ENDSEC
  0
SECTION
  2
TABLES
  0
TABLE
  2
VPORT
  5
8
330
0
100
AcDbSymbolTable
 70
     1
  0
VPORT
  5
29
330
8
100
AcDbSymbolTableRecord
100
AcDbViewportTableRecord
  2
*Active
 70
     0
 10
0.0
 20
0.0
 11
1.0
 21
1.0
 12
344.1869158879
 22
148.5
 13
0.0
 23
0.0
 14
10.0
 24
10.0
 15
10.0
 25
10.0
 16
0.0
 26
0.0
 36
1.0
 17
0.0
 27
0.0
 37
0.0
 40
297.0
 41
1.9729729729
 42
50.0
 43
0.0
 44
0.0
 50
0.0
 51
0.0
 71
     0
 72
   100
 73
     1
 74
     3
 75
     0
 76
     0
 77
     0
 78
     0
281
     0
 65
     1
110
0.0
120
0.0
130
0.0
111
1.0
121
0.0
131
0.0
112
0.0
122
1.0
132
0.0
 79
     0
146
0.0
348
2F
 60
     3
 61
     5
292
     1
282
     1
141
0.0
142
0.0
 63
   250
361
6D
  0
ENDTAB
  0
TABLE
  2
LTYPE
  5
5
330
0
100
AcDbSymbolTable
 70
     3
  0
LTYPE
  5
14
330
5
100
AcDbSymbolTableRecord
100
AcDbLinetypeTableRecord
  2
ByBlock
 70
     0
  3

 72
    65
 73
     0
 40
0.0
  0
LTYPE
  5
15
330
5
100
AcDbSymbolTableRecord
100
AcDbLinetypeTableRecord
  2
ByLayer
 70
     0
  3

 72
    65
 73
     0
 40
0.0
  0
LTYPE
  5
16
330
5
100
AcDbSymbolTableRecord
100
AcDbLinetypeTableRecord
  2
Continuous
 70
     0
  3
Solid line
 72
    65
 73
     0
 40
0.0
  0
LTYPE
  5
6F
330
5
100
AcDbSymbolTableRecord
100
AcDbLinetypeTableRecord
  2
HIDDEN2
 70
     0
  3
Hidden (.5x) _ _ _ _ _ _ _ _ _ _ _ _ _ _ _ _ _ 
 72
    65
 73
     2
 40
4.7625
 49
3.175
 74
     4
 75
     0
340
0
 46
0.0
 50
0.0
 44
0.0
 45
0.0
 49
-1.5875
 74
     4
 75
     0
340
0
 46
0.0
 50
0.0
 44
0.0
 45
0.0
  0
LTYPE
  5
1DB
330
5
100
AcDbSymbolTableRecord
100
AcDbLinetypeTableRecord
  2
CENTER2
 70
     0
  3
Center (.5x) ___ _ ___ _ ___ _ ___ _ ___ _ ___
 72
    65
 73
     4
 40
28.575
 49
19.05
 74
     4
 75
     0
340
0
 46
0.0
 50
0.0
 44
0.0
 45
0.0
 49
-3.175
 74
     4
 75
     0
340
0
 46
0.0
 50
0.0
 44
0.0
 45
0.0
 49
3.175
 74
     4
 75
     0
340
0
 46
0.0
 50
0.0
 44
0.0
 45
0.0
 49
-3.175
 74
     4
 75
     0
340
0
 46
0.0
 50
0.0
 44
0.0
 45
0.0
  0
ENDTAB
  0
TABLE
  2
LAYER
  5
2
330
0
100
AcDbSymbolTable
 70
     8
  0
LAYER
  5
10
330
2
100
AcDbSymbolTableRecord
100
AcDbLayerTableRecord
  2
0
 70
     0
 62
     7
  6
Continuous
370
    -3
390
F
347
46
  0
LAYER
  5
6E
330
2
100
AcDbSymbolTableRecord
100
AcDbLayerTableRecord
  2
Verdeckt_(ISO)
 70
     0
 62
     7
  6
Continuous
370
    -3
390
F
347
46
  0
LAYER
  5
89
330
2
100
AcDbSymbolTableRecord
100
AcDbLayerTableRecord
  2
Sichtbar_(ISO)
 70
     0
 62
     7
  6
Continuous
370
    -3
390
F
347
46
  0
LAYER
  5
1DA
330
2
100
AcDbSymbolTableRecord
100
AcDbLayerTableRecord
  2
Mittellinie_(ISO)
 70
     0
 62
     7
  6
Continuous
370
    -3
390
F
347
46
  0
LAYER
  5
1DE
330
2
100
AcDbSymbolTableRecord
100
AcDbLayerTableRecord
  2
Mittelpunktmarkierung_(ISO)
 70
     0
 62
     7
  6
Continuous
370
    -3
390
F
347
46
  0
LAYER
  5
1E3
330
2
100
AcDbSymbolTableRecord
100
AcDbLayerTableRecord
  2
_Konvertierung
 70
     1
 62
    -7
  6
Continuous
370
    -3
390
F
347
46
  0
LAYER
  5
1F0
330
2
100
AcDbSymbolTableRecord
100
AcDbLayerTableRecord
  2
6
 70
     0
 62
     7
  6
Continuous
370
    -3
390
F
347
46
  0
LAYER
  5
1F3
330
2
100
AcDbSymbolTableRecord
100
AcDbLayerTableRecord
  2
Bemaßung_(ISO)
 70
     0
 62
     7
  6
Continuous
370
    -3
390
F
347
46
  0
ENDTAB
  0
TABLE
  2
STYLE
  5
3
330
0
100
AcDbSymbolTable
 70
     2
  0
STYLE
  5
11
330
3
100
AcDbSymbolTableRecord
100
AcDbTextStyleTableRecord
  2
Standard
 70
     0
 40
0.0
 41
1.0
 50
0.0
 71
     0
 42
4.57
  3
txt
  4

  0
STYLE
  5
203
330
3
100
AcDbSymbolTableRecord
100
AcDbTextStyleTableRecord
  2
SEACAD_Arial
 70
     0
 40
0.0
 41
1.0
 50
0.0
 71
     0
 42
4.57
  3
arial.ttf
  4

1001
ACAD
1000
Arial
1071
        0
  0
ENDTAB
  0
TABLE
  2
VIEW
  5
6
330
0
100
AcDbSymbolTable
 70
     0
  0
ENDTAB
  0
TABLE
  2
UCS
  5
7
330
0
100
AcDbSymbolTable
 70
     0
  0
ENDTAB
  0
TABLE
  2
APPID
  5
9
330
0
100
AcDbSymbolTable
 70
     2
  0
APPID
  5
12
330
9
100
AcDbSymbolTableRecord
100
AcDbRegAppTableRecord
  2
ACAD
 70
     0
  0
APPID
  5
279
330
9
100
AcDbSymbolTableRecord
100
AcDbRegAppTableRecord
  2
ACAD_MLEADERVER
 70
     0
  0
ENDTAB
  0
TABLE
  2
DIMSTYLE
  5
A
330
0
100
AcDbSymbolTable
 70
     3
100
AcDbDimStyleTable
  0
DIMSTYLE
105
27
330
A
100
AcDbSymbolTableRecord
100
AcDbDimStyleTableRecord
  2
ISO-25
 70
     0
 41
2.5
 42
0.625
 43
3.75
 44
1.25
 73
     0
 74
     0
 77
     1
 78
     8
140
2.5
141
2.5
143
0.0393700787
147
0.625
171
     3
172
     1
178
     0
271
     2
272
     2
274
     3
278
    44
283
     0
284
     8
340
11
  0
DIMSTYLE
105
1F4
330
A
100
AcDbSymbolTableRecord
100
AcDbDimStyleTableRecord
  2
Standard
 70
     0
178
     0
340
11
  0
DIMSTYLE
105
204
102
{ACAD_REACTORS
330
205
330
210
330
21A
330
224
330
22E
330
239
102
}
330
A
100
AcDbSymbolTableRecord
100
AcDbDimStyleTableRecord
  2
Standard_(DIN)
 70
     0
 41
2.5
 42
1.75
 44
1.75
 73
     0
 74
     0
 77
     1
140
3.5
141
1.75
143
1.0
147
0.875
173
     1
178
     0
271
     0
272
     2
278
    44
340
203
343
1FE
344
1FE
  0
ENDTAB
  0
TABLE
  2
BLOCK_RECORD
  5
1
330
0
100
AcDbSymbolTable
 70
     9
  0
BLOCK_RECORD
  5
1F
330
1
100
AcDbSymbolTableRecord
100
AcDbBlockTableRecord
  2
*Model_Space
340
22
 70
     0
280
     1
281
     0
  0
BLOCK_RECORD
  5
1B
330
1
100
AcDbSymbolTableRecord
100
AcDbBlockTableRecord
  2
*Paper_Space
340
1E
 70
     0
280
     1
281
     0
  0
BLOCK_RECORD
  5
1F5
330
1
100
AcDbSymbolTableRecord
100
AcDbBlockTableRecord
  2
_Oblique
340
0
 70
     0
280
     1
281
     0
  0
BLOCK_RECORD
  5
1F9
330
1
100
AcDbSymbolTableRecord
100
AcDbBlockTableRecord
  2
_Dot
340
0
 70
     0
280
     1
281
     0
  0
BLOCK_RECORD
  5
1FE
330
1
100
AcDbSymbolTableRecord
100
AcDbBlockTableRecord
  2
_SE_FILLED
340
0
 70
     0
280
     1
281
     0
  0
BLOCK_RECORD
  5
206
330
1
100
AcDbSymbolTableRecord
100
AcDbBlockTableRecord
  2
DMBLK145
340
0
 70
     0
280
     1
281
     0
  0
BLOCK_RECORD
  5
211
330
1
100
AcDbSymbolTableRecord
100
AcDbBlockTableRecord
  2
DMBLK146
340
0
 70
     0
280
     1
281
     0
  0
BLOCK_RECORD
  5
21B
330
1
100
AcDbSymbolTableRecord
100
AcDbBlockTableRecord
  2
DMBLK147
340
0
 70
     0
280
     1
281
     0
  0
BLOCK_RECORD
  5
225
330
1
100
AcDbSymbolTableRecord
100
AcDbBlockTableRecord
  2
DMBLK148
340
0
 70
     0
280
     1
281
     0
  0
BLOCK_RECORD
  5
22F
330
1
100
AcDbSymbolTableRecord
100
AcDbBlockTableRecord
  2
DMBLK149
340
0
 70
     0
280
     1
281
     0
  0
BLOCK_RECORD
  5
23A
330
1
100
AcDbSymbolTableRecord
100
AcDbBlockTableRecord
  2
DMBLK150
340
0
 70
     0
280
     1
281
     0
  0
ENDTAB
  0
ENDSEC
  0
SECTION
  2
BLOCKS
  0
BLOCK
  5
20
330
1F
100
AcDbEntity
  8
0
100
AcDbBlockBegin
  2
*Model_Space
 70
     0
 10
0.0
 20
0.0
 30
0.0
  3
*Model_Space
  1

  0
ENDBLK
  5
21
330
1F
100
AcDbEntity
  8
0
100
AcDbBlockEnd
  0
BLOCK
  5
1C
330
1B
100
AcDbEntity
 67
     1
  8
0
100
AcDbBlockBegin
  2
*Paper_Space
 70
     0
 10
0.0
 20
0.0
 30
0.0
  3
*Paper_Space
  1

  0
ENDBLK
  5
1D
330
1B
100
AcDbEntity
 67
     1
  8
0
100
AcDbBlockEnd
  0
BLOCK
  5
1F6
330
1F5
100
AcDbEntity
  8
0
100
AcDbBlockBegin
  2
_Oblique
 70
     0
 10
0.0
 20
0.0
 30
0.0
  3
_Oblique
  1

  0
LINE
  5
1F8
330
1F5
100
AcDbEntity
  8
0
  6
ByBlock
 62
     0
370
    -2
100
AcDbLine
 10
-0.5
 20
-0.5
 30
0.0
 11
0.5
 21
0.5
 31
0.0
  0
ENDBLK
  5
1F7
330
1F5
100
AcDbEntity
  8
0
100
AcDbBlockEnd
  0
BLOCK
  5
1FA
330
1F9
100
AcDbEntity
  8
0
100
AcDbBlockBegin
  2
_Dot
 70
     0
 10
0.0
 20
0.0
 30
0.0
  3
_Dot
  1

  0
LWPOLYLINE
  5
1FC
330
1F9
100
AcDbEntity
  8
0
  6
ByBlock
 62
     0
100
AcDbPolyline
 90
        2
 70
     1
 43
0.5
 10
-0.25
 20
0.0
 42
1.0
 10
0.25
 20
0.0
 42
1.0
  0
LINE
  5
1FD
330
1F9
100
AcDbEntity
  8
0
  6
ByBlock
 62
     0
370
    -2
100
AcDbLine
 10
-0.5
 20
0.0
 30
0.0
 11
-1.0
 21
0.0
 31
0.0
  0
ENDBLK
  5
1FB
330
1F9
100
AcDbEntity
  8
0
100
AcDbBlockEnd
  0
BLOCK
  5
201
330
1FE
100
AcDbEntity
  8
0
100
AcDbBlockBegin
  2
_SE_FILLED
 70
     0
 10
0.0
 20
0.0
 30
0.0
  3
_SE_FILLED
  1

  0
SOLID
  5
1FF
330
1FE
100
AcDbEntity
  8
0
 62
     0
100
AcDbTrace
 10
0.0
 20
0.0
 30
0.0
 11
-1.0
 21
-0.1665
 31
0.0
 12
-1.0
 22
0.1665
 32
0.0
 13
0.0
 23
0.0
 33
0.0
  0
LINE
  5
200
330
1FE
100
AcDbEntity
  8
0
 62
     0
100
AcDbLine
 10
0.0
 20
0.0
 30
0.0
 11
-1.0
 21
0.0
 31
0.0
  0
ENDBLK
  5
202
330
1FE
100
AcDbEntity
  8
0
100
AcDbBlockEnd
  0
BLOCK
  5
20E
330
206
100
AcDbEntity
  8
0
100
AcDbBlockBegin
  2
DMBLK145
 70
     0
 10
0.0
 20
0.0
 30
0.0
  3
DMBLK145
  1

  0
HATCH
  5
207
330
206
100
AcDbEntity
  8
Bemaßung_(ISO)
  6
Continuous
 62
     7
100
AcDbHatch
 10
0.0
 20
0.0
 30
0.0
210
0.0
220
0.0
230
1.0
  2
SOLID
 70
     1
 71
     0
 91
        1
 92
        1
 93
        3
 72
     1
 10
-29.13064119184856
 20
17.49995778779562
 11
-28.29730787714168
 21
17.49995778779562
 72
     1
 10
-28.29730787714168
 20
17.49995778779562
 11
-28.71397453449512
 21
19.99995773191627
 72
     1
 10
-28.71397453449512
 20
19.99995773191627
 11
-29.13064119184856
 21
17.49995778779562
 97
        0
 75
     0
 76
     1
 98
        0
  0
HATCH
  5
208
330
206
100
AcDbEntity
  8
Bemaßung_(ISO)
  6
Continuous
 62
     7
100
AcDbHatch
 10
0.0
 20
0.0
 30
0.0
210
0.0
220
0.0
230
1.0
  2
SOLID
 70
     1
 71
     0
 91
        1
 92
        1
 93
        3
 72
     1
 10
-29.13064119184856
 20
-17.50004142989341
 11
-28.71397453449512
 21
-20.00004137401406
 72
     1
 10
-28.71397453449512
 20
-20.00004137401406
 11
-28.29730787714168
 21
-17.50004142989341
 72
     1
 10
-28.29730787714168
 20
-17.50004142989341
 11
-29.13064119184856
 21
-17.50004142989341
 97
        0
 75
     0
 76
     1
 98
        0
  0
LINE
  5
209
330
206
100
AcDbEntity
  8
Bemaßung_(ISO)
  6
Continuous
 62
     7
100
AcDbLine
 10
-1.0499895
 20
19.9999577319
 30
0.0
 11
-30.4639745885
 21
19.9999577319
 31
0.0
  0
LINE
  5
20A
330
206
100
AcDbEntity
  8
Bemaßung_(ISO)
  6
Continuous
 62
     7
100
AcDbLine
 10
-1.0499895
 20
-20.0000422681
 30
0.0
 11
-30.4639745885
 21
-20.0000422681
 31
0.0
  0
LINE
  5
20B
330
206
100
AcDbEntity
  8
Bemaßung_(ISO)
  6
Continuous
 62
     7
100
AcDbLine
 10
-28.7139745345
 20
19.9999577319
 30
0.0
 11
-28.7139745345
 21
-20.000041374
 31
0.0
  0
TEXT
  5
20C
330
206
100
AcDbEntity
  8
Bemaßung_(ISO)
  6
Continuous
 62
     7
100
AcDbText
 10
-29.5889745345
 20
-0.1446070384
 30
0.0
 40
3.5
  1
40
 50
90.0
  7
SEACAD_Arial
 11
-33.0889745345
 21
-0.1446070384
 31
0.0
100
AcDbText
 73
     3
  0
TEXT
  5
20D
330
206
100
AcDbEntity
  8
Bemaßung_(ISO)
  6
Continuous
 62
     7
100
AcDbText
 10
-29.5889745345
 20
-5.3337374732
 30
0.0
 40
3.5
  1
n
 50
90.0
  7
SEACAD_Arial
 11
-33.0889745345
 21
-5.3337374732
 31
0.0
100
AcDbText
 73
     3
  0
ENDBLK
  5
20F
330
206
100
AcDbEntity
  8
0
100
AcDbBlockEnd
  0
BLOCK
  5
218
330
211
100
AcDbEntity
  8
0
100
AcDbBlockBegin
  2
DMBLK146
 70
     0
 10
0.0
 20
0.0
 30
0.0
  3
DMBLK146
  1

  0
HATCH
  5
212
330
211
100
AcDbEntity
  8
Bemaßung_(ISO)
  6
Continuous
 62
     7
100
AcDbHatch
 10
0.0
 20
0.0
 30
0.0
210
0.0
220
0.0
230
1.0
  2
SOLID
 70
     1
 71
     0
 91
        1
 92
        1
 93
        3
 72
     1
 10
-17.49998950190687
 20
29.20655888835124
 11
-19.99998944602752
 21
28.78989223099779
 72
     1
 10
-19.99998944602752
 20
28.78989223099779
 11
-17.49998950190687
 21
28.37322557364435
 72
     1
 10
-17.49998950190687
 20
28.37322557364435
 11
-17.49998950190687
 21
29.20655888835124
 97
        0
 75
     0
 76
     1
 98
        0
  0
HATCH
  5
213
330
211
100
AcDbEntity
  8
Bemaßung_(ISO)
  6
Continuous
 62
     7
100
AcDbHatch
 10
0.0
 20
0.0
 30
0.0
210
0.0
220
0.0
230
1.0
  2
SOLID
 70
     1
 71
     0
 91
        1
 92
        1
 93
        3
 72
     1
 10
-2.499989837183001
 20
29.20655888835124
 11
-2.499989837183001
 21
28.37322557364435
 72
     1
 10
-2.499989837183001
 20
28.37322557364435
 11
0.0000101069376446
 21
28.78989223099779
 72
     1
 10
0.0000101069376444
 20
28.78989223099779
 11
-2.499989837183001
 21
29.20655888835124
 97
        0
 75
     0
 76
     1
 98
        0
  0
LINE
  5
214
330
211
100
AcDbEntity
  8
Bemaßung_(ISO)
  6
Continuous
 62
     7
100
AcDbLine
 10
-19.999989446
 20
14.9056051363
 30
0.0
 11
-19.999989446
 21
30.539892285
 31
0.0
  0
LINE
  5
215
330
211
100
AcDbEntity
  8
Bemaßung_(ISO)
  6
Continuous
 62
     7
100
AcDbLine
 10
0.000010554
 20
21.0499577859
 30
0.0
 11
0.000010554
 21
30.539892285
 31
0.0
  0
LINE
  5
216
330
211
100
AcDbEntity
  8
Bemaßung_(ISO)
  6
Continuous
 62
     7
100
AcDbLine
 10
-19.999989446
 20
28.789892231
 30
0.0
 11
0.0000101069
 21
28.789892231
 31
0.0
  0
TEXT
  5
217
330
211
100
AcDbEntity
  8
Bemaßung_(ISO)
  6
Continuous
 62
     7
100
AcDbText
 10
-12.7391201043
 20
29.664892231
 30
0.0
 40
3.5
  1
20
  7
SEACAD_Arial
 11
-12.7391201043
 21
33.164892231
 31
0.0
100
AcDbText
 73
     3
  0
ENDBLK
  5
219
330
211
100
AcDbEntity
  8
0
100
AcDbBlockEnd
  0
BLOCK
  5
222
330
21B
100
AcDbEntity
  8
0
100
AcDbBlockBegin
  2
DMBLK147
 70
     0
 10
0.0
 20
0.0
 30
0.0
  3
DMBLK147
  1

  0
HATCH
  5
21C
330
21B
100
AcDbEntity
  8
Bemaßung_(ISO)
  6
Continuous
 62
     7
100
AcDbHatch
 10
0.0
 20
0.0
 30
0.0
210
0.0
220
0.0
230
1.0
  2
SOLID
 70
     1
 71
     0
 91
        1
 92
        1
 93
        3
 72
     1
 10
2.500010498093124
 20
29.15949861971414
 11
0.0000105539724782
 21
28.7428319623607
 72
     1
 10
0.0000105539724781
 20
28.7428319623607
 11
2.500010498093124
 21
28.32616530500726
 72
     1
 10
2.500010498093124
 20
28.32616530500726
 11
2.500010498093124
 21
29.15949861971414
 97
        0
 75
     0
 76
     1
 98
        0
  0
HATCH
  5
21D
330
21B
100
AcDbEntity
  8
Bemaßung_(ISO)
  6
Continuous
 62
     7
100
AcDbHatch
 10
0.0
 20
0.0
 30
0.0
210
0.0
220
0.0
230
1.0
  2
SOLID
 70
     1
 71
     0
 91
        1
 92
        1
 93
        3
 72
     1
 10
17.500010162817
 20
29.15949861971414
 11
17.500010162817
 21
28.32616530500726
 72
     1
 10
17.500010162817
 20
28.32616530500726
 11
20.00001010693764
 21
28.7428319623607
 72
     1
 10
20.00001010693764
 20
28.7428319623607
 11
17.500010162817
 21
29.15949861971414
 97
        0
 75
     0
 76
     1
 98
        0
  0
LINE
  5
21E
330
21B
100
AcDbEntity
  8
Bemaßung_(ISO)
  6
Continuous
 62
     7
100
AcDbLine
 10
0.000010554
 20
21.0499577859
 30
0.0
 11
0.000010554
 21
30.4928320164
 31
0.0
  0
LINE
  5
21F
330
21B
100
AcDbEntity
  8
Bemaßung_(ISO)
  6
Continuous
 62
     7
100
AcDbLine
 10
20.000010554
 20
20.7499577859
 30
0.0
 11
20.000010554
 21
30.4928320164
 31
0.0
  0
LINE
  5
220
330
21B
100
AcDbEntity
  8
Bemaßung_(ISO)
  6
Continuous
 62
     7
100
AcDbLine
 10
0.000010554
 20
28.7428319624
 30
0.0
 11
20.0000101069
 21
28.7428319624
 31
0.0
  0
TEXT
  5
221
330
21B
100
AcDbEntity
  8
Bemaßung_(ISO)
  6
Continuous
 62
     7
100
AcDbText
 10
7.2608798957
 20
29.6178319624
 30
0.0
 40
3.5
  1
20
  7
SEACAD_Arial
 11
7.2608798957
 21
33.1178319624
 31
0.0
100
AcDbText
 73
     3
  0
ENDBLK
  5
223
330
21B
100
AcDbEntity
  8
0
100
AcDbBlockEnd
  0
BLOCK
  5
22C
330
225
100
AcDbEntity
  8
0
100
AcDbBlockBegin
  2
DMBLK148
 70
     0
 10
0.0
 20
0.0
 30
0.0
  3
DMBLK148
  1

  0
HATCH
  5
226
330
225
100
AcDbEntity
  8
Bemaßung_(ISO)
  6
Continuous
 62
     7
100
AcDbHatch
 10
0.0
 20
0.0
 30
0.0
210
0.0
220
0.0
230
1.0
  2
SOLID
 70
     1
 71
     0
 91
        1
 92
        1
 93
        3
 72
     1
 10
2.500010498093124
 20
40.31133487341678
 11
0.0000105539724782
 21
39.89466821606334
 72
     1
 10
0.0000105539724781
 20
39.89466821606334
 11
2.500010498093124
 21
39.47800155870991
 72
     1
 10
2.500010498093124
 20
39.47800155870991
 11
2.500010498093124
 21
40.31133487341678
 97
        0
 75
     0
 76
     1
 98
        0
  0
HATCH
  5
227
330
225
100
AcDbEntity
  8
Bemaßung_(ISO)
  6
Continuous
 62
     7
100
AcDbHatch
 10
0.0
 20
0.0
 30
0.0
210
0.0
220
0.0
230
1.0
  2
SOLID
 70
     1
 71
     0
 91
        1
 92
        1
 93
        3
 72
     1
 10
72.50001359008407
 20
40.31133487341678
 11
72.50001359008407
 21
39.47800155870991
 72
     1
 10
72.50001359008407
 20
39.47800155870991
 11
75.00001353420471
 21
39.89466821606334
 72
     1
 10
75.00001353420471
 20
39.89466821606334
 11
72.50001359008407
 21
40.31133487341678
 97
        0
 75
     0
 76
     1
 98
        0
  0
LINE
  5
228
330
225
100
AcDbEntity
  8
Bemaßung_(ISO)
  6
Continuous
 62
     7
100
AcDbLine
 10
0.000010554
 20
21.0499577859
 30
0.0
 11
0.000010554
 21
41.6446682701
 31
0.0
  0
LINE
  5
229
330
225
100
AcDbEntity
  8
Bemaßung_(ISO)
  6
Continuous
 62
     7
100
AcDbLine
 10
75.000010554
 20
18.2258172643
 30
0.0
 11
75.000010554
 21
41.6446682701
 31
0.0
  0
LINE
  5
22A
330
225
100
AcDbEntity
  8
Bemaßung_(ISO)
  6
Continuous
 62
     7
100
AcDbLine
 10
0.000010554
 20
39.8946682161
 30
0.0
 11
75.0000135342
 21
39.8946682161
 31
0.0
  0
TEXT
  5
22B
330
225
100
AcDbEntity
  8
Bemaßung_(ISO)
  6
Continuous
 62
     7
100
AcDbText
 10
34.7608816093
 20
40.7696682161
 30
0.0
 40
3.5
  1
75
  7
SEACAD_Arial
 11
34.7608816093
 21
44.2696682161
 31
0.0
100
AcDbText
 73
     3
  0
ENDBLK
  5
22D
330
225
100
AcDbEntity
  8
0
100
AcDbBlockEnd
  0
BLOCK
  5
237
330
22F
100
AcDbEntity
  8
0
100
AcDbBlockBegin
  2
DMBLK149
 70
     0
 10
0.0
 20
0.0
 30
0.0
  3
DMBLK149
  1

  0
HATCH
  5
230
330
22F
100
AcDbEntity
  8
Bemaßung_(ISO)
  6
Continuous
 62
     7
100
AcDbHatch
 10
0.0
 20
0.0
 30
0.0
210
0.0
220
0.0
230
1.0
  2
SOLID
 70
     1
 71
     0
 91
        1
 92
        1
 93
        3
 72
     1
 10
100.0462977696046
 20
21.24995778779562
 11
99.62963111225119
 21
23.74995773191627
 72
     1
 10
99.62963111225119
 20
23.74995773191627
 11
99.21296445489774
 21
21.24995778779562
 72
     1
 10
99.21296445489774
 20
21.24995778779562
 11
100.0462977696046
 21
21.24995778779562
 97
        0
 75
     0
 76
     1
 98
        0
  0
HATCH
  5
231
330
22F
100
AcDbEntity
  8
Bemaßung_(ISO)
  6
Continuous
 62
     7
100
AcDbHatch
 10
0.0
 20
0.0
 30
0.0
210
0.0
220
0.0
230
1.0
  2
SOLID
 70
     1
 71
     0
 91
        1
 92
        1
 93
        3
 72
     1
 10
100.0462977696046
 20
-21.25004172791664
 11
99.21296445489774
 21
-21.25004172791664
 72
     1
 10
99.21296445489774
 20
-21.25004172791664
 11
99.62963111225119
 21
-23.75004167203728
 72
     1
 10
99.62963111225119
 20
-23.75004167203728
 11
100.0462977696046
 21
-21.25004172791664
 97
        0
 75
     0
 76
     1
 98
        0
  0
LINE
  5
232
330
22F
100
AcDbEntity
  8
Bemaßung_(ISO)
  6
Continuous
 62
     7
100
AcDbLine
 10
63.4395797596
 20
23.7499577319
 30
0.0
 11
101.3796311663
 21
23.7499577319
 31
0.0
  0
LINE
  5
233
330
22F
100
AcDbEntity
  8
Bemaßung_(ISO)
  6
Continuous
 62
     7
100
AcDbLine
 10
63.4395797596
 20
-23.7500422681
 30
0.0
 11
101.3796311663
 21
-23.7500422681
 31
0.0
  0
LINE
  5
234
330
22F
100
AcDbEntity
  8
Bemaßung_(ISO)
  6
Continuous
 62
     7
100
AcDbLine
 10
99.6296311123
 20
23.7499577319
 30
0.0
 11
99.6296311123
 21
-23.750041672
 31
0.0
  0
TEXT
  5
235
330
22F
100
AcDbEntity
  8
Bemaßung_(ISO)
  6
Continuous
 62
     7
100
AcDbText
 10
98.7546311123
 20
-2.1989550135
 30
0.0
 40
3.5
  1
47,5
 50
90.0
  7
SEACAD_Arial
 11
95.2546311123
 21
-2.1989550135
 31
0.0
100
AcDbText
 73
     3
  0
TEXT
  5
236
330
22F
100
AcDbEntity
  8
Bemaßung_(ISO)
  6
Continuous
 62
     7
100
AcDbText
 10
98.7546311123
 20
-7.3880854483
 30
0.0
 40
3.5
  1
n
 50
90.0
  7
SEACAD_Arial
 11
95.2546311123
 21
-7.3880854483
 31
0.0
100
AcDbText
 73
     3
  0
ENDBLK
  5
238
330
22F
100
AcDbEntity
  8
0
100
AcDbBlockEnd
  0
BLOCK
  5
242
330
23A
100
AcDbEntity
  8
0
100
AcDbBlockBegin
  2
DMBLK150
 70
     0
 10
0.0
 20
0.0
 30
0.0
  3
DMBLK150
  1

  0
HATCH
  5
23B
330
23A
100
AcDbEntity
  8
Bemaßung_(ISO)
  6
Continuous
 62
     7
100
AcDbHatch
 10
0.0
 20
0.0
 30
0.0
210
0.0
220
0.0
230
1.0
  2
SOLID
 70
     1
 71
     0
 91
        1
 92
        1
 93
        3
 72
     1
 10
87.9425180376585
 20
5.499957787795625
 11
87.52585138030506
 21
7.999957731916271
 72
     1
 10
87.52585138030506
 20
7.999957731916271
 11
87.10918472295161
 21
5.499957787795625
 72
     1
 10
87.10918472295161
 20
5.499957787795625
 11
87.9425180376585
 21
5.499957787795625
 97
        0
 75
     0
 76
     1
 98
        0
  0
HATCH
  5
23C
330
23A
100
AcDbEntity
  8
Bemaßung_(ISO)
  6
Continuous
 62
     7
100
AcDbHatch
 10
0.0
 20
0.0
 30
0.0
210
0.0
220
0.0
230
1.0
  2
SOLID
 70
     1
 71
     0
 91
        1
 92
        1
 93
        3
 72
     1
 10
87.9425180376585
 20
-5.500043083922304
 11
87.10918472295161
 21
-5.500043083922304
 72
     1
 10
87.10918472295161
 20
-5.500043083922304
 11
87.52585138030506
 21
-8.000043028042949
 72
     1
 10
87.52585138030506
 20
-8.00004302804295
 11
87.9425180376585
 21
-5.500043083922305
 97
        0
 75
     0
 76
     1
 98
        0
  0
LINE
  5
23D
330
23A
100
AcDbEntity
  8
Bemaßung_(ISO)
  6
Continuous
 62
     7
100
AcDbLine
 10
75.750010608
 20
7.9999577319
 30
0.0
 11
89.2758514343
 21
7.9999577319
 31
0.0
  0
LINE
  5
23E
330
23A
100
AcDbEntity
  8
Bemaßung_(ISO)
  6
Continuous
 62
     7
100
AcDbLine
 10
75.750010608
 20
-8.0000422681
 30
0.0
 11
89.2758514343
 21
-8.0000422681
 31
0.0
  0
LINE
  5
23F
330
23A
100
AcDbEntity
  8
Bemaßung_(ISO)
  6
Continuous
 62
     7
100
AcDbLine
 10
87.5258513803
 20
7.9999577319
 30
0.0
 11
87.5258513803
 21
-8.000043028
 31
0.0
  0
TEXT
  5
240
330
23A
100
AcDbEntity
  8
Bemaßung_(ISO)
  6
Continuous
 62
     7
100
AcDbText
 10
86.6508513803
 20
-0.1446078655
 30
0.0
 40
3.5
  1
16
 50
90.0
  7
SEACAD_Arial
 11
83.1508513803
 21
-0.1446078655
 31
0.0
100
AcDbText
 73
     3
  0
TEXT
  5
241
330
23A
100
AcDbEntity
  8
Bemaßung_(ISO)
  6
Continuous
 62
     7
100
AcDbText
 10
86.6508513803
 20
-5.3337383002
 30
0.0
 40
3.5
  1
n
 50
90.0
  7
SEACAD_Arial
 11
83.1508513803
 21
-5.3337383002
 31
0.0
100
AcDbText
 73
     3
  0
ENDBLK
  5
243
330
23A
100
AcDbEntity
  8
0
100
AcDbBlockEnd
  0
ENDSEC
  0
SECTION
  2
ENTITIES
  0
SPLINE
  5
70
330
1F
100
AcDbEntity
  8
Verdeckt_(ISO)
  6
HIDDEN2
 62
     7
100
AcDbSpline
210
0.0
220
0.0
230
1.0
 70
    12
 71
     3
 72
    16
 73
    12
 74
     0
 42
0.000000001
 43
0.0000000001
 40
0.0
 40
0.0
 40
0.0
 40
0.0
 40
0.1792895411337909
 40
0.1792895411337909
 40
0.4226164964660059
 40
0.4226164964660059
 40
0.6831895663601948
 40
0.6831895663601948
 40
0.9816854543941771
 40
0.9816854543941771
 40
1.0
 40
1.0
 40
1.0
 40
1.0
 10
74.70001072440571
 20
-1.399516780068212
 30
0.0
 41
1.0
 10
74.70001101121058
 20
-1.398711102401482
 30
0.0
 41
1.0
 10
74.70001762588002
 20
-1.324350607378456
 30
0.0
 41
1.0
 10
74.70004195533426
 20
-0.9938772901485439
 30
0.0
 41
1.0
 10
74.70006069259816
 20
-0.683855470434984
 30
0.0
 41
1.0
 10
74.70007570686045
 20
0.0337343621237331
 30
0.0
 41
1.0
 10
74.70006860548922
 20
0.4418892275536458
 30
0.0
 41
1.0
 10
74.70003605806441
 20
1.129645003630767
 30
0.0
 41
1.0
 10
74.70001298963858
 20
1.372556835746932
 30
0.0
 41
1.0
 10
74.70001062694331
 20
1.399187513015159
 30
0.0
 41
1.0
 10
74.70001057118624
 20
1.399907941863147
 30
0.0
 41
1.0
 10
74.70001059119222
 20
1.399826392675362
 30
0.0
 41
1.0
  0
ELLIPSE
  5
71
330
1F
100
AcDbEntity
  8
Verdeckt_(ISO)
  6
HIDDEN2
 62
     7
100
AcDbEllipse
 10
27.7511512586
 20
-0.0000422681
 30
0.0
 11
5.000000000000000E-16
 21
-1.400000000000004
 31
0.0
210
0.0
220
0.0
230
1.0
 40
0.0348994967
 41
2.146193870640939
 42
4.030720598093525
  0
ELLIPSE
  5
72
330
1F
100
AcDbEntity
  8
Verdeckt_(ISO)
  6
HIDDEN2
 62
     7
100
AcDbEllipse
 10
27.7511512586
 20
-0.0000422681
 30
0.0
 11
5.000000000000000E-16
 21
1.400000000000004
 31
0.0
210
0.0
220
0.0
230
1.0
 40
0.0348994967
 41
2.25246470908601
 42
4.136991436538596
  0
LINE
  5
73
330
1F
100
AcDbEntity
  8
Verdeckt_(ISO)
  6
HIDDEN2
 62
     7
100
AcDbLine
 10
74.7000105541
 20
1.3999577319
 30
0.0
 11
74.800010554
 21
1.4999577319
 31
0.0
  0
LINE
  5
74
330
1F
100
AcDbEntity
  8
Verdeckt_(ISO)
  6
HIDDEN2
 62
     7
100
AcDbLine
 10
74.800010554
 20
-1.5000422681
 30
0.0
 11
74.7000105541
 21
-1.4000422681
 31
0.0
  0
LINE
  5
75
330
1F
100
AcDbEntity
  8
Verdeckt_(ISO)
  6
HIDDEN2
 62
     7
100
AcDbLine
 10
27.7511512586
 20
1.3999577319
 30
0.0
 11
74.7000105541
 21
1.3999577319
 31
0.0
  0
LINE
  5
76
330
1F
100
AcDbEntity
  8
Verdeckt_(ISO)
  6
HIDDEN2
 62
     7
100
AcDbLine
 10
27.7511512586
 20
-1.4000422681
 30
0.0
 11
74.7000105541
 21
-1.4000422681
 31
0.0
  0
LINE
  5
77
330
1F
100
AcDbEntity
  8
Verdeckt_(ISO)
  6
HIDDEN2
 62
     7
100
AcDbLine
 10
74.800010554
 20
12.5499577319
 30
0.0
 11
74.800010554
 21
-12.5500422681
 31
0.0
  0
LINE
  5
78
330
1F
100
AcDbEntity
  8
Verdeckt_(ISO)
  6
HIDDEN2
 62
     7
100
AcDbLine
 10
75.000010554
 20
-9.2500422681
 30
0.0
 11
74.800010554
 21
-9.4500422681
 31
0.0
  0
LINE
  5
79
330
1F
100
AcDbEntity
  8
Verdeckt_(ISO)
  6
HIDDEN2
 62
     7
100
AcDbLine
 10
75.000010554
 20
9.2499577319
 30
0.0
 11
74.800010554
 21
9.4499577319
 31
0.0
  0
LINE
  5
7A
330
1F
100
AcDbEntity
  8
Verdeckt_(ISO)
  6
HIDDEN2
 62
     7
100
AcDbLine
 10
74.800010554
 20
12.5499577319
 30
0.0
 11
75.000010554
 21
12.7499577319
 31
0.0
  0
LINE
  5
7B
330
1F
100
AcDbEntity
  8
Verdeckt_(ISO)
  6
HIDDEN2
 62
     7
100
AcDbLine
 10
74.800010554
 20
-12.5500422681
 30
0.0
 11
75.000010554
 21
-12.7500422681
 31
0.0
  0
SPLINE
  5
7C
330
1F
100
AcDbEntity
  8
Verdeckt_(ISO)
  6
HIDDEN2
 62
     7
100
AcDbSpline
210
0.0
220
0.0
230
1.0
 70
     8
 71
     3
 72
     8
 73
     4
 74
     0
 42
0.000000001
 43
0.0000000001
 40
0.0
 40
0.0
 40
0.0
 40
0.0
 40
1.0
 40
1.0
 40
1.0
 40
1.0
 10
27.7369260653782
 20
1.339307776171847
 30
0.0
 10
27.8125876312263
 20
1.346368097062125
 30
0.0
 10
27.88937890659679
 20
1.353068286082064
 30
0.0
 10
27.96711094071798
 20
1.359228291889963
 30
0.0
  0
SPLINE
  5
7D
330
1F
100
AcDbEntity
  8
Verdeckt_(ISO)
  6
HIDDEN2
 62
     7
100
AcDbSpline
210
0.0
220
0.0
230
1.0
 70
     8
 71
     3
 72
    22
 73
    18
 74
     0
 42
0.000000001
 43
0.0000000001
 40
0.0
 40
0.0
 40
0.0
 40
0.0
 40
0.0584409082544679
 40
0.0584409082544679
 40
0.2067686000540555
 40
0.2067686000540555
 40
0.3533843000270558
 40
0.3533843000270558
 40
0.5000000000000558
 40
0.5000000000000558
 40
0.6466156999730559
 40
0.6466156999730559
 40
0.7932313999460563
 40
0.7932313999460563
 40
0.9415590917456441
 40
0.9415590917456441
 40
1.0
 40
1.0
 40
1.0
 40
1.0
 10
27.96764492508731
 20
-1.359053028023988
 30
0.0
 10
27.98383895763314
 20
-1.341479633988637
 30
0.0
 10
28.00445738500542
 20
-1.318381708598652
 30
0.0
 10
28.08919647735125
 20
-1.217979192016777
 30
0.0
 10
28.16842325404782
 20
-1.111824089605865
 30
0.0
 10
28.30642625817407
 20
-0.8695656173617636
 30
0.0
 10
28.37596273339121
 20
-0.7160531205852778
 30
0.0
 10
28.47311692811479
 20
-0.3724928302674296
 30
0.0
 10
28.50001055397248
 20
-0.1821331640642888
 30
0.0
 10
28.50001055397248
 20
0.1820486278968226
 30
0.0
 10
28.47311692811479
 20
0.372408294099963
 30
0.0
 10
28.37596273339121
 20
0.7159685844178111
 30
0.0
 10
28.30642625817407
 20
0.869481081194297
 30
0.0
 10
28.16842325404782
 20
1.111739553438398
 30
0.0
 10
28.08919647735125
 20
1.217894655849311
 30
0.0
 10
28.00445738500547
 20
1.318297172431132
 30
0.0
 10
27.98383895763321
 20
1.341395097821082
 30
0.0
 10
27.9676449250874
 20
1.358968491856423
 30
0.0
  0
SPLINE
  5
7E
330
1F
100
AcDbEntity
  8
Verdeckt_(ISO)
  6
HIDDEN2
 62
     7
100
AcDbSpline
210
0.0
220
0.0
230
1.0
 70
     8
 71
     3
 72
     8
 73
     4
 74
     0
 42
0.000000001
 43
0.0000000001
 40
0.0
 40
0.0
 40
0.0
 40
0.0
 40
1.0
 40
1.0
 40
1.0
 40
1.0
 10
27.96711094071798
 20
-1.35931282805743
 30
0.0
 10
27.88937886476646
 20
-1.35315282031748
 30
0.0
 10
27.81258775185783
 20
-1.346452644414146
 30
0.0
 10
27.7369260653782
 20
-1.339392312339313
 30
0.0
  0
SPLINE
  5
7F
330
1F
100
AcDbEntity
  8
Verdeckt_(ISO)
  6
HIDDEN2
 62
     7
100
AcDbSpline
210
0.0
220
0.0
230
1.0
 70
    12
 71
     2
 72
     6
 73
     3
 74
     0
 42
0.000000001
 43
0.0000000001
 40
0.0
 40
0.0
 40
0.0
 40
1.0
 40
1.0
 40
1.0
 10
27.73281898996953
 20
-0.854549939280737
 30
0.0
 41
1.0
 10
27.73441869601161
 20
-1.073177677398193
 30
0.0
 41
1.015590373665036
 10
27.7369260653782
 20
-1.339392312339313
 30
0.0
 41
1.009051226607526
  0
SPLINE
  5
80
330
1F
100
AcDbEntity
  8
Verdeckt_(ISO)
  6
HIDDEN2
 62
     7
100
AcDbSpline
210
0.0
220
0.0
230
1.0
 70
    12
 71
     2
 72
     6
 73
     3
 74
     0
 42
0.000000001
 43
0.0000000001
 40
0.0
 40
0.0
 40
0.0
 40
1.0
 40
1.0
 40
1.0
 10
27.7369260653782
 20
1.339307776171847
 30
0.0
 41
1.009051226607526
 10
27.73441869601162
 20
1.073093141230724
 30
0.0
 41
1.015590373665036
 10
27.73281898996953
 20
0.8544654031132708
 30
0.0
 41
1.0
  0
CIRCLE
  5
81
330
1F
100
AcDbEntity
  8
Verdeckt_(ISO)
  6
HIDDEN2
 62
     7
100
AcDbCircle
 10
26.500010554
 20
-0.0000422681
 30
0.0
 40
1.499999999999997
  0
ARC
  5
82
330
1F
100
AcDbEntity
  8
Verdeckt_(ISO)
  6
HIDDEN2
 62
     7
100
AcDbCircle
 10
26.500010554
 20
-0.0000422681
 30
0.0
 40
2.0
100
AcDbArc
 50
42.8151491057
 51
317.1848508943
  0
LINE
  5
83
330
1F
100
AcDbEntity
  8
Verdeckt_(ISO)
  6
HIDDEN2
 62
     7
100
AcDbLine
 10
50.500010554
 20
-20.350167897
 30
0.0
 11
52.500010554
 21
-20.350167897
 31
0.0
  0
ARC
  5
84
330
1F
100
AcDbEntity
  8
Verdeckt_(ISO)
  6
HIDDEN2
 62
     7
100
AcDbCircle
 10
49.500010554
 20
-30.3000422681
 30
0.0
 40
10.0
100
AcDbArc
 50
90.0
 51
139.0803500451
  0
ARC
  5
85
330
1F
100
AcDbEntity
  8
Verdeckt_(ISO)
  6
HIDDEN2
 62
     7
100
AcDbCircle
 10
49.500010554
 20
-30.3000422681
 30
0.0
 40
10.0
100
AcDbArc
 50
84.2608295227
 51
90.0
  0
ARC
  5
86
330
1F
100
AcDbEntity
  8
Verdeckt_(ISO)
  6
HIDDEN2
 62
     7
100
AcDbCircle
 10
53.500010554
 20
-30.3000422681
 30
0.0
 40
10.0
100
AcDbArc
 50
90.0
 51
95.7391704773
  0
ARC
  5
87
330
1F
100
AcDbEntity
  8
Verdeckt_(ISO)
  6
HIDDEN2
 62
     7
100
AcDbCircle
 10
53.500010554
 20
-30.3000422681
 30
0.0
 40
10.0
100
AcDbArc
 50
40.9196499549
 51
90.0
  0
LINE
  5
88
330
1F
100
AcDbEntity
  8
Verdeckt_(ISO)
  6
HIDDEN2
 62
     7
100
AcDbLine
 10
53.500010554
 20
-20.3000422681
 30
0.0
 11
49.500010554
 21
-20.3000422681
 31
0.0
  0
SPLINE
  5
8A
330
1F
100
AcDbEntity
  8
Sichtbar_(ISO)
  6
Continuous
 62
     7
100
AcDbSpline
210
0.0
220
0.0
230
1.0
 70
     8
 71
     3
 72
    18
 73
    14
 74
     0
 42
0.000000001
 43
0.0000000001
 40
0.0
 40
0.0
 40
0.0
 40
0.0
 40
0.12725797463598
 40
0.12725797463598
 40
0.3470429858010681
 40
0.3470429858010681
 40
0.6055824358908531
 40
0.6055824358908531
 40
0.8127547951777726
 40
0.8127547951777726
 40
0.9412753744226755
 40
0.9412753744226755
 40
1.0
 40
1.0
 40
1.0
 40
1.0
 10
51.50001055397258
 20
-22.34211694984677
 30
0.0
 10
52.09639167993701
 20
-22.34211694984677
 30
0.0
 10
52.69295385313182
 20
-22.35845491106278
 30
0.0
 10
54.2982269449028
 20
-22.44542124623288
 30
0.0
 10
55.29069527278279
 20
-22.54766655351271
 30
0.0
 10
57.30365892757788
 20
-22.83837541360775
 30
0.0
 10
58.28809862078191
 20
-23.03751511434017
 30
0.0
 10
59.7314467083324
 20
-23.37663202090864
 30
0.0
 10
60.24325540296863
 20
-23.51632384864791
 30
0.0
 10
60.79705104608039
 20
-23.67306674769979
 30
0.0
 10
60.94020765256979
 20
-23.7155516989909
 30
0.0
 10
61.04054298953636
 20
-23.74532978018919
 30
0.0
 10
61.05630426405402
 20
-23.75002567469158
 30
0.0
 10
61.05630267325755
 20
-23.75003108004695
 30
0.0
  0
SPLINE
  5
8B
330
1F
100
AcDbEntity
  8
Sichtbar_(ISO)
  6
Continuous
 62
     7
100
AcDbSpline
210
0.0
220
0.0
230
1.0
 70
     8
 71
     3
 72
    20
 73
    16
 74
     0
 42
0.000000001
 43
0.0000000001
 40
0.0
 40
0.0
 40
0.0
 40
0.0
 40
0.025978438540763
 40
0.025978438540763
 40
0.1336604858343733
 40
0.1336604858343733
 40
0.3462867736428782
 40
0.3462867736428782
 40
0.5580214888768091
 40
0.5580214888768091
 40
0.841687823808761
 40
0.841687823808761
 40
0.9760038150716343
 40
0.9760038150716343
 40
1.0
 40
1.0
 40
1.0
 40
1.0
 10
41.94372515007793
 20
-23.7500319558167
 30
0.0
 10
41.94388266681607
 20
-23.74998877427991
 30
0.0
 10
41.94712222856684
 20
-23.74902738289628
 30
0.0
 10
41.97968791766636
 20
-23.73932267683834
 30
0.0
 10
42.05873617115329
 20
-23.71567321866618
 30
0.0
 10
42.44449256424023
 20
-23.60365920893325
 30
0.0
 10
42.89055051010844
 20
-23.47638743304196
 30
0.0
 10
44.08239672278108
 20
-23.18023690191345
 30
0.0
 10
44.81374138450568
 20
-23.0159259289956
 30
0.0
 10
46.73775973514325
 20
-22.66901048224159
 30
0.0
 10
47.98709239277208
 20
-22.50399817749654
 30
0.0
 10
49.90603985934489
 20
-22.37491503403827
 30
0.0
 10
50.5336719643745
 20
-22.35028773648506
 30
0.0
 10
51.27513258142785
 20
-22.34269302635327
 30
0.0
 10
51.38757228001516
 20
-22.34211694984677
 30
0.0
 10
51.50001055397258
 20
-22.34211694984677
 30
0.0
  0
SPLINE
  5
8C
330
1F
100
AcDbEntity
  8
Verdeckt_(ISO)
  6
HIDDEN2
 62
     7
100
AcDbSpline
210
0.0
220
0.0
230
1.0
 70
     8
 71
     3
 72
    26
 73
    22
 74
     0
 42
0.000000001
 43
0.0000000001
 40
-0.0000000000102552
 40
-0.0000000000102552
 40
0.0
 40
0.0
 40
0.123671463407739
 40
0.123671463407739
 40
0.2473429268257332
 40
0.2473429268257332
 40
0.3736714634103023
 40
0.3736714634103023
 40
0.4368357317025871
 40
0.4368357317025871
 40
0.4999999999948724
 40
0.4999999999948724
 40
0.5631642682871573
 40
0.5631642682871573
 40
0.6263285365794414
 40
0.6263285365794414
 40
0.7526570731640112
 40
0.7526570731640112
 40
0.8763285365820059
 40
0.8763285365820059
 40
0.9999999999999999
 40
0.9999999999999999
 40
1.00000000001063
 40
1.00000000001063
 10
45.50001055397247
 20
7.999957731916271
 30
0.0
 10
45.50001055399978
 20
7.999957731895419
 30
0.0
 10
45.66469454811294
 20
7.874236941494913
 30
0.0
 10
46.28903853631527
 20
7.42340642874543
 30
0.0
 10
46.74725155689474
 20
7.101388776543855
 30
0.0
 10
47.7784480347749
 20
6.456330788455149
 30
0.0
 10
48.43002895056088
 20
6.081229127967275
 30
0.0
 10
49.52172459502751
 20
5.63936313961043
 30
0.0
 10
49.90513735563582
 20
5.513227143122211
 30
0.0
 10
50.69273887086056
 20
5.338890863580144
 30
0.0
 10
51.09711700967108
 20
5.291460354045454
 30
0.0
 10
51.90290409827386
 20
5.291460354045454
 30
0.0
 10
52.30728223708438
 20
5.338890863580144
 30
0.0
 10
53.09488375230914
 20
5.513227143122211
 30
0.0
 10
53.47829651291744
 20
5.63936313961043
 30
0.0
 10
54.56999215738408
 20
6.081229127967275
 30
0.0
 10
55.22157307317005
 20
6.456330788455149
 30
0.0
 10
56.25276955105023
 20
7.101388776543858
 30
0.0
 10
56.7109825716297
 20
7.42340642874543
 30
0.0
 10
57.33532655985792
 20
7.874236941513605
 30
0.0
 10
57.50001055397248
 20
7.999957731916271
 30
0.0
 10
57.50001055397248
 20
7.999957731916271
 30
0.0
  0
LINE
  5
8D
330
1F
100
AcDbEntity
  8
Verdeckt_(ISO)
  6
HIDDEN2
 62
     7
100
AcDbLine
 10
57.500010554
 20
21.7499577319
 30
0.0
 11
45.500010554
 21
21.7499577319
 31
0.0
  0
LINE
  5
8E
330
1F
100
AcDbEntity
  8
Verdeckt_(ISO)
  6
HIDDEN2
 62
     7
100
AcDbLine
 10
45.500010554
 20
7.9999577319
 30
0.0
 11
45.500010554
 21
21.7499577319
 31
0.0
  0
LINE
  5
8F
330
1F
100
AcDbEntity
  8
Verdeckt_(ISO)
  6
HIDDEN2
 62
     7
100
AcDbLine
 10
57.500010554
 20
7.9999577319
 30
0.0
 11
57.500010554
 21
21.7499577319
 31
0.0
  0
LINE
  5
90
330
1F
100
AcDbEntity
  8
Verdeckt_(ISO)
  6
HIDDEN2
 62
     7
100
AcDbLine
 10
45.500010554
 20
21.7499577319
 30
0.0
 11
43.500010554
 21
23.7499577319
 31
0.0
  0
LINE
  5
91
330
1F
100
AcDbEntity
  8
Verdeckt_(ISO)
  6
HIDDEN2
 62
     7
100
AcDbLine
 10
57.500010554
 20
21.7499577319
 30
0.0
 11
59.500010554
 21
23.7499577319
 31
0.0
  0
SPLINE
  5
92
330
1F
100
AcDbEntity
  8
Sichtbar_(ISO)
  6
Continuous
 62
     7
100
AcDbSpline
210
0.0
220
0.0
230
1.0
 70
     8
 71
     3
 72
    23
 73
    19
 74
     0
 42
0.000000001
 43
0.0000000001
 40
0.0
 40
0.0
 40
0.0
 40
0.0
 40
0.1271609756278866
 40
0.1271609756278866
 40
0.2543219512557728
 40
0.2543219512557728
 40
0.3771609756278869
 40
0.3771609756278869
 40
0.4999999999999998
 40
0.4999999999999998
 40
0.4999999999999998
 40
0.6228390243721142
 40
0.6228390243721142
 40
0.7456780487442275
 40
0.7456780487442275
 40
0.8728390243721144
 40
0.8728390243721144
 40
1.0
 40
1.0
 40
1.0
 40
1.0
 10
59.50001055397248
 20
23.74995773191627
 30
0.0
 10
59.50001055397248
 20
23.74995773191627
 30
0.0
 10
59.25419739191029
 20
23.68582511999788
 30
0.0
 10
58.32735882076434
 20
23.47066740987679
 30
0.0
 10
57.64795988014316
 20
23.32340603627269
 30
0.0
 10
56.18478035290885
 20
23.06531002105211
 30
0.0
 10
55.30663505329489
 20
22.9357741263247
 30
0.0
 10
53.42894320472321
 20
22.75593166325416
 30
0.0
 10
52.42915481355273
 20
22.70788141539822
 30
0.0
 10
51.50001055397249
 20
22.70788141539822
 30
0.0
 10
50.57086629439223
 20
22.70788141539822
 30
0.0
 10
49.57107790322177
 20
22.75593166325416
 30
0.0
 10
47.69338605465007
 20
22.9357741263247
 30
0.0
 10
46.81524075503611
 20
23.06531002105211
 30
0.0
 10
45.35206122780181
 20
23.32340603627269
 30
0.0
 10
44.67266228718062
 20
23.47066740987679
 30
0.0
 10
43.74582371603467
 20
23.68582511999788
 30
0.0
 10
43.50001055397247
 20
23.74995773191627
 30
0.0
 10
43.50001055397247
 20
23.74995773191627
 30
0.0
  0
SPLINE
  5
93
330
1F
100
AcDbEntity
  8
Verdeckt_(ISO)
  6
HIDDEN2
 62
     7
100
AcDbSpline
210
0.0
220
0.0
230
1.0
 70
     8
 71
     3
 72
    12
 73
     8
 74
     0
 42
0.000000001
 43
0.0000000001
 40
0.0
 40
0.0
 40
0.0
 40
0.0
 40
0.2165717770032376
 40
0.2165717770032376
 40
0.5851696116342331
 40
0.5851696116342331
 40
1.0
 40
1.0
 40
1.0
 40
1.0
 10
19.7537336773659
 20
-4.84285016871035
 30
0.0
 10
19.71545896107075
 20
-4.87349887470965
 30
0.0
 10
19.67243593370347
 20
-4.898850324484553
 30
0.0
 10
19.54160746046591
 20
-4.952876574956468
 30
0.0
 10
19.45195530120302
 20
-4.968098968431707
 30
0.0
 10
19.25657635837819
 20
-4.984918101666033
 30
0.0
 10
19.13493637714812
 20
-4.985777337455291
 30
0.0
 10
19.00001055397248
 20
-4.985777337455291
 30
0.0
  0
LINE
  5
94
330
1F
100
AcDbEntity
  8
Verdeckt_(ISO)
  6
HIDDEN2
 62
     7
100
AcDbLine
 10
18.0615619112
 20
-4.9857773375
 30
0.0
 11
19.000010554
 21
-4.9857773375
 31
0.0
  0
SPLINE
  5
95
330
1F
100
AcDbEntity
  8
Sichtbar_(ISO)
  6
Continuous
 62
     7
100
AcDbSpline
210
0.0
220
0.0
230
1.0
 70
     8
 71
     3
 72
    12
 73
     8
 74
     0
 42
0.000000001
 43
0.0000000001
 40
0.0
 40
0.0
 40
0.0
 40
0.0
 40
0.4495361246689855
 40
0.4495361246689855
 40
0.863843371066827
 40
0.863843371066827
 40
1.0
 40
1.0
 40
1.0
 40
1.0
 10
19.00001055397246
 20
-5.979008073277221
 30
0.0
 10
19.13963015654946
 20
-5.979008073277221
 30
0.0
 10
19.26609295273734
 20
-5.976163664001398
 30
0.0
 10
19.47341051079877
 20
-5.951343925072851
 30
0.0
 10
19.57126593631216
 20
-5.929300151443337
 30
0.0
 10
19.68949824782627
 20
-5.866550041140735
 30
0.0
 10
19.71659316239747
 20
-5.848927411295584
 30
0.0
 10
19.74168699928714
 20
-5.829284448760608
 30
0.0
  0
LINE
  5
96
330
1F
100
AcDbEntity
  8
Sichtbar_(ISO)
  6
Continuous
 62
     7
100
AcDbLine
 10
19.000010554
 20
-5.9790080733
 30
0.0
 11
18.0780259961
 21
-5.9790080733
 31
0.0
  0
SPLINE
  5
97
330
1F
100
AcDbEntity
  8
Sichtbar_(ISO)
  6
Continuous
 62
     7
100
AcDbSpline
210
0.0
220
0.0
230
1.0
 70
     8
 71
     3
 72
    10
 73
     6
 74
     0
 42
0.000000001
 43
0.0000000001
 40
0.0
 40
0.0
 40
0.0
 40
0.0
 40
0.5975243076003813
 40
0.5975243076003813
 40
1.0
 40
1.0
 40
1.0
 40
1.0
 10
19.00001055397246
 20
-5.500042268083733
 30
0.0
 10
19.16211302211016
 20
-5.500042268083733
 30
0.0
 10
19.33098922240047
 20
-5.541610028499478
 30
0.0
 10
19.57753286464965
 20
-5.675885281229815
 30
0.0
 10
19.66737866623963
 20
-5.747119563435155
 30
0.0
 10
19.74168699775867
 20
-5.829284448350969
 30
0.0
  0
LINE
  5
98
330
1F
100
AcDbEntity
  8
Sichtbar_(ISO)
  6
Continuous
 62
     7
100
AcDbLine
 10
18.3511654395
 20
-5.5000422681
 30
0.0
 11
19.000010554
 21
-5.5000422681
 31
0.0
  0
LINE
  5
99
330
1F
100
AcDbEntity
  8
Sichtbar_(ISO)
  6
Continuous
 62
     7
100
AcDbLine
 10
20.000010554
 20
-19.0000422681
 30
0.0
 11
20.000010554
 21
-6.5000422681
 31
0.0
  0
SPLINE
  5
9A
330
1F
100
AcDbEntity
  8
Sichtbar_(ISO)
  6
Continuous
 62
     7
100
AcDbSpline
210
0.0
220
0.0
230
1.0
 70
     8
 71
     3
 72
    12
 73
     8
 74
     0
 42
0.000000001
 43
0.0000000001
 40
0.0
 40
0.0
 40
0.0
 40
0.0
 40
0.267763879612698
 40
0.267763879612698
 40
0.9958638242460487
 40
0.9958638242460487
 40
1.0
 40
1.0
 40
1.0
 40
1.0
 10
19.74168699928714
 20
-5.829284448760608
 30
0.0
 10
19.78986676558571
 20
-5.882558218980794
 30
0.0
 10
19.83005637527268
 20
-5.93853558138902
 30
0.0
 10
19.95276080037213
 20
-6.148178130400292
 30
0.0
 10
19.99947977330332
 20
-6.321309072878428
 30
0.0
 10
20.00000905945004
 20
-6.498045841973994
 30
0.0
 10
20.00001055397246
 20
-6.499044095611595
 30
0.0
 10
20.00001055397246
 20
-6.500042268083733
 30
0.0
  0
SPLINE
  5
9B
330
1F
100
AcDbEntity
  8
Sichtbar_(ISO)
  6
Continuous
 62
     7
100
AcDbSpline
210
0.0
220
0.0
230
1.0
 70
     8
 71
     3
 72
    12
 73
     8
 74
     0
 42
0.000000001
 43
0.0000000001
 40
0.0
 40
0.0
 40
0.0
 40
0.0
 40
0.0041361757534215
 40
0.0041361757534215
 40
0.7322361203677135
 40
0.7322361203677135
 40
1.0
 40
1.0
 40
1.0
 40
1.0
 10
20.00001055397246
 20
6.499957731916266
 30
0.0
 10
20.00001055397246
 20
6.498959559444118
 30
0.0
 10
20.00000905945004
 20
6.49796130580654
 30
0.0
 10
19.99947977330326
 20
6.321224536691199
 30
0.0
 10
19.9527608003631
 20
6.148093594217337
 30
0.0
 10
19.83005637527265
 20
5.938451045221508
 30
0.0
 10
19.78986676558571
 20
5.882473682813314
 30
0.0
 10
19.74168699928714
 20
5.82919991259314
 30
0.0
  0
LINE
  5
9C
330
1F
100
AcDbEntity
  8
Sichtbar_(ISO)
  6
Continuous
 62
     7
100
AcDbLine
 10
20.000010554
 20
6.4999577319
 30
0.0
 11
20.000010554
 21
18.9999577319
 31
0.0
  0
LINE
  5
9D
330
1F
100
AcDbEntity
  8
Sichtbar_(ISO)
  6
Continuous
 62
     7
100
AcDbLine
 10
-19.999989446
 20
13.1556050823
 30
0.0
 11
-19.999989446
 21
5.2923551694
 31
0.0
  0
SPLINE
  5
9E
330
1F
100
AcDbEntity
  8
Sichtbar_(ISO)
  6
Continuous
 62
     7
100
AcDbSpline
210
0.0
220
0.0
230
1.0
 70
     8
 71
     3
 72
    18
 73
    14
 74
     0
 42
0.000000001
 43
0.0000000001
 40
0.0
 40
0.0
 40
0.0
 40
0.0
 40
0.0145024366821307
 40
0.0145024366821307
 40
0.2364230217438982
 40
0.2364230217438982
 40
0.4244893064322165
 40
0.4244893064322165
 40
0.6288769855357699
 40
0.6288769855357699
 40
0.9188985066506946
 40
0.9188985066506946
 40
1.0
 40
1.0
 40
1.0
 40
1.0
 10
-19.46677993082352
 20
5.74792797708885
 30
0.0
 10
-19.47066909090787
 20
5.749999679794949
 30
0.0
 10
-19.47455940365647
 20
5.752020523776215
 30
0.0
 10
-19.53799142103667
 20
5.784106407380694
 30
0.0
 10
-19.59885778803512
 20
5.802424940679994
 30
0.0
 10
-19.70905000404336
 20
5.799950255538426
 30
0.0
 10
-19.75547743705454
 20
5.784801375391265
 30
0.0
 10
-19.84317509166842
 20
5.726613918963618
 30
0.0
 10
-19.88107641666559
 20
5.68292276739463
 30
0.0
 10
-19.95327379718515
 20
5.56327055301431
 30
0.0
 10
-19.98397696194784
 20
5.474143326504541
 30
0.0
 10
-19.99842489421645
 20
5.347871460577199
 30
0.0
 10
-19.99998944602753
 20
5.32013009337194
 30
0.0
 10
-19.99998944602753
 20
5.292355169393923
 30
0.0
  0
SPLINE
  5
9F
330
1F
100
AcDbEntity
  8
Sichtbar_(ISO)
  6
Continuous
 62
     7
100
AcDbSpline
210
0.0
220
0.0
230
1.0
 70
     8
 71
     3
 72
    12
 73
     8
 74
     0
 42
0.000000001
 43
0.0000000001
 40
0.0
 40
0.0
 40
0.0
 40
0.0
 40
0.2286495662171637
 40
0.2286495662171637
 40
0.5852512125378395
 40
0.5852512125378395
 40
1.0
 40
1.0
 40
1.0
 40
1.0
 10
-18.95502916759195
 20
6.136626078219189
 30
0.0
 10
-19.00237415375394
 20
6.129177409003385
 30
0.0
 10
-19.04736817911895
 20
6.112541762732975
 30
0.0
 10
-19.15587930923634
 20
6.056321772606292
 30
0.0
 10
-19.21804819633984
 20
6.007889679007075
 30
0.0
 10
-19.33716768119288
 20
5.898992115034896
 30
0.0
 10
-19.40225722293674
 20
5.828037518126654
 30
0.0
 10
-19.46677993082352
 20
5.74792797708885
 30
0.0
  0
SPLINE
  5
A0
330
1F
100
AcDbEntity
  8
Sichtbar_(ISO)
  6
Continuous
 62
     7
100
AcDbSpline
210
0.0
220
0.0
230
1.0
 70
     8
 71
     3
 72
    10
 73
     6
 74
     0
 42
0.000000001
 43
0.0000000001
 40
0.0
 40
0.0
 40
0.0
 40
0.0
 40
0.6214152887976369
 40
0.6214152887976369
 40
0.9999999999999999
 40
0.9999999999999999
 40
0.9999999999999999
 40
0.9999999999999999
 10
-19.46677993082352
 20
-5.748012513256315
 30
0.0
 10
-19.35625893104395
 20
-5.885232212449906
 30
0.0
 10
-19.24165501899084
 20
-5.998919388100895
 30
0.0
 10
-19.06366089218143
 20
-6.108803129196086
 30
0.0
 10
-19.0059968832133
 20
-6.12869199013255
 30
0.0
 10
-18.95502916759195
 20
-6.136710614386648
 30
0.0
  0
SPLINE
  5
A1
330
1F
100
AcDbEntity
  8
Sichtbar_(ISO)
  6
Continuous
 62
     7
100
AcDbSpline
210
0.0
220
0.0
230
1.0
 70
     8
 71
     3
 72
    16
 73
    12
 74
     0
 42
0.000000001
 43
0.0000000001
 40
0.0
 40
0.0
 40
0.0
 40
0.0
 40
0.0624800801790165
 40
0.0624800801790165
 40
0.4014666734437572
 40
0.4014666734437572
 40
0.6249670554802359
 40
0.6249670554802359
 40
0.8196407913864564
 40
0.8196407913864564
 40
1.0
 40
1.0
 40
1.0
 40
1.0
 10
-19.99998944602753
 20
-5.292439705561389
 30
0.0
 10
-19.99998944602753
 20
-5.314214498837493
 30
0.0
 10
-19.99902761232847
 20
-5.33597948307591
 30
0.0
 10
-19.98656160581829
 20
-5.475450492464141
 30
0.0
 10
-19.94809944058507
 20
-5.581466552144563
 30
0.0
 10
-19.85919395403295
 20
-5.710011904699729
 30
0.0
 10
-19.81467685350979
 20
-5.752491908445239
 30
0.0
 10
-19.71496762257823
 20
-5.798911507476167
 30
0.0
 10
-19.66514570607457
 20
-5.805654265096905
 30
0.0
 10
-19.56371337461221
 20
-5.791822339894333
 30
0.0
 10
-19.51464541022675
 20
-5.773509803431519
 30
0.0
 10
-19.46677993082352
 20
-5.748012513256315
 30
0.0
  0
LINE
  5
A2
330
1F
100
AcDbEntity
  8
Sichtbar_(ISO)
  6
Continuous
 62
     7
100
AcDbLine
 10
-19.999989446
 20
-5.2924397056
 30
0.0
 11
-19.999989446
 21
-13.1556896185
 31
0.0
  0
ARC
  5
A3
330
1F
100
AcDbEntity
  8
Sichtbar_(ISO)
  6
Continuous
 62
     7
100
AcDbCircle
 10
19.000010554
 20
-19.0000422681
 30
0.0
 40
1.0
100
AcDbArc
 50
270.0
 51
0.0
  0
ARC
  5
A4
330
1F
100
AcDbEntity
  8
Sichtbar_(ISO)
  6
Continuous
 62
     7
100
AcDbCircle
 10
19.000010554
 20
18.9999577319
 30
0.0
 40
1.0
100
AcDbArc
 50
0.0
 51
90.0
  0
ARC
  5
A5
330
1F
100
AcDbEntity
  8
Sichtbar_(ISO)
  6
Continuous
 62
     7
100
AcDbCircle
 10
-18.899989446
 20
13.1556050823
 30
0.0
 40
1.100000000000001
100
AcDbArc
 50
92.8680555556
 51
180.0
  0
ARC
  5
A6
330
1F
100
AcDbEntity
  8
Sichtbar_(ISO)
  6
Continuous
 62
     7
100
AcDbCircle
 10
-18.899989446
 20
-13.1556896185
 30
0.0
 40
1.1
100
AcDbArc
 50
180.0
 51
267.1319444444
  0
SPLINE
  5
A7
330
1F
100
AcDbEntity
  8
Verdeckt_(ISO)
  6
HIDDEN2
 62
     7
100
AcDbSpline
210
0.0
220
0.0
230
1.0
 70
     8
 71
     3
 72
    14
 73
    10
 74
     0
 42
0.000000001
 43
0.0000000001
 40
0.0
 40
0.0
 40
0.0
 40
0.0
 40
0.2032487312620674
 40
0.2032487312620674
 40
0.4318082170201288
 40
0.4318082170201288
 40
0.696539465647782
 40
0.696539465647782
 40
1.0
 40
1.0
 40
1.0
 40
1.0
 10
19.00001055397248
 20
15.99995773191627
 30
0.0
 10
19.11436419460977
 20
15.99995773191627
 30
0.0
 10
19.24800084899045
 20
15.96878447432547
 30
0.0
 10
19.46786274305096
 20
15.86541908398334
 30
0.0
 10
19.58893992410555
 20
15.76974864491007
 30
0.0
 10
19.77129963543128
 20
15.56052814086406
 30
0.0
 10
19.85861435102024
 20
15.40457239773787
 30
0.0
 10
19.96696820378075
 20
15.10381416545196
 30
0.0
 10
20.00001055397248
 20
14.90161330680761
 30
0.0
 10
20.00001055397248
 20
14.7308775945725
 30
0.0
  0
SPLINE
  5
A8
330
1F
100
AcDbEntity
  8
Sichtbar_(ISO)
  6
Continuous
 62
     7
100
AcDbSpline
210
0.0
220
0.0
230
1.0
 70
     8
 71
     3
 72
    12
 73
     8
 74
     0
 42
0.000000001
 43
0.0000000001
 40
0.0
 40
0.0
 40
0.0
 40
0.0
 40
0.2321778403329758
 40
0.2321778403329758
 40
0.6215391223081882
 40
0.6215391223081882
 40
1.0
 40
1.0
 40
1.0
 40
1.0
 10
19.74168699928714
 20
5.82919991259314
 30
0.0
 10
19.70062772396171
 20
5.861340306685796
 30
0.0
 10
19.65456873642486
 20
5.887774511364993
 30
0.0
 10
19.51635579371673
 20
5.943523526148307
 30
0.0
 10
19.42199102213327
 20
5.959647374352797
 30
0.0
 10
19.23038309143547
 20
5.976613888875125
 30
0.0
 10
19.12082525746573
 20
5.978923537109763
 30
0.0
 10
19.00001055397246
 20
5.978923537109763
 30
0.0
  0
LINE
  5
A9
330
1F
100
AcDbEntity
  8
Sichtbar_(ISO)
  6
Continuous
 62
     7
100
AcDbLine
 10
18.0780259961
 20
5.9789235371
 30
0.0
 11
19.000010554
 21
5.9789235371
 31
0.0
  0
SPLINE
  5
AA
330
1F
100
AcDbEntity
  8
Sichtbar_(ISO)
  6
Continuous
 62
     7
100
AcDbSpline
210
0.0
220
0.0
230
1.0
 70
     8
 71
     3
 72
    10
 73
     6
 74
     0
 42
0.000000001
 43
0.0000000001
 40
0.0
 40
0.0
 40
0.0
 40
0.0
 40
0.4024756923996194
 40
0.4024756923996194
 40
1.0
 40
1.0
 40
1.0
 40
1.0
 10
19.74168699775867
 20
5.829199912183505
 30
0.0
 10
19.66737866623963
 20
5.747035027267689
 30
0.0
 10
19.57753286464965
 20
5.675800745062351
 30
0.0
 10
19.33098922240048
 20
5.541525492332012
 30
0.0
 10
19.16211302211016
 20
5.499957731916266
 30
0.0
 10
19.00001055397246
 20
5.499957731916266
 30
0.0
  0
LINE
  5
AB
330
1F
100
AcDbEntity
  8
Sichtbar_(ISO)
  6
Continuous
 62
     7
100
AcDbLine
 10
19.000010554
 20
5.4999577319
 30
0.0
 11
18.3511654395
 21
5.4999577319
 31
0.0
  0
SPLINE
  5
AC
330
1F
100
AcDbEntity
  8
Verdeckt_(ISO)
  6
HIDDEN2
 62
     7
100
AcDbSpline
210
0.0
220
0.0
230
1.0
 70
     8
 71
     3
 72
    12
 73
     8
 74
     0
 42
0.000000001
 43
0.0000000001
 40
0.0
 40
0.0
 40
0.0
 40
0.0
 40
0.4359388798759612
 40
0.4359388798759612
 40
0.8374323716996106
 40
0.8374323716996106
 40
1.0
 40
1.0
 40
1.0
 40
1.0
 10
19.00001055397248
 20
4.985692801287823
 30
0.0
 10
19.13993892925977
 20
4.985692801287823
 30
0.0
 10
19.26604381334234
 20
4.984837033747564
 30
0.0
 10
19.47148867370243
 20
4.965478948798203
 30
0.0
 10
19.56824824200427
 20
4.947175182760907
 30
0.0
 10
19.69186004023387
 20
4.88692058152908
 30
0.0
 10
19.72425661600825
 20
4.866369564190796
 30
0.0
 10
19.7537336773659
 20
4.842765632542886
 30
0.0
  0
LINE
  5
AD
330
1F
100
AcDbEntity
  8
Verdeckt_(ISO)
  6
HIDDEN2
 62
     7
100
AcDbLine
 10
19.000010554
 20
4.9856928013
 30
0.0
 11
18.0615619112
 21
4.9856928013
 31
0.0
  0
LINE
  5
AE
330
1F
100
AcDbEntity
  8
Verdeckt_(ISO)
  6
HIDDEN2
 62
     7
100
AcDbLine
 10
20.000010554
 20
11.9999577319
 30
0.0
 11
12.472146509
 21
11.9999577319
 31
0.0
  0
LINE
  5
AF
330
1F
100
AcDbEntity
  8
Verdeckt_(ISO)
  6
HIDDEN2
 62
     7
100
AcDbLine
 10
19.000010554
 20
15.9999577319
 30
0.0
 11
18.0207364961
 21
15.9999577319
 31
0.0
  0
LINE
  5
B0
330
1F
100
AcDbEntity
  8
Verdeckt_(ISO)
  6
HIDDEN2
 62
     7
100
AcDbLine
 10
13.9792846118
 20
15.9999577319
 30
0.0
 11
8.000010554
 21
15.9999577319
 31
0.0
  0
SPLINE
  5
B1
330
1F
100
AcDbEntity
  8
Verdeckt_(ISO)
  6
HIDDEN2
 62
     7
100
AcDbSpline
210
0.0
220
0.0
230
1.0
 70
    12
 71
     2
 72
     6
 73
     3
 74
     0
 42
0.000000001
 43
0.0000000001
 40
0.0
 40
0.0
 40
0.0
 40
1.0
 40
1.0
 40
1.0
 10
15.00001055397248
 20
13.72612531976732
 30
0.0
 41
1.0
 10
14.5286865831983
 20
14.81046757163485
 30
0.0
 41
1.001773314389825
 10
13.97928461180879
 20
15.99995773191627
 30
0.0
 41
1.0
  0
SPLINE
  5
B2
330
1F
100
AcDbEntity
  8
Verdeckt_(ISO)
  6
HIDDEN2
 62
     7
100
AcDbSpline
210
0.0
220
0.0
230
1.0
 70
     8
 71
     3
 72
    14
 73
    10
 74
     0
 42
0.000000001
 43
0.0000000001
 40
0.0
 40
0.0
 40
0.0
 40
0.0
 40
0.2043135488649701
 40
0.2043135488649701
 40
0.4520877831930558
 40
0.4520877831930558
 40
0.7083592075468241
 40
0.7083592075468241
 40
1.0
 40
1.0
 40
1.0
 40
1.0
 10
15.20001055397248
 20
12.59995773191626
 30
0.0
 10
15.17592600449914
 20
12.59995773191626
 30
0.0
 10
15.14805277528875
 20
12.60759824544519
 30
0.0
 10
15.10120242994049
 20
12.63299726154994
 30
0.0
 10
15.07575384411049
 20
12.65709745890002
 30
0.0
 10
15.0408359055615
 20
12.70517162943753
 30
0.0
 10
15.02522875639731
 20
12.73789117744868
 30
0.0
 10
15.00595598995616
 20
12.79953677707597
 30
0.0
 10
15.00001055397248
 20
12.84036056930681
 30
0.0
 10
15.00001055397248
 20
12.87473928346113
 30
0.0
  0
LINE
  5
B3
330
1F
100
AcDbEntity
  8
Verdeckt_(ISO)
  6
HIDDEN2
 62
     7
100
AcDbLine
 10
16.800010554
 20
12.5999577319
 30
0.0
 11
15.200010554
 21
12.5999577319
 31
0.0
  0
SPLINE
  5
B4
330
1F
100
AcDbEntity
  8
Verdeckt_(ISO)
  6
HIDDEN2
 62
     7
100
AcDbSpline
210
0.0
220
0.0
230
1.0
 70
     8
 71
     3
 72
    14
 73
    10
 74
     0
 42
0.000000001
 43
0.0000000001
 40
0.0
 40
0.0
 40
0.0
 40
0.0
 40
0.315698947891096
 40
0.315698947891096
 40
0.5876712148794729
 40
0.5876712148794729
 40
0.8115318412125788
 40
0.8115318412125788
 40
1.0
 40
1.0
 40
1.0
 40
1.0
 10
17.00001055397248
 20
12.87473928346113
 30
0.0
 10
17.00001055397248
 20
12.83753064491619
 30
0.0
 10
16.99307208608726
 20
12.79342267658832
 30
0.0
 10
16.97064191090586
 20
12.72789151147483
 30
0.0
 10
16.95277299180081
 20
12.69382787430131
 30
0.0
 10
16.91566692050963
 20
12.64868026552846
 30
0.0
 10
16.89156560173634
 20
12.62814813622026
 30
0.0
 10
16.84807213450863
 20
12.60646774530885
 30
0.0
 10
16.82222362640872
 20
12.59995773191626
 30
0.0
 10
16.80001055397248
 20
12.59995773191626
 30
0.0
  0
SPLINE
  5
B5
330
1F
100
AcDbEntity
  8
Verdeckt_(ISO)
  6
HIDDEN2
 62
     7
100
AcDbSpline
210
0.0
220
0.0
230
1.0
 70
    12
 71
     2
 72
     6
 73
     3
 74
     0
 42
0.000000001
 43
0.0000000001
 40
0.0
 40
0.0
 40
0.0
 40
1.0
 40
1.0
 40
1.0
 10
17.50001055397248
 20
14.85716187585462
 30
0.0
 41
1.000886370599054
 10
17.24011811924945
 20
14.27852408190793
 30
0.0
 41
1.000902598094475
 10
17.00001055397248
 20
13.72612531976732
 30
0.0
 41
1.0
  0
SPLINE
  5
B6
330
1F
100
AcDbEntity
  8
Verdeckt_(ISO)
  6
HIDDEN2
 62
     7
100
AcDbSpline
210
0.0
220
0.0
230
1.0
 70
    12
 71
     2
 72
     6
 73
     3
 74
     0
 42
0.000000001
 43
0.0000000001
 40
0.0
 40
0.0
 40
0.0
 40
1.0
 40
1.0
 40
1.0
 10
18.02073649613617
 20
15.99995773191627
 30
0.0
 41
1.0
 10
17.75073098832166
 20
15.41537865959355
 30
0.0
 41
1.000427439766592
 10
17.50001055397248
 20
14.85716187585462
 30
0.0
 41
1.0
  0
ELLIPSE
  5
B7
330
1F
100
AcDbEntity
  8
Verdeckt_(ISO)
  6
HIDDEN2
 62
     7
100
AcDbEllipse
 10
11.8648338378
 20
-0.0000422681
 30
0.0
 11
22.53408931776899
 21
-19.08923747312494
 31
0.0
210
0.0
220
0.0
230
1.0
 40
0.26478365
 41
1.519794454641242
 42
1.521629075394951
  0
ELLIPSE
  5
B8
330
1F
100
AcDbEntity
  8
Verdeckt_(ISO)
  6
HIDDEN2
 62
     7
100
AcDbEllipse
 10
11.8648338378
 20
-0.0000422681
 30
0.0
 11
-22.53408931776899
 21
-19.08923747312494
 31
0.0
210
0.0
220
0.0
230
1.0
 40
0.26478365
 41
-4.663221728984746
 42
-4.661387108231035
  0
LINE
  5
B9
330
1F
100
AcDbEntity
  8
Verdeckt_(ISO)
  6
HIDDEN2
 62
     7
100
AcDbLine
 10
17.480010554
 20
-4.5000422681
 30
0.0
 11
17.000010554
 21
-4.9800422681
 31
0.0
  0
LINE
  5
BA
330
1F
100
AcDbEntity
  8
Verdeckt_(ISO)
  6
HIDDEN2
 62
     7
100
AcDbLine
 10
17.480010554
 20
4.4999577319
 30
0.0
 11
17.000010554
 21
4.9799577319
 31
0.0
  0
LINE
  5
BB
330
1F
100
AcDbEntity
  8
Verdeckt_(ISO)
  6
HIDDEN2
 62
     7
100
AcDbLine
 10
18.0615619112
 20
-4.9857773375
 30
0.0
 11
18.327084591
 21
-4.5000422681
 31
0.0
  0
SPLINE
  5
BC
330
1F
100
AcDbEntity
  8
Verdeckt_(ISO)
  6
HIDDEN2
 62
     7
100
AcDbSpline
210
0.0
220
0.0
230
1.0
 70
    12
 71
     2
 72
     6
 73
     3
 74
     0
 42
0.000000001
 43
0.0000000001
 40
0.0
 40
0.0
 40
0.0
 40
1.0
 40
1.0
 40
1.0
 10
17.00001055397248
 20
-4.989334856732728
 30
0.0
 41
1.0
 10
17.48834723049283
 20
-5.005981093360051
 30
0.0
 41
1.00085925056217
 10
18.02073649613618
 20
-5.021302952051688
 30
0.0
 41
1.0
  0
LINE
  5
BD
330
1F
100
AcDbEntity
  8
Verdeckt_(ISO)
  6
HIDDEN2
 62
     7
100
AcDbLine
 10
18.327084591
 20
4.4999577319
 30
0.0
 11
18.0615619112
 21
4.9856928013
 31
0.0
  0
SPLINE
  5
BE
330
1F
100
AcDbEntity
  8
Verdeckt_(ISO)
  6
HIDDEN2
 62
     7
100
AcDbSpline
210
0.0
220
0.0
230
1.0
 70
    12
 71
     2
 72
     6
 73
     3
 74
     0
 42
0.000000001
 43
0.0000000001
 40
0.0
 40
0.0
 40
0.0
 40
1.0
 40
1.0
 40
1.0
 10
18.02073649613618
 20
5.02121841588422
 30
0.0
 41
1.0
 10
17.48834723047806
 20
5.005896557192119
 30
0.0
 41
1.000859250561904
 10
17.00001055397249
 20
4.989250320565265
 30
0.0
 41
1.0
  0
ELLIPSE
  5
BF
330
1F
100
AcDbEntity
  8
Sichtbar_(ISO)
  6
Continuous
 62
     7
100
AcDbEllipse
 10
13.0380389185
 20
-0.0000422681
 30
0.0
 11
22.53408931776902
 21
-19.08923747312495
 31
0.0
210
0.0
220
0.0
230
1.0
 40
0.26478365
 41
1.571441120854369
 42
1.573982382510074
  0
ELLIPSE
  5
C0
330
1F
100
AcDbEntity
  8
Sichtbar_(ISO)
  6
Continuous
 62
     7
100
AcDbEllipse
 10
13.0380389185
 20
-0.0000422681
 30
0.0
 11
-22.53408931776902
 21
-19.08923747312495
 31
0.0
210
0.0
220
0.0
230
1.0
 40
0.26478365
 41
1.567610271079716
 42
1.570151532735421
  0
LINE
  5
C1
330
1F
100
AcDbEntity
  8
Sichtbar_(ISO)
  6
Continuous
 62
     7
100
AcDbLine
 10
18.3511654395
 20
-5.5000422681
 30
0.0
 11
18.0780259961
 21
-5.9790080733
 31
0.0
  0
LINE
  5
C2
330
1F
100
AcDbEntity
  8
Sichtbar_(ISO)
  6
Continuous
 62
     7
100
AcDbLine
 10
17.480010554
 20
-5.5000422681
 30
0.0
 11
18.3511654395
 21
-5.5000422681
 31
0.0
  0
LINE
  5
C3
330
1F
100
AcDbEntity
  8
Sichtbar_(ISO)
  6
Continuous
 62
     7
100
AcDbLine
 10
17.480010554
 20
-5.5000422681
 30
0.0
 11
17.000010554
 21
-5.9800422681
 31
0.0
  0
LINE
  5
C4
330
1F
100
AcDbEntity
  8
Sichtbar_(ISO)
  6
Continuous
 62
     7
100
AcDbLine
 10
17.000010554
 20
-5.9817021283
 30
0.0
 11
17.000010554
 21
-5.9800422681
 31
0.0
  0
SPLINE
  5
C5
330
1F
100
AcDbEntity
  8
Sichtbar_(ISO)
  6
Continuous
 62
     7
100
AcDbSpline
210
0.0
220
0.0
230
1.0
 70
    12
 71
     2
 72
     6
 73
     3
 74
     0
 42
0.000000001
 43
0.0000000001
 40
0.0
 40
0.0
 40
0.0
 40
1.0
 40
1.0
 40
1.0
 10
18.02073649613616
 20
-6.027489675205525
 30
0.0
 41
1.0
 10
17.48825137216592
 20
-6.005532250055988
 30
0.0
 41
1.000837443207844
 10
17.00001055397247
 20
-5.98170212832665
 30
0.0
 41
1.0
  0
LINE
  5
C6
330
1F
100
AcDbEntity
  8
Sichtbar_(ISO)
  6
Continuous
 62
     7
100
AcDbLine
 10
17.480010554
 20
5.4999577319
 30
0.0
 11
17.000010554
 21
5.9799577319
 31
0.0
  0
LINE
  5
C7
330
1F
100
AcDbEntity
  8
Sichtbar_(ISO)
  6
Continuous
 62
     7
100
AcDbLine
 10
17.000010554
 20
5.9799577319
 30
0.0
 11
17.000010554
 21
5.9816175922
 31
0.0
  0
LINE
  5
C8
330
1F
100
AcDbEntity
  8
Sichtbar_(ISO)
  6
Continuous
 62
     7
100
AcDbLine
 10
18.3511654395
 20
5.4999577319
 30
0.0
 11
17.480010554
 21
5.4999577319
 31
0.0
  0
LINE
  5
C9
330
1F
100
AcDbEntity
  8
Sichtbar_(ISO)
  6
Continuous
 62
     7
100
AcDbLine
 10
18.0780259961
 20
5.9789235371
 30
0.0
 11
18.3511654395
 21
5.4999577319
 31
0.0
  0
SPLINE
  5
CA
330
1F
100
AcDbEntity
  8
Sichtbar_(ISO)
  6
Continuous
 62
     7
100
AcDbSpline
210
0.0
220
0.0
230
1.0
 70
    12
 71
     2
 72
     6
 73
     3
 74
     0
 42
0.000000001
 43
0.0000000001
 40
0.0
 40
0.0
 40
0.0
 40
1.0
 40
1.0
 40
1.0
 10
17.00001055397247
 20
5.981617592159187
 30
0.0
 41
1.0
 10
17.48825137217251
 20
6.005447713888822
 30
0.0
 41
1.000837443209642
 10
18.02073649613616
 20
6.02740513903806
 30
0.0
 41
1.0
  0
LINE
  5
CB
330
1F
100
AcDbEntity
  8
Verdeckt_(ISO)
  6
HIDDEN2
 62
     7
100
AcDbLine
 10
18.0207364961
 20
6.027405139
 30
0.0
 11
18.0207364961
 21
5.0212184159
 31
0.0
  0
LINE
  5
CC
330
1F
100
AcDbEntity
  8
Verdeckt_(ISO)
  6
HIDDEN2
 62
     7
100
AcDbLine
 10
18.0207364961
 20
-5.0213029521
 30
0.0
 11
18.0207364961
 21
-6.0274896752
 31
0.0
  0
LINE
  5
CD
330
1F
100
AcDbEntity
  8
Verdeckt_(ISO)
  6
HIDDEN2
 62
     7
100
AcDbLine
 10
-19.199989446
 20
-4.2049033792
 30
0.0
 11
-19.199989446
 21
-10.5000422681
 31
0.0
  0
LINE
  5
CE
330
1F
100
AcDbEntity
  8
Verdeckt_(ISO)
  6
HIDDEN2
 62
     7
100
AcDbLine
 10
-19.199989446
 20
10.4999577319
 30
0.0
 11
-19.199989446
 21
4.204818843
 31
0.0
  0
LINE
  5
CF
330
1F
100
AcDbEntity
  8
Verdeckt_(ISO)
  6
HIDDEN2
 62
     7
100
AcDbLine
 10
-11.9973397152
 20
10.4999577319
 30
0.0
 11
-11.9973397152
 21
-10.5000422681
 31
0.0
  0
LINE
  5
D0
330
1F
100
AcDbEntity
  8
Verdeckt_(ISO)
  6
HIDDEN2
 62
     7
100
AcDbLine
 10
13.9792846118
 20
6.027405139
 30
0.0
 11
13.9792846118
 21
5.0212184159
 31
0.0
  0
LINE
  5
D1
330
1F
100
AcDbEntity
  8
Verdeckt_(ISO)
  6
HIDDEN2
 62
     7
100
AcDbLine
 10
13.9792846118
 20
-5.0213029521
 30
0.0
 11
13.9792846118
 21
-6.0274896752
 31
0.0
  0
LINE
  5
D2
330
1F
100
AcDbEntity
  8
Verdeckt_(ISO)
  6
HIDDEN2
 62
     7
100
AcDbLine
 10
6.200010554
 20
10.4999577319
 30
0.0
 11
6.200010554
 21
-10.5000422681
 31
0.0
  0
LINE
  5
D3
330
1F
100
AcDbEntity
  8
Verdeckt_(ISO)
  6
HIDDEN2
 62
     7
100
AcDbLine
 10
8.000010554
 20
-1.0000422872
 30
0.0
 11
8.000010554
 21
-9.9000422681
 31
0.0
  0
LINE
  5
D4
330
1F
100
AcDbEntity
  8
Verdeckt_(ISO)
  6
HIDDEN2
 62
     7
100
AcDbLine
 10
8.000010554
 20
9.8999577319
 30
0.0
 11
8.000010554
 21
0.9999577511
 31
0.0
  0
LINE
  5
D5
330
1F
100
AcDbEntity
  8
Verdeckt_(ISO)
  6
HIDDEN2
 62
     7
100
AcDbLine
 10
9.000010554
 20
5.4999577319
 30
0.0
 11
9.000010554
 21
-5.5000422681
 31
0.0
  0
LINE
  5
D6
330
1F
100
AcDbEntity
  8
Verdeckt_(ISO)
  6
HIDDEN2
 62
     7
100
AcDbLine
 10
14.000010554
 20
6.2499577319
 30
0.0
 11
14.000010554
 21
-6.2500422681
 31
0.0
  0
LINE
  5
D7
330
1F
100
AcDbEntity
  8
Verdeckt_(ISO)
  6
HIDDEN2
 62
     7
100
AcDbLine
 10
16.000010554
 20
6.2499577319
 30
0.0
 11
16.000010554
 21
-6.2500422681
 31
0.0
  0
LINE
  5
D8
330
1F
100
AcDbEntity
  8
Verdeckt_(ISO)
  6
HIDDEN2
 62
     7
100
AcDbLine
 10
24.000010554
 20
8.4999577319
 30
0.0
 11
24.000010554
 21
-8.5000422681
 31
0.0
  0
LINE
  5
D9
330
1F
100
AcDbEntity
  8
Verdeckt_(ISO)
  6
HIDDEN2
 62
     7
100
AcDbLine
 10
29.000010554
 20
8.4999577319
 30
0.0
 11
29.000010554
 21
-8.5000422681
 31
0.0
  0
ARC
  5
DA
330
1F
100
AcDbEntity
  8
Verdeckt_(ISO)
  6
HIDDEN2
 62
     7
100
AcDbCircle
 10
-4.1758127182
 20
7.7499577319
 30
0.0
 40
5.0
100
AcDbArc
 50
33.3670129692
 51
90.0
  0
ARC
  5
DB
330
1F
100
AcDbEntity
  8
Verdeckt_(ISO)
  6
HIDDEN2
 62
     7
100
AcDbCircle
 10
-4.1758127182
 20
-7.7500422681
 30
0.0
 40
5.0
100
AcDbArc
 50
270.0
 51
326.6329870308
  0
LINE
  5
DC
330
1F
100
AcDbEntity
  8
Verdeckt_(ISO)
  6
HIDDEN2
 62
     7
100
AcDbLine
 10
-4.1758127182
 20
-12.7500422681
 30
0.0
 11
-10.4673615019
 21
-12.7500422681
 31
0.0
  0
LINE
  5
DD
330
1F
100
AcDbEntity
  8
Verdeckt_(ISO)
  6
HIDDEN2
 62
     7
100
AcDbLine
 10
-4.1758127182
 20
12.7499577319
 30
0.0
 11
-10.4673615019
 21
12.7499577319
 31
0.0
  0
LINE
  5
DE
330
1F
100
AcDbEntity
  8
Verdeckt_(ISO)
  6
HIDDEN2
 62
     7
100
AcDbLine
 10
-11.9973397152
 20
-10.5000422681
 30
0.0
 11
-19.199989446
 21
-10.5000422681
 31
0.0
  0
LINE
  5
DF
330
1F
100
AcDbEntity
  8
Verdeckt_(ISO)
  6
HIDDEN2
 62
     7
100
AcDbLine
 10
-11.9973397152
 20
10.4999577319
 30
0.0
 11
-19.199989446
 21
10.4999577319
 31
0.0
  0
LINE
  5
E0
330
1F
100
AcDbEntity
  8
Verdeckt_(ISO)
  6
HIDDEN2
 62
     7
100
AcDbLine
 10
-19.199989446
 20
10.4999577319
 30
0.0
 11
-19.999989446
 21
10.9618379473
 31
0.0
  0
LINE
  5
E1
330
1F
100
AcDbEntity
  8
Verdeckt_(ISO)
  6
HIDDEN2
 62
     7
100
AcDbLine
 10
-19.199989446
 20
-10.5000422681
 30
0.0
 11
-19.999989446
 21
-10.9619224834
 31
0.0
  0
LINE
  5
E2
330
1F
100
AcDbEntity
  8
Verdeckt_(ISO)
  6
HIDDEN2
 62
     7
100
AcDbLine
 10
-11.9973397152
 20
10.4999577319
 30
0.0
 11
-10.8137716634
 21
12.5499577319
 31
0.0
  0
LINE
  5
E3
330
1F
100
AcDbEntity
  8
Verdeckt_(ISO)
  6
HIDDEN2
 62
     7
100
AcDbLine
 10
-11.9973397152
 20
-10.5000422681
 30
0.0
 11
-10.8137716634
 21
-12.5500422681
 31
0.0
  0
ARC
  5
E4
330
1F
100
AcDbEntity
  8
Verdeckt_(ISO)
  6
HIDDEN2
 62
     7
100
AcDbCircle
 10
-10.4673615019
 20
12.3499577319
 30
0.0
 40
0.4000000000000001
100
AcDbArc
 50
90.0
 51
150.0
  0
ARC
  5
E5
330
1F
100
AcDbEntity
  8
Verdeckt_(ISO)
  6
HIDDEN2
 62
     7
100
AcDbCircle
 10
-10.4673615019
 20
-12.3500422681
 30
0.0
 40
0.4000000000000001
100
AcDbArc
 50
210.0
 51
270.0
  0
LINE
  5
E6
330
1F
100
AcDbEntity
  8
Verdeckt_(ISO)
  6
HIDDEN2
 62
     7
100
AcDbLine
 10
6.200010554
 20
-10.5000422681
 30
0.0
 11
0.000010554
 21
-10.5000422681
 31
0.0
  0
LINE
  5
E7
330
1F
100
AcDbEntity
  8
Verdeckt_(ISO)
  6
HIDDEN2
 62
     7
100
AcDbLine
 10
6.200010554
 20
10.4999577319
 30
0.0
 11
0.000010554
 21
10.4999577319
 31
0.0
  0
ARC
  5
E8
330
1F
100
AcDbEntity
  8
Verdeckt_(ISO)
  6
HIDDEN2
 62
     7
100
AcDbCircle
 10
7.000010554
 20
9.8999577319
 30
0.0
 40
1.0
100
AcDbArc
 50
0.0
 51
143.1301023542
  0
ARC
  5
E9
330
1F
100
AcDbEntity
  8
Verdeckt_(ISO)
  6
HIDDEN2
 62
     7
100
AcDbCircle
 10
7.000010554
 20
-9.9000422681
 30
0.0
 40
0.9999999999999996
100
AcDbArc
 50
216.8698976458
 51
0.0
  0
LINE
  5
EA
330
1F
100
AcDbEntity
  8
Verdeckt_(ISO)
  6
HIDDEN2
 62
     7
100
AcDbLine
 10
9.000010554
 20
-5.5000422681
 30
0.0
 11
8.000010554
 21
-6.5000422681
 31
0.0
  0
LINE
  5
EB
330
1F
100
AcDbEntity
  8
Verdeckt_(ISO)
  6
HIDDEN2
 62
     7
100
AcDbLine
 10
9.000010554
 20
5.4999577319
 30
0.0
 11
8.000010554
 21
6.4999577319
 31
0.0
  0
LINE
  5
EC
330
1F
100
AcDbEntity
  8
Verdeckt_(ISO)
  6
HIDDEN2
 62
     7
100
AcDbLine
 10
12.500010554
 20
-5.5000422681
 30
0.0
 11
9.000010554
 21
-5.5000422681
 31
0.0
  0
LINE
  5
ED
330
1F
100
AcDbEntity
  8
Verdeckt_(ISO)
  6
HIDDEN2
 62
     7
100
AcDbLine
 10
12.500010554
 20
5.4999577319
 30
0.0
 11
9.000010554
 21
5.4999577319
 31
0.0
  0
LINE
  5
EE
330
1F
100
AcDbEntity
  8
Verdeckt_(ISO)
  6
HIDDEN2
 62
     7
100
AcDbLine
 10
16.000010554
 20
-6.2500422681
 30
0.0
 11
14.000010554
 21
-6.2500422681
 31
0.0
  0
LINE
  5
EF
330
1F
100
AcDbEntity
  8
Verdeckt_(ISO)
  6
HIDDEN2
 62
     7
100
AcDbLine
 10
16.000010554
 20
6.2499577319
 30
0.0
 11
14.000010554
 21
6.2499577319
 31
0.0
  0
LINE
  5
F0
330
1F
100
AcDbEntity
  8
Verdeckt_(ISO)
  6
HIDDEN2
 62
     7
100
AcDbLine
 10
24.000010554
 20
-2.5000422681
 30
0.0
 11
16.000010554
 21
-2.5000422681
 31
0.0
  0
LINE
  5
F1
330
1F
100
AcDbEntity
  8
Verdeckt_(ISO)
  6
HIDDEN2
 62
     7
100
AcDbLine
 10
24.000010554
 20
2.4999577319
 30
0.0
 11
16.000010554
 21
2.4999577319
 31
0.0
  0
LINE
  5
F2
330
1F
100
AcDbEntity
  8
Verdeckt_(ISO)
  6
HIDDEN2
 62
     7
100
AcDbLine
 10
29.000010554
 20
-8.5000422681
 30
0.0
 11
24.000010554
 21
-8.5000422681
 31
0.0
  0
LINE
  5
F3
330
1F
100
AcDbEntity
  8
Verdeckt_(ISO)
  6
HIDDEN2
 62
     7
100
AcDbLine
 10
29.000010554
 20
8.4999577319
 30
0.0
 11
24.000010554
 21
8.4999577319
 31
0.0
  0
LINE
  5
F4
330
1F
100
AcDbEntity
  8
Verdeckt_(ISO)
  6
HIDDEN2
 62
     7
100
AcDbLine
 10
74.000010554
 20
-8.0000422681
 30
0.0
 11
29.000010554
 21
-8.0000422681
 31
0.0
  0
LINE
  5
F5
330
1F
100
AcDbEntity
  8
Verdeckt_(ISO)
  6
HIDDEN2
 62
     7
100
AcDbLine
 10
74.000010554
 20
7.9999577319
 30
0.0
 11
57.500010554
 21
7.9999577319
 31
0.0
  0
LINE
  5
F6
330
1F
100
AcDbEntity
  8
Verdeckt_(ISO)
  6
HIDDEN2
 62
     7
100
AcDbLine
 10
45.500010554
 20
7.9999577319
 30
0.0
 11
29.000010554
 21
7.9999577319
 31
0.0
  0
ARC
  5
F7
330
1F
100
AcDbEntity
  8
Verdeckt_(ISO)
  6
HIDDEN2
 62
     7
100
AcDbCircle
 10
74.000010554
 20
8.9999577319
 30
0.0
 40
0.9999999999999929
100
AcDbArc
 50
270.0
 51
0.0
  0
ARC
  5
F8
330
1F
100
AcDbEntity
  8
Verdeckt_(ISO)
  6
HIDDEN2
 62
     7
100
AcDbCircle
 10
74.000010554
 20
-9.0000422681
 30
0.0
 40
0.9999999999999929
100
AcDbArc
 50
0.0
 51
90.0
  0
LINE
  5
F9
330
1F
100
AcDbEntity
  8
Verdeckt_(ISO)
  6
HIDDEN2
 62
     7
100
AcDbLine
 10
0.1912695943
 20
-15.3852392284
 30
0.0
 11
0.000010554
 21
-16.2850422681
 31
0.0
  0
LINE
  5
FA
330
1F
100
AcDbEntity
  8
Verdeckt_(ISO)
  6
HIDDEN2
 62
     7
100
AcDbLine
 10
0.1912695943
 20
15.3851546922
 30
0.0
 11
0.000010554
 21
16.2849577319
 31
0.0
  0
ARC
  5
FB
330
1F
100
AcDbEntity
  8
Verdeckt_(ISO)
  6
HIDDEN2
 62
     7
100
AcDbCircle
 10
-0.199989446
 20
15.3019900159
 30
0.0
 40
0.4000000000000002
100
AcDbArc
 50
0.0
 51
12.0
  0
ARC
  5
FC
330
1F
100
AcDbEntity
  8
Verdeckt_(ISO)
  6
HIDDEN2
 62
     7
100
AcDbCircle
 10
-0.199989446
 20
15.3019900159
 30
0.0
 40
0.4000000000000002
100
AcDbArc
 50
300.0
 51
0.0
  0
ARC
  5
FD
330
1F
100
AcDbEntity
  8
Verdeckt_(ISO)
  6
HIDDEN2
 62
     7
100
AcDbCircle
 10
-0.199989446
 20
-15.3020745521
 30
0.0
 40
0.4000000000000002
100
AcDbArc
 50
0.0
 51
60.0
  0
ARC
  5
FE
330
1F
100
AcDbEntity
  8
Verdeckt_(ISO)
  6
HIDDEN2
 62
     7
100
AcDbCircle
 10
-0.199989446
 20
-15.3020745521
 30
0.0
 40
0.4000000000000003
100
AcDbArc
 50
348.0
 51
0.0
  0
LINE
  5
FF
330
1F
100
AcDbEntity
  8
Verdeckt_(ISO)
  6
HIDDEN2
 62
     7
100
AcDbLine
 10
0.200010554
 20
-15.3020745521
 30
0.0
 11
0.200010554
 21
15.3019900159
 31
0.0
  0
LINE
  5
100
330
1F
100
AcDbEntity
  8
Sichtbar_(ISO)
  6
Continuous
 62
     7
100
AcDbLine
 10
18.0207364961
 20
19.9999577319
 30
0.0
 11
18.0207364961
 21
6.027405139
 31
0.0
  0
LINE
  5
101
330
1F
100
AcDbEntity
  8
Sichtbar_(ISO)
  6
Continuous
 62
     7
100
AcDbLine
 10
18.0207364961
 20
-6.0274896752
 30
0.0
 11
18.0207364961
 21
-20.0000422681
 31
0.0
  0
LINE
  5
102
330
1F
100
AcDbEntity
  8
Sichtbar_(ISO)
  6
Continuous
 62
     7
100
AcDbLine
 10
-2.599989446
 20
15.0735961414
 30
0.0
 11
-2.599989446
 21
-15.0736806775
 31
0.0
  0
LINE
  5
103
330
1F
100
AcDbEntity
  8
Sichtbar_(ISO)
  6
Continuous
 62
     7
100
AcDbLine
 10
17.000010554
 20
-5.9817021283
 30
0.0
 11
17.000010554
 21
-18.2320930757
 31
0.0
  0
LINE
  5
104
330
1F
100
AcDbEntity
  8
Sichtbar_(ISO)
  6
Continuous
 62
     7
100
AcDbLine
 10
17.000010554
 20
18.2320085395
 30
0.0
 11
17.000010554
 21
5.9816175922
 31
0.0
  0
LINE
  5
105
330
1F
100
AcDbEntity
  8
Sichtbar_(ISO)
  6
Continuous
 62
     7
100
AcDbLine
 10
13.9792846118
 20
-6.0274896752
 30
0.0
 11
13.9792846118
 21
-20.0000422681
 31
0.0
  0
LINE
  5
106
330
1F
100
AcDbEntity
  8
Sichtbar_(ISO)
  6
Continuous
 62
     7
100
AcDbLine
 10
13.9792846118
 20
19.9999577319
 30
0.0
 11
13.9792846118
 21
6.027405139
 31
0.0
  0
LINE
  5
107
330
1F
100
AcDbEntity
  8
Sichtbar_(ISO)
  6
Continuous
 62
     7
100
AcDbLine
 10
0.700010554
 20
19.9999577319
 30
0.0
 11
0.700010554
 21
-20.0000422681
 31
0.0
  0
LINE
  5
108
330
1F
100
AcDbEntity
  8
Sichtbar_(ISO)
  6
Continuous
 62
     7
100
AcDbLine
 10
15.000010554
 20
18.2320085395
 30
0.0
 11
15.000010554
 21
5.9816175922
 31
0.0
  0
LINE
  5
109
330
1F
100
AcDbEntity
  8
Sichtbar_(ISO)
  6
Continuous
 62
     7
100
AcDbLine
 10
15.000010554
 20
-5.9817021283
 30
0.0
 11
15.000010554
 21
-18.2320930757
 31
0.0
  0
LINE
  5
10A
330
1F
100
AcDbEntity
  8
Sichtbar_(ISO)
  6
Continuous
 62
     7
100
AcDbLine
 10
75.000010554
 20
16.4758172103
 30
0.0
 11
75.000010554
 21
-16.4759017465
 31
0.0
  0
LINE
  5
10B
330
1F
100
AcDbEntity
  8
Sichtbar_(ISO)
  6
Continuous
 62
     7
100
AcDbLine
 10
0.000010554
 20
19.2999577319
 30
0.0
 11
0.000010554
 21
-19.3000422681
 31
0.0
  0
LINE
  5
10C
330
1F
100
AcDbEntity
  8
Sichtbar_(ISO)
  6
Continuous
 62
     7
100
AcDbLine
 10
35.041844967
 20
-16.5000422681
 30
0.0
 11
20.500010554
 21
-16.5000422681
 31
0.0
  0
LINE
  5
10D
330
1F
100
AcDbEntity
  8
Sichtbar_(ISO)
  6
Continuous
 62
     7
100
AcDbLine
 10
35.041844967
 20
16.4999577319
 30
0.0
 11
20.500010554
 21
16.4999577319
 31
0.0
  0
LINE
  5
10E
330
1F
100
AcDbEntity
  8
Sichtbar_(ISO)
  6
Continuous
 62
     7
100
AcDbLine
 10
19.000010554
 20
19.9999577319
 30
0.0
 11
18.0207364961
 21
19.9999577319
 31
0.0
  0
LINE
  5
10F
330
1F
100
AcDbEntity
  8
Sichtbar_(ISO)
  6
Continuous
 62
     7
100
AcDbLine
 10
19.000010554
 20
-20.0000422681
 30
0.0
 11
18.0207364961
 21
-20.0000422681
 31
0.0
  0
LINE
  5
110
330
1F
100
AcDbEntity
  8
Sichtbar_(ISO)
  6
Continuous
 62
     7
100
AcDbLine
 10
-18.9550291676
 20
14.2542272325
 30
0.0
 11
-2.599989446
 21
15.0735961414
 31
0.0
  0
LINE
  5
111
330
1F
100
AcDbEntity
  8
Sichtbar_(ISO)
  6
Continuous
 62
     7
100
AcDbLine
 10
-18.9550291676
 20
-14.2543117687
 30
0.0
 11
-2.599989446
 21
-15.0736806775
 31
0.0
  0
ARC
  5
112
330
1F
100
AcDbEntity
  8
Sichtbar_(ISO)
  6
Continuous
 62
     7
100
AcDbCircle
 10
20.500010554
 20
16.9999577319
 30
0.0
 40
0.5
100
AcDbArc
 50
180.0
 51
270.0
  0
ARC
  5
113
330
1F
100
AcDbEntity
  8
Sichtbar_(ISO)
  6
Continuous
 62
     7
100
AcDbCircle
 10
20.500010554
 20
-17.0000422681
 30
0.0
 40
0.5
100
AcDbArc
 50
90.0
 51
180.0
  0
ARC
  5
114
330
1F
100
AcDbEntity
  8
Sichtbar_(ISO)
  6
Continuous
 62
     7
100
AcDbCircle
 10
16.800010554
 20
-17.6000422681
 30
0.0
 40
0.2
100
AcDbArc
 50
0.0
 51
90.0
  0
LINE
  5
115
330
1F
100
AcDbEntity
  8
Sichtbar_(ISO)
  6
Continuous
 62
     7
100
AcDbLine
 10
17.000010554
 20
18.2320085395
 30
0.0
 11
18.0207364961
 21
19.9999577319
 31
0.0
  0
ARC
  5
116
330
1F
100
AcDbEntity
  8
Sichtbar_(ISO)
  6
Continuous
 62
     7
100
AcDbCircle
 10
15.200010554
 20
-17.6000422681
 30
0.0
 40
0.2
100
AcDbArc
 50
90.0
 51
180.0
  0
LINE
  5
117
330
1F
100
AcDbEntity
  8
Sichtbar_(ISO)
  6
Continuous
 62
     7
100
AcDbLine
 10
17.000010554
 20
-18.2320930757
 30
0.0
 11
18.0207364961
 21
-20.0000422681
 31
0.0
  0
LINE
  5
118
330
1F
100
AcDbEntity
  8
Sichtbar_(ISO)
  6
Continuous
 62
     7
100
AcDbLine
 10
13.9792846118
 20
-20.0000422681
 30
0.0
 11
12.825010554
 21
-20.0000422681
 31
0.0
  0
LINE
  5
119
330
1F
100
AcDbEntity
  8
Sichtbar_(ISO)
  6
Continuous
 62
     7
100
AcDbLine
 10
1.175010554
 20
-20.0000422681
 30
0.0
 11
0.700010554
 21
-20.0000422681
 31
0.0
  0
LINE
  5
11A
330
1F
100
AcDbEntity
  8
Sichtbar_(ISO)
  6
Continuous
 62
     7
100
AcDbLine
 10
13.9792846118
 20
19.9999577319
 30
0.0
 11
10.8650528005
 21
19.9999577319
 31
0.0
  0
LINE
  5
11B
330
1F
100
AcDbEntity
  8
Sichtbar_(ISO)
  6
Continuous
 62
     7
100
AcDbLine
 10
3.1349683075
 20
19.9999577319
 30
0.0
 11
0.700010554
 21
19.9999577319
 31
0.0
  0
LINE
  5
11C
330
1F
100
AcDbEntity
  8
Sichtbar_(ISO)
  6
Continuous
 62
     7
100
AcDbLine
 10
15.000010554
 20
18.2320085395
 30
0.0
 11
13.9792846118
 21
19.9999577319
 31
0.0
  0
LINE
  5
11D
330
1F
100
AcDbEntity
  8
Sichtbar_(ISO)
  6
Continuous
 62
     7
100
AcDbLine
 10
15.000010554
 20
-18.2320930757
 30
0.0
 11
13.9792846118
 21
-20.0000422681
 31
0.0
  0
ARC
  5
11E
330
1F
100
AcDbEntity
  8
Sichtbar_(ISO)
  6
Continuous
 62
     7
100
AcDbCircle
 10
15.200010554
 20
17.5999577319
 30
0.0
 40
0.2
100
AcDbArc
 50
180.0
 51
270.0
  0
LINE
  5
11F
330
1F
100
AcDbEntity
  8
Sichtbar_(ISO)
  6
Continuous
 62
     7
100
AcDbLine
 10
16.800010554
 20
-17.4000422681
 30
0.0
 11
15.200010554
 21
-17.4000422681
 31
0.0
  0
LINE
  5
120
330
1F
100
AcDbEntity
  8
Sichtbar_(ISO)
  6
Continuous
 62
     7
100
AcDbLine
 10
16.800010554
 20
17.3999577319
 30
0.0
 11
15.200010554
 21
17.3999577319
 31
0.0
  0
ARC
  5
121
330
1F
100
AcDbEntity
  8
Sichtbar_(ISO)
  6
Continuous
 62
     7
100
AcDbCircle
 10
16.800010554
 20
17.5999577319
 30
0.0
 40
0.2
100
AcDbArc
 50
270.0
 51
0.0
  0
ARC
  5
122
330
1F
100
AcDbEntity
  8
Sichtbar_(ISO)
  6
Continuous
 62
     7
100
AcDbCircle
 10
73.000010554
 20
16.4758172103
 30
0.0
 40
1.99999999999992
100
AcDbArc
 50
0.0
 51
65.0
  0
ARC
  5
123
330
1F
100
AcDbEntity
  8
Sichtbar_(ISO)
  6
Continuous
 62
     7
100
AcDbCircle
 10
73.000010554
 20
-16.4759017465
 30
0.0
 40
1.99999999999992
100
AcDbArc
 50
295.0
 51
0.0
  0
LINE
  5
124
330
1F
100
AcDbEntity
  8
Sichtbar_(ISO)
  6
Continuous
 62
     7
100
AcDbLine
 10
73.8452470775
 20
-18.2885173205
 30
0.0
 11
62.5348162291
 21
-23.5626578422
 31
0.0
  0
LINE
  5
125
330
1F
100
AcDbEntity
  8
Sichtbar_(ISO)
  6
Continuous
 62
     7
100
AcDbLine
 10
73.8452470775
 20
18.2884327844
 30
0.0
 11
62.5348162291
 21
23.562573306
 31
0.0
  0
ARC
  5
126
330
1F
100
AcDbEntity
  8
Sichtbar_(ISO)
  6
Continuous
 62
     7
100
AcDbCircle
 10
61.6895797056
 20
21.7499577319
 30
0.0
 40
1.999999999999987
100
AcDbArc
 50
65.0
 51
90.0
  0
ARC
  5
127
330
1F
100
AcDbEntity
  8
Sichtbar_(ISO)
  6
Continuous
 62
     7
100
AcDbCircle
 10
61.6895797056
 20
-21.7500422681
 30
0.0
 40
1.999999999999987
100
AcDbArc
 50
270.0
 51
295.0
  0
LINE
  5
128
330
1F
100
AcDbEntity
  8
Sichtbar_(ISO)
  6
Continuous
 62
     7
100
AcDbLine
 10
61.6895797056
 20
-23.7500422681
 30
0.0
 11
61.0562993256
 21
-23.7500422681
 31
0.0
  0
LINE
  5
129
330
1F
100
AcDbEntity
  8
Sichtbar_(ISO)
  6
Continuous
 62
     7
100
AcDbLine
 10
41.9437217824
 20
-23.7500422681
 30
0.0
 11
37.0506345386
 21
-23.7500422681
 31
0.0
  0
LINE
  5
12A
330
1F
100
AcDbEntity
  8
Sichtbar_(ISO)
  6
Continuous
 62
     7
100
AcDbLine
 10
61.6895797056
 20
23.7499577319
 30
0.0
 11
59.500010554
 21
23.7499577319
 31
0.0
  0
LINE
  5
12B
330
1F
100
AcDbEntity
  8
Sichtbar_(ISO)
  6
Continuous
 62
     7
100
AcDbLine
 10
43.500010554
 20
23.7499577319
 30
0.0
 11
37.0506345386
 21
23.7499577319
 31
0.0
  0
ARC
  5
12C
330
1F
100
AcDbEntity
  8
Sichtbar_(ISO)
  6
Continuous
 62
     7
100
AcDbCircle
 10
37.0506345386
 20
22.7499577319
 30
0.0
 40
1.0
100
AcDbArc
 50
90.0
 51
175.0
  0
ARC
  5
12D
330
1F
100
AcDbEntity
  8
Sichtbar_(ISO)
  6
Continuous
 62
     7
100
AcDbCircle
 10
37.0506345386
 20
-22.7500422681
 30
0.0
 40
1.0
100
AcDbArc
 50
185.0
 51
270.0
  0
LINE
  5
12E
330
1F
100
AcDbEntity
  8
Sichtbar_(ISO)
  6
Continuous
 62
     7
100
AcDbLine
 10
35.539942316
 20
16.9563798605
 30
0.0
 11
36.0544398405
 21
22.8371134747
 31
0.0
  0
LINE
  5
12F
330
1F
100
AcDbEntity
  8
Sichtbar_(ISO)
  6
Continuous
 62
     7
100
AcDbLine
 10
35.539942316
 20
-16.9564643967
 30
0.0
 11
36.0544398405
 21
-22.8371980108
 31
0.0
  0
ARC
  5
130
330
1F
100
AcDbEntity
  8
Sichtbar_(ISO)
  6
Continuous
 62
     7
100
AcDbCircle
 10
35.041844967
 20
16.9999577319
 30
0.0
 40
0.5000000000000002
100
AcDbArc
 50
270.0
 51
355.0
  0
ARC
  5
131
330
1F
100
AcDbEntity
  8
Sichtbar_(ISO)
  6
Continuous
 62
     7
100
AcDbCircle
 10
35.041844967
 20
-17.0000422681
 30
0.0
 40
0.5000000000000001
100
AcDbArc
 50
5.0
 51
90.0
  0
LINE
  5
132
330
1F
100
AcDbEntity
  8
Sichtbar_(ISO)
  6
Continuous
 62
     7
100
AcDbLine
 10
0.000010554
 20
19.2999577319
 30
0.0
 11
0.700010554
 21
19.9999577319
 31
0.0
  0
LINE
  5
133
330
1F
100
AcDbEntity
  8
Sichtbar_(ISO)
  6
Continuous
 62
     7
100
AcDbLine
 10
0.000010554
 20
-19.3000422681
 30
0.0
 11
0.700010554
 21
-20.0000422681
 31
0.0
  0
ARC
  5
134
330
1F
100
AcDbEntity
  8
Sichtbar_(ISO)
  6
Continuous
 62
     7
100
AcDbCircle
 10
-0.199989446
 20
15.3019900159
 30
0.0
 40
0.4000000000000002
100
AcDbArc
 50
270.0
 51
300.0
  0
ARC
  5
135
330
1F
100
AcDbEntity
  8
Sichtbar_(ISO)
  6
Continuous
 62
     7
100
AcDbCircle
 10
-0.199989446
 20
-15.3020745521
 30
0.0
 40
0.4000000000000002
100
AcDbArc
 50
60.0
 51
90.0
  0
LINE
  5
136
330
1F
100
AcDbEntity
  8
Sichtbar_(ISO)
  6
Continuous
 62
     7
100
AcDbLine
 10
-0.199989446
 20
-14.9020745521
 30
0.0
 11
-1.906885668
 21
-14.9020745521
 31
0.0
  0
LINE
  5
137
330
1F
100
AcDbEntity
  8
Sichtbar_(ISO)
  6
Continuous
 62
     7
100
AcDbLine
 10
-0.199989446
 20
14.9019900159
 30
0.0
 11
-1.906885668
 21
14.9019900159
 31
0.0
  0
ARC
  5
138
330
1F
100
AcDbEntity
  8
Sichtbar_(ISO)
  6
Continuous
 62
     7
100
AcDbCircle
 10
-1.906885668
 20
15.3019900159
 30
0.0
 40
0.4000000000000001
100
AcDbArc
 50
255.0
 51
270.0
  0
ARC
  5
139
330
1F
100
AcDbEntity
  8
Sichtbar_(ISO)
  6
Continuous
 62
     7
100
AcDbCircle
 10
-1.906885668
 20
-15.3020745521
 30
0.0
 40
0.4000000000000002
100
AcDbArc
 50
90.0
 51
105.0
  0
LINE
  5
13A
330
1F
100
AcDbEntity
  8
Sichtbar_(ISO)
  6
Continuous
 62
     7
100
AcDbLine
 10
-2.010413286
 20
-14.9157042216
 30
0.0
 11
-2.599989446
 21
-15.0736806775
 31
0.0
  0
LINE
  5
13B
330
1F
100
AcDbEntity
  8
Sichtbar_(ISO)
  6
Continuous
 62
     7
100
AcDbLine
 10
-2.010413286
 20
14.9156196854
 30
0.0
 11
-2.599989446
 21
15.0735961414
 31
0.0
  0
ARC
  5
13C
330
1F
100
AcDbEntity
  8
Verdeckt_(ISO)
  6
HIDDEN2
 62
     7
100
AcDbCircle
 10
12.472146509
 20
16.4999577319
 30
0.0
 40
4.500000000000001
100
AcDbArc
 50
186.3793702084
 51
270.0
  0
LINE
  5
13D
330
1F
100
AcDbEntity
  8
Sichtbar_(ISO)
  6
Continuous
 62
     7
100
AcDbLine
 10
-19.999989446
 20
-4.8250422681
 30
0.0
 11
-19.999989446
 21
-5.2924397056
 31
0.0
  0
SPLINE
  5
13E
330
1F
100
AcDbEntity
  8
Sichtbar_(ISO)
  6
Continuous
 62
     7
100
AcDbSpline
210
0.0
220
0.0
230
1.0
 70
     8
 71
     3
 72
    14
 73
    10
 74
     0
 42
0.000000001
 43
0.0000000001
 40
0.0
 40
0.0
 40
0.0
 40
0.0
 40
0.3038676250545532
 40
0.3038676250545532
 40
0.6077352501091056
 40
0.6077352501091056
 40
0.8908858686645633
 40
0.8908858686645633
 40
1.0
 40
1.0
 40
1.0
 40
1.0
 10
-19.19998944602752
 20
-4.025042268083733
 30
0.0
 10
-19.19998944602752
 20
-4.025042268083732
 30
0.0
 10
-19.20917542903193
 20
-4.088598860778201
 30
0.0
 10
-19.2461768593824
 20
-4.339782296434025
 30
0.0
 10
-19.27406412574103
 20
-4.52740394850909
 30
0.0
 10
-19.33725399680563
 20
-4.94074772148167
 30
0.0
 10
-19.37538044013606
 20
-5.185519373608294
 30
0.0
 10
-19.43328398748872
 20
-5.544306433673072
 30
0.0
 10
-19.44992984529926
 20
-5.646216453799364
 30
0.0
 10
-19.46677992691541
 20
-5.748012510606119
 30
0.0
  0
LINE
  5
13F
330
1F
100
AcDbEntity
  8
Sichtbar_(ISO)
  6
Continuous
 62
     7
100
AcDbLine
 10
-19.999989446
 20
-4.8250422681
 30
0.0
 11
-19.199989446
 21
-4.0250422681
 31
0.0
  0
SPLINE
  5
140
330
1F
100
AcDbEntity
  8
Sichtbar_(ISO)
  6
Continuous
 62
     7
100
AcDbSpline
210
0.0
220
0.0
230
1.0
 70
     8
 71
     3
 72
    18
 73
    14
 74
     0
 42
0.000000001
 43
0.0000000001
 40
0.0
 40
0.0
 40
0.0
 40
0.0
 40
0.0052750729638364
 40
0.0052750729638364
 40
0.0293888467085174
 40
0.0293888467085174
 40
0.0776163941978658
 40
0.0776163941978658
 40
0.2960436963652663
 40
0.2960436963652663
 40
0.5144709985326718
 40
0.5144709985326718
 40
1.0
 40
1.0
 40
1.0
 40
1.0
 10
-16.75723283280116
 20
-6.758544407594079
 30
0.0
 10
-16.75855799535498
 20
-6.755367942302851
 30
0.0
 10
-16.76003813973565
 20
-6.752232090919505
 30
0.0
 10
-16.76909955744699
 20
-6.734988692948483
 30
0.0
 10
-16.77944133491757
 20
-6.72164349940422
 30
0.0
 10
-16.81619837633147
 20
-6.684053749327208
 30
0.0
 10
-16.84779668658213
 20
-6.662054047614953
 30
0.0
 10
-17.01602119977269
 20
-6.561530554389209
 30
0.0
 10
-17.18415819313755
 20
-6.509264136533994
 30
0.0
 10
-17.52603502603831
 20
-6.41125813282935
 30
0.0
 10
-17.70132949033387
 20
-6.370211377782863
 30
0.0
 10
-18.21838144488024
 20
-6.258478754979688
 30
0.0
 10
-18.58363352476681
 20
-6.195141369479747
 30
0.0
 10
-18.95502916806566
 20
-6.136710614312105
 30
0.0
  0
LINE
  5
141
330
1F
100
AcDbEntity
  8
Sichtbar_(ISO)
  6
Continuous
 62
     7
100
AcDbLine
 10
-19.199989446
 20
-4.0250422681
 30
0.0
 11
-14.999989446
 21
-4.0250422681
 31
0.0
  0
SPLINE
  5
142
330
1F
100
AcDbEntity
  8
Sichtbar_(ISO)
  6
Continuous
 62
     7
100
AcDbSpline
210
0.0
220
0.0
230
1.0
 70
     8
 71
     3
 72
    18
 73
    14
 74
     0
 42
0.000000001
 43
0.0000000001
 40
0.0
 40
0.0
 40
0.0
 40
0.0
 40
0.4855290014673394
 40
0.4855290014673394
 40
0.7039563036347397
 40
0.7039563036347397
 40
0.9223836058021438
 40
0.9223836058021438
 40
0.9706111532914902
 40
0.9706111532914902
 40
0.9947249270361633
 40
0.9947249270361633
 40
0.9999999999999999
 40
0.9999999999999999
 40
0.9999999999999999
 40
0.9999999999999999
 10
-18.95502916806566
 20
6.136626078144639
 30
0.0
 10
-18.58363352476681
 20
6.195056833312282
 30
0.0
 10
-18.21838144488024
 20
6.258394218812226
 30
0.0
 10
-17.70132949033389
 20
6.370126841615395
 30
0.0
 10
-17.52603502603833
 20
6.411173596661885
 30
0.0
 10
-17.18415819313759
 20
6.509179600366517
 30
0.0
 10
-17.01602119977276
 20
6.561446018221747
 30
0.0
 10
-16.84779668658221
 20
6.66196951144748
 30
0.0
 10
-16.81619837633155
 20
6.683969213159732
 30
0.0
 10
-16.77944133491765
 20
6.721558963236743
 30
0.0
 10
-16.76909955744703
 20
6.734904156780992
 30
0.0
 10
-16.76003813973569
 20
6.752147554752014
 30
0.0
 10
-16.75855799535509
 20
6.755283406135386
 30
0.0
 10
-16.75723283280126
 20
6.758459871426614
 30
0.0
  0
SPLINE
  5
143
330
1F
100
AcDbEntity
  8
Sichtbar_(ISO)
  6
Continuous
 62
     7
100
AcDbSpline
210
0.0
220
0.0
230
1.0
 70
    12
 71
     2
 72
     6
 73
     3
 74
     0
 42
0.000000001
 43
0.0000000001
 40
0.0
 40
0.0
 40
0.0
 40
1.0
 40
1.0
 40
1.0
 10
-16.75723283280126
 20
6.758459871426613
 30
0.0
 41
1.004808657661071
 10
-16.50754310089642
 20
7.356975702290011
 30
0.0
 41
1.004371292958704
 10
-14.99998944603734
 20
7.959159696398823
 30
0.0
 41
1.001738680692382
  0
SPLINE
  5
144
330
1F
100
AcDbEntity
  8
Sichtbar_(ISO)
  6
Continuous
 62
     7
100
AcDbSpline
210
0.0
220
0.0
230
1.0
 70
    12
 71
     2
 72
     6
 73
     3
 74
     0
 42
0.000000001
 43
0.0000000001
 40
0.0
 40
0.0
 40
0.0
 40
0.9999999999999999
 40
0.9999999999999999
 40
0.9999999999999999
 10
-14.99998944601955
 20
-7.959244232573364
 30
0.0
 41
1.001738680692346
 10
-16.50754310089485
 20
-7.357060238460988
 30
0.0
 41
1.00437129295869
 10
-16.75723283280116
 20
-6.758544407594079
 30
0.0
 41
1.004808657661059
  0
LINE
  5
145
330
1F
100
AcDbEntity
  8
Sichtbar_(ISO)
  6
Continuous
 62
     7
100
AcDbLine
 10
-19.199989446
 20
4.0249577319
 30
0.0
 11
-14.999989446
 21
4.0249577319
 31
0.0
  0
SPLINE
  5
146
330
1F
100
AcDbEntity
  8
Verdeckt_(ISO)
  6
HIDDEN2
 62
     7
100
AcDbSpline
210
0.0
220
0.0
230
1.0
 70
     8
 71
     3
 72
    18
 73
    14
 74
     0
 42
0.000000001
 43
0.0000000001
 40
0.0
 40
0.0
 40
0.0
 40
0.0
 40
0.173401791992131
 40
0.173401791992131
 40
0.5179237066404093
 40
0.5179237066404093
 40
0.7479065312402428
 40
0.7479065312402428
 40
0.8480198196723515
 40
0.8480198196723515
 40
0.9353886164718881
 40
0.9353886164718881
 40
1.0
 40
1.0
 40
1.0
 40
1.0
 10
-16.4999894460275
 20
-4.665053072198198
 30
0.0
 10
-16.4999738196138
 20
-4.840387242327863
 30
0.0
 10
-16.52524036863209
 20
-5.02406617334582
 30
0.0
 10
-16.6823639265045
 20
-5.586376476267091
 30
0.0
 10
-16.86426584592259
 20
-5.878666051438814
 30
0.0
 10
-17.07223081782219
 20
-6.165025049414759
 30
0.0
 10
-17.17107905533159
 20
-6.28076534281064
 30
0.0
 10
-17.30147565529204
 20
-6.381607742217666
 30
0.0
 10
-17.33466337787113
 20
-6.400067012414239
 30
0.0
 10
-17.38934425877274
 20
-6.421412053834184
 30
0.0
 10
-17.41552865740942
 20
-6.427312862360163
 30
0.0
 10
-17.462462436231
 20
-6.428169238027318
 30
0.0
 10
-17.48154105178704
 20
-6.425591935688425
 30
0.0
 10
-17.49998944602637
 20
-6.42080047780653
 30
0.0
  0
SPLINE
  5
147
330
1F
100
AcDbEntity
  8
Verdeckt_(ISO)
  6
HIDDEN2
 62
     7
100
AcDbSpline
210
0.0
220
0.0
230
1.0
 70
     8
 71
     3
 72
    20
 73
    16
 74
     0
 42
0.000000001
 43
0.0000000001
 40
0.0
 40
0.0
 40
0.0
 40
0.0
 40
0.0470968622581152
 40
0.0470968622581152
 40
0.1053807494555246
 40
0.1053807494555246
 40
0.1720400418944006
 40
0.1720400418944006
 40
0.2926116045055239
 40
0.2926116045055239
 40
0.6127754035164074
 40
0.6127754035164074
 40
0.9577454196598711
 40
0.9577454196598711
 40
1.0
 40
1.0
 40
1.0
 40
1.0
 10
-17.4999894460264
 20
6.420715941639033
 30
0.0
 10
-17.48222242489431
 20
6.425333796709345
 30
0.0
 10
-17.46378861181425
 20
6.427910833716214
 30
0.0
 10
-17.42061884284442
 20
6.427544627883123
 30
0.0
 10
-17.39722132375934
 20
6.423109711450869
 30
0.0
 10
-17.34776520942597
 20
6.406071790625349
 30
0.0
 10
-17.31896142158512
 20
6.391475507325975
 30
0.0
 10
-17.22771960442942
 20
6.328222280164155
 30
0.0
 10
-17.17113899264077
 20
6.27116795270496
 30
0.0
 10
-17.01333719032724
 20
6.096164104120694
 30
0.0
 10
-16.86933087789643
 20
5.896275790787313
 30
0.0
 10
-16.61673131528814
 20
5.386957450928586
 30
0.0
 10
-16.52256856840416
 20
5.091266150750979
 30
0.0
 10
-16.50114826256981
 20
4.740458359997426
 30
0.0
 10
-16.4999941258846
 20
4.702516293601294
 30
0.0
 10
-16.4999894460275
 20
4.664968536030731
 30
0.0
  0
LINE
  5
148
330
1F
100
AcDbEntity
  8
Verdeckt_(ISO)
  6
HIDDEN2
 62
     7
100
AcDbLine
 10
-16.499989446
 20
-3.0250422681
 30
0.0
 11
-16.499989446
 21
-4.6650530722
 31
0.0
  0
LINE
  5
149
330
1F
100
AcDbEntity
  8
Verdeckt_(ISO)
  6
HIDDEN2
 62
     7
100
AcDbLine
 10
-16.499989446
 20
4.664968536
 30
0.0
 11
-16.499989446
 21
3.0249577319
 31
0.0
  0
SPLINE
  5
14A
330
1F
100
AcDbEntity
  8
Verdeckt_(ISO)
  6
HIDDEN2
 62
     7
100
AcDbSpline
210
0.0
220
0.0
230
1.0
 70
     8
 71
     3
 72
    12
 73
     8
 74
     0
 42
0.000000001
 43
0.0000000001
 40
0.0
 40
0.0
 40
0.0
 40
0.0
 40
0.0117434454633646
 40
0.0117434454633646
 40
0.933608805180589
 40
0.933608805180589
 40
1.0
 40
1.0
 40
1.0
 40
1.0
 10
-17.4999894460275
 20
-4.204903379194844
 30
0.0
 10
-17.49868628773624
 20
-4.204258491050008
 30
0.0
 10
-17.49738311707355
 20
-4.203613568446383
 30
0.0
 10
-17.39378207133271
 20
-4.152339201730099
 30
0.0
 10
-17.28437977757964
 20
-4.097871313323925
 30
0.0
 10
-17.17471758174541
 20
-4.033831111299597
 30
0.0
 10
-17.16732691723904
 20
-4.029468374982089
 30
0.0
 10
-17.15991742872762
 20
-4.025042881118526
 30
0.0
  0
SPLINE
  5
14B
330
1F
100
AcDbEntity
  8
Verdeckt_(ISO)
  6
HIDDEN2
 62
     7
100
AcDbSpline
210
0.0
220
0.0
230
1.0
 70
     8
 71
     3
 72
    14
 73
    10
 74
     0
 42
0.000000001
 43
0.0000000001
 40
0.0
 40
0.0
 40
0.0
 40
0.0
 40
0.2158394934867666
 40
0.2158394934867666
 40
0.6618154443973527
 40
0.6618154443973527
 40
0.9957461265782337
 40
0.9957461265782337
 40
1.0
 40
1.0
 40
1.0
 40
1.0
 10
-14.12512203311229
 20
-3.509404745799542
 30
0.0
 10
-14.16718143136576
 20
-3.585413546927868
 30
0.0
 10
-14.2186586975811
 20
-3.656317827355268
 30
0.0
 10
-14.4007505373502
 20
-3.857760835282215
 30
0.0
 10
-14.54546609645625
 20
-3.958351214450046
 30
0.0
 10
-14.78437977760797
 20
-4.097871313340463
 30
0.0
 10
-14.89378206345313
 20
-4.152339197820602
 30
0.0
 10
-14.99738311777089
 20
-4.203613568792013
 30
0.0
 10
-14.99868628703852
 20
-4.204258490704726
 30
0.0
 10
-14.99998944602752
 20
-4.204903379194844
 30
0.0
  0
SPLINE
  5
14C
330
1F
100
AcDbEntity
  8
Verdeckt_(ISO)
  6
HIDDEN2
 62
     7
100
AcDbSpline
210
0.0
220
0.0
230
1.0
 70
     8
 71
     3
 72
    14
 73
    10
 74
     0
 42
0.000000001
 43
0.0000000001
 40
0.0
 40
0.0
 40
0.0
 40
0.0
 40
0.0042538711785842
 40
0.0042538711785842
 40
0.3381845540416249
 40
0.3381845540416249
 40
0.7841605060041635
 40
0.7841605060041635
 40
1.0
 40
1.0
 40
1.0
 40
1.0
 10
-14.99998944602752
 20
4.204818843027378
 30
0.0
 10
-14.9986862878437
 20
4.204173954935715
 30
0.0
 10
-14.99738311696646
 20
4.203529032225832
 30
0.0
 10
-14.89378207250171
 20
4.152254666142615
 30
0.0
 10
-14.78437977757563
 20
4.09778677715411
 30
0.0
 10
-14.54546609645629
 20
3.958266678282607
 30
0.0
 10
-14.40075053735022
 20
3.857676299114773
 30
0.0
 10
-14.2186586975811
 20
3.656233291187806
 30
0.0
 10
-14.16718143136577
 20
3.585329010760404
 30
0.0
 10
-14.12512203311229
 20
3.509320209632077
 30
0.0
  0
SPLINE
  5
14D
330
1F
100
AcDbEntity
  8
Verdeckt_(ISO)
  6
HIDDEN2
 62
     7
100
AcDbSpline
210
0.0
220
0.0
230
1.0
 70
     8
 71
     3
 72
    12
 73
     8
 74
     0
 42
0.000000001
 43
0.0000000001
 40
0.0
 40
0.0
 40
0.0
 40
0.0
 40
0.06639119471981
 40
0.06639119471981
 40
0.9882565531198757
 40
0.9882565531198757
 40
1.0
 40
1.0
 40
1.0
 40
1.0
 10
-17.15991742872762
 20
4.024958344951063
 30
0.0
 10
-17.16732691723904
 20
4.029383838814626
 30
0.0
 10
-17.17471758174542
 20
4.033746575132134
 30
0.0
 10
-17.28437977758696
 20
4.097786777160731
 30
0.0
 10
-17.39378206928055
 20
4.152254664544436
 30
0.0
 10
-17.49738311725843
 20
4.203529032370543
 30
0.0
 10
-17.49868628755101
 20
4.20417395479088
 30
0.0
 10
-17.4999894460275
 20
4.204818843027378
 30
0.0
  0
SPLINE
  5
14E
330
1F
100
AcDbEntity
  8
Sichtbar_(ISO)
  6
Continuous
 62
     7
100
AcDbSpline
210
0.0
220
0.0
230
1.0
 70
     8
 71
     3
 72
    22
 73
    18
 74
     0
 42
0.000000001
 43
0.0000000001
 40
0.0
 40
0.0
 40
0.0
 40
0.0
 40
0.3318935607355193
 40
0.3318935607355193
 40
0.5851577764610923
 40
0.5851577764610923
 40
0.8384219921866654
 40
0.8384219921866654
 40
0.9017436646135472
 40
0.9017436646135472
 40
0.9334045008269894
 40
0.9334045008269894
 40
0.9650653370404287
 40
0.9650653370404287
 40
0.9968045896934054
 40
0.9968045896934054
 40
1.0
 40
1.0
 40
1.0
 40
1.0
 10
-14.54209165356074
 20
6.808850618023423
 30
0.0
 10
-14.54885913957706
 20
6.961212620349588
 30
0.0
 10
-14.56281067583883
 20
7.116401272185297
 30
0.0
 10
-14.60422692103071
 20
7.380538895381059
 30
0.0
 10
-14.62754131711464
 20
7.49119542525136
 30
0.0
 10
-14.69204433323518
 20
7.700066072694449
 30
0.0
 10
-14.7285603003997
 20
7.799398025746979
 30
0.0
 10
-14.81701803630162
 20
7.906254471630774
 30
0.0
 10
-14.83887382668915
 20
7.928067803816153
 30
0.0
 10
-14.87704204952562
 20
7.952196821280155
 30
0.0
 10
-14.89064582433868
 20
7.958840665326608
 30
0.0
 10
-14.91939254814787
 20
7.967827658458252
 30
0.0
 10
-14.93452964770813
 20
7.970183272533271
 30
0.0
 10
-14.96604983869257
 20
7.969312612831776
 30
0.0
 10
-14.98122704410174
 20
7.96610917146944
 30
0.0
 10
-14.99710735263587
 20
7.960287539442917
 30
0.0
 10
-14.99855224923838
 20
7.959733800716386
 30
0.0
 10
-14.99998944602925
 20
7.95915969640615
 30
0.0
  0
SPLINE
  5
14F
330
1F
100
AcDbEntity
  8
Sichtbar_(ISO)
  6
Continuous
 62
     7
100
AcDbSpline
210
0.0
220
0.0
230
1.0
 70
     8
 71
     3
 72
    14
 73
    10
 74
     0
 42
0.000000001
 43
0.0000000001
 40
0.0
 40
0.0
 40
0.0
 40
0.0
 40
0.193595766201301
 40
0.193595766201301
 40
0.7228996491656724
 40
0.7228996491656724
 40
0.9295213348662451
 40
0.9295213348662451
 40
1.0
 40
1.0
 40
1.0
 40
1.0
 10
-14.00081826967448
 20
4.892003648689095
 30
0.0
 10
-14.00645326622778
 20
5.091621062761285
 30
0.0
 10
-14.04002287227118
 20
5.271939150013832
 30
0.0
 10
-14.17470148425725
 20
5.81041546822254
 30
0.0
 10
-14.34406443333612
 20
6.140055494516099
 30
0.0
 10
-14.48735669256254
 20
6.518803993612326
 30
0.0
 10
-14.51719847050131
 20
6.61559601925941
 30
0.0
 10
-14.53728417207823
 20
6.744021410169359
 30
0.0
 10
-14.54062696270191
 20
6.776375054755043
 30
0.0
 10
-14.54209165356074
 20
6.808850618023423
 30
0.0
  0
SPLINE
  5
150
330
1F
100
AcDbEntity
  8
Sichtbar_(ISO)
  6
Continuous
 62
     7
100
AcDbSpline
210
0.0
220
0.0
230
1.0
 70
     8
 71
     3
 72
    16
 73
    12
 74
     0
 42
0.000000001
 43
0.0000000001
 40
0.0
 40
0.0
 40
0.0
 40
0.0
 40
0.0024207433755511
 40
0.0024207433755511
 40
0.1472564919923892
 40
0.1472564919923892
 40
0.4718700906316324
 40
0.4718700906316324
 40
0.9698645756815271
 40
0.9698645756815271
 40
1.0
 40
1.0
 40
1.0
 40
1.0
 10
-14.54209165356074
 20
-6.808935154190937
 30
0.0
 10
-14.54203917637846
 20
-6.807771169475181
 30
0.0
 10
-14.54198424970407
 20
-6.806606561523663
 30
0.0
 10
-14.53849372449468
 20
-6.735723092911549
 30
0.0
 10
-14.52643101150135
 20
-6.667915721352093
 30
0.0
 10
-14.46833481469609
 20
-6.447385022329879
 30
0.0
 10
-14.39657787047316
 20
-6.285239762586588
 30
0.0
 10
-14.19974153227295
 20
-5.820659255635476
 30
0.0
 10
-14.03436503411115
 20
-5.423882582169988
 30
0.0
 10
-14.00282730585989
 20
-4.945488731337063
 30
0.0
 10
-14.00156634492768
 20
-4.918588440204411
 30
0.0
 10
-14.00081826967481
 20
-4.89208818486802
 30
0.0
  0
SPLINE
  5
151
330
1F
100
AcDbEntity
  8
Sichtbar_(ISO)
  6
Continuous
 62
     7
100
AcDbSpline
210
0.0
220
0.0
230
1.0
 70
     8
 71
     3
 72
    22
 73
    18
 74
     0
 42
0.000000001
 43
0.0000000001
 40
0.0
 40
0.0
 40
0.0
 40
0.0
 40
0.0031954103065915
 40
0.0031954103065915
 40
0.0349346629595627
 40
0.0349346629595627
 40
0.0665954991729978
 40
0.0665954991729978
 40
0.0982563353864338
 40
0.0982563353864338
 40
0.1615780078133041
 40
0.1615780078133041
 40
0.4148422235388857
 40
0.4148422235388857
 40
0.6681064392644668
 40
0.6681064392644668
 40
1.0
 40
1.0
 40
1.0
 40
1.0
 10
-14.99998944602923
 20
-7.959244232573564
 30
0.0
 10
-14.99855224923839
 20
-7.959818336883836
 30
0.0
 10
-14.99710735263588
 20
-7.960372075610373
 30
0.0
 10
-14.98122704410175
 20
-7.966193707636897
 30
0.0
 10
-14.96604983869257
 20
-7.969397148999205
 30
0.0
 10
-14.93452964770813
 20
-7.970267808700696
 30
0.0
 10
-14.91939254814786
 20
-7.967912194625703
 30
0.0
 10
-14.89064582433867
 20
-7.958925201494058
 30
0.0
 10
-14.87704204952562
 20
-7.9522813574476
 30
0.0
 10
-14.83887382668915
 20
-7.928152339983596
 30
0.0
 10
-14.8170180363016
 20
-7.906339007798241
 30
0.0
 10
-14.7285603003997
 20
-7.799482561914452
 30
0.0
 10
-14.69204433323518
 20
-7.700150608861921
 30
0.0
 10
-14.62754131711464
 20
-7.491279961418832
 30
0.0
 10
-14.60422692103072
 20
-7.38062343154853
 30
0.0
 10
-14.56281067583884
 20
-7.116485808352765
 30
0.0
 10
-14.54885913957706
 20
-6.961297156517054
 30
0.0
 10
-14.54209165356074
 20
-6.808935154190886
 30
0.0
  0
SPLINE
  5
152
330
1F
100
AcDbEntity
  8
Sichtbar_(ISO)
  6
Continuous
 62
     7
100
AcDbSpline
210
0.0
220
0.0
230
1.0
 70
     8
 71
     3
 72
    10
 73
     6
 74
     0
 42
0.000000001
 43
0.0000000001
 40
0.0
 40
0.0
 40
0.0
 40
0.0
 40
0.2105524032304308
 40
0.2105524032304308
 40
0.9999999999999999
 40
0.9999999999999999
 40
0.9999999999999999
 40
0.9999999999999999
 10
-16.62512203311235
 20
-3.509404745799677
 30
0.0
 10
-16.60779720653539
 20
-3.477931698503927
 30
0.0
 10
-16.59196971830428
 20
-3.445513713661502
 30
0.0
 10
-16.52575139417268
 20
-3.287873797369535
 30
0.0
 10
-16.49998944602752
 20
-3.15250474569096
 30
0.0
 10
-16.49998944602752
 20
-3.025042268083732
 30
0.0
  0
SPLINE
  5
153
330
1F
100
AcDbEntity
  8
Sichtbar_(ISO)
  6
Continuous
 62
     7
100
AcDbSpline
210
0.0
220
0.0
230
1.0
 70
     8
 71
     3
 72
    10
 73
     6
 74
     0
 42
0.000000001
 43
0.0000000001
 40
0.0
 40
0.0
 40
0.0
 40
0.0
 40
0.6615696258224448
 40
0.6615696258224448
 40
1.0
 40
1.0
 40
1.0
 40
1.0
 10
-17.15991742872762
 20
-4.025042881118526
 30
0.0
 10
-17.02992260706125
 20
-3.947400371154113
 30
0.0
 10
-16.89413366282832
 20
-3.850440775753723
 30
0.0
 10
-16.71865869758109
 20
-3.656317827355269
 30
0.0
 10
-16.66718143136577
 20
-3.585413546927869
 30
0.0
 10
-16.62512203311228
 20
-3.509404745799547
 30
0.0
  0
SPLINE
  5
154
330
1F
100
AcDbEntity
  8
Sichtbar_(ISO)
  6
Continuous
 62
     7
100
AcDbSpline
210
0.0
220
0.0
230
1.0
 70
     8
 71
     3
 72
    10
 73
     6
 74
     0
 42
0.000000001
 43
0.0000000001
 40
0.0
 40
0.0
 40
0.0
 40
0.0
 40
0.3384303741775345
 40
0.3384303741775345
 40
1.0
 40
1.0
 40
1.0
 40
1.0
 10
-16.62512203311228
 20
3.509320209632081
 30
0.0
 10
-16.66718143136577
 20
3.585329010760404
 30
0.0
 10
-16.71865869758109
 20
3.656233291187804
 30
0.0
 10
-16.89413366282832
 20
3.850356239586269
 30
0.0
 10
-17.02992260706126
 20
3.94731583498666
 30
0.0
 10
-17.15991742872762
 20
4.024958344951063
 30
0.0
  0
SPLINE
  5
155
330
1F
100
AcDbEntity
  8
Sichtbar_(ISO)
  6
Continuous
 62
     7
100
AcDbSpline
210
0.0
220
0.0
230
1.0
 70
     8
 71
     3
 72
    10
 73
     6
 74
     0
 42
0.000000001
 43
0.0000000001
 40
0.0
 40
0.0
 40
0.0
 40
0.0
 40
0.7894475967695699
 40
0.7894475967695699
 40
1.0
 40
1.0
 40
1.0
 40
1.0
 10
-16.49998944602752
 20
3.024957731916269
 30
0.0
 10
-16.49998944602752
 20
3.152420209523495
 30
0.0
 10
-16.52575139417268
 20
3.28778926120207
 30
0.0
 10
-16.59196971830428
 20
3.445429177494038
 30
0.0
 10
-16.60779720653539
 20
3.477847162336464
 30
0.0
 10
-16.62512203311235
 20
3.509320209632211
 30
0.0
  0
ARC
  5
156
330
1F
100
AcDbEntity
  8
Sichtbar_(ISO)
  6
Continuous
 62
     7
100
AcDbCircle
 10
-17.499989446
 20
3.0249577319
 30
0.0
 40
1.0
100
AcDbArc
 50
28.9707121259
 51
90.0
  0
ARC
  5
157
330
1F
100
AcDbEntity
  8
Sichtbar_(ISO)
  6
Continuous
 62
     7
100
AcDbCircle
 10
-17.499989446
 20
-3.0250422681
 30
0.0
 40
1.0
100
AcDbArc
 50
270.0
 51
331.0292878741
  0
ARC
  5
158
330
1F
100
AcDbEntity
  8
Sichtbar_(ISO)
  6
Continuous
 62
     7
100
AcDbCircle
 10
-14.999989446
 20
-3.0250422681
 30
0.0
 40
1.0
100
AcDbArc
 50
270.0
 51
360.0
  0
ARC
  5
159
330
1F
100
AcDbEntity
  8
Sichtbar_(ISO)
  6
Continuous
 62
     7
100
AcDbCircle
 10
-14.999989446
 20
3.0249577319
 30
0.0
 40
1.0
100
AcDbArc
 50
0.0
 51
90.0
  0
SPLINE
  5
15A
330
1F
100
AcDbEntity
  8
Verdeckt_(ISO)
  6
HIDDEN2
 62
     7
100
AcDbSpline
210
0.0
220
0.0
230
1.0
 70
     8
 71
     3
 72
    10
 73
     6
 74
     0
 42
0.000000001
 43
0.0000000001
 40
0.0
 40
0.0
 40
0.0
 40
0.0
 40
0.9392256912198627
 40
0.9392256912198627
 40
1.0
 40
1.0
 40
1.0
 40
1.0
 10
-16.18416710558249
 20
-3.283906544452186
 30
0.0
 10
-16.18417380567147
 20
-3.684338890512921
 30
0.0
 10
-16.31113823616041
 20
-3.997528210626926
 30
0.0
 10
-16.47906710661837
 20
-4.308917820704071
 30
0.0
 10
-16.48944644906934
 20
-4.327730239897098
 30
0.0
 10
-16.49998944602743
 20
-4.34643963567472
 30
0.0
  0
SPLINE
  5
15B
330
1F
100
AcDbEntity
  8
Verdeckt_(ISO)
  6
HIDDEN2
 62
     7
100
AcDbSpline
210
0.0
220
0.0
230
1.0
 70
     8
 71
     3
 72
     8
 73
     4
 74
     0
 42
0.000000001
 43
0.0000000001
 40
0.0
 40
0.0
 40
0.0
 40
0.0
 40
1.0
 40
1.0
 40
1.0
 40
1.0
 10
-13.99998944602752
 20
-2.868136699441039
 30
0.0
 10
-13.8164840004831
 20
-2.449268830691995
 30
0.0
 10
-13.69998944602752
 20
-2.010458054140622
 30
0.0
 10
-13.69998944602752
 20
-1.562761088931771
 30
0.0
  0
SPLINE
  5
15C
330
1F
100
AcDbEntity
  8
Sichtbar_(ISO)
  6
Continuous
 62
     7
100
AcDbSpline
210
0.0
220
0.0
230
1.0
 70
     8
 71
     3
 72
    10
 73
     6
 74
     0
 42
0.000000001
 43
0.0000000001
 40
0.0
 40
0.0
 40
0.0
 40
0.0
 40
0.0580034332563763
 40
0.0580034332563763
 40
1.0
 40
1.0
 40
1.0
 40
1.0
 10
-14.00081826967481
 20
-4.89208818486802
 30
0.0
 10
-13.9907329574333
 20
-4.874441461712162
 30
0.0
 10
-13.98079684964355
 20
-4.856700140599912
 30
0.0
 10
-13.81221554984256
 20
-4.549067855497279
 30
0.0
 10
-13.68417477071986
 20
-4.238423292510754
 30
0.0
 10
-13.6841671055825
 20
-3.839718741917052
 30
0.0
  0
LINE
  5
15D
330
1F
100
AcDbEntity
  8
Sichtbar_(ISO)
  6
Continuous
 62
     7
100
AcDbLine
 10
-13.999989446
 20
-4.7239670764
 30
0.0
 11
-13.999989446
 21
-3.75619293
 31
0.0
  0
SPLINE
  5
15E
330
1F
100
AcDbEntity
  8
Sichtbar_(ISO)
  6
Continuous
 62
     7
100
AcDbSpline
210
0.0
220
0.0
230
1.0
 70
     8
 71
     3
 72
    10
 73
     6
 74
     0
 42
0.000000001
 43
0.0000000001
 40
0.0
 40
0.0
 40
0.0
 40
0.0
 40
0.4945986426263473
 40
0.4945986426263473
 40
1.0
 40
1.0
 40
1.0
 40
1.0
 10
-14.00081826967481
 20
-4.89208818486802
 30
0.0
 10
-14.0006131730766
 20
-4.864613265239418
 30
0.0
 10
-14.00041009307085
 20
-4.83701154350846
 30
0.0
 10
-14.00009645194406
 20
-4.78083219283355
 30
0.0
 10
-13.9999894460275
 20
-4.75241453172025
 30
0.0
 10
-13.9999894460275
 20
-4.723967076436579
 30
0.0
  0
SPLINE
  5
15F
330
1F
100
AcDbEntity
  8
Sichtbar_(ISO)
  6
Continuous
 62
     7
100
AcDbSpline
210
0.0
220
0.0
230
1.0
 70
     8
 71
     3
 72
     8
 73
     4
 74
     0
 42
0.000000001
 43
0.0000000001
 40
0.0
 40
0.0
 40
0.0
 40
0.0
 40
1.0
 40
1.0
 40
1.0
 40
1.0
 10
-16.19998944602751
 20
-1.562761088932716
 30
0.0
 10
-16.19998944602751
 20
-2.010458054141564
 30
0.0
 10
-16.31648400048308
 20
-2.449268830692936
 30
0.0
 10
-16.49998944602752
 20
-2.868136699441974
 30
0.0
  0
LINE
  5
160
330
1F
100
AcDbEntity
  8
Sichtbar_(ISO)
  6
Continuous
 62
     7
100
AcDbLine
 10
-16.499989446
 20
-2.8681366994
 30
0.0
 11
-16.499989446
 21
-1.6074101981
 31
0.0
  0
LINE
  5
161
330
1F
100
AcDbEntity
  8
Verdeckt_(ISO)
  6
HIDDEN2
 62
     7
100
AcDbLine
 10
-16.1841671056
 20
3.2837934362
 30
0.0
 11
-16.1841671056
 21
-3.2839065445
 31
0.0
  0
SPLINE
  5
162
330
1F
100
AcDbEntity
  8
Verdeckt_(ISO)
  6
HIDDEN2
 62
     7
100
AcDbSpline
210
0.0
220
0.0
230
1.0
 70
     8
 71
     3
 72
    10
 73
     6
 74
     0
 42
0.000000001
 43
0.0000000001
 40
0.0
 40
0.0
 40
0.0
 40
0.0
 40
0.0607729511870851
 40
0.0607729511870851
 40
1.0
 40
1.0
 40
1.0
 40
1.0
 10
-16.49998944602743
 20
4.346355099507254
 30
0.0
 10
-16.48944644906935
 20
4.327645703729635
 30
0.0
 10
-16.47906710661838
 20
4.308833284536617
 30
0.0
 10
-16.31113448483588
 20
3.997436718398372
 30
0.0
 10
-16.18416710558249
 20
3.684239485683454
 30
0.0
 10
-16.18416710558249
 20
3.283793436193938
 30
0.0
  0
SPLINE
  5
163
330
1F
100
AcDbEntity
  8
Sichtbar_(ISO)
  6
Continuous
 62
     7
100
AcDbSpline
210
0.0
220
0.0
230
1.0
 70
     8
 71
     3
 72
    10
 73
     6
 74
     0
 42
0.000000001
 43
0.0000000001
 40
0.0
 40
0.0
 40
0.0
 40
0.0
 40
0.9419980397296032
 40
0.9419980397296032
 40
1.0
 40
1.0
 40
1.0
 40
1.0
 10
-13.6841671055825
 20
3.839601959527125
 30
0.0
 10
-13.6841671055825
 20
4.238322045881227
 30
0.0
 10
-13.81221126867275
 20
4.548975506920878
 30
0.0
 10
-13.98079684964178
 20
4.856615604429236
 30
0.0
 10
-13.99073295743326
 20
4.874356925535985
 30
0.0
 10
-14.00081826967291
 20
4.892003648688716
 30
0.0
  0
LINE
  5
164
330
1F
100
AcDbEntity
  8
Sichtbar_(ISO)
  6
Continuous
 62
     7
100
AcDbLine
 10
-13.999989446
 20
3.756076849
 30
0.0
 11
-13.999989446
 21
4.7238825403
 31
0.0
  0
SPLINE
  5
165
330
1F
100
AcDbEntity
  8
Sichtbar_(ISO)
  6
Continuous
 62
     7
100
AcDbSpline
210
0.0
220
0.0
230
1.0
 70
     8
 71
     3
 72
     8
 73
     4
 74
     0
 42
0.000000001
 43
0.0000000001
 40
0.0
 40
0.0
 40
0.0
 40
0.0
 40
1.0
 40
1.0
 40
1.0
 40
1.0
 10
-13.9999894460275
 20
4.723882540269119
 30
0.0
 10
-13.9999894460275
 20
4.780111893969597
 30
0.0
 10
-14.0004011193403
 20
4.836121821761621
 30
0.0
 10
-14.00081826967291
 20
4.892003648688716
 30
0.0
  0
LINE
  5
166
330
1F
100
AcDbEntity
  8
Sichtbar_(ISO)
  6
Continuous
 62
     7
100
AcDbLine
 10
-13.6841671056
 20
3.8396019595
 30
0.0
 11
-13.6841671056
 21
-3.8397187419
 31
0.0
  0
LINE
  5
167
330
1F
100
AcDbEntity
  8
Sichtbar_(ISO)
  6
Continuous
 62
     7
100
AcDbLine
 10
-13.999989446
 20
-3.75619293
 30
0.0
 11
-13.999989446
 21
3.756076849
 31
0.0
  0
SPLINE
  5
168
330
1F
100
AcDbEntity
  8
Sichtbar_(ISO)
  6
Continuous
 62
     7
100
AcDbSpline
210
0.0
220
0.0
230
1.0
 70
    15
 71
     3
 72
    40
 73
    36
 74
     0
 42
0.000000001
 43
0.0000000001
 40
0.0
 40
0.0
 40
0.0
 40
0.0
 40
0.0836503169440923
 40
0.0836503169440923
 40
0.124067022557582
 40
0.124067022557582
 40
0.1719024563368085
 40
0.1719024563368085
 40
0.2344705513382489
 40
0.2344705513382489
 40
0.3031332927117785
 40
0.3031332927117785
 40
0.3753646919258123
 40
0.3753646919258123
 40
0.4548128613048346
 40
0.4548128613048346
 40
0.4966008450531024
 40
0.4966008450531024
 40
0.5398133131556273
 40
0.5398133131556273
 40
0.6225398879562972
 40
0.6225398879562972
 40
0.6854201552414242
 40
0.6854201552414242
 40
0.7483004225265512
 40
0.7483004225265512
 40
0.811180689811678
 40
0.811180689811678
 40
0.8526431755564119
 40
0.8526431755564119
 40
0.9181350975313399
 40
0.9181350975313399
 40
0.9685134990505153
 40
0.9685134990505153
 40
1.0
 40
1.0
 40
1.0
 40
1.0
 10
-6.017353110583486
 20
2.792537811770589
 30
0.0
 41
1.0
 10
-6.4892198394798
 20
2.788887112222928
 30
0.0
 41
1.0
 10
-7.001583744410306
 20
2.654013850189709
 30
0.0
 41
1.0
 10
-7.637166432066889
 20
2.277872276195113
 30
0.0
 41
1.0
 10
-7.825192797541702
 20
2.129760938852792
 30
0.0
 41
1.0
 10
-8.175713401304645
 20
1.778320962114266
 30
0.0
 41
1.0
 10
-8.346927444707053
 20
1.549494796082848
 30
0.0
 41
1.0
 10
-8.652844179640557
 20
0.9672327614021989
 30
0.0
 41
1.0
 10
-8.758688782754287
 20
0.5967638390320658
 30
0.0
 41
1.0
 10
-8.822941593108673
 20
-0.1588162834492669
 30
0.0
 41
1.0
 10
-8.773575229307715
 20
-0.5582647059985864
 30
0.0
 41
1.0
 10
-8.488943453926897
 20
-1.349937898009796
 30
0.0
 41
1.0
 10
-8.24516312857072
 20
-1.718131885419242
 30
0.0
 41
1.0
 10
-7.62869772406919
 20
-2.315339071076927
 30
0.0
 41
1.0
 10
-7.197574811866658
 20
-2.567512848254458
 30
0.0
 41
1.0
 10
-6.499716565124548
 20
-2.758484655231522
 30
0.0
 41
1.0
 10
-6.253076774507493
 20
-2.790798620557923
 30
0.0
 41
1.0
 10
-5.773594010606595
 20
-2.794508243216378
 30
0.0
 41
1.0
 10
-5.518927078534767
 20
-2.763951464826944
 30
0.0
 41
1.0
 10
-4.797448043528899
 20
-2.571857687908928
 30
0.0
 41
1.0
 10
-4.353947928858153
 20
-2.309816586548539
 30
0.0
 41
1.0
 10
-3.77708151084041
 20
-1.738359292512546
 30
0.0
 41
1.0
 10
-3.560436255647145
 20
-1.424615814537375
 30
0.0
 41
1.0
 10
-3.272112629983927
 20
-0.7330580723235842
 30
0.0
 41
1.0
 10
-3.200615741362195
 20
-0.3551521470321753
 30
0.0
 41
1.0
 10
-3.200615741362195
 20
0.3550676108647148
 30
0.0
 41
1.0
 10
-3.272112629983927
 20
0.7329735361561085
 30
0.0
 41
1.0
 10
-3.51133299405168
 20
1.306754801863058
 30
0.0
 41
1.0
 10
-3.637123043775639
 20
1.521420675621036
 30
0.0
 41
1.0
 10
-4.016154872471615
 20
2.011350705468543
 30
0.0
 41
1.0
 10
-4.296660442241153
 20
2.253930168113146
 30
0.0
 41
1.0
 10
-4.895011880132051
 20
2.585680310548921
 30
0.0
 41
1.0
 10
-5.18253762922273
 20
2.689048782382479
 30
0.0
 41
1.0
 10
-5.656342534601019
 20
2.778295806449195
 30
0.0
 41
1.0
 10
-5.83973953121888
 20
2.793911957846452
 30
0.0
 41
1.0
 10
-6.017353110583486
 20
2.792537811770587
 30
0.0
 41
1.0
  0
SPLINE
  5
169
330
1F
100
AcDbEntity
  8
Sichtbar_(ISO)
  6
Continuous
 62
     7
100
AcDbSpline
210
0.0
220
0.0
230
1.0
 70
    15
 71
     3
 72
    40
 73
    36
 74
     0
 42
0.000000001
 43
0.0000000001
 40
0.0
 40
0.0
 40
0.0
 40
0.0
 40
0.0314865009494846
 40
0.0314865009494846
 40
0.0818649024686601
 40
0.0818649024686601
 40
0.1473568244435882
 40
0.1473568244435882
 40
0.188819310188322
 40
0.188819310188322
 40
0.2516995774734489
 40
0.2516995774734489
 40
0.3145798447585759
 40
0.3145798447585759
 40
0.3774601120437028
 40
0.3774601120437028
 40
0.4601866868443727
 40
0.4601866868443727
 40
0.5033991549468976
 40
0.5033991549468976
 40
0.5451871386951654
 40
0.5451871386951654
 40
0.6246353080741877
 40
0.6246353080741877
 40
0.6968667072882215
 40
0.6968667072882215
 40
0.7655294486617511
 40
0.7655294486617511
 40
0.8280975436631915
 40
0.8280975436631915
 40
0.875932977442418
 40
0.875932977442418
 40
0.9163496830559077
 40
0.9163496830559077
 40
1.0
 40
1.0
 40
1.0
 40
1.0
 10
-5.993053683549725
 20
2.299947274327024
 30
0.0
 41
1.0
 10
-5.842460695159576
 20
2.299493151741232
 30
0.0
 41
1.0
 10
-5.687196314724427
 20
2.283974905078302
 30
0.0
 41
1.0
 10
-5.288082105275584
 20
2.201343057870044
 30
0.0
 41
1.0
 10
-5.048075628178343
 20
2.108379256272439
 30
0.0
 41
1.0
 10
-4.556073256992468
 20
1.819072444159481
 30
0.0
 41
1.0
 10
-4.331194494675731
 20
1.612303266872592
 30
0.0
 41
1.0
 10
-4.033226311467862
 20
1.208151813563586
 30
0.0
 41
1.0
 10
-3.936115633960007
 20
1.033877928600647
 30
0.0
 41
1.0
 10
-3.753153114990882
 20
0.5747851030533409
 30
0.0
 41
1.0
 10
-3.699989446027527
 20
0.2783237459160697
 30
0.0
 41
1.0
 10
-3.699989446027527
 20
-0.2784082820835386
 30
0.0
 41
1.0
 10
-3.753153114990883
 20
-0.5748696392208097
 30
0.0
 41
1.0
 10
-3.973671201046103
 20
-1.128197565518431
 30
0.0
 41
1.0
 10
-4.141738777200655
 20
-1.385454871021525
 30
0.0
 41
1.0
 10
-4.602182571999395
 20
-1.865214843885908
 30
0.0
 41
1.0
 10
-4.965721253235511
 20
-2.095618919567975
 30
0.0
 41
1.0
 10
-5.570911641953511
 20
-2.269974327808267
 30
0.0
 41
1.0
 10
-5.786377980914067
 20
-2.2994085669723
 30
0.0
 41
1.0
 10
-6.192916391747965
 20
-2.300634509005362
 30
0.0
 41
1.0
 10
-6.40245814348117
 20
-2.274367572284131
 30
0.0
 41
1.0
 10
-6.99308554052306
 20
-2.113036361464032
 30
0.0
 41
1.0
 10
-7.353706730458844
 20
-1.896507926001397
 30
0.0
 41
1.0
 10
-7.859611250668575
 20
-1.395323853010626
 30
0.0
 41
1.0
 10
-8.054735520381541
 20
-1.090923794640748
 30
0.0
 41
1.0
 10
-8.280247626792798
 20
-0.4480031352876667
 30
0.0
 41
1.0
 10
-8.318485464254687
 20
-0.1277959446279335
 30
0.0
 41
1.0
 10
-8.268089958437281
 20
0.4797538521370651
 30
0.0
 41
1.0
 10
-8.185294495364865
 20
0.7789215471703695
 30
0.0
 41
1.0
 10
-7.940651357100367
 20
1.256065541527321
 30
0.0
 41
1.0
 10
-7.8023759633858
 20
1.446034548401228
 30
0.0
 41
1.0
 10
-7.515128301264159
 20
1.740606767911464
 30
0.0
 41
1.0
 10
-7.35961813694414
 20
1.866017505949023
 30
0.0
 41
1.0
 10
-6.828669942254755
 20
2.185805305645851
 30
0.0
 41
1.0
 10
-6.393134696953028
 20
2.301153743673809
 30
0.0
 41
1.0
 10
-5.993053683549725
 20
2.299947274327024
 30
0.0
 41
1.0
  0
SPLINE
  5
16A
330
1F
100
AcDbEntity
  8
Verdeckt_(ISO)
  6
HIDDEN2
 62
     7
100
AcDbSpline
210
0.0
220
0.0
230
1.0
 70
    12
 71
     3
 72
    10
 73
     6
 74
     0
 42
0.000000001
 43
0.0000000001
 40
0.0
 40
0.0
 40
0.0
 40
0.0
 40
0.5000000000000023
 40
0.5000000000000023
 40
1.0
 40
1.0
 40
1.0
 40
1.0
 10
-3.778661141347626
 20
-1.700064547144181
 30
0.0
 41
1.0
 10
-3.838418792978244
 20
-1.778382724939025
 30
0.0
 41
1.0
 10
-3.901738691971535
 20
-1.852597033388999
 30
0.0
 41
1.0
 10
-4.033402230569334
 20
-1.991614740936311
 30
0.0
 41
1.0
 10
-4.102050798481442
 20
-2.056951262816284
 30
0.0
 41
1.0
 10
-4.175812725755772
 20
-2.119901258849
 30
0.0
 41
1.0
  0
SPLINE
  5
16B
330
1F
100
AcDbEntity
  8
Verdeckt_(ISO)
  6
HIDDEN2
 62
     7
100
AcDbSpline
210
0.0
220
0.0
230
1.0
 70
    12
 71
     3
 72
    15
 73
    11
 74
     0
 42
0.000000001
 43
0.0000000001
 40
0.0
 40
0.0
 40
0.0
 40
0.0
 40
0.2764914248445252
 40
0.2764914248445252
 40
0.5
 40
0.5
 40
0.5
 40
0.7235085751554747
 40
0.7235085751554747
 40
1.0
 40
1.0
 40
1.0
 40
1.0
 10
-3.778661141347622
 20
1.69998001097671
 30
0.0
 41
1.0
 10
-3.575340718104378
 20
1.433508946228099
 30
0.0
 41
1.0
 10
-3.42050497797848
 20
1.130168050458949
 30
0.0
 41
1.0
 10
-3.24545255882835
 20
0.5466212176418856
 30
0.0
 41
1.0
 10
-3.205338283302452
 20
0.2735997917471538
 30
0.0
 41
1.0
 10
-3.205260456914412
 20
0.0007603097452007
 30
0.0
 41
1.0
 10
-3.205182630526373
 20
-0.2720791722567525
 30
0.0
 41
1.0
 10
-3.245059248132498
 20
-0.5448160670486794
 30
0.0
 41
1.0
 10
-3.419896585826899
 20
-1.128936154967453
 30
0.0
 41
1.0
 10
-3.575099681819781
 20
-1.433277581049429
 30
0.0
 41
1.0
 10
-3.778661141347626
 20
-1.70006454714418
 30
0.0
 41
1.0
  0
SPLINE
  5
16C
330
1F
100
AcDbEntity
  8
Verdeckt_(ISO)
  6
HIDDEN2
 62
     7
100
AcDbSpline
210
0.0
220
0.0
230
1.0
 70
    12
 71
     3
 72
    12
 73
     8
 74
     0
 42
0.000000001
 43
0.0000000001
 40
0.0
 40
0.0
 40
0.0
 40
0.0
 40
0.1832068253035279
 40
0.1832068253035279
 40
0.6858487789628954
 40
0.6858487789628954
 40
1.0
 40
1.0
 40
1.0
 40
1.0
 10
-4.175812725755774
 20
2.119816722681535
 30
0.0
 41
1.0
 10
-4.148785348720627
 20
2.096750984840799
 30
0.0
 41
1.0
 10
-4.12234339285758
 20
2.073255919851656
 30
0.0
 41
1.0
 10
-4.025631670383756
 20
1.983904002804099
 30
0.0
 41
1.0
 10
-3.959412948265218
 20
1.91590293922487
 30
0.0
 41
1.0
 10
-3.855155184409226
 20
1.796778508415596
 30
0.0
 41
1.0
 10
-3.816207019824465
 20
1.749187513376389
 30
0.0
 41
1.0
 10
-3.778661141347623
 20
1.699980010976709
 30
0.0
 41
1.0
  0
SPLINE
  5
16D
330
1F
100
AcDbEntity
  8
Verdeckt_(ISO)
  6
HIDDEN2
 62
     7
100
AcDbSpline
210
0.0
220
0.0
230
1.0
 70
    12
 71
     3
 72
    35
 73
    31
 74
     0
 42
0.000000001
 43
0.0000000001
 40
0.0
 40
0.0
 40
0.0
 40
0.0
 40
0.06886467196764
 40
0.06886467196764
 40
0.1550930076050815
 40
0.1550930076050815
 40
0.2413213432425231
 40
0.2413213432425231
 40
0.2982219456584275
 40
0.2982219456584275
 40
0.387901080916259
 40
0.387901080916259
 40
0.4568850311145912
 40
0.4568850311145912
 40
0.4999999999885488
 40
0.4999999999885488
 40
0.4999999999885488
 40
0.5431149688739576
 40
0.5431149688739576
 40
0.6120989190906119
 40
0.6120989190906119
 40
0.7017780543722624
 40
0.7017780543722624
 40
0.7586786567574767
 40
0.7586786567574767
 40
0.8449069923949184
 40
0.8449069923949184
 40
0.9311353280323601
 40
0.9311353280323601
 40
1.0
 40
1.0
 40
1.0
 40
1.0
 10
-4.175812725755774
 20
-2.119901258849001
 30
0.0
 41
1.0
 10
-4.393331963749872
 20
-2.305536798462048
 30
0.0
 41
1.0
 10
-4.649567677301089
 20
-2.464102088503411
 30
0.0
 41
1.0
 10
-5.270154503022603
 20
-2.719718546228674
 30
0.0
 41
1.0
 10
-5.64654078352475
 20
-2.789976552914207
 30
0.0
 41
1.0
 10
-6.35343810853032
 20
-2.789976552914207
 30
0.0
 41
1.0
 10
-6.729824389032438
 20
-2.719718546228679
 30
0.0
 41
1.0
 10
-7.302538366967519
 20
-2.483820663350958
 30
0.0
 41
1.0
 10
-7.517191676406868
 20
-2.359585347926643
 30
0.0
 41
1.0
 10
-8.007276275707872
 20
-1.9850601399856
 30
0.0
 41
1.0
 10
-8.250810881966704
 20
-1.707579860031293
 30
0.0
 41
1.0
 10
-8.585639501488487
 20
-1.114208075627185
 30
0.0
 41
1.0
 10
-8.690731010635098
 20
-0.8287145171432907
 30
0.0
 41
1.0
 10
-8.783093731570116
 20
-0.3583063916040154
 30
0.0
 41
1.0
 10
-8.79998944601869
 20
-0.1762512184744582
 30
0.0
 41
1.0
 10
-8.799989446027528
 20
-0.0000422682241376
 30
0.0
 41
1.0
 10
-8.799989446036363
 20
0.1761666820668833
 30
0.0
 41
1.0
 10
-8.783093731598102
 20
0.3582218552437097
 30
0.0
 41
1.0
 10
-8.690731010663908
 20
0.8286299809095494
 30
0.0
 41
1.0
 10
-8.585639501491457
 20
1.114123539473643
 30
0.0
 41
1.0
 10
-8.250810881862789
 20
1.707495324023028
 30
0.0
 41
1.0
 10
-8.00727627552064
 20
1.98497560402732
 30
0.0
 41
1.0
 10
-7.517191676175657
 20
2.359500811893928
 30
0.0
 41
1.0
 10
-7.302538366844721
 20
2.483736127234073
 30
0.0
 41
1.0
 10
-6.729824389032446
 20
2.71963401006121
 30
0.0
 41
1.0
 10
-6.35343810853026
 20
2.789892016746741
 30
0.0
 41
1.0
 10
-5.646540783524759
 20
2.789892016746741
 30
0.0
 41
1.0
 10
-5.270154503022611
 20
2.719634010061209
 30
0.0
 41
1.0
 10
-4.649567677301059
 20
2.46401755233593
 30
0.0
 41
1.0
 10
-4.393331963749865
 20
2.305452262294575
 30
0.0
 41
1.0
 10
-4.175812725755774
 20
2.119816722681533
 30
0.0
 41
1.0
  0
LINE
  5
16E
330
1F
100
AcDbEntity
  8
Sichtbar_(ISO)
  6
Continuous
 62
     7
100
AcDbLine
 10
-16.499989446
 20
-2.8681366994
 30
0.0
 11
-16.499989446
 21
-3.0250422681
 31
0.0
  0
LINE
  5
16F
330
1F
100
AcDbEntity
  8
Sichtbar_(ISO)
  6
Continuous
 62
     7
100
AcDbLine
 10
-16.499989446
 20
3.0249577319
 30
0.0
 11
-16.499989446
 21
2.8680521633
 31
0.0
  0
LINE
  5
170
330
1F
100
AcDbEntity
  8
Sichtbar_(ISO)
  6
Continuous
 62
     7
100
AcDbLine
 10
-16.499989446
 20
1.6073256619
 30
0.0
 11
-16.499989446
 21
-1.6074101981
 31
0.0
  0
LINE
  5
171
330
1F
100
AcDbEntity
  8
Sichtbar_(ISO)
  6
Continuous
 62
     7
100
AcDbLine
 10
-16.199989446
 20
-1.5627610889
 30
0.0
 11
-16.199989446
 21
1.5626765528
 31
0.0
  0
LINE
  5
172
330
1F
100
AcDbEntity
  8
Sichtbar_(ISO)
  6
Continuous
 62
     7
100
AcDbLine
 10
-16.499989446
 20
1.6073256619
 30
0.0
 11
-16.499989446
 21
2.8680521633
 31
0.0
  0
SPLINE
  5
173
330
1F
100
AcDbEntity
  8
Sichtbar_(ISO)
  6
Continuous
 62
     7
100
AcDbSpline
210
0.0
220
0.0
230
1.0
 70
     8
 71
     3
 72
     8
 73
     4
 74
     0
 42
0.000000001
 43
0.0000000001
 40
0.0
 40
0.0
 40
0.0
 40
0.0
 40
1.0
 40
1.0
 40
1.0
 40
1.0
 10
-16.49998944602752
 20
2.868052163274507
 30
0.0
 10
-16.31648400048308
 20
2.44918429452547
 30
0.0
 10
-16.19998944602751
 20
2.010373517974097
 30
0.0
 10
-16.19998944602751
 20
1.562676552765248
 30
0.0
  0
SPLINE
  5
174
330
1F
100
AcDbEntity
  8
Verdeckt_(ISO)
  6
HIDDEN2
 62
     7
100
AcDbSpline
210
0.0
220
0.0
230
1.0
 70
     8
 71
     3
 72
     8
 73
     4
 74
     0
 42
0.000000001
 43
0.0000000001
 40
0.0
 40
0.0
 40
0.0
 40
0.0
 40
1.0
 40
1.0
 40
1.0
 40
1.0
 10
-13.69998944602752
 20
1.562676552764304
 30
0.0
 10
-13.69998944602752
 20
2.010373517973156
 30
0.0
 10
-13.8164840004831
 20
2.449184294524527
 30
0.0
 10
-13.99998944602752
 20
2.868052163273572
 30
0.0
  0
LINE
  5
175
330
1F
100
AcDbEntity
  8
Verdeckt_(ISO)
  6
HIDDEN2
 62
     7
100
AcDbLine
 10
-13.699989446
 20
-1.5627610889
 30
0.0
 11
-13.699989446
 21
1.5626765528
 31
0.0
  0
LINE
  5
176
330
1F
100
AcDbEntity
  8
Sichtbar_(ISO)
  6
Continuous
 62
     7
100
AcDbLine
 10
-19.999989446
 20
5.2923551694
 30
0.0
 11
-19.999989446
 21
4.8249577319
 31
0.0
  0
LINE
  5
177
330
1F
100
AcDbEntity
  8
Sichtbar_(ISO)
  6
Continuous
 62
     7
100
AcDbLine
 10
-19.999989446
 20
4.8249577319
 30
0.0
 11
-19.199989446
 21
4.0249577319
 31
0.0
  0
SPLINE
  5
178
330
1F
100
AcDbEntity
  8
Sichtbar_(ISO)
  6
Continuous
 62
     7
100
AcDbSpline
210
0.0
220
0.0
230
1.0
 70
     8
 71
     3
 72
    14
 73
    10
 74
     0
 42
0.000000001
 43
0.0000000001
 40
0.0
 40
0.0
 40
0.0
 40
0.0
 40
0.1091141313354378
 40
0.1091141313354378
 40
0.3922647498908957
 40
0.3922647498908957
 40
0.6961323749454482
 40
0.6961323749454482
 40
1.0
 40
1.0
 40
1.0
 40
1.0
 10
-19.46677992691542
 20
5.747927974438655
 30
0.0
 10
-19.44992984529927
 20
5.646131917631895
 30
0.0
 10
-19.43328398748874
 20
5.544221897505607
 30
0.0
 10
-19.37538044013606
 20
5.185434837440829
 30
0.0
 10
-19.33725399680563
 20
4.940663185314207
 30
0.0
 10
-19.27406412574103
 20
4.527319412341624
 30
0.0
 10
-19.2461768593824
 20
4.33969776026656
 30
0.0
 10
-19.20917542903193
 20
4.088514324610737
 30
0.0
 10
-19.19998944602752
 20
4.024957731916265
 30
0.0
 10
-19.19998944602752
 20
4.024957731916265
 30
0.0
  0
SPLINE
  5
179
330
1F
100
AcDbEntity
  8
Verdeckt_(ISO)
  6
HIDDEN2
 62
     7
100
AcDbSpline
210
0.0
220
0.0
230
1.0
 70
     8
 71
     3
 72
    12
 73
     8
 74
     0
 42
0.000000001
 43
0.0000000001
 40
0.0
 40
0.0
 40
0.0
 40
0.0
 40
0.375248192025911
 40
0.375248192025911
 40
0.69182795777212
 40
0.69182795777212
 40
1.0
 40
1.0
 40
1.0
 40
1.0
 10
-19.20028767054431
 20
4.195703933296146
 30
0.0
 10
-19.20226423607639
 20
4.165728538559439
 30
0.0
 10
-19.20589882814133
 20
4.136233659623019
 30
0.0
 10
-19.21045022168964
 20
4.087861602574153
 30
0.0
 10
-19.21157298834534
 20
4.06946889753783
 30
0.0
 10
-19.21016557849514
 20
4.041882704653152
 30
0.0
 10
-19.20776715818116
 20
4.032735444069901
 30
0.0
 10
-19.20325756609921
 20
4.028225851987946
 30
0.0
  0
SPLINE
  5
17A
330
1F
100
AcDbEntity
  8
Verdeckt_(ISO)
  6
HIDDEN2
 62
     7
100
AcDbSpline
210
0.0
220
0.0
230
1.0
 70
     8
 71
     3
 72
    12
 73
     8
 74
     0
 42
0.000000001
 43
0.0000000001
 40
0.0
 40
0.0
 40
0.0
 40
0.0
 40
0.3679548159524906
 40
0.3679548159524906
 40
0.6656783379445662
 40
0.6656783379445662
 40
1.0
 40
1.0
 40
1.0
 40
1.0
 10
-19.20325756609921
 20
-4.028310388155417
 30
0.0
 10
-19.20862493490795
 20
-4.033677756964155
 30
0.0
 10
-19.21098584724548
 20
-4.045600388316669
 30
0.0
 10
-19.21114621168793
 20
-4.078342664578515
 30
0.0
 10
-19.20971199215939
 20
-4.096734861779176
 30
0.0
 10
-19.20517262314888
 20
-4.142466241257984
 30
0.0
 10
-19.20205598885987
 20
-4.168971225780691
 30
0.0
 10
-19.20028767054433
 20
-4.195788469463617
 30
0.0
  0
ARC
  5
17B
330
1F
100
AcDbEntity
  8
Verdeckt_(ISO)
  6
HIDDEN2
 62
     7
100
AcDbCircle
 10
20.400010554
 20
3.3999577319
 30
0.0
 40
0.7483314773547936
100
AcDbArc
 50
122.3115332374
 51
180.0
  0
LINE
  5
17C
330
1F
100
AcDbEntity
  8
Sichtbar_(ISO)
  6
Continuous
 62
     7
100
AcDbLine
 10
20.000010554
 20
5.0324132639
 30
0.0
 11
20.000010554
 21
4.3999577319
 31
0.0
  0
ARC
  5
17D
330
1F
100
AcDbEntity
  8
Sichtbar_(ISO)
  6
Continuous
 62
     7
100
AcDbCircle
 10
20.400010554
 20
4.3999577319
 30
0.0
 40
0.7483314773547952
100
AcDbArc
 50
122.3115332374
 51
180.0
  0
ARC
  5
17E
330
1F
100
AcDbEntity
  8
Verdeckt_(ISO)
  6
HIDDEN2
 62
     7
100
AcDbCircle
 10
20.400010554
 20
-3.4000422681
 30
0.0
 40
0.7483314773547934
100
AcDbArc
 50
180.0
 51
237.6884667626
  0
ARC
  5
17F
330
1F
100
AcDbEntity
  8
Verdeckt_(ISO)
  6
HIDDEN2
 62
     7
100
AcDbCircle
 10
19.000010554
 20
-5.5000422681
 30
0.0
 40
1.0
100
AcDbArc
 50
0.0
 51
90.0
  0
ARC
  5
180
330
1F
100
AcDbEntity
  8
Verdeckt_(ISO)
  6
HIDDEN2
 62
     7
100
AcDbCircle
 10
19.000010554
 20
5.4999577319
 30
0.0
 40
1.0
100
AcDbArc
 50
270.0
 51
0.0
  0
LINE
  5
181
330
1F
100
AcDbEntity
  8
Verdeckt_(ISO)
  6
HIDDEN2
 62
     7
100
AcDbLine
 10
17.480010554
 20
-4.5000422681
 30
0.0
 11
19.000010554
 21
-4.5000422681
 31
0.0
  0
LINE
  5
182
330
1F
100
AcDbEntity
  8
Verdeckt_(ISO)
  6
HIDDEN2
 62
     7
100
AcDbLine
 10
12.500010554
 20
-4.5000422681
 30
0.0
 11
14.520010554
 21
-4.5000422681
 31
0.0
  0
ARC
  5
183
330
1F
100
AcDbEntity
  8
Verdeckt_(ISO)
  6
HIDDEN2
 62
     7
100
AcDbCircle
 10
12.500010554
 20
-0.0000422681
 30
0.0
 40
4.500000000000001
100
AcDbArc
 50
90.0
 51
270.0
  0
LINE
  5
184
330
1F
100
AcDbEntity
  8
Verdeckt_(ISO)
  6
HIDDEN2
 62
     7
100
AcDbLine
 10
14.520010554
 20
4.4999577319
 30
0.0
 11
12.500010554
 21
4.4999577319
 31
0.0
  0
LINE
  5
185
330
1F
100
AcDbEntity
  8
Verdeckt_(ISO)
  6
HIDDEN2
 62
     7
100
AcDbLine
 10
19.000010554
 20
4.4999577319
 30
0.0
 11
17.480010554
 21
4.4999577319
 31
0.0
  0
LINE
  5
186
330
1F
100
AcDbEntity
  8
Verdeckt_(ISO)
  6
HIDDEN2
 62
     7
100
AcDbLine
 10
14.520010554
 20
-4.5000422681
 30
0.0
 11
15.000010554
 21
-4.9800422681
 31
0.0
  0
SPLINE
  5
187
330
1F
100
AcDbEntity
  8
Verdeckt_(ISO)
  6
HIDDEN2
 62
     7
100
AcDbSpline
210
0.0
220
0.0
230
1.0
 70
    12
 71
     2
 72
     6
 73
     3
 74
     0
 42
0.000000001
 43
0.0000000001
 40
0.0
 40
0.0
 40
0.0
 40
1.0
 40
1.0
 40
1.0
 10
13.97928461180879
 20
-5.021302952051686
 30
0.0
 41
1.0
 10
14.51167387746637
 20
-5.005981093359602
 30
0.0
 41
1.000859250565518
 10
15.00001055397248
 20
-4.98933485673273
 30
0.0
 41
1.0
  0
ELLIPSE
  5
188
330
1F
100
AcDbEntity
  8
Verdeckt_(ISO)
  6
HIDDEN2
 62
     7
100
AcDbEllipse
 10
20.1351872702
 20
-0.0000422681
 30
0.0
 11
22.53408931776897
 21
-19.08923747312494
 31
0.0
210
0.0
220
0.0
230
1.0
 40
0.26478365
 41
4.661387108231036
 42
4.663221728984745
  0
LINE
  5
189
330
1F
100
AcDbEntity
  8
Verdeckt_(ISO)
  6
HIDDEN2
 62
     7
100
AcDbLine
 10
13.6729365169
 20
-4.5000422681
 30
0.0
 11
13.9384591968
 21
-4.9857773375
 31
0.0
  0
LINE
  5
18A
330
1F
100
AcDbEntity
  8
Sichtbar_(ISO)
  6
Continuous
 62
     7
100
AcDbLine
 10
14.520010554
 20
-5.5000422681
 30
0.0
 11
15.000010554
 21
-5.9800422681
 31
0.0
  0
LINE
  5
18B
330
1F
100
AcDbEntity
  8
Sichtbar_(ISO)
  6
Continuous
 62
     7
100
AcDbLine
 10
15.000010554
 20
-5.9800422681
 30
0.0
 11
15.000010554
 21
-5.9817021283
 31
0.0
  0
LINE
  5
18C
330
1F
100
AcDbEntity
  8
Sichtbar_(ISO)
  6
Continuous
 62
     7
100
AcDbLine
 10
13.6488556684
 20
-5.5000422681
 30
0.0
 11
14.520010554
 21
-5.5000422681
 31
0.0
  0
LINE
  5
18D
330
1F
100
AcDbEntity
  8
Sichtbar_(ISO)
  6
Continuous
 62
     7
100
AcDbLine
 10
13.9219951118
 20
-5.9790080733
 30
0.0
 11
13.6488556684
 21
-5.5000422681
 31
0.0
  0
ELLIPSE
  5
18E
330
1F
100
AcDbEntity
  8
Sichtbar_(ISO)
  6
Continuous
 62
     7
100
AcDbEllipse
 10
18.9619821894
 20
-0.0000422681
 30
0.0
 11
22.53408931776903
 21
-19.08923747312493
 31
0.0
210
0.0
220
0.0
230
1.0
 40
0.26478365
 41
4.713033774444161
 42
4.715575036099867
  0
SPLINE
  5
18F
330
1F
100
AcDbEntity
  8
Sichtbar_(ISO)
  6
Continuous
 62
     7
100
AcDbSpline
210
0.0
220
0.0
230
1.0
 70
    12
 71
     2
 72
     6
 73
     3
 74
     0
 42
0.000000001
 43
0.0000000001
 40
0.0
 40
0.0
 40
0.0
 40
1.0
 40
1.0
 40
1.0
 10
15.00001055397247
 20
-5.981702128326654
 30
0.0
 41
1.0
 10
14.51176973576528
 20
-6.005532250056608
 30
0.0
 41
1.00083744320662
 10
13.97928461180878
 20
-6.027489675205525
 30
0.0
 41
1.0
  0
LINE
  5
190
330
1F
100
AcDbEntity
  8
Verdeckt_(ISO)
  6
HIDDEN2
 62
     7
100
AcDbLine
 10
14.520010554
 20
4.4999577319
 30
0.0
 11
15.000010554
 21
4.9799577319
 31
0.0
  0
LINE
  5
191
330
1F
100
AcDbEntity
  8
Verdeckt_(ISO)
  6
HIDDEN2
 62
     7
100
AcDbLine
 10
13.9384591968
 20
4.9856928013
 30
0.0
 11
13.6729365169
 21
4.4999577319
 31
0.0
  0
ELLIPSE
  5
192
330
1F
100
AcDbEntity
  8
Verdeckt_(ISO)
  6
HIDDEN2
 62
     7
100
AcDbEllipse
 10
20.1351872702
 20
-0.0000422681
 30
0.0
 11
-22.53408931776897
 21
-19.08923747312494
 31
0.0
210
0.0
220
0.0
230
1.0
 40
0.26478365
 41
-1.521629075394953
 42
-1.519794454641241
  0
SPLINE
  5
193
330
1F
100
AcDbEntity
  8
Verdeckt_(ISO)
  6
HIDDEN2
 62
     7
100
AcDbSpline
210
0.0
220
0.0
230
1.0
 70
    12
 71
     2
 72
     6
 73
     3
 74
     0
 42
0.000000001
 43
0.0000000001
 40
0.0
 40
0.0
 40
0.0
 40
1.0
 40
1.0
 40
1.0
 10
15.00001055397248
 20
4.989250320565265
 30
0.0
 41
1.0
 10
14.51167387745467
 20
5.005896557192505
 30
0.0
 41
1.000859250554861
 10
13.97928461180879
 20
5.021218415884222
 30
0.0
 41
1.0
  0
LINE
  5
194
330
1F
100
AcDbEntity
  8
Sichtbar_(ISO)
  6
Continuous
 62
     7
100
AcDbLine
 10
20.000010554
 20
6.4999577319
 30
0.0
 11
20.000010554
 21
5.0324132639
 31
0.0
  0
LINE
  5
195
330
1F
100
AcDbEntity
  8
Sichtbar_(ISO)
  6
Continuous
 62
     7
100
AcDbLine
 10
20.000010554
 20
-5.0324978001
 30
0.0
 11
20.000010554
 21
-6.5000422681
 31
0.0
  0
LINE
  5
196
330
1F
100
AcDbEntity
  8
Sichtbar_(ISO)
  6
Continuous
 62
     7
100
AcDbLine
 10
17.000010554
 20
4.5562720319
 30
0.0
 11
17.000010554
 21
5.9799577319
 31
0.0
  0
SPLINE
  5
197
330
1F
100
AcDbEntity
  8
Sichtbar_(ISO)
  6
Continuous
 62
     7
100
AcDbSpline
210
0.0
220
0.0
230
1.0
 70
     8
 71
     3
 72
    16
 73
    12
 74
     0
 42
0.000000001
 43
0.0000000001
 40
0.0
 40
0.0
 40
0.0
 40
0.0
 40
0.0222583067542957
 40
0.0222583067542957
 40
0.0534151775390351
 40
0.0534151775390351
 40
0.1964652734750026
 40
0.1964652734750026
 40
0.5982326367375007
 40
0.5982326367375007
 40
0.9999999999999999
 40
0.9999999999999999
 40
0.9999999999999999
 40
0.9999999999999999
 10
16.80001055397247
 20
3.709405130114517
 30
0.0
 10
16.80631910748634
 20
3.709405130114517
 30
0.0
 10
16.81367202075374
 20
3.711206120617458
 30
0.0
 10
16.8274433490984
 20
3.717494624244439
 30
0.0
 10
16.83578587736275
 20
3.724028640092305
 30
0.0
 10
16.87065647894879
 20
3.758984150990825
 30
0.0
 10
16.8893911976054
 20
3.803885118150506
 30
0.0
 10
16.94239631587877
 20
3.948917396227233
 30
0.0
 10
16.96356556346981
 20
4.07091764067254
 30
0.0
 10
16.99343013783031
 20
4.317533809003009
 30
0.0
 10
17.00001055397247
 20
4.442401244700332
 30
0.0
 10
17.00001055397247
 20
4.556272031874052
 30
0.0
  0
LINE
  5
198
330
1F
100
AcDbEntity
  8
Sichtbar_(ISO)
  6
Continuous
 62
     7
100
AcDbLine
 10
15.200010554
 20
3.7094051301
 30
0.0
 11
16.800010554
 21
3.7094051301
 31
0.0
  0
SPLINE
  5
199
330
1F
100
AcDbEntity
  8
Sichtbar_(ISO)
  6
Continuous
 62
     7
100
AcDbSpline
210
0.0
220
0.0
230
1.0
 70
     8
 71
     3
 72
    16
 73
    12
 74
     0
 42
0.000000001
 43
0.0000000001
 40
0.0
 40
0.0
 40
0.0
 40
0.0
 40
0.4017673632624981
 40
0.4017673632624981
 40
0.803534726524996
 40
0.803534726524996
 40
0.9465848224609635
 40
0.9465848224609635
 40
0.9777416932457043
 40
0.9777416932457043
 40
0.9999999999999999
 40
0.9999999999999999
 40
0.9999999999999999
 40
0.9999999999999999
 10
15.00001055397247
 20
4.55627203187405
 30
0.0
 10
15.00001055397247
 20
4.442401244700332
 30
0.0
 10
15.00659097011463
 20
4.317533809003009
 30
0.0
 10
15.03645554447513
 20
4.07091764067254
 30
0.0
 10
15.05762479206617
 20
3.948917396227233
 30
0.0
 10
15.11062991033954
 20
3.803885118150506
 30
0.0
 10
15.12936462899615
 20
3.758984150990825
 30
0.0
 10
15.16423523058219
 20
3.724028640092304
 30
0.0
 10
15.17257775884655
 20
3.717494624244439
 30
0.0
 10
15.1863490871912
 20
3.711206120617458
 30
0.0
 10
15.1937020004586
 20
3.709405130114517
 30
0.0
 10
15.20001055397247
 20
3.709405130114517
 30
0.0
  0
LINE
  5
19A
330
1F
100
AcDbEntity
  8
Sichtbar_(ISO)
  6
Continuous
 62
     7
100
AcDbLine
 10
15.000010554
 20
5.9799577319
 30
0.0
 11
15.000010554
 21
4.5562720319
 31
0.0
  0
LINE
  5
19B
330
1F
100
AcDbEntity
  8
Sichtbar_(ISO)
  6
Continuous
 62
     7
100
AcDbLine
 10
15.000010554
 20
-4.556356568
 30
0.0
 11
15.000010554
 21
-5.9800422681
 31
0.0
  0
SPLINE
  5
19C
330
1F
100
AcDbEntity
  8
Sichtbar_(ISO)
  6
Continuous
 62
     7
100
AcDbSpline
210
0.0
220
0.0
230
1.0
 70
     8
 71
     3
 72
    16
 73
    12
 74
     0
 42
0.000000001
 43
0.0000000001
 40
0.0
 40
0.0
 40
0.0
 40
0.0
 40
0.0222583067542957
 40
0.0222583067542957
 40
0.0534151775390364
 40
0.0534151775390364
 40
0.1964652734750039
 40
0.1964652734750039
 40
0.5982326367375032
 40
0.5982326367375032
 40
0.9999999999999999
 40
0.9999999999999999
 40
0.9999999999999999
 40
0.9999999999999999
 10
15.20001055397247
 20
-3.709489666281982
 30
0.0
 10
15.1937020004586
 20
-3.709489666281982
 30
0.0
 10
15.1863490871912
 20
-3.711290656784922
 30
0.0
 10
15.17257775884655
 20
-3.717579160411904
 30
0.0
 10
15.16423523058219
 20
-3.72411317625977
 30
0.0
 10
15.12936462899615
 20
-3.75906868715829
 30
0.0
 10
15.11062991033954
 20
-3.80396965431797
 30
0.0
 10
15.05762479206617
 20
-3.949001932394697
 30
0.0
 10
15.03645554447513
 20
-4.071002176840005
 30
0.0
 10
15.00659097011463
 20
-4.317618345170473
 30
0.0
 10
15.00001055397247
 20
-4.442485780867798
 30
0.0
 10
15.00001055397247
 20
-4.556356568041517
 30
0.0
  0
LINE
  5
19D
330
1F
100
AcDbEntity
  8
Sichtbar_(ISO)
  6
Continuous
 62
     7
100
AcDbLine
 10
16.800010554
 20
-3.7094896663
 30
0.0
 11
15.200010554
 21
-3.7094896663
 31
0.0
  0
SPLINE
  5
19E
330
1F
100
AcDbEntity
  8
Sichtbar_(ISO)
  6
Continuous
 62
     7
100
AcDbSpline
210
0.0
220
0.0
230
1.0
 70
     8
 71
     3
 72
    16
 73
    12
 74
     0
 42
0.000000001
 43
0.0000000001
 40
0.0
 40
0.0
 40
0.0
 40
0.0
 40
0.4017673632624981
 40
0.4017673632624981
 40
0.803534726524996
 40
0.803534726524996
 40
0.9465848224609649
 40
0.9465848224609649
 40
0.9777416932457043
 40
0.9777416932457043
 40
0.9999999999999999
 40
0.9999999999999999
 40
0.9999999999999999
 40
0.9999999999999999
 10
17.00001055397247
 20
-4.556356568041515
 30
0.0
 10
17.00001055397247
 20
-4.442485780867796
 30
0.0
 10
16.99343013783031
 20
-4.317618345170473
 30
0.0
 10
16.96356556346981
 20
-4.071002176840005
 30
0.0
 10
16.94239631587877
 20
-3.949001932394696
 30
0.0
 10
16.8893911976054
 20
-3.80396965431797
 30
0.0
 10
16.87065647894879
 20
-3.759068687158288
 30
0.0
 10
16.83578587736275
 20
-3.72411317625977
 30
0.0
 10
16.8274433490984
 20
-3.717579160411904
 30
0.0
 10
16.81367202075374
 20
-3.711290656784922
 30
0.0
 10
16.80631910748634
 20
-3.709489666281982
 30
0.0
 10
16.80001055397247
 20
-3.709489666281982
 30
0.0
  0
LINE
  5
19F
330
1F
100
AcDbEntity
  8
Sichtbar_(ISO)
  6
Continuous
 62
     7
100
AcDbLine
 10
17.000010554
 20
-5.9800422681
 30
0.0
 11
17.000010554
 21
-4.556356568
 31
0.0
  0
LINE
  5
1A0
330
1F
100
AcDbEntity
  8
Sichtbar_(ISO)
  6
Continuous
 62
     7
100
AcDbLine
 10
20.000010554
 20
4.3999577319
 30
0.0
 11
20.000010554
 21
2.2207697904
 31
0.0
  0
LINE
  5
1A1
330
1F
100
AcDbEntity
  8
Sichtbar_(ISO)
  6
Continuous
 62
     7
100
AcDbLine
 10
20.000010554
 20
-2.2208543265
 30
0.0
 11
20.000010554
 21
-4.4000422681
 31
0.0
  0
SPLINE
  5
1A2
330
1F
100
AcDbEntity
  8
Sichtbar_(ISO)
  6
Continuous
 62
     7
100
AcDbSpline
210
0.0
220
0.0
230
1.0
 70
     8
 71
     3
 72
    14
 73
    10
 74
     0
 42
0.000000001
 43
0.0000000001
 40
0.0
 40
0.0
 40
0.0
 40
0.0
 40
0.1459413369739955
 40
0.1459413369739955
 40
0.4448964061305216
 40
0.4448964061305216
 40
0.6913573747734436
 40
0.6913573747734436
 40
1.0
 40
1.0
 40
1.0
 40
1.0
 10
20.00001055397246
 20
2.220769790369837
 30
0.0
 10
20.00001055397246
 20
2.009284639331882
 30
0.0
 10
20.00227992005848
 20
1.800381073711162
 30
0.0
 10
20.01095640375372
 20
1.188369273605427
 30
0.0
 10
20.02021757372758
 20
0.7499531546359859
 30
0.0
 10
20.02507708967713
 20
-0.1075361243286275
 30
0.0
 10
20.02278108988004
 20
-0.4392151993700001
 30
0.0
 10
20.00987989198268
 20
-1.339100097274867
 30
0.0
 10
20.00001055397246
 20
-1.77853873531976
 30
0.0
 10
20.00001055397246
 20
-2.220854326537303
 30
0.0
  0
LINE
  5
1A3
330
1F
100
AcDbEntity
  8
Sichtbar_(ISO)
  6
Continuous
 62
     7
100
AcDbLine
 10
19.6516790766
 20
-4.4000422681
 30
0.0
 11
19.6516790766
 21
4.3999577319
 31
0.0
  0
LINE
  5
1A4
330
1F
100
AcDbEntity
  8
Sichtbar_(ISO)
  6
Continuous
 62
     7
100
AcDbLine
 10
20.000010554
 20
-4.4000422681
 30
0.0
 11
20.000010554
 21
-5.0324978001
 31
0.0
  0
ARC
  5
1A5
330
1F
100
AcDbEntity
  8
Sichtbar_(ISO)
  6
Continuous
 62
     7
100
AcDbCircle
 10
20.400010554
 20
-4.4000422681
 30
0.0
 40
0.7483314773547951
100
AcDbArc
 50
180.0
 51
237.6884667626
  0
LINE
  5
1A6
330
1F
100
AcDbEntity
  8
Verdeckt_(ISO)
  6
HIDDEN2
 62
     7
100
AcDbLine
 10
13.9384591968
 20
-4.9857773375
 30
0.0
 11
12.500010554
 21
-4.9857773375
 31
0.0
  0
LINE
  5
1A7
330
1F
100
AcDbEntity
  8
Verdeckt_(ISO)
  6
HIDDEN2
 62
     7
100
AcDbLine
 10
12.500010554
 20
4.9856928013
 30
0.0
 11
13.9384591968
 21
4.9856928013
 31
0.0
  0
SPLINE
  5
1A8
330
1F
100
AcDbEntity
  8
Verdeckt_(ISO)
  6
HIDDEN2
 62
     7
100
AcDbSpline
210
0.0
220
0.0
230
1.0
 70
    12
 71
     3
 72
    31
 73
    27
 74
     0
 42
0.000000001
 43
0.0000000001
 40
0.0
 40
0.0
 40
0.0
 40
0.0
 40
0.1250056678265169
 40
0.1250056678265169
 40
0.2187404813489277
 40
0.2187404813489277
 40
0.2500113356530338
 40
0.2500113356530338
 40
0.3375024701802449
 40
0.3375024701802449
 40
0.4375009500693253
 40
0.4375009500693253
 40
0.5000000000000006
 40
0.5000000000000006
 40
0.5000000000000006
 40
0.5624990499306759
 40
0.5624990499306759
 40
0.6624975298197565
 40
0.6624975298197565
 40
0.7499886643469664
 40
0.7499886643469664
 40
0.7812595186510375
 40
0.7812595186510375
 40
0.8749943321734837
 40
0.8749943321734837
 40
1.0
 40
1.0
 40
1.0
 40
1.0
 10
12.50001055397248
 20
-4.985777337455289
 30
0.0
 41
1.0
 10
11.86818915920234
 20
-4.985777337455289
 30
0.0
 41
1.0
 10
11.19592719244051
 20
-4.859784436106446
 30
0.0
 41
1.0
 10
10.1181122878388
 20
-4.414825088968248
 30
0.0
 41
1.0
 10
9.686669619835762
 20
-4.153509273318288
 30
0.0
 41
1.0
 10
9.190401030264011
 20
-3.745400843905756
 30
0.0
 41
1.0
 10
9.072761867302733
 20
-3.638538362728615
 30
0.0
 41
1.0
 10
8.652958099650393
 20
-3.219987569885482
 30
0.0
 41
1.0
 10
8.37076268457133
 20
-2.854862245244781
 30
0.0
 41
1.0
 10
7.883300050110551
 20
-1.990985223372052
 30
0.0
 41
1.0
 10
7.695444352050371
 20
-1.481066991842195
 30
0.0
 41
1.0
 10
7.530258413324624
 20
-0.6405001812230648
 30
0.0
 41
1.0
 10
7.500010553972485
 20
-0.3151072408986114
 30
0.0
 41
1.0
 10
7.500010553972485
 20
-0.0000422680837336
 30
0.0
 41
1.0
 10
7.500010553972485
 20
0.3150227047311456
 30
0.0
 41
1.0
 10
7.530258413324624
 20
0.6404156450556009
 30
0.0
 41
1.0
 10
7.695444352050371
 20
1.480982455674733
 30
0.0
 41
1.0
 10
7.883300050110554
 20
1.990900687204587
 30
0.0
 41
1.0
 10
8.370762684571334
 20
2.854777709077316
 30
0.0
 41
1.0
 10
8.652958099650402
 20
3.219903033718023
 30
0.0
 41
1.0
 10
9.072761867302601
 20
3.638453826561029
 30
0.0
 41
1.0
 10
9.190401030263743
 20
3.745316307738044
 30
0.0
 41
1.0
 10
9.68666961983544
 20
4.153424737150619
 30
0.0
 41
1.0
 10
10.11811228783865
 20
4.414740552800716
 30
0.0
 41
1.0
 10
11.1959271924405
 20
4.859699899938974
 30
0.0
 41
1.0
 10
11.86818915920238
 20
4.985692801287825
 30
0.0
 41
1.0
 10
12.50001055397248
 20
4.985692801287825
 30
0.0
 41
1.0
  0
LINE
  5
1A9
330
1F
100
AcDbEntity
  8
Sichtbar_(ISO)
  6
Continuous
 62
     7
100
AcDbLine
 10
12.500010554
 20
5.4999577319
 30
0.0
 11
13.6488556684
 21
5.4999577319
 31
0.0
  0
LINE
  5
1AA
330
1F
100
AcDbEntity
  8
Sichtbar_(ISO)
  6
Continuous
 62
     7
100
AcDbLine
 10
13.6488556684
 20
-5.5000422681
 30
0.0
 11
12.500010554
 21
-5.5000422681
 31
0.0
  0
LINE
  5
1AB
330
1F
100
AcDbEntity
  8
Sichtbar_(ISO)
  6
Continuous
 62
     7
100
AcDbLine
 10
12.500010554
 20
-5.9790080733
 30
0.0
 11
13.9219951118
 21
-5.9790080733
 31
0.0
  0
SPLINE
  5
1AC
330
1F
100
AcDbEntity
  8
Sichtbar_(ISO)
  6
Continuous
 62
     7
100
AcDbSpline
210
0.0
220
0.0
230
1.0
 70
    12
 71
     3
 72
    19
 73
    15
 74
     0
 42
0.000000001
 43
0.0000000001
 40
0.0
 40
0.0
 40
0.0
 40
0.0
 40
0.1727282203489348
 40
0.1727282203489348
 40
0.3729658957072459
 40
0.3729658957072459
 40
0.4981144428061889
 40
0.4981144428061889
 40
0.4981144428061889
 40
0.7002399539944945
 40
0.7002399539944945
 40
0.9022007101666296
 40
0.9022007101666296
 40
1.0
 40
1.0
 40
1.0
 40
1.0
 10
7.500091698885932
 20
-1.028524342474736
 30
0.0
 41
1.0
 10
7.502571821801995
 20
-1.463782562711024
 30
0.0
 41
1.0
 10
7.563681362570073
 20
-1.916893277047202
 30
0.0
 41
1.0
 10
7.831168461165624
 20
-2.864475004797817
 30
0.0
 41
1.0
 10
8.059041401645452
 20
-3.353126866720098
 30
0.0
 41
1.0
 10
8.5325063643547
 20
-4.054575543287581
 30
0.0
 41
1.0
 10
8.738700689797591
 20
-4.301983441854613
 30
0.0
 41
1.0
 10
8.95851106776328
 20
-4.521193634182901
 30
0.0
 41
1.0
 10
9.313523459362871
 20
-4.875236675106197
 30
0.0
 41
1.0
 10
9.74376182512524
 20
-5.19292546763994
 30
0.0
 41
1.0
 10
10.69795236339475
 20
-5.677053770847314
 30
0.0
 41
1.0
 10
11.22117124429662
 20
-5.843233243142598
 30
0.0
 41
1.0
 10
11.99912388786725
 20
-5.960691411677723
 30
0.0
 41
1.0
 10
12.25266151311304
 20
-5.97900807327722
 30
0.0
 41
1.0
 10
12.50001055397246
 20
-5.97900807327722
 30
0.0
 41
1.0
  0
SPLINE
  5
1AD
330
1F
100
AcDbEntity
  8
Sichtbar_(ISO)
  6
Continuous
 62
     7
100
AcDbSpline
210
0.0
220
0.0
230
1.0
 70
    12
 71
     3
 72
    19
 73
    15
 74
     0
 42
0.000000001
 43
0.0000000001
 40
0.0
 40
0.0
 40
0.0
 40
0.0
 40
0.0977992898333704
 40
0.0977992898333704
 40
0.2997600460055055
 40
0.2997600460055055
 40
0.5018855571938111
 40
0.5018855571938111
 40
0.5018855571938111
 40
0.6270341042927541
 40
0.6270341042927541
 40
0.8272717796510651
 40
0.8272717796510651
 40
1.0
 40
1.0
 40
1.0
 40
1.0
 10
12.50001055397246
 20
-5.500042268083733
 30
0.0
 41
1.0
 10
12.27123710800516
 20
-5.500042268083733
 30
0.0
 41
1.0
 10
12.0367361826161
 20
-5.482415043553377
 30
0.0
 41
1.0
 10
11.31833652207198
 20
-5.369674653287126
 30
0.0
 41
1.0
 10
10.83700489195035
 20
-5.210237076244499
 30
0.0
 41
1.0
 10
9.96741800677828
 20
-4.752067993632342
 30
0.0
 41
1.0
 10
9.579885543509224
 20
-4.453998267998108
 30
0.0
 41
1.0
 10
9.263794195964222
 20
-4.126846336803081
 30
0.0
 41
1.0
 10
9.068082270917062
 20
-3.924286112569299
 30
0.0
 41
1.0
 10
8.88612332987813
 20
-3.697324178010173
 30
0.0
 41
1.0
 10
8.471831198946392
 20
-3.059818504272686
 30
0.0
 41
1.0
 10
8.276331801390366
 20
-2.621473755055612
 30
0.0
 41
1.0
 10
8.049945807971389
 20
-1.780755200739456
 30
0.0
 41
1.0
 10
8.000010555603271
 20
-1.382108886222016
 30
0.0
 41
1.0
 10
8.00001055397246
 20
-1.000042287291465
 30
0.0
 41
1.0
  0
LINE
  5
1AE
330
1F
100
AcDbEntity
  8
Sichtbar_(ISO)
  6
Continuous
 62
     7
100
AcDbLine
 10
7.500010554
 20
-1.0000422681
 30
0.0
 11
7.500010554
 21
0.9999577319
 31
0.0
  0
LINE
  5
1AF
330
1F
100
AcDbEntity
  8
Sichtbar_(ISO)
  6
Continuous
 62
     7
100
AcDbLine
 10
8.000010554
 20
0.9749577319
 30
0.0
 11
8.000010554
 21
-0.9750422681
 31
0.0
  0
SPLINE
  5
1B0
330
1F
100
AcDbEntity
  8
Sichtbar_(ISO)
  6
Continuous
 62
     7
100
AcDbSpline
210
0.0
220
0.0
230
1.0
 70
    12
 71
     3
 72
    10
 73
     6
 74
     0
 42
0.000000001
 43
0.0000000001
 40
0.0
 40
0.0
 40
0.0
 40
0.0
 40
0.4999999999999135
 40
0.4999999999999135
 40
1.0
 40
1.0
 40
1.0
 40
1.0
 10
7.50001055397246
 20
-1.000042268083734
 30
0.0
 41
1.0
 10
7.50001055397246
 20
-1.004784988214597
 30
0.0
 41
1.0
 10
7.500017303697946
 20
-1.009529879273332
 30
0.0
 41
1.0
 10
7.500044339711445
 20
-1.019023928925297
 30
0.0
 41
1.0
 10
7.500064625999652
 20
-1.023773087518133
 30
0.0
 41
1.0
 10
7.500091698885932
 20
-1.028524342474735
 30
0.0
 41
1.0
  0
LINE
  5
1B1
330
1F
100
AcDbEntity
  8
Sichtbar_(ISO)
  6
Continuous
 62
     7
100
AcDbLine
 10
8.000010554
 20
-1.0000422873
 30
0.0
 11
8.000010554
 21
-0.9750422681
 31
0.0
  0
SPLINE
  5
1B2
330
1F
100
AcDbEntity
  8
Sichtbar_(ISO)
  6
Continuous
 62
     7
100
AcDbSpline
210
0.0
220
0.0
230
1.0
 70
    12
 71
     3
 72
    19
 73
    15
 74
     0
 42
0.000000001
 43
0.0000000001
 40
0.0
 40
0.0
 40
0.0
 40
0.0
 40
0.1727282203489367
 40
0.1727282203489367
 40
0.3729658957072457
 40
0.3729658957072457
 40
0.4981144428061886
 40
0.4981144428061886
 40
0.4981144428061886
 40
0.7002399539944922
 40
0.7002399539944922
 40
0.9022007101668876
 40
0.9022007101668876
 40
1.0
 40
1.0
 40
1.0
 40
1.0
 10
8.00001055397246
 20
0.9999577511240008
 30
0.0
 41
1.0
 10
8.000010555603271
 20
1.382024350054551
 30
0.0
 41
1.0
 10
8.049945807971389
 20
1.780670664571991
 30
0.0
 41
1.0
 10
8.276331801390366
 20
2.621389218888147
 30
0.0
 41
1.0
 10
8.471831198946392
 20
3.059733968105221
 30
0.0
 41
1.0
 10
8.88612332987813
 20
3.697239641842707
 30
0.0
 41
1.0
 10
9.068082270917062
 20
3.924201576401831
 30
0.0
 41
1.0
 10
9.263794195964222
 20
4.126761800635614
 30
0.0
 41
1.0
 10
9.579885543509224
 20
4.453913731830639
 30
0.0
 41
1.0
 10
9.96741800677827
 20
4.75198345746487
 30
0.0
 41
1.0
 10
10.83700489195091
 20
5.210152540077327
 30
0.0
 41
1.0
 10
11.31833652207323
 20
5.369590117120064
 30
0.0
 41
1.0
 10
12.03673618261735
 20
5.482330507386005
 30
0.0
 41
1.0
 10
12.27123710800577
 20
5.499957731916266
 30
0.0
 41
1.0
 10
12.50001055397246
 20
5.499957731916266
 30
0.0
 41
1.0
  0
SPLINE
  5
1B3
330
1F
100
AcDbEntity
  8
Sichtbar_(ISO)
  6
Continuous
 62
     7
100
AcDbSpline
210
0.0
220
0.0
230
1.0
 70
    12
 71
     3
 72
    19
 73
    15
 74
     0
 42
0.000000001
 43
0.0000000001
 40
0.0
 40
0.0
 40
0.0
 40
0.0
 40
0.0977992898331123
 40
0.0977992898331123
 40
0.2997600460055078
 40
0.2997600460055078
 40
0.5018855571938114
 40
0.5018855571938114
 40
0.5018855571938114
 40
0.6270341042927543
 40
0.6270341042927543
 40
0.8272717796510634
 40
0.8272717796510634
 40
1.0
 40
1.0
 40
1.0
 40
1.0
 10
12.50001055397246
 20
5.978923537109755
 30
0.0
 41
1.0
 10
12.25266151311369
 20
5.978923537109755
 30
0.0
 41
1.0
 10
11.9991238878686
 20
5.960606875510355
 30
0.0
 41
1.0
 10
11.22117124429797
 20
5.843148706975554
 30
0.0
 41
1.0
 10
10.69795236339536
 20
5.676969234680156
 30
0.0
 41
1.0
 10
9.743761825125231
 20
5.192840931472471
 30
0.0
 41
1.0
 10
9.313523459362871
 20
4.875152138938726
 30
0.0
 41
1.0
 10
8.95851106776328
 20
4.521109098015435
 30
0.0
 41
1.0
 10
8.738700689797582
 20
4.301898905687144
 30
0.0
 41
1.0
 10
8.5325063643547
 20
4.054491007120114
 30
0.0
 41
1.0
 10
8.059041401645452
 20
3.353042330552634
 30
0.0
 41
1.0
 10
7.831168461165624
 20
2.864390468630353
 30
0.0
 41
1.0
 10
7.563681362570073
 20
1.916808740879737
 30
0.0
 41
1.0
 10
7.502571821801998
 20
1.463698026543558
 30
0.0
 41
1.0
 10
7.500091698885932
 20
1.028439806307271
 30
0.0
 41
1.0
  0
LINE
  5
1B4
330
1F
100
AcDbEntity
  8
Sichtbar_(ISO)
  6
Continuous
 62
     7
100
AcDbLine
 10
13.9219951118
 20
5.9789235371
 30
0.0
 11
12.500010554
 21
5.9789235371
 31
0.0
  0
SPLINE
  5
1B5
330
1F
100
AcDbEntity
  8
Sichtbar_(ISO)
  6
Continuous
 62
     7
100
AcDbSpline
210
0.0
220
0.0
230
1.0
 70
    12
 71
     3
 72
    10
 73
     6
 74
     0
 42
0.000000001
 43
0.0000000001
 40
0.0
 40
0.0
 40
0.0
 40
0.0
 40
0.5000000000000216
 40
0.5000000000000216
 40
1.0
 40
1.0
 40
1.0
 40
1.0
 10
7.500091698885932
 20
1.028439806307271
 30
0.0
 41
1.0
 10
7.500064625999653
 20
1.02368855135067
 30
0.0
 41
1.0
 10
7.500044339711447
 20
1.018939392757834
 30
0.0
 41
1.0
 10
7.500017303697946
 20
1.009445343105867
 30
0.0
 41
1.0
 10
7.500010553972463
 20
1.004700452047129
 30
0.0
 41
1.0
 10
7.500010553972463
 20
0.9999577319162668
 30
0.0
 41
1.0
  0
LINE
  5
1B6
330
1F
100
AcDbEntity
  8
Sichtbar_(ISO)
  6
Continuous
 62
     7
100
AcDbLine
 10
8.000010554
 20
0.9749577319
 30
0.0
 11
8.000010554
 21
0.9999577511
 31
0.0
  0
LINE
  5
1B7
330
1F
100
AcDbEntity
  8
Sichtbar_(ISO)
  6
Continuous
 62
     7
100
AcDbLine
 10
14.520010554
 20
5.4999577319
 30
0.0
 11
15.000010554
 21
5.9799577319
 31
0.0
  0
LINE
  5
1B8
330
1F
100
AcDbEntity
  8
Sichtbar_(ISO)
  6
Continuous
 62
     7
100
AcDbLine
 10
15.000010554
 20
5.9816175922
 30
0.0
 11
15.000010554
 21
5.9799577319
 31
0.0
  0
SPLINE
  5
1B9
330
1F
100
AcDbEntity
  8
Sichtbar_(ISO)
  6
Continuous
 62
     7
100
AcDbSpline
210
0.0
220
0.0
230
1.0
 70
    12
 71
     2
 72
     6
 73
     3
 74
     0
 42
0.000000001
 43
0.0000000001
 40
0.0
 40
0.0
 40
0.0
 40
1.0
 40
1.0
 40
1.0
 10
13.97928461180878
 20
6.02740513903806
 30
0.0
 41
1.0
 10
14.51176973576535
 20
6.00544771388914
 30
0.0
 41
1.000837443207597
 10
15.00001055397247
 20
5.981617592159188
 30
0.0
 41
1.0
  0
ELLIPSE
  5
1BA
330
1F
100
AcDbEntity
  8
Sichtbar_(ISO)
  6
Continuous
 62
     7
100
AcDbEllipse
 10
18.9619821894
 20
-0.0000422681
 30
0.0
 11
-22.53408931776903
 21
-19.08923747312493
 31
0.0
210
0.0
220
0.0
230
1.0
 40
0.26478365
 41
4.709202924669508
 42
4.711744186325214
  0
LINE
  5
1BB
330
1F
100
AcDbEntity
  8
Sichtbar_(ISO)
  6
Continuous
 62
     7
100
AcDbLine
 10
13.6488556684
 20
5.4999577319
 30
0.0
 11
13.9219951118
 21
5.9789235371
 31
0.0
  0
LINE
  5
1BC
330
1F
100
AcDbEntity
  8
Sichtbar_(ISO)
  6
Continuous
 62
     7
100
AcDbLine
 10
14.520010554
 20
5.4999577319
 30
0.0
 11
13.6488556684
 21
5.4999577319
 31
0.0
  0
SPLINE
  5
1BD
330
1F
100
AcDbEntity
  8
Sichtbar_(ISO)
  6
Continuous
 62
     7
100
AcDbSpline
210
0.0
220
0.0
230
1.0
 70
    12
 71
     3
 72
    22
 73
    18
 74
     0
 42
0.000000001
 43
0.0000000001
 40
0.0
 40
0.0
 40
0.0
 40
0.0
 40
0.124991079202773
 40
0.124991079202773
 40
0.2499821584055459
 40
0.2499821584055459
 40
0.3749910792027729
 40
0.3749910792027729
 40
0.4999999999999991
 40
0.4999999999999991
 40
0.625008920797226
 40
0.625008920797226
 40
0.7500178415944535
 40
0.7500178415944535
 40
0.8750089207972259
 40
0.8750089207972259
 40
1.0
 40
1.0
 40
1.00000000000766
 40
1.00000000000766
 10
12.82501055397247
 20
-20.00004226808373
 30
0.0
 41
1.0
 10
12.82501055397247
 20
-20.00004226808373
 30
0.0
 41
1.0
 10
12.677412408431
 20
-19.95545072355792
 30
0.0
 41
1.0
 10
12.08319239061293
 20
-19.79507086386227
 30
0.0
 41
1.0
 10
11.63705033505923
 20
-19.68155056035793
 30
0.0
 41
1.0
 10
10.6096707551525
 20
-19.46732476977952
 30
0.0
 41
1.0
 10
9.958507889580712
 20
-19.35225775073669
 30
0.0
 41
1.0
 10
8.52302055458421
 20
-19.18825981056183
 30
0.0
 41
1.0
 10
7.738190664004525
 20
-19.14204025625947
 30
0.0
 41
1.0
 10
6.26183044394041
 20
-19.14204025625947
 30
0.0
 41
1.0
 10
5.477000553360695
 20
-19.18825981056183
 30
0.0
 41
1.0
 10
4.041513218364206
 20
-19.35225775073669
 30
0.0
 41
1.0
 10
3.390350352792436
 20
-19.46732476977952
 30
0.0
 41
1.0
 10
2.362970772885756
 20
-19.68155056035793
 30
0.0
 41
1.0
 10
1.916828717332005
 20
-19.79507086386227
 30
0.0
 41
1.0
 10
1.322608699513959
 20
-19.95545072355791
 30
0.0
 41
1.0
 10
1.175010553972474
 20
-20.00004226808373
 30
0.0
 41
1.0
 10
1.175010553972474
 20
-20.00004226808373
 30
0.0
 41
1.0
  0
SPLINE
  5
1BE
330
1F
100
AcDbEntity
  8
Verdeckt_(ISO)
  6
HIDDEN2
 62
     7
100
AcDbSpline
210
0.0
220
0.0
230
1.0
 70
    12
 71
     3
 72
    22
 73
    18
 74
     0
 42
0.000000001
 43
0.0000000001
 40
-0.0000000000007949
 40
-0.0000000000007949
 40
0.0
 40
0.0
 40
0.1249910792020786
 40
0.1249910792020786
 40
0.2499821584049504
 40
0.2499821584049504
 40
0.3749910792022772
 40
0.3749910792022772
 40
0.4999999999996034
 40
0.4999999999996034
 40
0.625008920796929
 40
0.625008920796929
 40
0.7500178415942553
 40
0.7500178415942553
 40
0.8750089207971277
 40
0.8750089207971277
 40
1.0
 40
1.0
 40
1.0
 40
1.0
 10
1.975010553972474
 20
-19.20004226808373
 30
0.0
 41
1.0
 10
1.97501055397395
 20
-19.20004226808333
 30
0.0
 41
1.0
 10
2.091221101124268
 20
-19.16837366840836
 30
0.0
 41
1.0
 10
2.573240300457704
 20
-19.05201555370429
 30
0.0
 41
1.0
 10
2.940638487704513
 20
-18.96852946495401
 30
0.0
 41
1.0
 10
3.811202509278091
 20
-18.80809748308657
 30
0.0
 41
1.0
 10
4.373930025991117
 20
-18.72046425872548
 30
0.0
 41
1.0
 10
5.638380560700989
 20
-18.59445978950157
 30
0.0
 41
1.0
 10
6.339881140876154
 20
-18.5584868078705
 30
0.0
 41
1.0
 10
7.66013996706879
 20
-18.5584868078705
 30
0.0
 41
1.0
 10
8.361640547243942
 20
-18.59445978950157
 30
0.0
 41
1.0
 10
9.626091081953822
 20
-18.72046425872547
 30
0.0
 41
1.0
 10
10.18881859866685
 20
-18.80809748308657
 30
0.0
 41
1.0
 10
11.05938262024043
 20
-18.96852946495401
 30
0.0
 41
1.0
 10
11.42678080748724
 20
-19.05201555370429
 30
0.0
 41
1.0
 10
11.90880000682221
 20
-19.16837366840873
 30
0.0
 41
1.0
 10
12.02501055397247
 20
-19.20004226808373
 30
0.0
 41
1.0
 10
12.02501055397247
 20
-19.20004226808373
 30
0.0
 41
1.0
  0
LINE
  5
1BF
330
1F
100
AcDbEntity
  8
Verdeckt_(ISO)
  6
HIDDEN2
 62
     7
100
AcDbLine
 10
12.025010554
 20
-19.2000422681
 30
0.0
 11
12.825010554
 21
-20.0000422681
 31
0.0
  0
LINE
  5
1C0
330
1F
100
AcDbEntity
  8
Verdeckt_(ISO)
  6
HIDDEN2
 62
     7
100
AcDbLine
 10
1.175010554
 20
-20.0000422681
 30
0.0
 11
1.975010554
 21
-19.2000422681
 31
0.0
  0
SPLINE
  5
1C1
330
1F
100
AcDbEntity
  8
Verdeckt_(ISO)
  6
HIDDEN2
 62
     7
100
AcDbSpline
210
0.0
220
0.0
230
1.0
 70
     8
 71
     3
 72
    22
 73
    18
 74
     0
 42
0.000000001
 43
0.0000000001
 40
0.0
 40
0.0
 40
0.0
 40
0.0
 40
0.126772376835149
 40
0.126772376835149
 40
0.2535447536702981
 40
0.2535447536702981
 40
0.3767723768351481
 40
0.3767723768351481
 40
0.4999999999999994
 40
0.4999999999999994
 40
0.6232276231648506
 40
0.6232276231648506
 40
0.7464552463297013
 40
0.7464552463297013
 40
0.8732276231648509
 40
0.8732276231648509
 40
1.0
 40
1.0
 40
1.0
 40
1.0
 10
1.500010553972471
 20
19.69611279216042
 30
0.0
 10
1.500010553972471
 20
19.58066609671641
 30
0.0
 10
1.663115649199974
 20
19.42409649766269
 30
0.0
 10
2.287369056435114
 20
19.08586547700817
 30
0.0
 10
2.747588865073173
 20
18.90621062427962
 30
0.0
 10
3.750321236035468
 20
18.61315548076704
 30
0.0
 10
4.357238429324326
 20
18.47807722593725
 30
0.0
 10
5.65890860368289
 20
18.29493880229884
 30
0.0
 10
6.353769245693493
 20
18.24817463908535
 30
0.0
 10
7.646251862251467
 20
18.24817463908535
 30
0.0
 10
8.341112504262076
 20
18.29493880229884
 30
0.0
 10
9.642782678620643
 20
18.47807722593725
 30
0.0
 10
10.24969987190949
 20
18.61315548076704
 30
0.0
 10
11.25243224287178
 20
18.90621062427962
 30
0.0
 10
11.71265205150984
 20
19.08586547700817
 30
0.0
 10
12.33690545874498
 20
19.42409649766269
 30
0.0
 10
12.50001055397249
 20
19.58066609671641
 30
0.0
 10
12.50001055397249
 20
19.69611279216042
 30
0.0
  0
SPLINE
  5
1C2
330
1F
100
AcDbEntity
  8
Verdeckt_(ISO)
  6
HIDDEN2
 62
     7
100
AcDbSpline
210
0.0
220
0.0
230
1.0
 70
     8
 71
     3
 72
    10
 73
     6
 74
     0
 42
0.000000001
 43
0.0000000001
 40
0.0
 40
0.0
 40
0.0
 40
0.0
 40
0.5208249059754483
 40
0.5208249059754483
 40
1.0
 40
1.0
 40
1.0
 40
1.0
 10
12.50001055397249
 20
19.69611279216042
 30
0.0
 10
12.50001055397249
 20
19.81155948760446
 30
0.0
 10
12.33690545874498
 20
19.89629794117451
 30
0.0
 10
11.73761249092312
 20
19.98660196836503
 30
0.0
 10
11.32509175696765
 20
19.99985517785519
 30
0.0
 10
10.86496696478343
 20
19.99994535553076
 30
0.0
  0
SPLINE
  5
1C3
330
1F
100
AcDbEntity
  8
Verdeckt_(ISO)
  6
HIDDEN2
 62
     7
100
AcDbSpline
210
0.0
220
0.0
230
1.0
 70
     8
 71
     3
 72
    10
 73
     6
 74
     0
 42
0.000000001
 43
0.0000000001
 40
0.0
 40
0.0
 40
0.0
 40
0.0
 40
0.4791750940245506
 40
0.4791750940245506
 40
1.0
 40
1.0
 40
1.0
 40
1.0
 10
3.135054143161534
 20
19.99994535553076
 30
0.0
 10
2.67492935097731
 20
19.99985517785519
 30
0.0
 10
2.26240861702184
 20
19.98660196836503
 30
0.0
 10
1.663115649199978
 20
19.89629794117451
 30
0.0
 10
1.500010553972472
 20
19.81155948760446
 30
0.0
 10
1.500010553972471
 20
19.69611279216042
 30
0.0
  0
ELLIPSE
  5
1C4
330
1F
100
AcDbEntity
  8
Verdeckt_(ISO)
  6
HIDDEN2
 62
     7
100
AcDbEllipse
 10
7.000010554
 20
13.9842278247
 30
0.0
 11
4.500000000000001
 21
9.999999999999999E-17
 31
0.0
210
0.0
220
0.0
230
1.0
 40
0.1736481777
 41
0.0
 42
6.283185307179586
  0
ELLIPSE
  5
1C5
330
1F
100
AcDbEntity
  8
Verdeckt_(ISO)
  6
HIDDEN2
 62
     7
100
AcDbEllipse
 10
7.000010554
 20
13.9842278247
 30
0.0
 11
1.75
 21
0.0
 31
0.0
210
0.0
220
0.0
230
1.0
 40
0.1736481777
 41
0.0
 42
6.283185307179586
  0
ELLIPSE
  5
1C6
330
1F
100
AcDbEntity
  8
Verdeckt_(ISO)
  6
HIDDEN2
 62
     7
100
AcDbEllipse
 10
7.000010554
 20
18.7113050391
 30
0.0
 11
4.500000000000004
 21
1.000000000000000E-16
 31
0.0
210
0.0
220
0.0
230
1.0
 40
0.1736481777
 41
0.0
 42
6.283185307179586
  0
LINE
  5
1C7
330
1F
100
AcDbEntity
  8
Verdeckt_(ISO)
  6
HIDDEN2
 62
     7
100
AcDbLine
 10
2.500010554
 20
13.9842278247
 30
0.0
 11
2.500010554
 21
18.7113050391
 31
0.0
  0
LINE
  5
1C8
330
1F
100
AcDbEntity
  8
Verdeckt_(ISO)
  6
HIDDEN2
 62
     7
100
AcDbLine
 10
11.500010554
 20
13.9842278247
 30
0.0
 11
11.500010554
 21
18.7113050391
 31
0.0
  0
LINE
  5
1C9
330
1F
100
AcDbEntity
  8
Verdeckt_(ISO)
  6
HIDDEN2
 62
     7
100
AcDbLine
 10
2.570518132
 20
18.5735201742
 30
0.0
 11
1.6091482822
 21
19.5054504179
 31
0.0
  0
LINE
  5
1CA
330
1F
100
AcDbEntity
  8
Verdeckt_(ISO)
  6
HIDDEN2
 62
     7
100
AcDbLine
 10
11.429502976
 20
18.5735201742
 30
0.0
 11
12.3908728258
 21
19.5054504179
 31
0.0
  0
LINE
  5
1CB
330
1F
100
AcDbEntity
  8
Verdeckt_(ISO)
  6
HIDDEN2
 62
     7
100
AcDbLine
 10
7.000010554
 20
13.3569565847
 30
0.0
 11
5.4690816513
 21
13.8370097338
 31
0.0
  0
LINE
  5
1CC
330
1F
100
AcDbEntity
  8
Verdeckt_(ISO)
  6
HIDDEN2
 62
     7
100
AcDbLine
 10
7.000010554
 20
13.3569565847
 30
0.0
 11
8.5309394566
 21
13.8370097338
 31
0.0
  0
SPLINE
  5
1CD
330
1F
100
AcDbEntity
  8
Sichtbar_(ISO)
  6
Continuous
 62
     7
100
AcDbSpline
210
0.0
220
0.0
230
1.0
 70
     8
 71
     3
 72
    19
 73
    15
 74
     0
 42
0.000000001
 43
0.0000000001
 40
0.0
 40
0.0
 40
0.0
 40
0.0
 40
0.019754724060933
 40
0.019754724060933
 40
0.2598773620304683
 40
0.2598773620304683
 40
0.4999999999999992
 40
0.4999999999999992
 40
0.4999999999999992
 40
0.7401226379695334
 40
0.7401226379695334
 40
0.9802452759390653
 40
0.9802452759390653
 40
0.9999999999999999
 40
0.9999999999999999
 40
0.9999999999999999
 40
0.9999999999999999
 10
10.86496696478343
 20
19.99994535553076
 30
0.0
 10
10.82497300160086
 20
19.99995319375792
 30
0.0
 10
10.78461938715172
 20
19.99986158455894
 30
0.0
 10
10.24969987190948
 20
19.99749380514893
 30
0.0
 10
9.64278267862063
 20
19.98219234079362
 30
0.0
 10
8.341112504262068
 20
19.95643879927457
 30
0.0
 10
7.646251862251464
 20
19.94728192558039
 30
0.0
 10
7.000010553972478
 20
19.94728192558039
 30
0.0
 10
6.353769245693488
 20
19.94728192558039
 30
0.0
 10
5.658908603682887
 20
19.95643879927457
 30
0.0
 10
4.357238429324326
 20
19.98219234079362
 30
0.0
 10
3.750321236035468
 20
19.99749380514893
 30
0.0
 10
3.215401720793229
 20
19.99986158455894
 30
0.0
 10
3.175048106344098
 20
19.99995319375792
 30
0.0
 10
3.135054143161534
 20
19.99994535553076
 30
0.0
  0
LINE
  5
1CE
330
1F
100
AcDbEntity
  8
Verdeckt_(ISO)
  6
HIDDEN2
 62
     7
100
AcDbLine
 10
11.975010554
 20
-14.7000422681
 30
0.0
 11
2.025010554
 21
-14.7000422681
 31
0.0
  0
LINE
  5
1CF
330
1F
100
AcDbEntity
  8
Verdeckt_(ISO)
  6
HIDDEN2
 62
     7
100
AcDbLine
 10
1.975010554
 20
-19.2000422681
 30
0.0
 11
1.975010554
 21
-14.7500422681
 31
0.0
  0
LINE
  5
1D0
330
1F
100
AcDbEntity
  8
Verdeckt_(ISO)
  6
HIDDEN2
 62
     7
100
AcDbLine
 10
12.025010554
 20
-19.2000422681
 30
0.0
 11
12.025010554
 21
-14.7500422681
 31
0.0
  0
ARC
  5
1D1
330
1F
100
AcDbEntity
  8
Verdeckt_(ISO)
  6
HIDDEN2
 62
     7
100
AcDbCircle
 10
11.975010554
 20
-14.7500422681
 30
0.0
 40
0.05
100
AcDbArc
 50
0.0
 51
90.0
  0
ARC
  5
1D2
330
1F
100
AcDbEntity
  8
Verdeckt_(ISO)
  6
HIDDEN2
 62
     7
100
AcDbCircle
 10
2.025010554
 20
-14.7500422681
 30
0.0
 40
0.05
100
AcDbArc
 50
90.0
 51
180.0
  0
LINE
  5
1D3
330
1F
100
AcDbEntity
  8
Verdeckt_(ISO)
  6
HIDDEN2
 62
     7
100
AcDbLine
 10
7.000010554
 20
-14.0630943581
 30
0.0
 11
8.750010554
 21
-14.7000422681
 31
0.0
  0
LINE
  5
1D4
330
1F
100
AcDbEntity
  8
Verdeckt_(ISO)
  6
HIDDEN2
 62
     7
100
AcDbLine
 10
7.000010554
 20
-14.0630943581
 30
0.0
 11
5.250010554
 21
-14.7000422681
 31
0.0
  0
ARC
  5
1D5
330
1F
100
AcDbEntity
  8
Verdeckt_(ISO)
  6
HIDDEN2
 62
     7
100
AcDbCircle
 10
51.500010554
 20
-30.3000422681
 30
0.0
 40
10.0
100
AcDbArc
 50
84.2608295227
 51
95.7391704773
  0
LINE
  5
1D6
330
1F
100
AcDbEntity
  8
Verdeckt_(ISO)
  6
HIDDEN2
 62
     7
100
AcDbLine
 10
44.417510554
 20
21.7499577319
 30
0.0
 11
44.417510554
 21
7.9999577319
 31
0.0
  0
LINE
  5
1D7
330
1F
100
AcDbEntity
  8
Verdeckt_(ISO)
  6
HIDDEN2
 62
     7
100
AcDbLine
 10
58.582510554
 20
7.9999577319
 30
0.0
 11
58.582510554
 21
21.7499577319
 31
0.0
  0
LINE
  5
1D8
330
1F
100
AcDbEntity
  8
Verdeckt_(ISO)
  6
HIDDEN2
 62
     7
100
AcDbLine
 10
8.458510554
 20
-6.0415422681
 30
0.0
 11
14.000010554
 21
-6.0415422681
 31
0.0
  0
LINE
  5
1D9
330
1F
100
AcDbEntity
  8
Verdeckt_(ISO)
  6
HIDDEN2
 62
     7
100
AcDbLine
 10
14.000010554
 20
6.0414577319
 30
0.0
 11
8.458510554
 21
6.0414577319
 31
0.0
  0
LINE
  5
1DC
330
1F
100
AcDbEntity
  8
Mittellinie_(ISO)
  6
CENTER2
 62
     7
100
AcDbLine
 10
75.6402262325
 20
-0.0000422681
 30
0.0
 11
-18.5560614949
 21
-0.0000422681
 31
0.0
  0
LINE
  5
1DD
330
1F
100
AcDbEntity
  8
Mittellinie_(ISO)
  6
CENTER2
 62
     7
100
AcDbLine
 10
51.500010554
 20
24.2499577319
 30
0.0
 11
51.500010554
 21
5.4999577319
 31
0.0
  0
LINE
  5
1DF
330
1F
100
AcDbEntity
  8
Mittelpunktmarkierung_(ISO)
  6
CENTER2
 62
     7
100
AcDbLine
 10
-0.7148138366
 20
0.0003498116
 30
0.0
 11
-11.2992280697
 21
0.0003498116
 31
0.0
  0
LINE
  5
1E0
330
1F
100
AcDbEntity
  8
Mittelpunktmarkierung_(ISO)
  6
CENTER2
 62
     7
100
AcDbLine
 10
-6.0070209532
 20
5.2925569282
 30
0.0
 11
-6.0070209532
 21
-5.291857305
 31
0.0
  0
LINE
  5
1E1
330
1F
100
AcDbEntity
  8
Mittelpunktmarkierung_(ISO)
  6
CENTER2
 62
     7
100
AcDbLine
 10
31.500010554
 20
-0.0000422681
 30
0.0
 11
22.000010554
 21
-0.0000422681
 31
0.0
  0
LINE
  5
1E2
330
1F
100
AcDbEntity
  8
Mittelpunktmarkierung_(ISO)
  6
CENTER2
 62
     7
100
AcDbLine
 10
26.500010554
 20
4.4999577319
 30
0.0
 11
26.500010554
 21
-4.5000422681
 31
0.0
  0
CIRCLE
  5
1E4
330
1F
100
AcDbEntity
  8
_Konvertierung
  6
Continuous
 62
     7
100
AcDbCircle
 10
0.700010554
 20
19.9999577319
 30
0.0
 40
0.01
  0
CIRCLE
  5
1E5
330
1F
100
AcDbEntity
  8
_Konvertierung
  6
Continuous
 62
     7
100
AcDbCircle
 10
0.700010554
 20
-20.0000422681
 30
0.0
 40
0.01
  0
CIRCLE
  5
1E6
330
1F
100
AcDbEntity
  8
_Konvertierung
  6
Continuous
 62
     7
100
AcDbCircle
 10
-19.999989446
 20
13.1556050823
 30
0.0
 40
0.01
  0
CIRCLE
  5
1E7
330
1F
100
AcDbEntity
  8
_Konvertierung
  6
Continuous
 62
     7
100
AcDbCircle
 10
0.000010554
 20
19.2999577319
 30
0.0
 40
0.01
  0
CIRCLE
  5
1E8
330
1F
100
AcDbEntity
  8
_Konvertierung
  6
Continuous
 62
     7
100
AcDbCircle
 10
0.000010554
 20
19.2999577319
 30
0.0
 40
0.01
  0
CIRCLE
  5
1E9
330
1F
100
AcDbEntity
  8
_Konvertierung
  6
Continuous
 62
     7
100
AcDbCircle
 10
20.000010554
 20
18.9999577319
 30
0.0
 40
0.01
  0
CIRCLE
  5
1EA
330
1F
100
AcDbEntity
  8
_Konvertierung
  6
Continuous
 62
     7
100
AcDbCircle
 10
0.000010554
 20
19.2999577319
 30
0.0
 40
0.01
  0
CIRCLE
  5
1EB
330
1F
100
AcDbEntity
  8
_Konvertierung
  6
Continuous
 62
     7
100
AcDbCircle
 10
75.000010554
 20
16.4758172103
 30
0.0
 40
0.01
  0
CIRCLE
  5
1EC
330
1F
100
AcDbEntity
  8
_Konvertierung
  6
Continuous
 62
     7
100
AcDbCircle
 10
61.6895797056
 20
23.7499577319
 30
0.0
 40
0.01
  0
CIRCLE
  5
1ED
330
1F
100
AcDbEntity
  8
_Konvertierung
  6
Continuous
 62
     7
100
AcDbCircle
 10
61.6895797056
 20
-23.7500422681
 30
0.0
 40
0.01
  0
CIRCLE
  5
1EE
330
1F
100
AcDbEntity
  8
_Konvertierung
  6
Continuous
 62
     7
100
AcDbCircle
 10
74.000010554
 20
7.9999577319
 30
0.0
 40
0.01
  0
CIRCLE
  5
1EF
330
1F
100
AcDbEntity
  8
_Konvertierung
  6
Continuous
 62
     7
100
AcDbCircle
 10
74.000010554
 20
-8.0000422681
 30
0.0
 40
0.01
  0
MTEXT
  5
1F1
330
1F
100
AcDbEntity
  8
6
100
AcDbMText
 10
-19.9967713673
 20
-34.6965471489
 30
0.0
 40
4.57
 41
78.3798213208
 46
7.6741609434
 71
     7
 72
     1
  1
{\fsimplex|b0||i0||c0|p34;\C7;\H4.57;\W0.94;HSK-A40 DIN 69893-1}
 73
     1
 44
1.0
1001
ACAD
1000
ACAD_MTEXT_DEFINED_HEIGHT_BEGIN
1070
    46
1040
7.6741609434
1000
ACAD_MTEXT_DEFINED_HEIGHT_END
  0
MTEXT
  5
1F2
330
1F
100
AcDbEntity
  8
6
100
AcDbMText
 10
-19.8388323241
 20
-54.1289053667
 30
0.0
 40
4.57
 41
55.7022741509
 46
7.6741609434
 71
     7
 72
     1
  1
{\fsimplex|b0||i0||c0|p34;\C7;\H4.57;\W0.94;HSK A40-16-75}
 73
     1
 44
1.0
1001
ACAD
1000
ACAD_MTEXT_DEFINED_HEIGHT_BEGIN
1070
    46
1040
7.6741609434
1000
ACAD_MTEXT_DEFINED_HEIGHT_END
  0
DIMENSION
  5
205
330
1F
100
AcDbEntity
  8
Bemaßung_(ISO)
  6
Continuous
 62
     7
100
AcDbDimension
  2
DMBLK145
 10
-28.7139745345
 20
19.9999577319
 30
0.0
 11
-28.7139745345
 21
-0.000041821
 31
0.0
 70
   161
  1
\A1;n <>
 71
     5
 42
-1.0
 73
     0
 74
     0
 75
     0
  3
Standard_(DIN)
100
AcDbAlignedDimension
 13
0.700010554
 23
19.9999577319
 33
0.0
 14
0.700010554
 24
-20.0000422681
 34
0.0
  0
DIMENSION
  5
210
330
1F
100
AcDbEntity
  8
Bemaßung_(ISO)
  6
Continuous
 62
     7
100
AcDbDimension
  2
DMBLK146
 10
0.000010554
 20
28.789892231
 30
0.0
 11
-9.9999896695
 21
28.789892231
 31
0.0
 70
   160
  1
\A1;<>
 71
     5
 42
-1.0
 73
     0
 74
     0
 75
     0
  3
Standard_(DIN)
100
AcDbAlignedDimension
 13
-19.999989446
 23
13.1556050823
 33
0.0
 14
0.000010554
 24
19.2999577319
 34
0.0
100
AcDbRotatedDimension
  0
DIMENSION
  5
21A
330
1F
100
AcDbEntity
  8
Bemaßung_(ISO)
  6
Continuous
 62
     7
100
AcDbDimension
  2
DMBLK147
 10
20.000010554
 20
28.7428319624
 30
0.0
 11
10.0000103305
 21
28.7428319624
 31
0.0
 70
   160
  1
\A1;<>
 71
     5
 42
-1.0
 73
     0
 74
     0
 75
     0
  3
Standard_(DIN)
100
AcDbAlignedDimension
 13
0.000010554
 23
19.2999577319
 33
0.0
 14
20.000010554
 24
18.9999577319
 34
0.0
100
AcDbRotatedDimension
  0
DIMENSION
  5
224
330
1F
100
AcDbEntity
  8
Bemaßung_(ISO)
  6
Continuous
 62
     7
100
AcDbDimension
  2
DMBLK148
 10
75.000010554
 20
39.8946682161
 30
0.0
 11
37.5000120441
 21
39.8946682161
 31
0.0
 70
   160
  1
\A1;<>
 71
     5
 42
-1.0
 73
     0
 74
     0
 75
     0
  3
Standard_(DIN)
100
AcDbAlignedDimension
 13
0.000010554
 23
19.2999577319
 33
0.0
 14
75.000010554
 24
16.4758172103
 34
0.0
100
AcDbRotatedDimension
  0
DIMENSION
  5
22E
330
1F
100
AcDbEntity
  8
Bemaßung_(ISO)
  6
Continuous
 62
     7
100
AcDbDimension
  2
DMBLK149
 10
99.6296311123
 20
23.7499577319
 30
0.0
 11
99.6296311123
 21
-0.0000419701
 31
0.0
 70
   161
  1
\A1;n <>
 71
     5
 42
-1.0
 73
     0
 74
     0
 75
     0
  3
Standard_(DIN)
100
AcDbAlignedDimension
 13
61.6895797056
 23
23.7499577319
 33
0.0
 14
61.6895797056
 24
-23.7500422681
 34
0.0
1001
ACAD
1000
DSTYLE
1002
{
1070
   271
1070
     1
1070
     0
1002
}
  0
DIMENSION
  5
239
330
1F
100
AcDbEntity
  8
Bemaßung_(ISO)
  6
Continuous
 62
     7
100
AcDbDimension
  2
DMBLK150
 10
87.5258513803
 20
7.9999577319
 30
0.0
 11
87.5258513803
 21
-0.0000426481
 31
0.0
 70
   161
  1
\A1;n <>
 71
     5
 42
-1.0
 73
     0
 74
     0
 75
     0
  3
Standard_(DIN)
100
AcDbAlignedDimension
 13
74.000010554
 23
7.9999577319
 33
0.0
 14
74.000010554
 24
-8.0000422681
 34
0.0
  0
ENDSEC
  0
SECTION
  2
OBJECTS
  0
DICTIONARY
  5
C
330
0
100
AcDbDictionary
281
     1
  3
ACAD_DETAILVIEWSTYLE
350
27F
  3
ACAD_GROUP
350
D
  3
ACAD_LAYOUT
350
1A
  3
ACAD_MATERIAL
350
43
  3
ACAD_MLEADERSTYLE
350
6B
  3
ACAD_MLINESTYLE
350
17
  3
ACAD_PLOTSETTINGS
350
19
  3
ACAD_PLOTSTYLENAME
350
E
  3
ACAD_SCALELIST
350
47
  3
ACAD_SECTIONVIEWSTYLE
350
280
  3
ACAD_TABLESTYLE
350
69
  3
ACAD_VISUALSTYLE
350
2A
  3
ACDB_RECOMPOSE_DATA
350
27C
  3
AcDbVariableDictionary
350
244
  0
SUN
  5
6D
330
29
100
AcDbSun
 90
        1
290
     0
 63
     7
421
 16777215
 40
1.0
291
     1
 91
  2455826
 92
 54000000
292
     0
 70
     2
 71
   256
280
     1
  0
DICTIONARY
  5
27F
102
{ACAD_REACTORS
330
C
102
}
330
C
100
AcDbDictionary
281
     1
  0
DICTIONARY
  5
D
102
{ACAD_REACTORS
330
C
102
}
330
C
100
AcDbDictionary
281
     1
  0
DICTIONARY
  5
1A
102
{ACAD_REACTORS
330
C
102
}
330
C
100
AcDbDictionary
281
     1
  3
Layout1
350
1E
  3
Model
350
22
  0
DICTIONARY
  5
43
102
{ACAD_REACTORS
330
C
102
}
330
C
100
AcDbDictionary
281
     1
  3
ByBlock
350
45
  3
ByLayer
350
44
  3
Global
350
46
  0
DICTIONARY
  5
6B
102
{ACAD_REACTORS
330
C
102
}
330
C
100
AcDbDictionary
281
     1
  3
Standard
350
6C
  0
DICTIONARY
  5
17
102
{ACAD_REACTORS
330
C
102
}
330
C
100
AcDbDictionary
281
     1
  3
Standard
350
18
  0
DICTIONARY
  5
19
102
{ACAD_REACTORS
330
C
102
}
330
C
100
AcDbDictionary
281
     1
  0
ACDBDICTIONARYWDFLT
  5
E
102
{ACAD_REACTORS
330
C
102
}
330
C
100
AcDbDictionary
281
     1
  3
Normal
350
F
100
AcDbDictionaryWithDefault
340
F
  0
DICTIONARY
  5
47
102
{ACAD_REACTORS
330
C
102
}
330
C
100
AcDbDictionary
281
     1
  3
A0
350
48
  3
A1
350
49
  3
A2
350
4A
  3
A3
350
4B
  3
A4
350
4C
  3
A5
350
4D
  3
A6
350
4E
  3
A7
350
4F
  3
A8
350
50
  3
A9
350
51
  3
B0
350
52
  3
B1
350
53
  3
B2
350
54
  3
B3
350
55
  3
B4
350
56
  3
B5
350
57
  3
B6
350
58
  3
B7
350
59
  3
B8
350
5A
  3
B9
350
5B
  3
C0
350
5C
  3
C1
350
5D
  3
C2
350
5E
  3
C3
350
5F
  3
C4
350
60
  3
C5
350
61
  3
C6
350
62
  3
C7
350
63
  3
C8
350
64
  3
C9
350
65
  3
D0
350
66
  3
D1
350
67
  3
D2
350
68
  0
DICTIONARY
  5
280
102
{ACAD_REACTORS
330
C
102
}
330
C
100
AcDbDictionary
281
     1
  0
DICTIONARY
  5
69
102
{ACAD_REACTORS
330
C
102
}
330
C
100
AcDbDictionary
281
     1
  3
Standard
350
6A
  0
DICTIONARY
  5
2A
102
{ACAD_REACTORS
330
C
102
}
330
C
100
AcDbDictionary
281
     1
  3
2dWireframe
350
2F
  3
Basic
350
32
  3
Brighten
350
36
  3
ColorChange
350
3A
  3
Conceptual
350
34
  3
Dim
350
35
  3
EdgeColorOff
350
3D
  3
Facepattern
350
39
  3
Flat
350
2B
  3
FlatWithEdges
350
2C
  3
Gouraud
350
2D
  3
GouraudWithEdges
350
2E
  3
Hidden
350
31
  3
JitterOff
350
3B
  3
Linepattern
350
38
  3
OverhangOff
350
3C
  3
Realistic
350
33
  3
Shaded
350
42
  3
Shaded with edges
350
41
  3
Shades of Gray
350
3E
  3
Sketchy
350
3F
  3
Thicken
350
37
  3
Wireframe
350
30
  3
X-Ray
350
40
  0
XRECORD
  5
27C
102
{ACAD_REACTORS
330
C
102
}
330
C
100
AcDbXrecord
280
     1
 90
        1
330
6A
  0
DICTIONARY
  5
244
102
{ACAD_REACTORS
330
C
102
}
330
C
100
AcDbDictionary
281
     1
  3
CANNOSCALE
350
245
  3
CENTEREXE
350
281
  3
CENTERLTYPEFILE
350
282
  3
CMLEADERSTYLE
350
27E
  3
CTABLESTYLE
350
27D
  3
XCLIPFRAME
350
246
  0
LAYOUT
  5
1E
102
{ACAD_REACTORS
330
1A
102
}
330
1A
100
AcDbPlotSettings
  1

  2
none_device
  4

  6

 40
0.0
 41
0.0
 42
0.0
 43
0.0
 44
0.0
 45
0.0
 46
0.0
 47
0.0
 48
0.0
 49
0.0
140
0.0
141
0.0
142
1.0
143
1.0
 70
   688
 72
     1
 73
     0
 74
     5
  7

 75
    16
 76
     0
 77
     2
 78
   300
147
1.0
148
0.0
149
0.0
100
AcDbLayout
  1
Layout1
 70
     1
 71
     1
 10
0.0
 20
0.0
 11
594.0
 21
420.0
 12
0.0
 22
0.0
 32
0.0
 14
0.0
 24
0.0
 34
0.0
 15
594.0
 25
420.0
 35
0.0
146
0.0
 13
0.0
 23
0.0
 33
0.0
 16
1.0
 26
0.0
 36
0.0
 17
0.0
 27
1.0
 37
0.0
 76
     0
330
1B
  0
LAYOUT
  5
22
102
{ACAD_REACTORS
330
1A
102
}
330
1A
100
AcDbPlotSettings
  1

  2
none_device
  4
Letter_(8.50_x_11.00_Inches)
  6

 40
6.35
 41
6.35
 42
6.35000508
 43
6.35000508
 44
215.9
 45
279.4
 46
0.0
 47
0.0
 48
0.0
 49
0.0
140
0.0
141
0.0
142
1.0
143
1.0
 70
  1712
 72
     1
 73
     0
 74
     0
  7

 75
     0
 76
     0
 77
     2
 78
   300
147
1.0
148
0.0
149
0.0
100
AcDbLayout
  1
Model
 70
     1
 71
     0
 10
0.0
 20
0.0
 11
594.0
 21
420.0
 12
0.0
 22
0.0
 32
0.0
 14
0.0
 24
0.0
 34
0.0
 15
594.0
 25
420.0
 35
0.0
146
0.0
 13
0.0
 23
0.0
 33
0.0
 16
1.0
 26
0.0
 36
0.0
 17
0.0
 27
1.0
 37
0.0
 76
     0
330
1F
331
29
  0
MATERIAL
  5
45
102
{ACAD_REACTORS
330
43
102
}
330
43
100
AcDbMaterial
  1
ByBlock
 72
     1
 94
      127
  0
MATERIAL
  5
44
102
{ACAD_REACTORS
330
43
102
}
330
43
100
AcDbMaterial
  1
ByLayer
 72
     1
 94
      127
  0
MATERIAL
  5
46
102
{ACAD_REACTORS
330
43
102
}
330
43
100
AcDbMaterial
  1
Global
 72
     1
 94
      127
  0
MLEADERSTYLE
  5
6C
102
{ACAD_REACTORS
330
6B
102
}
102
{ACAD_XDICTIONARY
360
27A
102
}
330
6B
100
AcDbMLeaderStyle
170
     2
171
     1
172
     0
 90
        2
 40
0.0
 41
0.0
173
     1
 91
-1056964608
340
14
 92
       -2
290
     1
 42
2.0
291
     1
 43
8.0
  3
Standard
341
0
 44
4.0
300

342
11
174
     1
178
     6
175
     1
176
     0
 93
-1056964608
 45
4.0
292
     0
297
     0
 46
4.0
343
0
 94
-1056964608
 47
1.0
 49
1.0
140
1.0
293
     1
141
0.0
294
     1
177
     0
142
1.0
295
     0
296
     0
143
3.75
1001
ACAD_MLEADERVER
1070
     2
  0
MLINESTYLE
  5
18
102
{ACAD_REACTORS
330
17
102
}
330
17
100
AcDbMlineStyle
  2
Standard
 70
     0
  3

 62
   256
 51
90.0
 52
90.0
 71
     2
 49
0.5
 62
   256
  6
BYLAYER
 49
-0.5
 62
   256
  6
BYLAYER
  0
ACDBPLACEHOLDER
  5
F
102
{ACAD_REACTORS
330
E
102
}
330
E
  0
SCALE
  5
48
102
{ACAD_REACTORS
330
47
102
}
330
47
100
AcDbScale
 70
     0
300
1:1
140
1.0
141
1.0
290
     1
  0
SCALE
  5
49
102
{ACAD_REACTORS
330
47
102
}
330
47
100
AcDbScale
 70
     0
300
1:2
140
1.0
141
2.0
290
     0
  0
SCALE
  5
4A
102
{ACAD_REACTORS
330
47
102
}
330
47
100
AcDbScale
 70
     0
300
1:4
140
1.0
141
4.0
290
     0
  0
SCALE
  5
4B
102
{ACAD_REACTORS
330
47
102
}
330
47
100
AcDbScale
 70
     0
300
1:5
140
1.0
141
5.0
290
     0
  0
SCALE
  5
4C
102
{ACAD_REACTORS
330
47
102
}
330
47
100
AcDbScale
 70
     0
300
1:8
140
1.0
141
8.0
290
     0
  0
SCALE
  5
4D
102
{ACAD_REACTORS
330
47
102
}
330
47
100
AcDbScale
 70
     0
300
1:10
140
1.0
141
10.0
290
     0
  0
SCALE
  5
4E
102
{ACAD_REACTORS
330
47
102
}
330
47
100
AcDbScale
 70
     0
300
1:16
140
1.0
141
16.0
290
     0
  0
SCALE
  5
4F
102
{ACAD_REACTORS
330
47
102
}
330
47
100
AcDbScale
 70
     0
300
1:20
140
1.0
141
20.0
290
     0
  0
SCALE
  5
50
102
{ACAD_REACTORS
330
47
102
}
330
47
100
AcDbScale
 70
     0
300
1:30
140
1.0
141
30.0
290
     0
  0
SCALE
  5
51
102
{ACAD_REACTORS
330
47
102
}
330
47
100
AcDbScale
 70
     0
300
1:40
140
1.0
141
40.0
290
     0
  0
SCALE
  5
52
102
{ACAD_REACTORS
330
47
102
}
330
47
100
AcDbScale
 70
     0
300
1:50
140
1.0
141
50.0
290
     0
  0
SCALE
  5
53
102
{ACAD_REACTORS
330
47
102
}
330
47
100
AcDbScale
 70
     0
300
1:100
140
1.0
141
100.0
290
     0
  0
SCALE
  5
54
102
{ACAD_REACTORS
330
47
102
}
330
47
100
AcDbScale
 70
     0
300
2:1
140
2.0
141
1.0
290
     0
  0
SCALE
  5
55
102
{ACAD_REACTORS
330
47
102
}
330
47
100
AcDbScale
 70
     0
300
4:1
140
4.0
141
1.0
290
     0
  0
SCALE
  5
56
102
{ACAD_REACTORS
330
47
102
}
330
47
100
AcDbScale
 70
     0
300
8:1
140
8.0
141
1.0
290
     0
  0
SCALE
  5
57
102
{ACAD_REACTORS
330
47
102
}
330
47
100
AcDbScale
 70
     0
300
10:1
140
10.0
141
1.0
290
     0
  0
SCALE
  5
58
102
{ACAD_REACTORS
330
47
102
}
330
47
100
AcDbScale
 70
     0
300
100:1
140
100.0
141
1.0
290
     0
  0
SCALE
  5
59
102
{ACAD_REACTORS
330
47
102
}
330
47
100
AcDbScale
 70
     0
300
1/128" = 1'-0"
140
0.0078125
141
12.0
290
     0
  0
SCALE
  5
5A
102
{ACAD_REACTORS
330
47
102
}
330
47
100
AcDbScale
 70
     0
300
1/64" = 1'-0"
140
0.015625
141
12.0
290
     0
  0
SCALE
  5
5B
102
{ACAD_REACTORS
330
47
102
}
330
47
100
AcDbScale
 70
     0
300
1/32" = 1'-0"
140
0.03125
141
12.0
290
     0
  0
SCALE
  5
5C
102
{ACAD_REACTORS
330
47
102
}
330
47
100
AcDbScale
 70
     0
300
1/16" = 1'-0"
140
0.0625
141
12.0
290
     0
  0
SCALE
  5
5D
102
{ACAD_REACTORS
330
47
102
}
330
47
100
AcDbScale
 70
     0
300
3/32" = 1'-0"
140
0.09375
141
12.0
290
     0
  0
SCALE
  5
5E
102
{ACAD_REACTORS
330
47
102
}
330
47
100
AcDbScale
 70
     0
300
1/8" = 1'-0"
140
0.125
141
12.0
290
     0
  0
SCALE
  5
5F
102
{ACAD_REACTORS
330
47
102
}
330
47
100
AcDbScale
 70
     0
300
3/16" = 1'-0"
140
0.1875
141
12.0
290
     0
  0
SCALE
  5
60
102
{ACAD_REACTORS
330
47
102
}
330
47
100
AcDbScale
 70
     0
300
1/4" = 1'-0"
140
0.25
141
12.0
290
     0
  0
SCALE
  5
61
102
{ACAD_REACTORS
330
47
102
}
330
47
100
AcDbScale
 70
     0
300
3/8" = 1'-0"
140
0.375
141
12.0
290
     0
  0
SCALE
  5
62
102
{ACAD_REACTORS
330
47
102
}
330
47
100
AcDbScale
 70
     0
300
1/2" = 1'-0"
140
0.5
141
12.0
290
     0
  0
SCALE
  5
63
102
{ACAD_REACTORS
330
47
102
}
330
47
100
AcDbScale
 70
     0
300
3/4" = 1'-0"
140
0.75
141
12.0
290
     0
  0
SCALE
  5
64
102
{ACAD_REACTORS
330
47
102
}
330
47
100
AcDbScale
 70
     0
300
1" = 1'-0"
140
1.0
141
12.0
290
     0
  0
SCALE
  5
65
102
{ACAD_REACTORS
330
47
102
}
330
47
100
AcDbScale
 70
     0
300
1-1/2" = 1'-0"
140
1.5
141
12.0
290
     0
  0
SCALE
  5
66
102
{ACAD_REACTORS
330
47
102
}
330
47
100
AcDbScale
 70
     0
300
3" = 1'-0"
140
3.0
141
12.0
290
     0
  0
SCALE
  5
67
102
{ACAD_REACTORS
330
47
102
}
330
47
100
AcDbScale
 70
     0
300
6" = 1'-0"
140
6.0
141
12.0
290
     0
  0
SCALE
  5
68
102
{ACAD_REACTORS
330
47
102
}
330
47
100
AcDbScale
 70
     0
300
1'-0" = 1'-0"
140
12.0
141
12.0
290
     0
  0
TABLESTYLE
  5
6A
102
{ACAD_REACTORS
330
69
102
}
102
{ACAD_XDICTIONARY
360
277
102
}
330
69
100
AcDbTableStyle
  3
Standard
 70
     0
 71
     0
 40
0.06
 41
0.06
280
     0
281
     0
  7
Standard
140
4.5
170
     2
 62
     0
 63
   257
283
     0
 90
        4
 91
        0
  1

274
    -2
284
     1
 64
     0
275
    -2
285
     1
 65
     0
276
    -2
286
     1
 66
     0
277
    -2
287
     1
 67
     0
278
    -2
288
     1
 68
     0
279
    -2
289
     1
 69
     0
  7
Standard
140
6.0
170
     5
 62
     0
 63
   257
283
     0
 90
        4
 91
        0
  1

274
    -2
284
     1
 64
     0
275
    -2
285
     1
 65
     0
276
    -2
286
     1
 66
     0
277
    -2
287
     1
 67
     0
278
    -2
288
     1
 68
     0
279
    -2
289
     1
 69
     0
  7
Standard
140
4.5
170
     5
 62
     0
 63
   257
283
     0
 90
        4
 91
        0
  1

274
    -2
284
     1
 64
     0
275
    -2
285
     1
 65
     0
276
    -2
286
     1
 66
     0
277
    -2
287
     1
 67
     0
278
    -2
288
     1
 68
     0
279
    -2
289
     1
 69
     0
  0
VISUALSTYLE
  5
2F
102
{ACAD_REACTORS
330
2A
102
}
102
{ACAD_XDICTIONARY
360
24F
102
}
330
2A
100
AcDbVisualStyle
  2
2dWireframe
 70
     4
 71
     0
 72
     2
 73
     0
 90
        0
 40
0.6
 41
30.0
 62
     5
 63
     7
421
 16777215
 74
     1
 91
        4
 64
     7
 65
   257
 75
     1
175
     1
 42
1.0
 92
        0
 66
   257
 43
1.0
 76
     1
 77
     6
 78
     2
 67
     7
 79
     5
170
     0
171
     0
290
     0
174
     0
 93
        1
 44
0.0
173
     0
291
     0
 45
0.0
  0
VISUALSTYLE
  5
32
102
{ACAD_REACTORS
330
2A
102
}
102
{ACAD_XDICTIONARY
360
255
102
}
330
2A
100
AcDbVisualStyle
  2
Basic
 70
     7
 71
     1
 72
     0
 73
     1
 90
        0
 40
0.6
 41
30.0
 62
     5
 63
     7
421
 16777215
 74
     0
 91
        4
 64
     7
 65
   257
 75
     1
175
     1
 42
1.0
 92
        8
 66
     7
 43
1.0
 76
     1
 77
     6
 78
     2
 67
     7
 79
     5
170
     0
171
     0
290
     0
174
     0
 93
        1
 44
0.0
173
     0
291
     1
 45
0.0
  0
VISUALSTYLE
  5
36
102
{ACAD_REACTORS
330
2A
102
}
102
{ACAD_XDICTIONARY
360
25D
102
}
330
2A
100
AcDbVisualStyle
  2
Brighten
 70
    12
 71
     2
 72
     2
 73
     0
 90
        0
 40
0.6
 41
30.0
 62
     5
 63
     7
421
 16777215
 74
     1
 91
        4
 64
     7
 65
   257
 75
     1
175
     1
 42
1.0
 92
        8
 66
     7
 43
1.0
 76
     1
 77
     6
 78
     2
 67
     7
 79
     5
170
     0
171
     0
290
     0
174
     0
 93
        1
 44
50.0
173
     0
291
     1
 45
0.0
  0
VISUALSTYLE
  5
3A
102
{ACAD_REACTORS
330
2A
102
}
102
{ACAD_XDICTIONARY
360
265
102
}
330
2A
100
AcDbVisualStyle
  2
ColorChange
 70
    16
 71
     2
 72
     2
 73
     3
 90
        0
 40
0.6
 41
30.0
 62
     5
 63
     8
421
  8421504
 74
     1
 91
        4
 64
     7
 65
   257
 75
     1
175
     1
 42
1.0
 92
        8
 66
     8
424
  8421504
 43
1.0
 76
     1
 77
     6
 78
     2
 67
     7
 79
     5
170
     0
171
     0
290
     0
174
     0
 93
        1
 44
0.0
173
     0
291
     1
 45
0.0
  0
VISUALSTYLE
  5
34
102
{ACAD_REACTORS
330
2A
102
}
102
{ACAD_XDICTIONARY
360
259
102
}
330
2A
100
AcDbVisualStyle
  2
Conceptual
 70
     9
 71
     3
 72
     2
 73
     0
 90
        0
 40
0.6
 41
30.0
 62
     5
 63
     7
421
 16777215
 74
     2
 91
        2
 64
     7
 65
   257
 75
     1
175
     1
 42
179.0
 92
        8
 66
     7
 43
1.0
 76
     1
 77
     6
 78
     2
 67
     7
 79
     3
170
     0
171
     0
290
     0
174
     0
 93
        1
 44
0.0
173
     0
291
     0
 45
0.0
  0
VISUALSTYLE
  5
35
102
{ACAD_REACTORS
330
2A
102
}
102
{ACAD_XDICTIONARY
360
25B
102
}
330
2A
100
AcDbVisualStyle
  2
Dim
 70
    11
 71
     2
 72
     2
 73
     0
 90
        0
 40
0.6
 41
30.0
 62
     5
 63
     7
421
 16777215
 74
     1
 91
        4
 64
     7
 65
   257
 75
     1
175
     1
 42
1.0
 92
        8
 66
     7
 43
1.0
 76
     1
 77
     6
 78
     2
 67
     7
 79
     5
170
     0
171
     0
290
     0
174
     0
 93
        1
 44
-50.0
173
     0
291
     1
 45
0.0
  0
VISUALSTYLE
  5
3D
102
{ACAD_REACTORS
330
2A
102
}
102
{ACAD_XDICTIONARY
360
26B
102
}
330
2A
100
AcDbVisualStyle
  2
EdgeColorOff
 70
    22
 71
     2
 72
     2
 73
     0
 90
        0
 40
0.6
 41
30.0
 62
     5
 63
     7
421
 16777215
 74
     1
 91
        4
 64
     7
 65
   257
 75
     1
175
     1
 42
1.0
 92
        8
 66
     7
 43
1.0
 76
     1
 77
     6
 78
     2
 67
     7
 79
     5
170
     0
171
     0
290
     0
174
     0
 93
        1
 44
0.0
173
     0
291
     1
 45
0.0
  0
VISUALSTYLE
  5
39
102
{ACAD_REACTORS
330
2A
102
}
102
{ACAD_XDICTIONARY
360
263
102
}
330
2A
100
AcDbVisualStyle
  2
Facepattern
 70
    15
 71
     2
 72
     2
 73
     0
 90
        0
 40
0.6
 41
30.0
 62
     5
 63
     7
421
 16777215
 74
     1
 91
        4
 64
     7
 65
   257
 75
     1
175
     1
 42
1.0
 92
        8
 66
     7
 43
1.0
 76
     1
 77
     6
 78
     2
 67
     7
 79
     5
170
     0
171
     0
290
     0
174
     0
 93
        1
 44
0.0
173
     0
291
     1
 45
0.0
  0
VISUALSTYLE
  5
2B
102
{ACAD_REACTORS
330
2A
102
}
102
{ACAD_XDICTIONARY
360
247
102
}
330
2A
100
AcDbVisualStyle
  2
Flat
 70
     0
 71
     2
 72
     1
 73
     1
 90
        2
 40
0.6
 41
30.0
 62
     5
 63
     7
421
 16777215
 74
     0
 91
        0
 64
     7
 65
   257
 75
     1
175
     1
 42
1.0
 92
        8
 66
     7
 43
1.0
 76
     1
 77
     6
 78
     2
 67
     7
 79
     5
170
     0
171
     0
290
     0
174
     0
 93
       13
 44
0.0
173
     0
291
     1
 45
0.0
  0
VISUALSTYLE
  5
2C
102
{ACAD_REACTORS
330
2A
102
}
102
{ACAD_XDICTIONARY
360
249
102
}
330
2A
100
AcDbVisualStyle
  2
FlatWithEdges
 70
     1
 71
     2
 72
     1
 73
     1
 90
        2
 40
0.6
 41
30.0
 62
     5
 63
     7
421
 16777215
 74
     1
 91
        0
 64
     7
 65
   257
 75
     1
175
     1
 42
1.0
 92
        0
 66
   257
 43
1.0
 76
     1
 77
     6
 78
     2
 67
     7
 79
     5
170
     0
171
     0
290
     0
174
     0
 93
       13
 44
0.0
173
     0
291
     1
 45
0.0
  0
VISUALSTYLE
  5
2D
102
{ACAD_REACTORS
330
2A
102
}
102
{ACAD_XDICTIONARY
360
24B
102
}
330
2A
100
AcDbVisualStyle
  2
Gouraud
 70
     2
 71
     2
 72
     2
 73
     1
 90
        2
 40
0.6
 41
30.0
 62
     5
 63
     7
421
 16777215
 74
     0
 91
        0
 64
     7
 65
   257
 75
     1
175
     1
 42
1.0
 92
        0
 66
     7
 43
1.0
 76
     1
 77
     6
 78
     2
 67
     7
 79
     5
170
     0
171
     0
290
     0
174
     0
 93
       13
 44
0.0
173
     0
291
     1
 45
0.0
  0
VISUALSTYLE
  5
2E
102
{ACAD_REACTORS
330
2A
102
}
102
{ACAD_XDICTIONARY
360
24D
102
}
330
2A
100
AcDbVisualStyle
  2
GouraudWithEdges
 70
     3
 71
     2
 72
     2
 73
     1
 90
        2
 40
0.6
 41
30.0
 62
     5
 63
     7
421
 16777215
 74
     1
 91
        0
 64
     7
 65
   257
 75
     1
175
     1
 42
1.0
 92
        0
 66
   257
 43
1.0
 76
     1
 77
     6
 78
     2
 67
     7
 79
     5
170
     0
171
     0
290
     0
174
     0
 93
       13
 44
0.0
173
     0
291
     1
 45
0.0
  0
VISUALSTYLE
  5
31
102
{ACAD_REACTORS
330
2A
102
}
102
{ACAD_XDICTIONARY
360
253
102
}
330
2A
100
AcDbVisualStyle
  2
Hidden
 70
     6
 71
     1
 72
     2
 73
     2
 90
        0
 40
0.6
 41
30.0
 62
     5
 63
     7
421
 16777215
 74
     2
 91
        2
 64
     7
 65
   257
 75
     2
175
     1
 42
40.0
 92
        0
 66
   257
 43
1.0
 76
     1
 77
     6
 78
     2
 67
     7
 79
     3
170
     0
171
     0
290
     0
174
     0
 93
        1
 44
0.0
173
     0
291
     0
 45
0.0
  0
VISUALSTYLE
  5
3B
102
{ACAD_REACTORS
330
2A
102
}
102
{ACAD_XDICTIONARY
360
267
102
}
330
2A
100
AcDbVisualStyle
  2
JitterOff
 70
    20
 71
     2
 72
     2
 73
     0
 90
        0
 40
0.6
 41
30.0
 62
     5
 63
     7
421
 16777215
 74
     1
 91
        4
 64
     7
 65
   257
 75
     1
175
     1
 42
1.0
 92
       10
 66
     7
 43
1.0
 76
     1
 77
     6
 78
     2
 67
     7
 79
     5
170
     0
171
     0
290
     0
174
     0
 93
        1
 44
0.0
173
     0
291
     1
 45
0.0
  0
VISUALSTYLE
  5
38
102
{ACAD_REACTORS
330
2A
102
}
102
{ACAD_XDICTIONARY
360
261
102
}
330
2A
100
AcDbVisualStyle
  2
Linepattern
 70
    14
 71
     2
 72
     2
 73
     0
 90
        0
 40
0.6
 41
30.0
 62
     5
 63
     7
421
 16777215
 74
     1
 91
        4
 64
     7
 65
   257
 75
     7
175
     7
 42
1.0
 92
        8
 66
     7
 43
1.0
 76
     1
 77
     6
 78
     2
 67
     7
 79
     5
170
     0
171
     0
290
     0
174
     0
 93
        1
 44
0.0
173
     0
291
     1
 45
0.0
  0
VISUALSTYLE
  5
3C
102
{ACAD_REACTORS
330
2A
102
}
102
{ACAD_XDICTIONARY
360
269
102
}
330
2A
100
AcDbVisualStyle
  2
OverhangOff
 70
    21
 71
     2
 72
     2
 73
     0
 90
        0
 40
0.6
 41
30.0
 62
     5
 63
     7
421
 16777215
 74
     1
 91
        4
 64
     7
 65
   257
 75
     1
175
     1
 42
1.0
 92
        9
 66
     7
 43
1.0
 76
     1
 77
     6
 78
     2
 67
     7
 79
     5
170
     0
171
     0
290
     0
174
     0
 93
        1
 44
0.0
173
     0
291
     1
 45
0.0
  0
VISUALSTYLE
  5
33
102
{ACAD_REACTORS
330
2A
102
}
102
{ACAD_XDICTIONARY
360
257
102
}
330
2A
100
AcDbVisualStyle
  2
Realistic
 70
     8
 71
     2
 72
     3
 73
     0
 90
        2
 40
0.6
 41
30.0
 62
     5
 63
     7
421
 16777215
 74
     0
 91
        0
 64
     7
 65
   257
 75
     1
175
     1
 42
1.0
 92
        8
 66
   257
 43
1.0
 76
     1
 77
     6
 78
     2
 67
     7
 79
     3
170
     0
171
     0
290
     0
174
     0
 93
       13
 44
0.0
173
     0
291
     0
 45
0.0
  0
VISUALSTYLE
  5
42
102
{ACAD_REACTORS
330
2A
102
}
102
{ACAD_XDICTIONARY
360
275
102
}
330
2A
100
AcDbVisualStyle
  2
Shaded
 70
    27
 71
     2
 72
     2
 73
     1
 90
        2
 40
0.6
 41
30.0
 62
     5
 63
     7
421
 16777215
 74
     0
 91
        4
 64
     7
 65
   257
 75
     1
175
     1
 42
1.0
 92
        8
 66
   257
 43
1.0
 76
     1
 77
     6
 78
     2
 67
     8
425
  7895160
 79
     3
170
     0
171
     0
290
     0
174
     0
 93
        5
 44
0.0
173
     0
291
     0
 45
0.0
  0
VISUALSTYLE
  5
41
102
{ACAD_REACTORS
330
2A
102
}
102
{ACAD_XDICTIONARY
360
273
102
}
330
2A
100
AcDbVisualStyle
  2
Shaded with edges
 70
    26
 71
     2
 72
     2
 73
     1
 90
        2
 40
0.6
 41
30.0
 62
     5
 63
     7
421
 16777215
 74
     1
 91
       10
 64
     7
 65
   257
 75
     2
175
     1
 42
1.0
 92
        8
 66
   257
 43
1.0
 76
     1
 77
     6
 78
     2
 67
     7
 79
     3
170
     0
171
     0
290
     0
174
     0
 93
        5
 44
0.0
173
     0
291
     0
 45
0.0
  0
VISUALSTYLE
  5
3E
102
{ACAD_REACTORS
330
2A
102
}
102
{ACAD_XDICTIONARY
360
26D
102
}
330
2A
100
AcDbVisualStyle
  2
Shades of Gray
 70
    23
 71
     2
 72
     2
 73
     3
 90
        0
 40
0.6
 41
30.0
 62
     5
 63
     7
421
 16777215
 74
     2
 91
        2
 64
     7
 65
     7
 75
     1
175
     1
 42
40.0
 92
        8
 66
     7
 43
1.0
 76
     1
 77
     6
 78
     2
 67
     7
 79
     3
170
     0
171
     0
290
     0
174
     0
 93
        1
 44
0.0
173
     0
291
     0
 45
0.0
  0
VISUALSTYLE
  5
3F
102
{ACAD_REACTORS
330
2A
102
}
102
{ACAD_XDICTIONARY
360
26F
102
}
330
2A
100
AcDbVisualStyle
  2
Sketchy
 70
    24
 71
     1
 72
     2
 73
     2
 90
        0
 40
0.6
 41
30.0
 62
     5
 63
     7
421
 16777215
 74
     2
 91
        2
 64
     7
 65
     7
 75
     1
175
     1
 42
40.0
 92
       11
 66
     7
 43
1.0
 76
     1
 77
     6
 78
     2
 67
     7
 79
     6
170
     0
171
     0
290
     0
174
     0
 93
        1
 44
0.0
173
     0
291
     0
 45
0.0
  0
VISUALSTYLE
  5
37
102
{ACAD_REACTORS
330
2A
102
}
102
{ACAD_XDICTIONARY
360
25F
102
}
330
2A
100
AcDbVisualStyle
  2
Thicken
 70
    13
 71
     2
 72
     2
 73
     0
 90
        0
 40
0.6
 41
30.0
 62
     5
 63
     7
421
 16777215
 74
     1
 91
        4
 64
     7
 65
   257
 75
     1
175
     1
 42
1.0
 92
       12
 66
     7
 43
1.0
 76
     1
 77
     6
 78
     2
 67
     7
 79
     5
170
     0
171
     0
290
     0
174
     0
 93
        1
 44
0.0
173
     0
291
     1
 45
0.0
  0
VISUALSTYLE
  5
30
102
{ACAD_REACTORS
330
2A
102
}
102
{ACAD_XDICTIONARY
360
251
102
}
330
2A
100
AcDbVisualStyle
  2
Wireframe
 70
     5
 71
     0
 72
     2
 73
     0
 90
        0
 40
0.6
 41
30.0
 62
     5
 63
     7
421
 16777215
 74
     1
 91
        4
 64
     7
 65
   257
 75
     1
175
     1
 42
1.0
 92
        0
 66
   257
 43
1.0
 76
     1
 77
     6
 78
     2
 67
     7
 79
     3
170
     0
171
     0
290
     0
174
     0
 93
        1
 44
0.0
173
     0
291
     0
 45
0.0
  0
VISUALSTYLE
  5
40
102
{ACAD_REACTORS
330
2A
102
}
102
{ACAD_XDICTIONARY
360
271
102
}
330
2A
100
AcDbVisualStyle
  2
X-Ray
 70
    25
 71
     2
 72
     2
 73
     1
 90
        1
 40
0.5
 41
30.0
 62
     5
 63
     7
421
 16777215
 74
     1
 91
        0
 64
     7
 65
   257
 75
     1
175
     1
 42
1.0
 92
        8
 66
     7
 43
1.0
 76
     1
 77
     6
 78
     2
 67
     7
 79
     3
170
     0
171
     0
290
     0
174
     0
 93
       13
 44
0.0
173
     0
291
     0
 45
0.0
  0
DICTIONARYVAR
  5
245
102
{ACAD_REACTORS
330
244
102
}
330
244
100
DictionaryVariables
280
     0
  1
1:1
  0
DICTIONARYVAR
  5
281
102
{ACAD_REACTORS
330
244
102
}
330
244
100
DictionaryVariables
280
     0
  1
3.500000
  0
DICTIONARYVAR
  5
282
102
{ACAD_REACTORS
330
244
102
}
330
244
100
DictionaryVariables
280
     0
  1
acadiso.lin
  0
DICTIONARYVAR
  5
27E
102
{ACAD_REACTORS
330
244
102
}
330
244
100
DictionaryVariables
280
     0
  1
Standard
  0
DICTIONARYVAR
  5
27D
102
{ACAD_REACTORS
330
244
102
}
330
244
100
DictionaryVariables
280
     0
  1
Standard
  0
DICTIONARYVAR
  5
246
102
{ACAD_REACTORS
330
244
102
}
330
244
100
DictionaryVariables
280
     0
  1
2
  0
DICTIONARY
  5
27A
330
6C
100
AcDbDictionary
280
     1
281
     1
  3
ACAD_XREC_ROUNDTRIP
360
27B
  0
DICTIONARY
  5
277
330
6A
100
AcDbDictionary
280
     1
281
     1
  3
ACAD_ROUNDTRIP_2008_TABLESTYLE_CELLSTYLEMAP
360
278
  0
DICTIONARY
  5
24F
330
2F
100
AcDbDictionary
280
     1
281
     1
  3
ACAD_XREC_ROUNDTRIP
360
250
  0
DICTIONARY
  5
255
330
32
100
AcDbDictionary
280
     1
281
     1
  3
ACAD_XREC_ROUNDTRIP
360
256
  0
DICTIONARY
  5
25D
330
36
100
AcDbDictionary
280
     1
281
     1
  3
ACAD_XREC_ROUNDTRIP
360
25E
  0
DICTIONARY
  5
265
330
3A
100
AcDbDictionary
280
     1
281
     1
  3
ACAD_XREC_ROUNDTRIP
360
266
  0
DICTIONARY
  5
259
330
34
100
AcDbDictionary
280
     1
281
     1
  3
ACAD_XREC_ROUNDTRIP
360
25A
  0
DICTIONARY
  5
25B
330
35
100
AcDbDictionary
280
     1
281
     1
  3
ACAD_XREC_ROUNDTRIP
360
25C
  0
DICTIONARY
  5
26B
330
3D
100
AcDbDictionary
280
     1
281
     1
  3
ACAD_XREC_ROUNDTRIP
360
26C
  0
DICTIONARY
  5
263
330
39
100
AcDbDictionary
280
     1
281
     1
  3
ACAD_XREC_ROUNDTRIP
360
264
  0
DICTIONARY
  5
247
330
2B
100
AcDbDictionary
280
     1
281
     1
  3
ACAD_XREC_ROUNDTRIP
360
248
  0
DICTIONARY
  5
249
330
2C
100
AcDbDictionary
280
     1
281
     1
  3
ACAD_XREC_ROUNDTRIP
360
24A
  0
DICTIONARY
  5
24B
330
2D
100
AcDbDictionary
280
     1
281
     1
  3
ACAD_XREC_ROUNDTRIP
360
24C
  0
DICTIONARY
  5
24D
330
2E
100
AcDbDictionary
280
     1
281
     1
  3
ACAD_XREC_ROUNDTRIP
360
24E
  0
DICTIONARY
  5
253
330
31
100
AcDbDictionary
280
     1
281
     1
  3
ACAD_XREC_ROUNDTRIP
360
254
  0
DICTIONARY
  5
267
330
3B
100
AcDbDictionary
280
     1
281
     1
  3
ACAD_XREC_ROUNDTRIP
360
268
  0
DICTIONARY
  5
261
330
38
100
AcDbDictionary
280
     1
281
     1
  3
ACAD_XREC_ROUNDTRIP
360
262
  0
DICTIONARY
  5
269
330
3C
100
AcDbDictionary
280
     1
281
     1
  3
ACAD_XREC_ROUNDTRIP
360
26A
  0
DICTIONARY
  5
257
330
33
100
AcDbDictionary
280
     1
281
     1
  3
ACAD_XREC_ROUNDTRIP
360
258
  0
DICTIONARY
  5
275
330
42
100
AcDbDictionary
280
     1
281
     1
  3
ACAD_XREC_ROUNDTRIP
360
276
  0
DICTIONARY
  5
273
330
41
100
AcDbDictionary
280
     1
281
     1
  3
ACAD_XREC_ROUNDTRIP
360
274
  0
DICTIONARY
  5
26D
330
3E
100
AcDbDictionary
280
     1
281
     1
  3
ACAD_XREC_ROUNDTRIP
360
26E
  0
DICTIONARY
  5
26F
330
3F
100
AcDbDictionary
280
     1
281
     1
  3
ACAD_XREC_ROUNDTRIP
360
270
  0
DICTIONARY
  5
25F
330
37
100
AcDbDictionary
280
     1
281
     1
  3
ACAD_XREC_ROUNDTRIP
360
260
  0
DICTIONARY
  5
251
330
30
100
AcDbDictionary
280
     1
281
     1
  3
ACAD_XREC_ROUNDTRIP
360
252
  0
DICTIONARY
  5
271
330
40
100
AcDbDictionary
280
     1
281
     1
  3
ACAD_XREC_ROUNDTRIP
360
272
  0
XRECORD
  5
27B
102
{ACAD_REACTORS
330
27A
102
}
330
27A
100
AcDbXrecord
280
     1
102
ACAD_ROUNDTRIP_2010_MLEADER_STYLE
  0
CELLSTYLEMAP
  5
278
102
{ACAD_REACTORS
330
277
102
}
330
277
100
AcDbCellStyleMap
 90
        3
300
CELLSTYLE
  1
TABLEFORMAT_BEGIN
 90
        5
170
     1
 91
        0
 92
    32768
 62
   257
 93
        1
300
CONTENTFORMAT
  1
CONTENTFORMAT_BEGIN
 90
        0
 91
        0
 92
        4
 93
        0
300

 40
0.0
140
1.0
 94
        5
 62
     0
340
11
144
6.0
309
CONTENTFORMAT_END
171
     1
301
MARGIN
  1
CELLMARGIN_BEGIN
 40
1.5
 40
1.5
 40
1.5
 40
1.5
 40
1.5
 40
1.5
309
CELLMARGIN_END
 94
        6
 95
        1
302
GRIDFORMAT
  1
GRIDFORMAT_BEGIN
 90
        0
 91
        1
 62
     0
 92
       -2
340
14
 93
        0
 40
0.045
309
GRIDFORMAT_END
 95
        2
302
GRIDFORMAT
  1
GRIDFORMAT_BEGIN
 90
        0
 91
        1
 62
     0
 92
       -2
340
14
 93
        0
 40
0.045
309
GRIDFORMAT_END
 95
        4
302
GRIDFORMAT
  1
GRIDFORMAT_BEGIN
 90
        0
 91
        1
 62
     0
 92
       -2
340
14
 93
        0
 40
0.045
309
GRIDFORMAT_END
 95
        8
302
GRIDFORMAT
  1
GRIDFORMAT_BEGIN
 90
        0
 91
        1
 62
     0
 92
       -2
340
14
 93
        0
 40
0.045
309
GRIDFORMAT_END
 95
       16
302
GRIDFORMAT
  1
GRIDFORMAT_BEGIN
 90
        0
 91
        1
 62
     0
 92
       -2
340
14
 93
        0
 40
0.045
309
GRIDFORMAT_END
 95
       32
302
GRIDFORMAT
  1
GRIDFORMAT_BEGIN
 90
        0
 91
        1
 62
     0
 92
       -2
340
14
 93
        0
 40
0.045
309
GRIDFORMAT_END
309
TABLEFORMAT_END
  1
CELLSTYLE_BEGIN
 90
        1
 91
        1
300
_TITLE
309
CELLSTYLE_END
300
CELLSTYLE
  1
TABLEFORMAT_BEGIN
 90
        5
170
     1
 91
        0
 92
        0
 62
   257
 93
        1
300
CONTENTFORMAT
  1
CONTENTFORMAT_BEGIN
 90
        0
 91
        0
 92
        4
 93
        0
300

 40
0.0
140
1.0
 94
        5
 62
     0
340
11
144
4.5
309
CONTENTFORMAT_END
171
     1
301
MARGIN
  1
CELLMARGIN_BEGIN
 40
1.5
 40
1.5
 40
1.5
 40
1.5
 40
1.5
 40
1.5
309
CELLMARGIN_END
 94
        6
 95
        1
302
GRIDFORMAT
  1
GRIDFORMAT_BEGIN
 90
        0
 91
        1
 62
     0
 92
       -2
340
14
 93
        0
 40
0.045
309
GRIDFORMAT_END
 95
        2
302
GRIDFORMAT
  1
GRIDFORMAT_BEGIN
 90
        0
 91
        1
 62
     0
 92
       -2
340
14
 93
        0
 40
0.045
309
GRIDFORMAT_END
 95
        4
302
GRIDFORMAT
  1
GRIDFORMAT_BEGIN
 90
        0
 91
        1
 62
     0
 92
       -2
340
14
 93
        0
 40
0.045
309
GRIDFORMAT_END
 95
        8
302
GRIDFORMAT
  1
GRIDFORMAT_BEGIN
 90
        0
 91
        1
 62
     0
 92
       -2
340
14
 93
        0
 40
0.045
309
GRIDFORMAT_END
 95
       16
302
GRIDFORMAT
  1
GRIDFORMAT_BEGIN
 90
        0
 91
        1
 62
     0
 92
       -2
340
14
 93
        0
 40
0.045
309
GRIDFORMAT_END
 95
       32
302
GRIDFORMAT
  1
GRIDFORMAT_BEGIN
 90
        0
 91
        1
 62
     0
 92
       -2
340
14
 93
        0
 40
0.045
309
GRIDFORMAT_END
309
TABLEFORMAT_END
  1
CELLSTYLE_BEGIN
 90
        2
 91
        1
300
_HEADER
309
CELLSTYLE_END
300
CELLSTYLE
  1
TABLEFORMAT_BEGIN
 90
        5
170
     1
 91
        0
 92
        0
 62
   257
 93
        1
300
CONTENTFORMAT
  1
CONTENTFORMAT_BEGIN
 90
        0
 91
        0
 92
        4
 93
        0
300

 40
0.0
140
1.0
 94
        2
 62
     0
340
11
144
4.5
309
CONTENTFORMAT_END
171
     1
301
MARGIN
  1
CELLMARGIN_BEGIN
 40
1.5
 40
1.5
 40
1.5
 40
1.5
 40
1.5
 40
1.5
309
CELLMARGIN_END
 94
        6
 95
        1
302
GRIDFORMAT
  1
GRIDFORMAT_BEGIN
 90
        0
 91
        1
 62
     0
 92
       -2
340
14
 93
        0
 40
0.045
309
GRIDFORMAT_END
 95
        2
302
GRIDFORMAT
  1
GRIDFORMAT_BEGIN
 90
        0
 91
        1
 62
     0
 92
       -2
340
14
 93
        0
 40
0.045
309
GRIDFORMAT_END
 95
        4
302
GRIDFORMAT
  1
GRIDFORMAT_BEGIN
 90
        0
 91
        1
 62
     0
 92
       -2
340
14
 93
        0
 40
0.045
309
GRIDFORMAT_END
 95
        8
302
GRIDFORMAT
  1
GRIDFORMAT_BEGIN
 90
        0
 91
        1
 62
     0
 92
       -2
340
14
 93
        0
 40
0.045
309
GRIDFORMAT_END
 95
       16
302
GRIDFORMAT
  1
GRIDFORMAT_BEGIN
 90
        0
 91
        1
 62
     0
 92
       -2
340
14
 93
        0
 40
0.045
309
GRIDFORMAT_END
 95
       32
302
GRIDFORMAT
  1
GRIDFORMAT_BEGIN
 90
        0
 91
        1
 62
     0
 92
       -2
340
14
 93
        0
 40
0.045
309
GRIDFORMAT_END
309
TABLEFORMAT_END
  1
CELLSTYLE_BEGIN
 90
        3
 91
        2
300
_DATA
309
CELLSTYLE_END
  0
XRECORD
  5
250
102
{ACAD_REACTORS
330
24F
102
}
330
24F
100
AcDbXrecord
280
     1
102
RTVSPropertyOp0
 70
     1
102
RTVSPropertyOp1
 70
     1
102
RTVSPropertyOp2
 70
     1
102
RTVSPropertyOp3
 70
     1
102
RTVSPropertyOp4
 70
     1
102
RTVSPropertyOp5
 70
     1
102
RTVSPropertyOp6
 70
     1
102
RTVSPropertyOp7
 70
     1
102
RTVSPropertyOp8
 70
     1
102
RTVSPropertyOp9
 70
     1
102
RTVSPropertyOp10
 70
     1
102
RTVSPropertyOp11
 70
     1
102
RTVSPropertyOp12
 70
     1
102
RTVSPropertyOp13
 70
     1
102
RTVSPropertyOp14
 70
     1
102
RTVSPropertyOp15
 70
     1
102
RTVSPropertyOp16
 70
     1
102
RTVSPropertyOp17
 70
     1
102
RTVSPropertyOp18
 70
     1
102
RTVSPropertyOp19
 70
     1
102
RTVSPropertyOp20
 70
     1
102
RTVSPropertyOp21
 70
     1
102
RTVSPropertyOp22
 70
     1
102
RTVSPropertyOp23
 70
     1
102
RTVSPropertyOp24
 70
     1
102
RTVSPropertyOp25
 70
     1
102
RTVSPropertyOp26
 70
     1
102
RTVSPropertyOp27
 70
     1
102
RTVSPropertyOp28
 70
     1
102
RTVSPropertyOp29
 70
     1
102
RTVSPropertyOp30
 70
     1
102
RTVSPropertyOp31
 70
     1
102
RTVSPropertyOp32
 70
     1
102
RTVSPropertyOp33
 70
     1
102
RTVSPropertyOp34
 70
     1
102
RTVSPropertyOp35
 70
     1
102
RTVSPropertyOp36
 70
     1
102
RTVSPropertyOp37
 70
     1
102
RTVSPropertyOp38
 70
     1
102
RTVSPropertyOp39
 70
     1
102
RTVSPropertyOp40
 70
     1
102
RTVSPropertyOp41
 70
     1
102
RTVSPropertyOp42
 70
     1
102
RTVSPropertyOp43
 70
     1
102
RTVSPropertyOp44
 70
     1
102
RTVSPropertyOp45
 70
     1
102
RTVSPropertyOp46
 70
     1
102
RTVSPropertyOp47
 70
     1
102
RTVSPropertyOp48
 70
     1
102
RTVSPropertyOp49
 70
     1
102
RTVSPropertyOp50
 70
     1
102
RTVSPropertyOp51
 70
     0
102
RTVSPropertyOp52
 70
     0
102
RTVSPropertyOp53
 70
     1
102
RTVSPropertyOp54
 70
     1
102
RTVSPropertyOp55
 70
     1
102
RTVSPropertyOp56
 70
     1
102
RTVSPropertyOp57
 70
     1
102
RTVSPost2010Prop28
280
     1
102
RTVSPost2010PropOp28
 70
     1
102
RTVSPost2010Prop29
280
     1
102
RTVSPost2010PropOp29
 70
     1
102
RTVSPost2010Prop30
280
     0
102
RTVSPost2010PropOp30
 70
     1
102
RTVSPost2010Prop31
280
     0
102
RTVSPost2010PropOp31
 70
     1
102
RTVSPost2010Prop32
280
     0
102
RTVSPost2010PropOp32
 70
     1
102
RTVSPost2010Prop33
280
     0
102
RTVSPost2010PropOp33
 70
     1
102
RTVSPost2010Prop34
280
     0
102
RTVSPost2010PropOp34
 70
     1
102
RTVSPost2010Prop35
280
     0
102
RTVSPost2010PropOp35
 70
     1
102
RTVSPost2010Prop36
280
     0
102
RTVSPost2010PropOp36
 70
     1
102
RTVSPost2010Prop37
 90
       50
102
RTVSPost2010PropOp37
 70
     1
102
RTVSPost2010Prop38
140
0.0
102
RTVSPost2010PropOp38
 70
     1
102
RTVSPost2010Prop39
140
1.0
102
RTVSPost2010PropOp39
 70
     1
102
RTVSPost2010Prop40
 90
        0
102
RTVSPost2010PropOp40
 70
     1
102
RTVSPost2010Prop41ColorIndex
 90
       18
102
RTVSPost2010Prop41ColorRGB
 90
        0
102
RTVSPost2010PropOp41
 70
     1
102
RTVSPost2010Prop42
 90
       50
102
RTVSPost2010PropOp42
 70
     1
102
RTVSPost2010Prop43
 90
        3
102
RTVSPost2010PropOp43
 70
     1
102
RTVSPost2010Prop44ColorIndex
 90
        5
102
RTVSPost2010Prop44ColorRGB
 90
      255
102
RTVSPost2010PropOp44
 70
     1
102
RTVSPost2010Prop45
280
     0
102
RTVSPost2010PropOp45
 70
     1
102
RTVSPost2010Prop46
 90
       50
102
RTVSPost2010PropOp46
 70
     1
102
RTVSPost2010Prop47
 90
       50
102
RTVSPost2010PropOp47
 70
     1
102
RTVSPost2010Prop48
 90
       50
102
RTVSPost2010PropOp48
 70
     1
102
RTVSPost2010Prop49
280
     0
102
RTVSPost2010PropOp49
 70
     1
102
RTVSPost2010Prop50
 90
       50
102
RTVSPost2010PropOp50
 70
     1
102
RTVSPost2010Prop51ColorIndex
 90
      256
102
RTVSPost2010Prop51ColorRGB
 90
-16777216
102
RTVSPost2010PropOp51
 70
     0
102
RTVSPost2010Prop52
140
1.0
102
RTVSPost2010PropOp52
 70
     0
102
RTVSPost2010Prop53
 90
        2
102
RTVSPost2010PropOp53
 70
     1
102
RTVSPost2010Prop54
  1
strokes_ogs.tif
102
RTVSPost2010PropOp54
 70
     1
102
RTVSPost2010Prop55
280
     0
102
RTVSPost2010PropOp55
 70
     1
102
RTVSPost2010Prop56
140
1.0
102
RTVSPost2010PropOp56
 70
     1
102
RTVSPost2010Prop57
140
1.0
102
RTVSPost2010PropOp57
 70
     1
  0
XRECORD
  5
256
102
{ACAD_REACTORS
330
255
102
}
330
255
100
AcDbXrecord
280
     1
102
RTVSPropertyOp0
 70
     1
102
RTVSPropertyOp1
 70
     1
102
RTVSPropertyOp2
 70
     1
102
RTVSPropertyOp3
 70
     1
102
RTVSPropertyOp4
 70
     1
102
RTVSPropertyOp5
 70
     1
102
RTVSPropertyOp6
 70
     1
102
RTVSPropertyOp7
 70
     1
102
RTVSPropertyOp8
 70
     1
102
RTVSPropertyOp9
 70
     1
102
RTVSPropertyOp10
 70
     1
102
RTVSPropertyOp11
 70
     1
102
RTVSPropertyOp12
 70
     1
102
RTVSPropertyOp13
 70
     1
102
RTVSPropertyOp14
 70
     1
102
RTVSPropertyOp15
 70
     1
102
RTVSPropertyOp16
 70
     1
102
RTVSPropertyOp17
 70
     1
102
RTVSPropertyOp18
 70
     1
102
RTVSPropertyOp19
 70
     1
102
RTVSPropertyOp20
 70
     1
102
RTVSPropertyOp21
 70
     1
102
RTVSPropertyOp22
 70
     1
102
RTVSPropertyOp23
 70
     1
102
RTVSPropertyOp24
 70
     1
102
RTVSPropertyOp25
 70
     1
102
RTVSPropertyOp26
 70
     1
102
RTVSPropertyOp27
 70
     1
102
RTVSPropertyOp28
 70
     1
102
RTVSPropertyOp29
 70
     1
102
RTVSPropertyOp30
 70
     1
102
RTVSPropertyOp31
 70
     1
102
RTVSPropertyOp32
 70
     1
102
RTVSPropertyOp33
 70
     1
102
RTVSPropertyOp34
 70
     1
102
RTVSPropertyOp35
 70
     1
102
RTVSPropertyOp36
 70
     1
102
RTVSPropertyOp37
 70
     1
102
RTVSPropertyOp38
 70
     1
102
RTVSPropertyOp39
 70
     1
102
RTVSPropertyOp40
 70
     1
102
RTVSPropertyOp41
 70
     1
102
RTVSPropertyOp42
 70
     1
102
RTVSPropertyOp43
 70
     1
102
RTVSPropertyOp44
 70
     1
102
RTVSPropertyOp45
 70
     1
102
RTVSPropertyOp46
 70
     1
102
RTVSPropertyOp47
 70
     1
102
RTVSPropertyOp48
 70
     1
102
RTVSPropertyOp49
 70
     1
102
RTVSPropertyOp50
 70
     1
102
RTVSPropertyOp51
 70
     0
102
RTVSPropertyOp52
 70
     0
102
RTVSPropertyOp53
 70
     1
102
RTVSPropertyOp54
 70
     1
102
RTVSPropertyOp55
 70
     1
102
RTVSPropertyOp56
 70
     1
102
RTVSPropertyOp57
 70
     1
102
RTVSPost2010Prop28
280
     0
102
RTVSPost2010PropOp28
 70
     1
102
RTVSPost2010Prop29
280
     1
102
RTVSPost2010PropOp29
 70
     1
102
RTVSPost2010Prop30
280
     1
102
RTVSPost2010PropOp30
 70
     1
102
RTVSPost2010Prop31
280
     0
102
RTVSPost2010PropOp31
 70
     1
102
RTVSPost2010Prop32
280
     0
102
RTVSPost2010PropOp32
 70
     1
102
RTVSPost2010Prop33
280
     0
102
RTVSPost2010PropOp33
 70
     1
102
RTVSPost2010Prop34
280
     0
102
RTVSPost2010PropOp34
 70
     1
102
RTVSPost2010Prop35
280
     0
102
RTVSPost2010PropOp35
 70
     1
102
RTVSPost2010Prop36
280
     0
102
RTVSPost2010PropOp36
 70
     1
102
RTVSPost2010Prop37
 90
       50
102
RTVSPost2010PropOp37
 70
     1
102
RTVSPost2010Prop38
140
0.0
102
RTVSPost2010PropOp38
 70
     1
102
RTVSPost2010Prop39
140
1.0
102
RTVSPost2010PropOp39
 70
     1
102
RTVSPost2010Prop40
 90
        0
102
RTVSPost2010PropOp40
 70
     1
102
RTVSPost2010Prop41ColorIndex
 90
       18
102
RTVSPost2010Prop41ColorRGB
 90
        0
102
RTVSPost2010PropOp41
 70
     1
102
RTVSPost2010Prop42
 90
       50
102
RTVSPost2010PropOp42
 70
     1
102
RTVSPost2010Prop43
 90
        3
102
RTVSPost2010PropOp43
 70
     1
102
RTVSPost2010Prop44ColorIndex
 90
        5
102
RTVSPost2010Prop44ColorRGB
 90
      255
102
RTVSPost2010PropOp44
 70
     1
102
RTVSPost2010Prop45
280
     0
102
RTVSPost2010PropOp45
 70
     1
102
RTVSPost2010Prop46
 90
       50
102
RTVSPost2010PropOp46
 70
     1
102
RTVSPost2010Prop47
 90
       50
102
RTVSPost2010PropOp47
 70
     1
102
RTVSPost2010Prop48
 90
       50
102
RTVSPost2010PropOp48
 70
     1
102
RTVSPost2010Prop49
280
     0
102
RTVSPost2010PropOp49
 70
     1
102
RTVSPost2010Prop50
 90
       50
102
RTVSPost2010PropOp50
 70
     1
102
RTVSPost2010Prop51ColorIndex
 90
      256
102
RTVSPost2010Prop51ColorRGB
 90
-16777216
102
RTVSPost2010PropOp51
 70
     0
102
RTVSPost2010Prop52
140
1.0
102
RTVSPost2010PropOp52
 70
     0
102
RTVSPost2010Prop53
 90
        2
102
RTVSPost2010PropOp53
 70
     1
102
RTVSPost2010Prop54
  1
strokes_ogs.tif
102
RTVSPost2010PropOp54
 70
     1
102
RTVSPost2010Prop55
280
     0
102
RTVSPost2010PropOp55
 70
     1
102
RTVSPost2010Prop56
140
1.0
102
RTVSPost2010PropOp56
 70
     1
102
RTVSPost2010Prop57
140
1.0
102
RTVSPost2010PropOp57
 70
     1
  0
XRECORD
  5
25E
102
{ACAD_REACTORS
330
25D
102
}
330
25D
100
AcDbXrecord
280
     1
102
RTVSPropertyOp0
 70
     1
102
RTVSPropertyOp1
 70
     1
102
RTVSPropertyOp2
 70
     1
102
RTVSPropertyOp3
 70
     1
102
RTVSPropertyOp4
 70
     1
102
RTVSPropertyOp5
 70
     1
102
RTVSPropertyOp6
 70
     1
102
RTVSPropertyOp7
 70
     1
102
RTVSPropertyOp8
 70
     1
102
RTVSPropertyOp9
 70
     1
102
RTVSPropertyOp10
 70
     1
102
RTVSPropertyOp11
 70
     1
102
RTVSPropertyOp12
 70
     1
102
RTVSPropertyOp13
 70
     1
102
RTVSPropertyOp14
 70
     1
102
RTVSPropertyOp15
 70
     1
102
RTVSPropertyOp16
 70
     1
102
RTVSPropertyOp17
 70
     1
102
RTVSPropertyOp18
 70
     1
102
RTVSPropertyOp19
 70
     1
102
RTVSPropertyOp20
 70
     1
102
RTVSPropertyOp21
 70
     1
102
RTVSPropertyOp22
 70
     1
102
RTVSPropertyOp23
 70
     1
102
RTVSPropertyOp24
 70
     1
102
RTVSPropertyOp25
 70
     1
102
RTVSPropertyOp26
 70
     1
102
RTVSPropertyOp27
 70
     1
102
RTVSPropertyOp28
 70
     1
102
RTVSPropertyOp29
 70
     1
102
RTVSPropertyOp30
 70
     1
102
RTVSPropertyOp31
 70
     1
102
RTVSPropertyOp32
 70
     1
102
RTVSPropertyOp33
 70
     1
102
RTVSPropertyOp34
 70
     1
102
RTVSPropertyOp35
 70
     1
102
RTVSPropertyOp36
 70
     1
102
RTVSPropertyOp37
 70
     1
102
RTVSPropertyOp38
 70
     1
102
RTVSPropertyOp39
 70
     1
102
RTVSPropertyOp40
 70
     1
102
RTVSPropertyOp41
 70
     1
102
RTVSPropertyOp42
 70
     1
102
RTVSPropertyOp43
 70
     1
102
RTVSPropertyOp44
 70
     1
102
RTVSPropertyOp45
 70
     1
102
RTVSPropertyOp46
 70
     1
102
RTVSPropertyOp47
 70
     1
102
RTVSPropertyOp48
 70
     1
102
RTVSPropertyOp49
 70
     1
102
RTVSPropertyOp50
 70
     1
102
RTVSPropertyOp51
 70
     0
102
RTVSPropertyOp52
 70
     0
102
RTVSPropertyOp53
 70
     1
102
RTVSPropertyOp54
 70
     1
102
RTVSPropertyOp55
 70
     1
102
RTVSPropertyOp56
 70
     1
102
RTVSPropertyOp57
 70
     1
102
RTVSPost2010Prop28
280
     0
102
RTVSPost2010PropOp28
 70
     1
102
RTVSPost2010Prop29
280
     1
102
RTVSPost2010PropOp29
 70
     1
102
RTVSPost2010Prop30
280
     1
102
RTVSPost2010PropOp30
 70
     1
102
RTVSPost2010Prop31
280
     0
102
RTVSPost2010PropOp31
 70
     1
102
RTVSPost2010Prop32
280
     0
102
RTVSPost2010PropOp32
 70
     1
102
RTVSPost2010Prop33
280
     0
102
RTVSPost2010PropOp33
 70
     1
102
RTVSPost2010Prop34
280
     0
102
RTVSPost2010PropOp34
 70
     1
102
RTVSPost2010Prop35
280
     0
102
RTVSPost2010PropOp35
 70
     1
102
RTVSPost2010Prop36
280
     0
102
RTVSPost2010PropOp36
 70
     1
102
RTVSPost2010Prop37
 90
       50
102
RTVSPost2010PropOp37
 70
     1
102
RTVSPost2010Prop38
140
0.0
102
RTVSPost2010PropOp38
 70
     1
102
RTVSPost2010Prop39
140
1.0
102
RTVSPost2010PropOp39
 70
     1
102
RTVSPost2010Prop40
 90
        0
102
RTVSPost2010PropOp40
 70
     1
102
RTVSPost2010Prop41ColorIndex
 90
       18
102
RTVSPost2010Prop41ColorRGB
 90
        0
102
RTVSPost2010PropOp41
 70
     1
102
RTVSPost2010Prop42
 90
       50
102
RTVSPost2010PropOp42
 70
     1
102
RTVSPost2010Prop43
 90
        3
102
RTVSPost2010PropOp43
 70
     1
102
RTVSPost2010Prop44ColorIndex
 90
        5
102
RTVSPost2010Prop44ColorRGB
 90
      255
102
RTVSPost2010PropOp44
 70
     1
102
RTVSPost2010Prop45
280
     0
102
RTVSPost2010PropOp45
 70
     1
102
RTVSPost2010Prop46
 90
       50
102
RTVSPost2010PropOp46
 70
     1
102
RTVSPost2010Prop47
 90
       50
102
RTVSPost2010PropOp47
 70
     1
102
RTVSPost2010Prop48
 90
       50
102
RTVSPost2010PropOp48
 70
     1
102
RTVSPost2010Prop49
280
     0
102
RTVSPost2010PropOp49
 70
     1
102
RTVSPost2010Prop50
 90
       50
102
RTVSPost2010PropOp50
 70
     1
102
RTVSPost2010Prop51ColorIndex
 90
      256
102
RTVSPost2010Prop51ColorRGB
 90
-16777216
102
RTVSPost2010PropOp51
 70
     0
102
RTVSPost2010Prop52
140
1.0
102
RTVSPost2010PropOp52
 70
     0
102
RTVSPost2010Prop53
 90
        2
102
RTVSPost2010PropOp53
 70
     1
102
RTVSPost2010Prop54
  1
strokes_ogs.tif
102
RTVSPost2010PropOp54
 70
     1
102
RTVSPost2010Prop55
280
     0
102
RTVSPost2010PropOp55
 70
     1
102
RTVSPost2010Prop56
140
1.0
102
RTVSPost2010PropOp56
 70
     1
102
RTVSPost2010Prop57
140
1.0
102
RTVSPost2010PropOp57
 70
     1
  0
XRECORD
  5
266
102
{ACAD_REACTORS
330
265
102
}
330
265
100
AcDbXrecord
280
     1
102
RTVSPropertyOp0
 70
     1
102
RTVSPropertyOp1
 70
     1
102
RTVSPropertyOp2
 70
     1
102
RTVSPropertyOp3
 70
     1
102
RTVSPropertyOp4
 70
     1
102
RTVSPropertyOp5
 70
     1
102
RTVSPropertyOp6
 70
     1
102
RTVSPropertyOp7
 70
     1
102
RTVSPropertyOp8
 70
     1
102
RTVSPropertyOp9
 70
     1
102
RTVSPropertyOp10
 70
     1
102
RTVSPropertyOp11
 70
     1
102
RTVSPropertyOp12
 70
     1
102
RTVSPropertyOp13
 70
     1
102
RTVSPropertyOp14
 70
     1
102
RTVSPropertyOp15
 70
     1
102
RTVSPropertyOp16
 70
     1
102
RTVSPropertyOp17
 70
     1
102
RTVSPropertyOp18
 70
     1
102
RTVSPropertyOp19
 70
     1
102
RTVSPropertyOp20
 70
     1
102
RTVSPropertyOp21
 70
     1
102
RTVSPropertyOp22
 70
     1
102
RTVSPropertyOp23
 70
     1
102
RTVSPropertyOp24
 70
     1
102
RTVSPropertyOp25
 70
     1
102
RTVSPropertyOp26
 70
     1
102
RTVSPropertyOp27
 70
     1
102
RTVSPropertyOp28
 70
     1
102
RTVSPropertyOp29
 70
     1
102
RTVSPropertyOp30
 70
     1
102
RTVSPropertyOp31
 70
     1
102
RTVSPropertyOp32
 70
     1
102
RTVSPropertyOp33
 70
     1
102
RTVSPropertyOp34
 70
     1
102
RTVSPropertyOp35
 70
     1
102
RTVSPropertyOp36
 70
     1
102
RTVSPropertyOp37
 70
     1
102
RTVSPropertyOp38
 70
     1
102
RTVSPropertyOp39
 70
     1
102
RTVSPropertyOp40
 70
     1
102
RTVSPropertyOp41
 70
     1
102
RTVSPropertyOp42
 70
     1
102
RTVSPropertyOp43
 70
     1
102
RTVSPropertyOp44
 70
     1
102
RTVSPropertyOp45
 70
     1
102
RTVSPropertyOp46
 70
     1
102
RTVSPropertyOp47
 70
     1
102
RTVSPropertyOp48
 70
     1
102
RTVSPropertyOp49
 70
     1
102
RTVSPropertyOp50
 70
     1
102
RTVSPropertyOp51
 70
     0
102
RTVSPropertyOp52
 70
     0
102
RTVSPropertyOp53
 70
     1
102
RTVSPropertyOp54
 70
     1
102
RTVSPropertyOp55
 70
     1
102
RTVSPropertyOp56
 70
     1
102
RTVSPropertyOp57
 70
     1
102
RTVSPost2010Prop28
280
     0
102
RTVSPost2010PropOp28
 70
     1
102
RTVSPost2010Prop29
280
     1
102
RTVSPost2010PropOp29
 70
     1
102
RTVSPost2010Prop30
280
     1
102
RTVSPost2010PropOp30
 70
     1
102
RTVSPost2010Prop31
280
     0
102
RTVSPost2010PropOp31
 70
     1
102
RTVSPost2010Prop32
280
     0
102
RTVSPost2010PropOp32
 70
     1
102
RTVSPost2010Prop33
280
     0
102
RTVSPost2010PropOp33
 70
     1
102
RTVSPost2010Prop34
280
     0
102
RTVSPost2010PropOp34
 70
     1
102
RTVSPost2010Prop35
280
     0
102
RTVSPost2010PropOp35
 70
     1
102
RTVSPost2010Prop36
280
     0
102
RTVSPost2010PropOp36
 70
     1
102
RTVSPost2010Prop37
 90
       50
102
RTVSPost2010PropOp37
 70
     1
102
RTVSPost2010Prop38
140
0.0
102
RTVSPost2010PropOp38
 70
     1
102
RTVSPost2010Prop39
140
1.0
102
RTVSPost2010PropOp39
 70
     1
102
RTVSPost2010Prop40
 90
        0
102
RTVSPost2010PropOp40
 70
     1
102
RTVSPost2010Prop41ColorIndex
 90
       18
102
RTVSPost2010Prop41ColorRGB
 90
        0
102
RTVSPost2010PropOp41
 70
     1
102
RTVSPost2010Prop42
 90
       50
102
RTVSPost2010PropOp42
 70
     1
102
RTVSPost2010Prop43
 90
        3
102
RTVSPost2010PropOp43
 70
     1
102
RTVSPost2010Prop44ColorIndex
 90
        5
102
RTVSPost2010Prop44ColorRGB
 90
      255
102
RTVSPost2010PropOp44
 70
     1
102
RTVSPost2010Prop45
280
     0
102
RTVSPost2010PropOp45
 70
     1
102
RTVSPost2010Prop46
 90
       50
102
RTVSPost2010PropOp46
 70
     1
102
RTVSPost2010Prop47
 90
       50
102
RTVSPost2010PropOp47
 70
     1
102
RTVSPost2010Prop48
 90
       50
102
RTVSPost2010PropOp48
 70
     1
102
RTVSPost2010Prop49
280
     0
102
RTVSPost2010PropOp49
 70
     1
102
RTVSPost2010Prop50
 90
       50
102
RTVSPost2010PropOp50
 70
     1
102
RTVSPost2010Prop51ColorIndex
 90
      256
102
RTVSPost2010Prop51ColorRGB
 90
-16777216
102
RTVSPost2010PropOp51
 70
     0
102
RTVSPost2010Prop52
140
1.0
102
RTVSPost2010PropOp52
 70
     0
102
RTVSPost2010Prop53
 90
        2
102
RTVSPost2010PropOp53
 70
     1
102
RTVSPost2010Prop54
  1
strokes_ogs.tif
102
RTVSPost2010PropOp54
 70
     1
102
RTVSPost2010Prop55
280
     0
102
RTVSPost2010PropOp55
 70
     1
102
RTVSPost2010Prop56
140
1.0
102
RTVSPost2010PropOp56
 70
     1
102
RTVSPost2010Prop57
140
1.0
102
RTVSPost2010PropOp57
 70
     1
  0
XRECORD
  5
25A
102
{ACAD_REACTORS
330
259
102
}
330
259
100
AcDbXrecord
280
     1
102
RTVSPropertyOp0
 70
     1
102
RTVSPropertyOp1
 70
     1
102
RTVSPropertyOp2
 70
     1
102
RTVSPropertyOp3
 70
     1
102
RTVSPropertyOp4
 70
     1
102
RTVSPropertyOp5
 70
     1
102
RTVSPropertyOp6
 70
     1
102
RTVSPropertyOp7
 70
     1
102
RTVSPropertyOp8
 70
     1
102
RTVSPropertyOp9
 70
     1
102
RTVSPropertyOp10
 70
     1
102
RTVSPropertyOp11
 70
     1
102
RTVSPropertyOp12
 70
     1
102
RTVSPropertyOp13
 70
     1
102
RTVSPropertyOp14
 70
     1
102
RTVSPropertyOp15
 70
     1
102
RTVSPropertyOp16
 70
     1
102
RTVSPropertyOp17
 70
     1
102
RTVSPropertyOp18
 70
     1
102
RTVSPropertyOp19
 70
     1
102
RTVSPropertyOp20
 70
     1
102
RTVSPropertyOp21
 70
     1
102
RTVSPropertyOp22
 70
     1
102
RTVSPropertyOp23
 70
     1
102
RTVSPropertyOp24
 70
     1
102
RTVSPropertyOp25
 70
     1
102
RTVSPropertyOp26
 70
     1
102
RTVSPropertyOp27
 70
     1
102
RTVSPropertyOp28
 70
     1
102
RTVSPropertyOp29
 70
     1
102
RTVSPropertyOp30
 70
     1
102
RTVSPropertyOp31
 70
     1
102
RTVSPropertyOp32
 70
     1
102
RTVSPropertyOp33
 70
     1
102
RTVSPropertyOp34
 70
     1
102
RTVSPropertyOp35
 70
     1
102
RTVSPropertyOp36
 70
     1
102
RTVSPropertyOp37
 70
     1
102
RTVSPropertyOp38
 70
     1
102
RTVSPropertyOp39
 70
     1
102
RTVSPropertyOp40
 70
     1
102
RTVSPropertyOp41
 70
     1
102
RTVSPropertyOp42
 70
     1
102
RTVSPropertyOp43
 70
     1
102
RTVSPropertyOp44
 70
     1
102
RTVSPropertyOp45
 70
     1
102
RTVSPropertyOp46
 70
     1
102
RTVSPropertyOp47
 70
     1
102
RTVSPropertyOp48
 70
     1
102
RTVSPropertyOp49
 70
     1
102
RTVSPropertyOp50
 70
     1
102
RTVSPropertyOp51
 70
     0
102
RTVSPropertyOp52
 70
     0
102
RTVSPropertyOp53
 70
     1
102
RTVSPropertyOp54
 70
     1
102
RTVSPropertyOp55
 70
     1
102
RTVSPropertyOp56
 70
     1
102
RTVSPropertyOp57
 70
     1
102
RTVSPost2010Prop28
280
     0
102
RTVSPost2010PropOp28
 70
     1
102
RTVSPost2010Prop29
280
     1
102
RTVSPost2010PropOp29
 70
     1
102
RTVSPost2010Prop30
280
     1
102
RTVSPost2010PropOp30
 70
     1
102
RTVSPost2010Prop31
280
     0
102
RTVSPost2010PropOp31
 70
     1
102
RTVSPost2010Prop32
280
     0
102
RTVSPost2010PropOp32
 70
     1
102
RTVSPost2010Prop33
280
     0
102
RTVSPost2010PropOp33
 70
     1
102
RTVSPost2010Prop34
280
     0
102
RTVSPost2010PropOp34
 70
     1
102
RTVSPost2010Prop35
280
     0
102
RTVSPost2010PropOp35
 70
     1
102
RTVSPost2010Prop36
280
     0
102
RTVSPost2010PropOp36
 70
     1
102
RTVSPost2010Prop37
 90
       50
102
RTVSPost2010PropOp37
 70
     1
102
RTVSPost2010Prop38
140
0.0
102
RTVSPost2010PropOp38
 70
     1
102
RTVSPost2010Prop39
140
1.0
102
RTVSPost2010PropOp39
 70
     1
102
RTVSPost2010Prop40
 90
        0
102
RTVSPost2010PropOp40
 70
     1
102
RTVSPost2010Prop41ColorIndex
 90
       18
102
RTVSPost2010Prop41ColorRGB
 90
        0
102
RTVSPost2010PropOp41
 70
     1
102
RTVSPost2010Prop42
 90
       50
102
RTVSPost2010PropOp42
 70
     1
102
RTVSPost2010Prop43
 90
        3
102
RTVSPost2010PropOp43
 70
     1
102
RTVSPost2010Prop44ColorIndex
 90
        5
102
RTVSPost2010Prop44ColorRGB
 90
      255
102
RTVSPost2010PropOp44
 70
     1
102
RTVSPost2010Prop45
280
     0
102
RTVSPost2010PropOp45
 70
     1
102
RTVSPost2010Prop46
 90
       50
102
RTVSPost2010PropOp46
 70
     1
102
RTVSPost2010Prop47
 90
       50
102
RTVSPost2010PropOp47
 70
     1
102
RTVSPost2010Prop48
 90
       50
102
RTVSPost2010PropOp48
 70
     1
102
RTVSPost2010Prop49
280
     0
102
RTVSPost2010PropOp49
 70
     1
102
RTVSPost2010Prop50
 90
       50
102
RTVSPost2010PropOp50
 70
     1
102
RTVSPost2010Prop51ColorIndex
 90
      256
102
RTVSPost2010Prop51ColorRGB
 90
-16777216
102
RTVSPost2010PropOp51
 70
     0
102
RTVSPost2010Prop52
140
1.0
102
RTVSPost2010PropOp52
 70
     0
102
RTVSPost2010Prop53
 90
        2
102
RTVSPost2010PropOp53
 70
     1
102
RTVSPost2010Prop54
  1
strokes_ogs.tif
102
RTVSPost2010PropOp54
 70
     1
102
RTVSPost2010Prop55
280
     0
102
RTVSPost2010PropOp55
 70
     1
102
RTVSPost2010Prop56
140
1.0
102
RTVSPost2010PropOp56
 70
     1
102
RTVSPost2010Prop57
140
1.0
102
RTVSPost2010PropOp57
 70
     1
  0
XRECORD
  5
25C
102
{ACAD_REACTORS
330
25B
102
}
330
25B
100
AcDbXrecord
280
     1
102
RTVSPropertyOp0
 70
     1
102
RTVSPropertyOp1
 70
     1
102
RTVSPropertyOp2
 70
     1
102
RTVSPropertyOp3
 70
     1
102
RTVSPropertyOp4
 70
     1
102
RTVSPropertyOp5
 70
     1
102
RTVSPropertyOp6
 70
     1
102
RTVSPropertyOp7
 70
     1
102
RTVSPropertyOp8
 70
     1
102
RTVSPropertyOp9
 70
     1
102
RTVSPropertyOp10
 70
     1
102
RTVSPropertyOp11
 70
     1
102
RTVSPropertyOp12
 70
     1
102
RTVSPropertyOp13
 70
     1
102
RTVSPropertyOp14
 70
     1
102
RTVSPropertyOp15
 70
     1
102
RTVSPropertyOp16
 70
     1
102
RTVSPropertyOp17
 70
     1
102
RTVSPropertyOp18
 70
     1
102
RTVSPropertyOp19
 70
     1
102
RTVSPropertyOp20
 70
     1
102
RTVSPropertyOp21
 70
     1
102
RTVSPropertyOp22
 70
     1
102
RTVSPropertyOp23
 70
     1
102
RTVSPropertyOp24
 70
     1
102
RTVSPropertyOp25
 70
     1
102
RTVSPropertyOp26
 70
     1
102
RTVSPropertyOp27
 70
     1
102
RTVSPropertyOp28
 70
     1
102
RTVSPropertyOp29
 70
     1
102
RTVSPropertyOp30
 70
     1
102
RTVSPropertyOp31
 70
     1
102
RTVSPropertyOp32
 70
     1
102
RTVSPropertyOp33
 70
     1
102
RTVSPropertyOp34
 70
     1
102
RTVSPropertyOp35
 70
     1
102
RTVSPropertyOp36
 70
     1
102
RTVSPropertyOp37
 70
     1
102
RTVSPropertyOp38
 70
     1
102
RTVSPropertyOp39
 70
     1
102
RTVSPropertyOp40
 70
     1
102
RTVSPropertyOp41
 70
     1
102
RTVSPropertyOp42
 70
     1
102
RTVSPropertyOp43
 70
     1
102
RTVSPropertyOp44
 70
     1
102
RTVSPropertyOp45
 70
     1
102
RTVSPropertyOp46
 70
     1
102
RTVSPropertyOp47
 70
     1
102
RTVSPropertyOp48
 70
     1
102
RTVSPropertyOp49
 70
     1
102
RTVSPropertyOp50
 70
     1
102
RTVSPropertyOp51
 70
     0
102
RTVSPropertyOp52
 70
     0
102
RTVSPropertyOp53
 70
     1
102
RTVSPropertyOp54
 70
     1
102
RTVSPropertyOp55
 70
     1
102
RTVSPropertyOp56
 70
     1
102
RTVSPropertyOp57
 70
     1
102
RTVSPost2010Prop28
280
     0
102
RTVSPost2010PropOp28
 70
     1
102
RTVSPost2010Prop29
280
     1
102
RTVSPost2010PropOp29
 70
     1
102
RTVSPost2010Prop30
280
     1
102
RTVSPost2010PropOp30
 70
     1
102
RTVSPost2010Prop31
280
     0
102
RTVSPost2010PropOp31
 70
     1
102
RTVSPost2010Prop32
280
     0
102
RTVSPost2010PropOp32
 70
     1
102
RTVSPost2010Prop33
280
     0
102
RTVSPost2010PropOp33
 70
     1
102
RTVSPost2010Prop34
280
     0
102
RTVSPost2010PropOp34
 70
     1
102
RTVSPost2010Prop35
280
     0
102
RTVSPost2010PropOp35
 70
     1
102
RTVSPost2010Prop36
280
     0
102
RTVSPost2010PropOp36
 70
     1
102
RTVSPost2010Prop37
 90
       50
102
RTVSPost2010PropOp37
 70
     1
102
RTVSPost2010Prop38
140
0.0
102
RTVSPost2010PropOp38
 70
     1
102
RTVSPost2010Prop39
140
1.0
102
RTVSPost2010PropOp39
 70
     1
102
RTVSPost2010Prop40
 90
        0
102
RTVSPost2010PropOp40
 70
     1
102
RTVSPost2010Prop41ColorIndex
 90
       18
102
RTVSPost2010Prop41ColorRGB
 90
        0
102
RTVSPost2010PropOp41
 70
     1
102
RTVSPost2010Prop42
 90
       50
102
RTVSPost2010PropOp42
 70
     1
102
RTVSPost2010Prop43
 90
        3
102
RTVSPost2010PropOp43
 70
     1
102
RTVSPost2010Prop44ColorIndex
 90
        5
102
RTVSPost2010Prop44ColorRGB
 90
      255
102
RTVSPost2010PropOp44
 70
     1
102
RTVSPost2010Prop45
280
     0
102
RTVSPost2010PropOp45
 70
     1
102
RTVSPost2010Prop46
 90
       50
102
RTVSPost2010PropOp46
 70
     1
102
RTVSPost2010Prop47
 90
       50
102
RTVSPost2010PropOp47
 70
     1
102
RTVSPost2010Prop48
 90
       50
102
RTVSPost2010PropOp48
 70
     1
102
RTVSPost2010Prop49
280
     0
102
RTVSPost2010PropOp49
 70
     1
102
RTVSPost2010Prop50
 90
       50
102
RTVSPost2010PropOp50
 70
     1
102
RTVSPost2010Prop51ColorIndex
 90
      256
102
RTVSPost2010Prop51ColorRGB
 90
-16777216
102
RTVSPost2010PropOp51
 70
     0
102
RTVSPost2010Prop52
140
1.0
102
RTVSPost2010PropOp52
 70
     0
102
RTVSPost2010Prop53
 90
        2
102
RTVSPost2010PropOp53
 70
     1
102
RTVSPost2010Prop54
  1
strokes_ogs.tif
102
RTVSPost2010PropOp54
 70
     1
102
RTVSPost2010Prop55
280
     0
102
RTVSPost2010PropOp55
 70
     1
102
RTVSPost2010Prop56
140
1.0
102
RTVSPost2010PropOp56
 70
     1
102
RTVSPost2010Prop57
140
1.0
102
RTVSPost2010PropOp57
 70
     1
  0
XRECORD
  5
26C
102
{ACAD_REACTORS
330
26B
102
}
330
26B
100
AcDbXrecord
280
     1
102
RTVSPropertyOp0
 70
     0
102
RTVSPropertyOp1
 70
     0
102
RTVSPropertyOp2
 70
     0
102
RTVSPropertyOp3
 70
     0
102
RTVSPropertyOp4
 70
     0
102
RTVSPropertyOp5
 70
     0
102
RTVSPropertyOp6
 70
     0
102
RTVSPropertyOp7
 70
     0
102
RTVSPropertyOp8
 70
     0
102
RTVSPropertyOp9
 70
     0
102
RTVSPropertyOp10
 70
     0
102
RTVSPropertyOp11
 70
     0
102
RTVSPropertyOp12
 70
     0
102
RTVSPropertyOp13
 70
     0
102
RTVSPropertyOp14
 70
     2
102
RTVSPropertyOp15
 70
     0
102
RTVSPropertyOp16
 70
     0
102
RTVSPropertyOp17
 70
     0
102
RTVSPropertyOp18
 70
     0
102
RTVSPropertyOp19
 70
     0
102
RTVSPropertyOp20
 70
     0
102
RTVSPropertyOp21
 70
     0
102
RTVSPropertyOp22
 70
     0
102
RTVSPropertyOp23
 70
     0
102
RTVSPropertyOp24
 70
     0
102
RTVSPropertyOp25
 70
     0
102
RTVSPropertyOp26
 70
     0
102
RTVSPropertyOp27
 70
     0
102
RTVSPropertyOp28
 70
     0
102
RTVSPropertyOp29
 70
     0
102
RTVSPropertyOp30
 70
     0
102
RTVSPropertyOp31
 70
     0
102
RTVSPropertyOp32
 70
     0
102
RTVSPropertyOp33
 70
     0
102
RTVSPropertyOp34
 70
     0
102
RTVSPropertyOp35
 70
     0
102
RTVSPropertyOp36
 70
     0
102
RTVSPropertyOp37
 70
     0
102
RTVSPropertyOp38
 70
     0
102
RTVSPropertyOp39
 70
     0
102
RTVSPropertyOp40
 70
     0
102
RTVSPropertyOp41
 70
     0
102
RTVSPropertyOp42
 70
     0
102
RTVSPropertyOp43
 70
     0
102
RTVSPropertyOp44
 70
     0
102
RTVSPropertyOp45
 70
     0
102
RTVSPropertyOp46
 70
     0
102
RTVSPropertyOp47
 70
     0
102
RTVSPropertyOp48
 70
     0
102
RTVSPropertyOp49
 70
     0
102
RTVSPropertyOp50
 70
     0
102
RTVSPropertyOp51
 70
     0
102
RTVSPropertyOp52
 70
     0
102
RTVSPropertyOp53
 70
     0
102
RTVSPropertyOp54
 70
     0
102
RTVSPropertyOp55
 70
     0
102
RTVSPropertyOp56
 70
     0
102
RTVSPropertyOp57
 70
     0
102
RTVSPost2010Prop28
280
     0
102
RTVSPost2010PropOp28
 70
     0
102
RTVSPost2010Prop29
280
     1
102
RTVSPost2010PropOp29
 70
     0
102
RTVSPost2010Prop30
280
     1
102
RTVSPost2010PropOp30
 70
     0
102
RTVSPost2010Prop31
280
     0
102
RTVSPost2010PropOp31
 70
     0
102
RTVSPost2010Prop32
280
     0
102
RTVSPost2010PropOp32
 70
     0
102
RTVSPost2010Prop33
280
     0
102
RTVSPost2010PropOp33
 70
     0
102
RTVSPost2010Prop34
280
     0
102
RTVSPost2010PropOp34
 70
     0
102
RTVSPost2010Prop35
280
     0
102
RTVSPost2010PropOp35
 70
     0
102
RTVSPost2010Prop36
280
     0
102
RTVSPost2010PropOp36
 70
     0
102
RTVSPost2010Prop37
 90
       50
102
RTVSPost2010PropOp37
 70
     0
102
RTVSPost2010Prop38
140
0.0
102
RTVSPost2010PropOp38
 70
     0
102
RTVSPost2010Prop39
140
1.0
102
RTVSPost2010PropOp39
 70
     0
102
RTVSPost2010Prop40
 90
        0
102
RTVSPost2010PropOp40
 70
     0
102
RTVSPost2010Prop41ColorIndex
 90
       18
102
RTVSPost2010Prop41ColorRGB
 90
        0
102
RTVSPost2010PropOp41
 70
     0
102
RTVSPost2010Prop42
 90
       50
102
RTVSPost2010PropOp42
 70
     0
102
RTVSPost2010Prop43
 90
        3
102
RTVSPost2010PropOp43
 70
     0
102
RTVSPost2010Prop44ColorIndex
 90
        5
102
RTVSPost2010Prop44ColorRGB
 90
      255
102
RTVSPost2010PropOp44
 70
     0
102
RTVSPost2010Prop45
280
     0
102
RTVSPost2010PropOp45
 70
     0
102
RTVSPost2010Prop46
 90
       50
102
RTVSPost2010PropOp46
 70
     0
102
RTVSPost2010Prop47
 90
       50
102
RTVSPost2010PropOp47
 70
     0
102
RTVSPost2010Prop48
 90
       50
102
RTVSPost2010PropOp48
 70
     0
102
RTVSPost2010Prop49
280
     0
102
RTVSPost2010PropOp49
 70
     0
102
RTVSPost2010Prop50
 90
       50
102
RTVSPost2010PropOp50
 70
     0
102
RTVSPost2010Prop51ColorIndex
 90
      256
102
RTVSPost2010Prop51ColorRGB
 90
-16777216
102
RTVSPost2010PropOp51
 70
     0
102
RTVSPost2010Prop52
140
1.0
102
RTVSPost2010PropOp52
 70
     0
102
RTVSPost2010Prop53
 90
        2
102
RTVSPost2010PropOp53
 70
     0
102
RTVSPost2010Prop54
  1
strokes_ogs.tif
102
RTVSPost2010PropOp54
 70
     0
102
RTVSPost2010Prop55
280
     0
102
RTVSPost2010PropOp55
 70
     0
102
RTVSPost2010Prop56
140
1.0
102
RTVSPost2010PropOp56
 70
     0
102
RTVSPost2010Prop57
140
1.0
102
RTVSPost2010PropOp57
 70
     0
  0
XRECORD
  5
264
102
{ACAD_REACTORS
330
263
102
}
330
263
100
AcDbXrecord
280
     1
102
RTVSPropertyOp0
 70
     1
102
RTVSPropertyOp1
 70
     1
102
RTVSPropertyOp2
 70
     1
102
RTVSPropertyOp3
 70
     1
102
RTVSPropertyOp4
 70
     1
102
RTVSPropertyOp5
 70
     1
102
RTVSPropertyOp6
 70
     1
102
RTVSPropertyOp7
 70
     1
102
RTVSPropertyOp8
 70
     1
102
RTVSPropertyOp9
 70
     1
102
RTVSPropertyOp10
 70
     1
102
RTVSPropertyOp11
 70
     1
102
RTVSPropertyOp12
 70
     1
102
RTVSPropertyOp13
 70
     1
102
RTVSPropertyOp14
 70
     1
102
RTVSPropertyOp15
 70
     1
102
RTVSPropertyOp16
 70
     1
102
RTVSPropertyOp17
 70
     1
102
RTVSPropertyOp18
 70
     1
102
RTVSPropertyOp19
 70
     1
102
RTVSPropertyOp20
 70
     1
102
RTVSPropertyOp21
 70
     1
102
RTVSPropertyOp22
 70
     1
102
RTVSPropertyOp23
 70
     1
102
RTVSPropertyOp24
 70
     1
102
RTVSPropertyOp25
 70
     1
102
RTVSPropertyOp26
 70
     1
102
RTVSPropertyOp27
 70
     1
102
RTVSPropertyOp28
 70
     1
102
RTVSPropertyOp29
 70
     1
102
RTVSPropertyOp30
 70
     1
102
RTVSPropertyOp31
 70
     1
102
RTVSPropertyOp32
 70
     1
102
RTVSPropertyOp33
 70
     1
102
RTVSPropertyOp34
 70
     1
102
RTVSPropertyOp35
 70
     1
102
RTVSPropertyOp36
 70
     1
102
RTVSPropertyOp37
 70
     1
102
RTVSPropertyOp38
 70
     1
102
RTVSPropertyOp39
 70
     1
102
RTVSPropertyOp40
 70
     1
102
RTVSPropertyOp41
 70
     1
102
RTVSPropertyOp42
 70
     1
102
RTVSPropertyOp43
 70
     1
102
RTVSPropertyOp44
 70
     1
102
RTVSPropertyOp45
 70
     1
102
RTVSPropertyOp46
 70
     1
102
RTVSPropertyOp47
 70
     1
102
RTVSPropertyOp48
 70
     1
102
RTVSPropertyOp49
 70
     1
102
RTVSPropertyOp50
 70
     1
102
RTVSPropertyOp51
 70
     0
102
RTVSPropertyOp52
 70
     0
102
RTVSPropertyOp53
 70
     1
102
RTVSPropertyOp54
 70
     1
102
RTVSPropertyOp55
 70
     1
102
RTVSPropertyOp56
 70
     1
102
RTVSPropertyOp57
 70
     1
102
RTVSPost2010Prop28
280
     0
102
RTVSPost2010PropOp28
 70
     1
102
RTVSPost2010Prop29
280
     1
102
RTVSPost2010PropOp29
 70
     1
102
RTVSPost2010Prop30
280
     1
102
RTVSPost2010PropOp30
 70
     1
102
RTVSPost2010Prop31
280
     0
102
RTVSPost2010PropOp31
 70
     1
102
RTVSPost2010Prop32
280
     0
102
RTVSPost2010PropOp32
 70
     1
102
RTVSPost2010Prop33
280
     0
102
RTVSPost2010PropOp33
 70
     1
102
RTVSPost2010Prop34
280
     0
102
RTVSPost2010PropOp34
 70
     1
102
RTVSPost2010Prop35
280
     0
102
RTVSPost2010PropOp35
 70
     1
102
RTVSPost2010Prop36
280
     0
102
RTVSPost2010PropOp36
 70
     1
102
RTVSPost2010Prop37
 90
       50
102
RTVSPost2010PropOp37
 70
     1
102
RTVSPost2010Prop38
140
0.0
102
RTVSPost2010PropOp38
 70
     1
102
RTVSPost2010Prop39
140
1.0
102
RTVSPost2010PropOp39
 70
     1
102
RTVSPost2010Prop40
 90
        0
102
RTVSPost2010PropOp40
 70
     1
102
RTVSPost2010Prop41ColorIndex
 90
       18
102
RTVSPost2010Prop41ColorRGB
 90
        0
102
RTVSPost2010PropOp41
 70
     1
102
RTVSPost2010Prop42
 90
       50
102
RTVSPost2010PropOp42
 70
     1
102
RTVSPost2010Prop43
 90
        3
102
RTVSPost2010PropOp43
 70
     1
102
RTVSPost2010Prop44ColorIndex
 90
        5
102
RTVSPost2010Prop44ColorRGB
 90
      255
102
RTVSPost2010PropOp44
 70
     1
102
RTVSPost2010Prop45
280
     0
102
RTVSPost2010PropOp45
 70
     1
102
RTVSPost2010Prop46
 90
       50
102
RTVSPost2010PropOp46
 70
     1
102
RTVSPost2010Prop47
 90
       50
102
RTVSPost2010PropOp47
 70
     1
102
RTVSPost2010Prop48
 90
       50
102
RTVSPost2010PropOp48
 70
     1
102
RTVSPost2010Prop49
280
     0
102
RTVSPost2010PropOp49
 70
     1
102
RTVSPost2010Prop50
 90
       50
102
RTVSPost2010PropOp50
 70
     1
102
RTVSPost2010Prop51ColorIndex
 90
      256
102
RTVSPost2010Prop51ColorRGB
 90
-16777216
102
RTVSPost2010PropOp51
 70
     0
102
RTVSPost2010Prop52
140
1.0
102
RTVSPost2010PropOp52
 70
     0
102
RTVSPost2010Prop53
 90
        2
102
RTVSPost2010PropOp53
 70
     1
102
RTVSPost2010Prop54
  1
strokes_ogs.tif
102
RTVSPost2010PropOp54
 70
     1
102
RTVSPost2010Prop55
280
     0
102
RTVSPost2010PropOp55
 70
     1
102
RTVSPost2010Prop56
140
1.0
102
RTVSPost2010PropOp56
 70
     1
102
RTVSPost2010Prop57
140
1.0
102
RTVSPost2010PropOp57
 70
     1
  0
XRECORD
  5
248
102
{ACAD_REACTORS
330
247
102
}
330
247
100
AcDbXrecord
280
     1
102
RTVSPropertyOp0
 70
     1
102
RTVSPropertyOp1
 70
     1
102
RTVSPropertyOp2
 70
     1
102
RTVSPropertyOp3
 70
     1
102
RTVSPropertyOp4
 70
     1
102
RTVSPropertyOp5
 70
     1
102
RTVSPropertyOp6
 70
     1
102
RTVSPropertyOp7
 70
     1
102
RTVSPropertyOp8
 70
     1
102
RTVSPropertyOp9
 70
     1
102
RTVSPropertyOp10
 70
     1
102
RTVSPropertyOp11
 70
     1
102
RTVSPropertyOp12
 70
     1
102
RTVSPropertyOp13
 70
     1
102
RTVSPropertyOp14
 70
     1
102
RTVSPropertyOp15
 70
     1
102
RTVSPropertyOp16
 70
     1
102
RTVSPropertyOp17
 70
     1
102
RTVSPropertyOp18
 70
     1
102
RTVSPropertyOp19
 70
     1
102
RTVSPropertyOp20
 70
     1
102
RTVSPropertyOp21
 70
     1
102
RTVSPropertyOp22
 70
     1
102
RTVSPropertyOp23
 70
     1
102
RTVSPropertyOp24
 70
     1
102
RTVSPropertyOp25
 70
     1
102
RTVSPropertyOp26
 70
     1
102
RTVSPropertyOp27
 70
     1
102
RTVSPropertyOp28
 70
     1
102
RTVSPropertyOp29
 70
     1
102
RTVSPropertyOp30
 70
     1
102
RTVSPropertyOp31
 70
     1
102
RTVSPropertyOp32
 70
     1
102
RTVSPropertyOp33
 70
     1
102
RTVSPropertyOp34
 70
     1
102
RTVSPropertyOp35
 70
     1
102
RTVSPropertyOp36
 70
     1
102
RTVSPropertyOp37
 70
     1
102
RTVSPropertyOp38
 70
     1
102
RTVSPropertyOp39
 70
     1
102
RTVSPropertyOp40
 70
     1
102
RTVSPropertyOp41
 70
     1
102
RTVSPropertyOp42
 70
     1
102
RTVSPropertyOp43
 70
     1
102
RTVSPropertyOp44
 70
     1
102
RTVSPropertyOp45
 70
     1
102
RTVSPropertyOp46
 70
     1
102
RTVSPropertyOp47
 70
     1
102
RTVSPropertyOp48
 70
     1
102
RTVSPropertyOp49
 70
     1
102
RTVSPropertyOp50
 70
     1
102
RTVSPropertyOp51
 70
     0
102
RTVSPropertyOp52
 70
     0
102
RTVSPropertyOp53
 70
     1
102
RTVSPropertyOp54
 70
     1
102
RTVSPropertyOp55
 70
     1
102
RTVSPropertyOp56
 70
     1
102
RTVSPropertyOp57
 70
     1
102
RTVSPost2010Prop28
280
     0
102
RTVSPost2010PropOp28
 70
     1
102
RTVSPost2010Prop29
280
     1
102
RTVSPost2010PropOp29
 70
     1
102
RTVSPost2010Prop30
280
     1
102
RTVSPost2010PropOp30
 70
     1
102
RTVSPost2010Prop31
280
     0
102
RTVSPost2010PropOp31
 70
     1
102
RTVSPost2010Prop32
280
     0
102
RTVSPost2010PropOp32
 70
     1
102
RTVSPost2010Prop33
280
     0
102
RTVSPost2010PropOp33
 70
     1
102
RTVSPost2010Prop34
280
     0
102
RTVSPost2010PropOp34
 70
     1
102
RTVSPost2010Prop35
280
     0
102
RTVSPost2010PropOp35
 70
     1
102
RTVSPost2010Prop36
280
     0
102
RTVSPost2010PropOp36
 70
     1
102
RTVSPost2010Prop37
 90
       50
102
RTVSPost2010PropOp37
 70
     1
102
RTVSPost2010Prop38
140
0.0
102
RTVSPost2010PropOp38
 70
     1
102
RTVSPost2010Prop39
140
1.0
102
RTVSPost2010PropOp39
 70
     1
102
RTVSPost2010Prop40
 90
        0
102
RTVSPost2010PropOp40
 70
     1
102
RTVSPost2010Prop41ColorIndex
 90
       18
102
RTVSPost2010Prop41ColorRGB
 90
        0
102
RTVSPost2010PropOp41
 70
     1
102
RTVSPost2010Prop42
 90
       50
102
RTVSPost2010PropOp42
 70
     1
102
RTVSPost2010Prop43
 90
        3
102
RTVSPost2010PropOp43
 70
     1
102
RTVSPost2010Prop44ColorIndex
 90
        5
102
RTVSPost2010Prop44ColorRGB
 90
      255
102
RTVSPost2010PropOp44
 70
     1
102
RTVSPost2010Prop45
280
     0
102
RTVSPost2010PropOp45
 70
     1
102
RTVSPost2010Prop46
 90
       50
102
RTVSPost2010PropOp46
 70
     1
102
RTVSPost2010Prop47
 90
       50
102
RTVSPost2010PropOp47
 70
     1
102
RTVSPost2010Prop48
 90
       50
102
RTVSPost2010PropOp48
 70
     1
102
RTVSPost2010Prop49
280
     0
102
RTVSPost2010PropOp49
 70
     1
102
RTVSPost2010Prop50
 90
       50
102
RTVSPost2010PropOp50
 70
     1
102
RTVSPost2010Prop51ColorIndex
 90
      256
102
RTVSPost2010Prop51ColorRGB
 90
-16777216
102
RTVSPost2010PropOp51
 70
     0
102
RTVSPost2010Prop52
140
1.0
102
RTVSPost2010PropOp52
 70
     0
102
RTVSPost2010Prop53
 90
        2
102
RTVSPost2010PropOp53
 70
     1
102
RTVSPost2010Prop54
  1
strokes_ogs.tif
102
RTVSPost2010PropOp54
 70
     1
102
RTVSPost2010Prop55
280
     0
102
RTVSPost2010PropOp55
 70
     1
102
RTVSPost2010Prop56
140
1.0
102
RTVSPost2010PropOp56
 70
     1
102
RTVSPost2010Prop57
140
1.0
102
RTVSPost2010PropOp57
 70
     1
  0
XRECORD
  5
24A
102
{ACAD_REACTORS
330
249
102
}
330
249
100
AcDbXrecord
280
     1
102
RTVSPropertyOp0
 70
     1
102
RTVSPropertyOp1
 70
     1
102
RTVSPropertyOp2
 70
     1
102
RTVSPropertyOp3
 70
     1
102
RTVSPropertyOp4
 70
     1
102
RTVSPropertyOp5
 70
     1
102
RTVSPropertyOp6
 70
     1
102
RTVSPropertyOp7
 70
     1
102
RTVSPropertyOp8
 70
     1
102
RTVSPropertyOp9
 70
     1
102
RTVSPropertyOp10
 70
     1
102
RTVSPropertyOp11
 70
     1
102
RTVSPropertyOp12
 70
     1
102
RTVSPropertyOp13
 70
     1
102
RTVSPropertyOp14
 70
     1
102
RTVSPropertyOp15
 70
     1
102
RTVSPropertyOp16
 70
     1
102
RTVSPropertyOp17
 70
     1
102
RTVSPropertyOp18
 70
     1
102
RTVSPropertyOp19
 70
     1
102
RTVSPropertyOp20
 70
     1
102
RTVSPropertyOp21
 70
     1
102
RTVSPropertyOp22
 70
     1
102
RTVSPropertyOp23
 70
     1
102
RTVSPropertyOp24
 70
     1
102
RTVSPropertyOp25
 70
     1
102
RTVSPropertyOp26
 70
     1
102
RTVSPropertyOp27
 70
     1
102
RTVSPropertyOp28
 70
     1
102
RTVSPropertyOp29
 70
     1
102
RTVSPropertyOp30
 70
     1
102
RTVSPropertyOp31
 70
     1
102
RTVSPropertyOp32
 70
     1
102
RTVSPropertyOp33
 70
     1
102
RTVSPropertyOp34
 70
     1
102
RTVSPropertyOp35
 70
     1
102
RTVSPropertyOp36
 70
     1
102
RTVSPropertyOp37
 70
     1
102
RTVSPropertyOp38
 70
     1
102
RTVSPropertyOp39
 70
     1
102
RTVSPropertyOp40
 70
     1
102
RTVSPropertyOp41
 70
     1
102
RTVSPropertyOp42
 70
     1
102
RTVSPropertyOp43
 70
     1
102
RTVSPropertyOp44
 70
     1
102
RTVSPropertyOp45
 70
     1
102
RTVSPropertyOp46
 70
     1
102
RTVSPropertyOp47
 70
     1
102
RTVSPropertyOp48
 70
     1
102
RTVSPropertyOp49
 70
     1
102
RTVSPropertyOp50
 70
     1
102
RTVSPropertyOp51
 70
     0
102
RTVSPropertyOp52
 70
     0
102
RTVSPropertyOp53
 70
     1
102
RTVSPropertyOp54
 70
     1
102
RTVSPropertyOp55
 70
     1
102
RTVSPropertyOp56
 70
     1
102
RTVSPropertyOp57
 70
     1
102
RTVSPost2010Prop28
280
     0
102
RTVSPost2010PropOp28
 70
     1
102
RTVSPost2010Prop29
280
     1
102
RTVSPost2010PropOp29
 70
     1
102
RTVSPost2010Prop30
280
     1
102
RTVSPost2010PropOp30
 70
     1
102
RTVSPost2010Prop31
280
     0
102
RTVSPost2010PropOp31
 70
     1
102
RTVSPost2010Prop32
280
     0
102
RTVSPost2010PropOp32
 70
     1
102
RTVSPost2010Prop33
280
     0
102
RTVSPost2010PropOp33
 70
     1
102
RTVSPost2010Prop34
280
     0
102
RTVSPost2010PropOp34
 70
     1
102
RTVSPost2010Prop35
280
     0
102
RTVSPost2010PropOp35
 70
     1
102
RTVSPost2010Prop36
280
     0
102
RTVSPost2010PropOp36
 70
     1
102
RTVSPost2010Prop37
 90
       50
102
RTVSPost2010PropOp37
 70
     1
102
RTVSPost2010Prop38
140
0.0
102
RTVSPost2010PropOp38
 70
     1
102
RTVSPost2010Prop39
140
1.0
102
RTVSPost2010PropOp39
 70
     1
102
RTVSPost2010Prop40
 90
        0
102
RTVSPost2010PropOp40
 70
     1
102
RTVSPost2010Prop41ColorIndex
 90
       18
102
RTVSPost2010Prop41ColorRGB
 90
        0
102
RTVSPost2010PropOp41
 70
     1
102
RTVSPost2010Prop42
 90
       50
102
RTVSPost2010PropOp42
 70
     1
102
RTVSPost2010Prop43
 90
        3
102
RTVSPost2010PropOp43
 70
     1
102
RTVSPost2010Prop44ColorIndex
 90
        5
102
RTVSPost2010Prop44ColorRGB
 90
      255
102
RTVSPost2010PropOp44
 70
     1
102
RTVSPost2010Prop45
280
     0
102
RTVSPost2010PropOp45
 70
     1
102
RTVSPost2010Prop46
 90
       50
102
RTVSPost2010PropOp46
 70
     1
102
RTVSPost2010Prop47
 90
       50
102
RTVSPost2010PropOp47
 70
     1
102
RTVSPost2010Prop48
 90
       50
102
RTVSPost2010PropOp48
 70
     1
102
RTVSPost2010Prop49
280
     0
102
RTVSPost2010PropOp49
 70
     1
102
RTVSPost2010Prop50
 90
       50
102
RTVSPost2010PropOp50
 70
     1
102
RTVSPost2010Prop51ColorIndex
 90
      256
102
RTVSPost2010Prop51ColorRGB
 90
-16777216
102
RTVSPost2010PropOp51
 70
     0
102
RTVSPost2010Prop52
140
1.0
102
RTVSPost2010PropOp52
 70
     0
102
RTVSPost2010Prop53
 90
        2
102
RTVSPost2010PropOp53
 70
     1
102
RTVSPost2010Prop54
  1
strokes_ogs.tif
102
RTVSPost2010PropOp54
 70
     1
102
RTVSPost2010Prop55
280
     0
102
RTVSPost2010PropOp55
 70
     1
102
RTVSPost2010Prop56
140
1.0
102
RTVSPost2010PropOp56
 70
     1
102
RTVSPost2010Prop57
140
1.0
102
RTVSPost2010PropOp57
 70
     1
  0
XRECORD
  5
24C
102
{ACAD_REACTORS
330
24B
102
}
330
24B
100
AcDbXrecord
280
     1
102
RTVSPropertyOp0
 70
     1
102
RTVSPropertyOp1
 70
     1
102
RTVSPropertyOp2
 70
     1
102
RTVSPropertyOp3
 70
     1
102
RTVSPropertyOp4
 70
     1
102
RTVSPropertyOp5
 70
     1
102
RTVSPropertyOp6
 70
     1
102
RTVSPropertyOp7
 70
     1
102
RTVSPropertyOp8
 70
     1
102
RTVSPropertyOp9
 70
     1
102
RTVSPropertyOp10
 70
     1
102
RTVSPropertyOp11
 70
     1
102
RTVSPropertyOp12
 70
     1
102
RTVSPropertyOp13
 70
     1
102
RTVSPropertyOp14
 70
     1
102
RTVSPropertyOp15
 70
     1
102
RTVSPropertyOp16
 70
     1
102
RTVSPropertyOp17
 70
     1
102
RTVSPropertyOp18
 70
     1
102
RTVSPropertyOp19
 70
     1
102
RTVSPropertyOp20
 70
     1
102
RTVSPropertyOp21
 70
     1
102
RTVSPropertyOp22
 70
     1
102
RTVSPropertyOp23
 70
     1
102
RTVSPropertyOp24
 70
     1
102
RTVSPropertyOp25
 70
     1
102
RTVSPropertyOp26
 70
     1
102
RTVSPropertyOp27
 70
     1
102
RTVSPropertyOp28
 70
     1
102
RTVSPropertyOp29
 70
     1
102
RTVSPropertyOp30
 70
     1
102
RTVSPropertyOp31
 70
     1
102
RTVSPropertyOp32
 70
     1
102
RTVSPropertyOp33
 70
     1
102
RTVSPropertyOp34
 70
     1
102
RTVSPropertyOp35
 70
     1
102
RTVSPropertyOp36
 70
     1
102
RTVSPropertyOp37
 70
     1
102
RTVSPropertyOp38
 70
     1
102
RTVSPropertyOp39
 70
     1
102
RTVSPropertyOp40
 70
     1
102
RTVSPropertyOp41
 70
     1
102
RTVSPropertyOp42
 70
     1
102
RTVSPropertyOp43
 70
     1
102
RTVSPropertyOp44
 70
     1
102
RTVSPropertyOp45
 70
     1
102
RTVSPropertyOp46
 70
     1
102
RTVSPropertyOp47
 70
     1
102
RTVSPropertyOp48
 70
     1
102
RTVSPropertyOp49
 70
     1
102
RTVSPropertyOp50
 70
     1
102
RTVSPropertyOp51
 70
     0
102
RTVSPropertyOp52
 70
     0
102
RTVSPropertyOp53
 70
     1
102
RTVSPropertyOp54
 70
     1
102
RTVSPropertyOp55
 70
     1
102
RTVSPropertyOp56
 70
     1
102
RTVSPropertyOp57
 70
     1
102
RTVSPost2010Prop28
280
     0
102
RTVSPost2010PropOp28
 70
     1
102
RTVSPost2010Prop29
280
     1
102
RTVSPost2010PropOp29
 70
     1
102
RTVSPost2010Prop30
280
     1
102
RTVSPost2010PropOp30
 70
     1
102
RTVSPost2010Prop31
280
     0
102
RTVSPost2010PropOp31
 70
     1
102
RTVSPost2010Prop32
280
     0
102
RTVSPost2010PropOp32
 70
     1
102
RTVSPost2010Prop33
280
     0
102
RTVSPost2010PropOp33
 70
     1
102
RTVSPost2010Prop34
280
     0
102
RTVSPost2010PropOp34
 70
     1
102
RTVSPost2010Prop35
280
     0
102
RTVSPost2010PropOp35
 70
     1
102
RTVSPost2010Prop36
280
     0
102
RTVSPost2010PropOp36
 70
     1
102
RTVSPost2010Prop37
 90
       50
102
RTVSPost2010PropOp37
 70
     1
102
RTVSPost2010Prop38
140
0.0
102
RTVSPost2010PropOp38
 70
     1
102
RTVSPost2010Prop39
140
1.0
102
RTVSPost2010PropOp39
 70
     1
102
RTVSPost2010Prop40
 90
        0
102
RTVSPost2010PropOp40
 70
     1
102
RTVSPost2010Prop41ColorIndex
 90
       18
102
RTVSPost2010Prop41ColorRGB
 90
        0
102
RTVSPost2010PropOp41
 70
     1
102
RTVSPost2010Prop42
 90
       50
102
RTVSPost2010PropOp42
 70
     1
102
RTVSPost2010Prop43
 90
        3
102
RTVSPost2010PropOp43
 70
     1
102
RTVSPost2010Prop44ColorIndex
 90
        5
102
RTVSPost2010Prop44ColorRGB
 90
      255
102
RTVSPost2010PropOp44
 70
     1
102
RTVSPost2010Prop45
280
     0
102
RTVSPost2010PropOp45
 70
     1
102
RTVSPost2010Prop46
 90
       50
102
RTVSPost2010PropOp46
 70
     1
102
RTVSPost2010Prop47
 90
       50
102
RTVSPost2010PropOp47
 70
     1
102
RTVSPost2010Prop48
 90
       50
102
RTVSPost2010PropOp48
 70
     1
102
RTVSPost2010Prop49
280
     0
102
RTVSPost2010PropOp49
 70
     1
102
RTVSPost2010Prop50
 90
       50
102
RTVSPost2010PropOp50
 70
     1
102
RTVSPost2010Prop51ColorIndex
 90
      256
102
RTVSPost2010Prop51ColorRGB
 90
-16777216
102
RTVSPost2010PropOp51
 70
     0
102
RTVSPost2010Prop52
140
1.0
102
RTVSPost2010PropOp52
 70
     0
102
RTVSPost2010Prop53
 90
        2
102
RTVSPost2010PropOp53
 70
     1
102
RTVSPost2010Prop54
  1
strokes_ogs.tif
102
RTVSPost2010PropOp54
 70
     1
102
RTVSPost2010Prop55
280
     0
102
RTVSPost2010PropOp55
 70
     1
102
RTVSPost2010Prop56
140
1.0
102
RTVSPost2010PropOp56
 70
     1
102
RTVSPost2010Prop57
140
1.0
102
RTVSPost2010PropOp57
 70
     1
  0
XRECORD
  5
24E
102
{ACAD_REACTORS
330
24D
102
}
330
24D
100
AcDbXrecord
280
     1
102
RTVSPropertyOp0
 70
     1
102
RTVSPropertyOp1
 70
     1
102
RTVSPropertyOp2
 70
     1
102
RTVSPropertyOp3
 70
     1
102
RTVSPropertyOp4
 70
     1
102
RTVSPropertyOp5
 70
     1
102
RTVSPropertyOp6
 70
     1
102
RTVSPropertyOp7
 70
     1
102
RTVSPropertyOp8
 70
     1
102
RTVSPropertyOp9
 70
     1
102
RTVSPropertyOp10
 70
     1
102
RTVSPropertyOp11
 70
     1
102
RTVSPropertyOp12
 70
     1
102
RTVSPropertyOp13
 70
     1
102
RTVSPropertyOp14
 70
     1
102
RTVSPropertyOp15
 70
     1
102
RTVSPropertyOp16
 70
     1
102
RTVSPropertyOp17
 70
     1
102
RTVSPropertyOp18
 70
     1
102
RTVSPropertyOp19
 70
     1
102
RTVSPropertyOp20
 70
     1
102
RTVSPropertyOp21
 70
     1
102
RTVSPropertyOp22
 70
     1
102
RTVSPropertyOp23
 70
     1
102
RTVSPropertyOp24
 70
     1
102
RTVSPropertyOp25
 70
     1
102
RTVSPropertyOp26
 70
     1
102
RTVSPropertyOp27
 70
     1
102
RTVSPropertyOp28
 70
     1
102
RTVSPropertyOp29
 70
     1
102
RTVSPropertyOp30
 70
     1
102
RTVSPropertyOp31
 70
     1
102
RTVSPropertyOp32
 70
     1
102
RTVSPropertyOp33
 70
     1
102
RTVSPropertyOp34
 70
     1
102
RTVSPropertyOp35
 70
     1
102
RTVSPropertyOp36
 70
     1
102
RTVSPropertyOp37
 70
     1
102
RTVSPropertyOp38
 70
     1
102
RTVSPropertyOp39
 70
     1
102
RTVSPropertyOp40
 70
     1
102
RTVSPropertyOp41
 70
     1
102
RTVSPropertyOp42
 70
     1
102
RTVSPropertyOp43
 70
     1
102
RTVSPropertyOp44
 70
     1
102
RTVSPropertyOp45
 70
     1
102
RTVSPropertyOp46
 70
     1
102
RTVSPropertyOp47
 70
     1
102
RTVSPropertyOp48
 70
     1
102
RTVSPropertyOp49
 70
     1
102
RTVSPropertyOp50
 70
     1
102
RTVSPropertyOp51
 70
     0
102
RTVSPropertyOp52
 70
     0
102
RTVSPropertyOp53
 70
     1
102
RTVSPropertyOp54
 70
     1
102
RTVSPropertyOp55
 70
     1
102
RTVSPropertyOp56
 70
     1
102
RTVSPropertyOp57
 70
     1
102
RTVSPost2010Prop28
280
     0
102
RTVSPost2010PropOp28
 70
     1
102
RTVSPost2010Prop29
280
     1
102
RTVSPost2010PropOp29
 70
     1
102
RTVSPost2010Prop30
280
     1
102
RTVSPost2010PropOp30
 70
     1
102
RTVSPost2010Prop31
280
     0
102
RTVSPost2010PropOp31
 70
     1
102
RTVSPost2010Prop32
280
     0
102
RTVSPost2010PropOp32
 70
     1
102
RTVSPost2010Prop33
280
     0
102
RTVSPost2010PropOp33
 70
     1
102
RTVSPost2010Prop34
280
     0
102
RTVSPost2010PropOp34
 70
     1
102
RTVSPost2010Prop35
280
     0
102
RTVSPost2010PropOp35
 70
     1
102
RTVSPost2010Prop36
280
     0
102
RTVSPost2010PropOp36
 70
     1
102
RTVSPost2010Prop37
 90
       50
102
RTVSPost2010PropOp37
 70
     1
102
RTVSPost2010Prop38
140
0.0
102
RTVSPost2010PropOp38
 70
     1
102
RTVSPost2010Prop39
140
1.0
102
RTVSPost2010PropOp39
 70
     1
102
RTVSPost2010Prop40
 90
        0
102
RTVSPost2010PropOp40
 70
     1
102
RTVSPost2010Prop41ColorIndex
 90
       18
102
RTVSPost2010Prop41ColorRGB
 90
        0
102
RTVSPost2010PropOp41
 70
     1
102
RTVSPost2010Prop42
 90
       50
102
RTVSPost2010PropOp42
 70
     1
102
RTVSPost2010Prop43
 90
        3
102
RTVSPost2010PropOp43
 70
     1
102
RTVSPost2010Prop44ColorIndex
 90
        5
102
RTVSPost2010Prop44ColorRGB
 90
      255
102
RTVSPost2010PropOp44
 70
     1
102
RTVSPost2010Prop45
280
     0
102
RTVSPost2010PropOp45
 70
     1
102
RTVSPost2010Prop46
 90
       50
102
RTVSPost2010PropOp46
 70
     1
102
RTVSPost2010Prop47
 90
       50
102
RTVSPost2010PropOp47
 70
     1
102
RTVSPost2010Prop48
 90
       50
102
RTVSPost2010PropOp48
 70
     1
102
RTVSPost2010Prop49
280
     0
102
RTVSPost2010PropOp49
 70
     1
102
RTVSPost2010Prop50
 90
       50
102
RTVSPost2010PropOp50
 70
     1
102
RTVSPost2010Prop51ColorIndex
 90
      256
102
RTVSPost2010Prop51ColorRGB
 90
-16777216
102
RTVSPost2010PropOp51
 70
     0
102
RTVSPost2010Prop52
140
1.0
102
RTVSPost2010PropOp52
 70
     0
102
RTVSPost2010Prop53
 90
        2
102
RTVSPost2010PropOp53
 70
     1
102
RTVSPost2010Prop54
  1
strokes_ogs.tif
102
RTVSPost2010PropOp54
 70
     1
102
RTVSPost2010Prop55
280
     0
102
RTVSPost2010PropOp55
 70
     1
102
RTVSPost2010Prop56
140
1.0
102
RTVSPost2010PropOp56
 70
     1
102
RTVSPost2010Prop57
140
1.0
102
RTVSPost2010PropOp57
 70
     1
  0
XRECORD
  5
254
102
{ACAD_REACTORS
330
253
102
}
330
253
100
AcDbXrecord
280
     1
102
RTVSPropertyOp0
 70
     1
102
RTVSPropertyOp1
 70
     1
102
RTVSPropertyOp2
 70
     1
102
RTVSPropertyOp3
 70
     1
102
RTVSPropertyOp4
 70
     1
102
RTVSPropertyOp5
 70
     1
102
RTVSPropertyOp6
 70
     1
102
RTVSPropertyOp7
 70
     1
102
RTVSPropertyOp8
 70
     1
102
RTVSPropertyOp9
 70
     1
102
RTVSPropertyOp10
 70
     1
102
RTVSPropertyOp11
 70
     1
102
RTVSPropertyOp12
 70
     1
102
RTVSPropertyOp13
 70
     1
102
RTVSPropertyOp14
 70
     1
102
RTVSPropertyOp15
 70
     1
102
RTVSPropertyOp16
 70
     1
102
RTVSPropertyOp17
 70
     1
102
RTVSPropertyOp18
 70
     1
102
RTVSPropertyOp19
 70
     1
102
RTVSPropertyOp20
 70
     1
102
RTVSPropertyOp21
 70
     1
102
RTVSPropertyOp22
 70
     1
102
RTVSPropertyOp23
 70
     1
102
RTVSPropertyOp24
 70
     1
102
RTVSPropertyOp25
 70
     1
102
RTVSPropertyOp26
 70
     1
102
RTVSPropertyOp27
 70
     1
102
RTVSPropertyOp28
 70
     1
102
RTVSPropertyOp29
 70
     1
102
RTVSPropertyOp30
 70
     1
102
RTVSPropertyOp31
 70
     1
102
RTVSPropertyOp32
 70
     1
102
RTVSPropertyOp33
 70
     1
102
RTVSPropertyOp34
 70
     1
102
RTVSPropertyOp35
 70
     1
102
RTVSPropertyOp36
 70
     1
102
RTVSPropertyOp37
 70
     1
102
RTVSPropertyOp38
 70
     1
102
RTVSPropertyOp39
 70
     1
102
RTVSPropertyOp40
 70
     1
102
RTVSPropertyOp41
 70
     1
102
RTVSPropertyOp42
 70
     1
102
RTVSPropertyOp43
 70
     1
102
RTVSPropertyOp44
 70
     1
102
RTVSPropertyOp45
 70
     1
102
RTVSPropertyOp46
 70
     1
102
RTVSPropertyOp47
 70
     1
102
RTVSPropertyOp48
 70
     1
102
RTVSPropertyOp49
 70
     1
102
RTVSPropertyOp50
 70
     1
102
RTVSPropertyOp51
 70
     0
102
RTVSPropertyOp52
 70
     0
102
RTVSPropertyOp53
 70
     1
102
RTVSPropertyOp54
 70
     1
102
RTVSPropertyOp55
 70
     1
102
RTVSPropertyOp56
 70
     1
102
RTVSPropertyOp57
 70
     1
102
RTVSPost2010Prop28
280
     0
102
RTVSPost2010PropOp28
 70
     1
102
RTVSPost2010Prop29
280
     1
102
RTVSPost2010PropOp29
 70
     1
102
RTVSPost2010Prop30
280
     1
102
RTVSPost2010PropOp30
 70
     1
102
RTVSPost2010Prop31
280
     0
102
RTVSPost2010PropOp31
 70
     1
102
RTVSPost2010Prop32
280
     0
102
RTVSPost2010PropOp32
 70
     1
102
RTVSPost2010Prop33
280
     0
102
RTVSPost2010PropOp33
 70
     1
102
RTVSPost2010Prop34
280
     0
102
RTVSPost2010PropOp34
 70
     1
102
RTVSPost2010Prop35
280
     0
102
RTVSPost2010PropOp35
 70
     1
102
RTVSPost2010Prop36
280
     0
102
RTVSPost2010PropOp36
 70
     1
102
RTVSPost2010Prop37
 90
       50
102
RTVSPost2010PropOp37
 70
     1
102
RTVSPost2010Prop38
140
0.0
102
RTVSPost2010PropOp38
 70
     1
102
RTVSPost2010Prop39
140
1.0
102
RTVSPost2010PropOp39
 70
     1
102
RTVSPost2010Prop40
 90
        0
102
RTVSPost2010PropOp40
 70
     1
102
RTVSPost2010Prop41ColorIndex
 90
       18
102
RTVSPost2010Prop41ColorRGB
 90
        0
102
RTVSPost2010PropOp41
 70
     1
102
RTVSPost2010Prop42
 90
       50
102
RTVSPost2010PropOp42
 70
     1
102
RTVSPost2010Prop43
 90
        3
102
RTVSPost2010PropOp43
 70
     1
102
RTVSPost2010Prop44ColorIndex
 90
        5
102
RTVSPost2010Prop44ColorRGB
 90
      255
102
RTVSPost2010PropOp44
 70
     1
102
RTVSPost2010Prop45
280
     0
102
RTVSPost2010PropOp45
 70
     1
102
RTVSPost2010Prop46
 90
       50
102
RTVSPost2010PropOp46
 70
     1
102
RTVSPost2010Prop47
 90
       50
102
RTVSPost2010PropOp47
 70
     1
102
RTVSPost2010Prop48
 90
       50
102
RTVSPost2010PropOp48
 70
     1
102
RTVSPost2010Prop49
280
     0
102
RTVSPost2010PropOp49
 70
     1
102
RTVSPost2010Prop50
 90
       50
102
RTVSPost2010PropOp50
 70
     1
102
RTVSPost2010Prop51ColorIndex
 90
      256
102
RTVSPost2010Prop51ColorRGB
 90
-16777216
102
RTVSPost2010PropOp51
 70
     0
102
RTVSPost2010Prop52
140
1.0
102
RTVSPost2010PropOp52
 70
     0
102
RTVSPost2010Prop53
 90
        2
102
RTVSPost2010PropOp53
 70
     1
102
RTVSPost2010Prop54
  1
strokes_ogs.tif
102
RTVSPost2010PropOp54
 70
     1
102
RTVSPost2010Prop55
280
     0
102
RTVSPost2010PropOp55
 70
     1
102
RTVSPost2010Prop56
140
1.0
102
RTVSPost2010PropOp56
 70
     1
102
RTVSPost2010Prop57
140
1.0
102
RTVSPost2010PropOp57
 70
     1
  0
XRECORD
  5
268
102
{ACAD_REACTORS
330
267
102
}
330
267
100
AcDbXrecord
280
     1
102
RTVSPropertyOp0
 70
     0
102
RTVSPropertyOp1
 70
     0
102
RTVSPropertyOp2
 70
     0
102
RTVSPropertyOp3
 70
     0
102
RTVSPropertyOp4
 70
     0
102
RTVSPropertyOp5
 70
     0
102
RTVSPropertyOp6
 70
     0
102
RTVSPropertyOp7
 70
     0
102
RTVSPropertyOp8
 70
     0
102
RTVSPropertyOp9
 70
     0
102
RTVSPropertyOp10
 70
     0
102
RTVSPropertyOp11
 70
     0
102
RTVSPropertyOp12
 70
     0
102
RTVSPropertyOp13
 70
     0
102
RTVSPropertyOp14
 70
     2
102
RTVSPropertyOp15
 70
     0
102
RTVSPropertyOp16
 70
     0
102
RTVSPropertyOp17
 70
     0
102
RTVSPropertyOp18
 70
     0
102
RTVSPropertyOp19
 70
     0
102
RTVSPropertyOp20
 70
     0
102
RTVSPropertyOp21
 70
     0
102
RTVSPropertyOp22
 70
     0
102
RTVSPropertyOp23
 70
     0
102
RTVSPropertyOp24
 70
     0
102
RTVSPropertyOp25
 70
     0
102
RTVSPropertyOp26
 70
     0
102
RTVSPropertyOp27
 70
     0
102
RTVSPropertyOp28
 70
     0
102
RTVSPropertyOp29
 70
     0
102
RTVSPropertyOp30
 70
     0
102
RTVSPropertyOp31
 70
     0
102
RTVSPropertyOp32
 70
     0
102
RTVSPropertyOp33
 70
     0
102
RTVSPropertyOp34
 70
     0
102
RTVSPropertyOp35
 70
     0
102
RTVSPropertyOp36
 70
     0
102
RTVSPropertyOp37
 70
     0
102
RTVSPropertyOp38
 70
     0
102
RTVSPropertyOp39
 70
     0
102
RTVSPropertyOp40
 70
     0
102
RTVSPropertyOp41
 70
     0
102
RTVSPropertyOp42
 70
     0
102
RTVSPropertyOp43
 70
     0
102
RTVSPropertyOp44
 70
     0
102
RTVSPropertyOp45
 70
     0
102
RTVSPropertyOp46
 70
     0
102
RTVSPropertyOp47
 70
     0
102
RTVSPropertyOp48
 70
     0
102
RTVSPropertyOp49
 70
     0
102
RTVSPropertyOp50
 70
     0
102
RTVSPropertyOp51
 70
     0
102
RTVSPropertyOp52
 70
     0
102
RTVSPropertyOp53
 70
     0
102
RTVSPropertyOp54
 70
     0
102
RTVSPropertyOp55
 70
     0
102
RTVSPropertyOp56
 70
     0
102
RTVSPropertyOp57
 70
     0
102
RTVSPost2010Prop28
280
     0
102
RTVSPost2010PropOp28
 70
     0
102
RTVSPost2010Prop29
280
     1
102
RTVSPost2010PropOp29
 70
     0
102
RTVSPost2010Prop30
280
     1
102
RTVSPost2010PropOp30
 70
     0
102
RTVSPost2010Prop31
280
     0
102
RTVSPost2010PropOp31
 70
     0
102
RTVSPost2010Prop32
280
     0
102
RTVSPost2010PropOp32
 70
     0
102
RTVSPost2010Prop33
280
     0
102
RTVSPost2010PropOp33
 70
     0
102
RTVSPost2010Prop34
280
     0
102
RTVSPost2010PropOp34
 70
     0
102
RTVSPost2010Prop35
280
     0
102
RTVSPost2010PropOp35
 70
     0
102
RTVSPost2010Prop36
280
     0
102
RTVSPost2010PropOp36
 70
     0
102
RTVSPost2010Prop37
 90
       50
102
RTVSPost2010PropOp37
 70
     0
102
RTVSPost2010Prop38
140
0.0
102
RTVSPost2010PropOp38
 70
     0
102
RTVSPost2010Prop39
140
1.0
102
RTVSPost2010PropOp39
 70
     0
102
RTVSPost2010Prop40
 90
        0
102
RTVSPost2010PropOp40
 70
     0
102
RTVSPost2010Prop41ColorIndex
 90
       18
102
RTVSPost2010Prop41ColorRGB
 90
        0
102
RTVSPost2010PropOp41
 70
     0
102
RTVSPost2010Prop42
 90
       50
102
RTVSPost2010PropOp42
 70
     0
102
RTVSPost2010Prop43
 90
        3
102
RTVSPost2010PropOp43
 70
     0
102
RTVSPost2010Prop44ColorIndex
 90
        5
102
RTVSPost2010Prop44ColorRGB
 90
      255
102
RTVSPost2010PropOp44
 70
     0
102
RTVSPost2010Prop45
280
     0
102
RTVSPost2010PropOp45
 70
     0
102
RTVSPost2010Prop46
 90
       50
102
RTVSPost2010PropOp46
 70
     0
102
RTVSPost2010Prop47
 90
       50
102
RTVSPost2010PropOp47
 70
     0
102
RTVSPost2010Prop48
 90
       50
102
RTVSPost2010PropOp48
 70
     0
102
RTVSPost2010Prop49
280
     0
102
RTVSPost2010PropOp49
 70
     0
102
RTVSPost2010Prop50
 90
       50
102
RTVSPost2010PropOp50
 70
     0
102
RTVSPost2010Prop51ColorIndex
 90
      256
102
RTVSPost2010Prop51ColorRGB
 90
-16777216
102
RTVSPost2010PropOp51
 70
     0
102
RTVSPost2010Prop52
140
1.0
102
RTVSPost2010PropOp52
 70
     0
102
RTVSPost2010Prop53
 90
        2
102
RTVSPost2010PropOp53
 70
     0
102
RTVSPost2010Prop54
  1
strokes_ogs.tif
102
RTVSPost2010PropOp54
 70
     0
102
RTVSPost2010Prop55
280
     0
102
RTVSPost2010PropOp55
 70
     0
102
RTVSPost2010Prop56
140
1.0
102
RTVSPost2010PropOp56
 70
     0
102
RTVSPost2010Prop57
140
1.0
102
RTVSPost2010PropOp57
 70
     0
  0
XRECORD
  5
262
102
{ACAD_REACTORS
330
261
102
}
330
261
100
AcDbXrecord
280
     1
102
RTVSPropertyOp0
 70
     1
102
RTVSPropertyOp1
 70
     1
102
RTVSPropertyOp2
 70
     1
102
RTVSPropertyOp3
 70
     1
102
RTVSPropertyOp4
 70
     1
102
RTVSPropertyOp5
 70
     1
102
RTVSPropertyOp6
 70
     1
102
RTVSPropertyOp7
 70
     1
102
RTVSPropertyOp8
 70
     1
102
RTVSPropertyOp9
 70
     1
102
RTVSPropertyOp10
 70
     1
102
RTVSPropertyOp11
 70
     1
102
RTVSPropertyOp12
 70
     1
102
RTVSPropertyOp13
 70
     1
102
RTVSPropertyOp14
 70
     1
102
RTVSPropertyOp15
 70
     1
102
RTVSPropertyOp16
 70
     1
102
RTVSPropertyOp17
 70
     1
102
RTVSPropertyOp18
 70
     1
102
RTVSPropertyOp19
 70
     1
102
RTVSPropertyOp20
 70
     1
102
RTVSPropertyOp21
 70
     1
102
RTVSPropertyOp22
 70
     1
102
RTVSPropertyOp23
 70
     1
102
RTVSPropertyOp24
 70
     1
102
RTVSPropertyOp25
 70
     1
102
RTVSPropertyOp26
 70
     1
102
RTVSPropertyOp27
 70
     1
102
RTVSPropertyOp28
 70
     1
102
RTVSPropertyOp29
 70
     1
102
RTVSPropertyOp30
 70
     1
102
RTVSPropertyOp31
 70
     1
102
RTVSPropertyOp32
 70
     1
102
RTVSPropertyOp33
 70
     1
102
RTVSPropertyOp34
 70
     1
102
RTVSPropertyOp35
 70
     1
102
RTVSPropertyOp36
 70
     1
102
RTVSPropertyOp37
 70
     1
102
RTVSPropertyOp38
 70
     1
102
RTVSPropertyOp39
 70
     1
102
RTVSPropertyOp40
 70
     1
102
RTVSPropertyOp41
 70
     1
102
RTVSPropertyOp42
 70
     1
102
RTVSPropertyOp43
 70
     1
102
RTVSPropertyOp44
 70
     1
102
RTVSPropertyOp45
 70
     1
102
RTVSPropertyOp46
 70
     1
102
RTVSPropertyOp47
 70
     1
102
RTVSPropertyOp48
 70
     1
102
RTVSPropertyOp49
 70
     1
102
RTVSPropertyOp50
 70
     1
102
RTVSPropertyOp51
 70
     0
102
RTVSPropertyOp52
 70
     0
102
RTVSPropertyOp53
 70
     1
102
RTVSPropertyOp54
 70
     1
102
RTVSPropertyOp55
 70
     1
102
RTVSPropertyOp56
 70
     1
102
RTVSPropertyOp57
 70
     1
102
RTVSPost2010Prop28
280
     0
102
RTVSPost2010PropOp28
 70
     1
102
RTVSPost2010Prop29
280
     1
102
RTVSPost2010PropOp29
 70
     1
102
RTVSPost2010Prop30
280
     1
102
RTVSPost2010PropOp30
 70
     1
102
RTVSPost2010Prop31
280
     0
102
RTVSPost2010PropOp31
 70
     1
102
RTVSPost2010Prop32
280
     0
102
RTVSPost2010PropOp32
 70
     1
102
RTVSPost2010Prop33
280
     0
102
RTVSPost2010PropOp33
 70
     1
102
RTVSPost2010Prop34
280
     0
102
RTVSPost2010PropOp34
 70
     1
102
RTVSPost2010Prop35
280
     0
102
RTVSPost2010PropOp35
 70
     1
102
RTVSPost2010Prop36
280
     0
102
RTVSPost2010PropOp36
 70
     1
102
RTVSPost2010Prop37
 90
       50
102
RTVSPost2010PropOp37
 70
     1
102
RTVSPost2010Prop38
140
0.0
102
RTVSPost2010PropOp38
 70
     1
102
RTVSPost2010Prop39
140
1.0
102
RTVSPost2010PropOp39
 70
     1
102
RTVSPost2010Prop40
 90
        0
102
RTVSPost2010PropOp40
 70
     1
102
RTVSPost2010Prop41ColorIndex
 90
       18
102
RTVSPost2010Prop41ColorRGB
 90
        0
102
RTVSPost2010PropOp41
 70
     1
102
RTVSPost2010Prop42
 90
       50
102
RTVSPost2010PropOp42
 70
     1
102
RTVSPost2010Prop43
 90
        3
102
RTVSPost2010PropOp43
 70
     1
102
RTVSPost2010Prop44ColorIndex
 90
        5
102
RTVSPost2010Prop44ColorRGB
 90
      255
102
RTVSPost2010PropOp44
 70
     1
102
RTVSPost2010Prop45
280
     0
102
RTVSPost2010PropOp45
 70
     1
102
RTVSPost2010Prop46
 90
       50
102
RTVSPost2010PropOp46
 70
     1
102
RTVSPost2010Prop47
 90
       50
102
RTVSPost2010PropOp47
 70
     1
102
RTVSPost2010Prop48
 90
       50
102
RTVSPost2010PropOp48
 70
     1
102
RTVSPost2010Prop49
280
     0
102
RTVSPost2010PropOp49
 70
     1
102
RTVSPost2010Prop50
 90
       50
102
RTVSPost2010PropOp50
 70
     1
102
RTVSPost2010Prop51ColorIndex
 90
      256
102
RTVSPost2010Prop51ColorRGB
 90
-16777216
102
RTVSPost2010PropOp51
 70
     0
102
RTVSPost2010Prop52
140
1.0
102
RTVSPost2010PropOp52
 70
     0
102
RTVSPost2010Prop53
 90
        2
102
RTVSPost2010PropOp53
 70
     1
102
RTVSPost2010Prop54
  1
strokes_ogs.tif
102
RTVSPost2010PropOp54
 70
     1
102
RTVSPost2010Prop55
280
     0
102
RTVSPost2010PropOp55
 70
     1
102
RTVSPost2010Prop56
140
1.0
102
RTVSPost2010PropOp56
 70
     1
102
RTVSPost2010Prop57
140
1.0
102
RTVSPost2010PropOp57
 70
     1
  0
XRECORD
  5
26A
102
{ACAD_REACTORS
330
269
102
}
330
269
100
AcDbXrecord
280
     1
102
RTVSPropertyOp0
 70
     0
102
RTVSPropertyOp1
 70
     0
102
RTVSPropertyOp2
 70
     0
102
RTVSPropertyOp3
 70
     0
102
RTVSPropertyOp4
 70
     0
102
RTVSPropertyOp5
 70
     0
102
RTVSPropertyOp6
 70
     0
102
RTVSPropertyOp7
 70
     0
102
RTVSPropertyOp8
 70
     0
102
RTVSPropertyOp9
 70
     0
102
RTVSPropertyOp10
 70
     0
102
RTVSPropertyOp11
 70
     0
102
RTVSPropertyOp12
 70
     0
102
RTVSPropertyOp13
 70
     0
102
RTVSPropertyOp14
 70
     2
102
RTVSPropertyOp15
 70
     0
102
RTVSPropertyOp16
 70
     0
102
RTVSPropertyOp17
 70
     0
102
RTVSPropertyOp18
 70
     0
102
RTVSPropertyOp19
 70
     0
102
RTVSPropertyOp20
 70
     0
102
RTVSPropertyOp21
 70
     0
102
RTVSPropertyOp22
 70
     0
102
RTVSPropertyOp23
 70
     0
102
RTVSPropertyOp24
 70
     0
102
RTVSPropertyOp25
 70
     0
102
RTVSPropertyOp26
 70
     0
102
RTVSPropertyOp27
 70
     0
102
RTVSPropertyOp28
 70
     0
102
RTVSPropertyOp29
 70
     0
102
RTVSPropertyOp30
 70
     0
102
RTVSPropertyOp31
 70
     0
102
RTVSPropertyOp32
 70
     0
102
RTVSPropertyOp33
 70
     0
102
RTVSPropertyOp34
 70
     0
102
RTVSPropertyOp35
 70
     0
102
RTVSPropertyOp36
 70
     0
102
RTVSPropertyOp37
 70
     0
102
RTVSPropertyOp38
 70
     0
102
RTVSPropertyOp39
 70
     0
102
RTVSPropertyOp40
 70
     0
102
RTVSPropertyOp41
 70
     0
102
RTVSPropertyOp42
 70
     0
102
RTVSPropertyOp43
 70
     0
102
RTVSPropertyOp44
 70
     0
102
RTVSPropertyOp45
 70
     0
102
RTVSPropertyOp46
 70
     0
102
RTVSPropertyOp47
 70
     0
102
RTVSPropertyOp48
 70
     0
102
RTVSPropertyOp49
 70
     0
102
RTVSPropertyOp50
 70
     0
102
RTVSPropertyOp51
 70
     0
102
RTVSPropertyOp52
 70
     0
102
RTVSPropertyOp53
 70
     0
102
RTVSPropertyOp54
 70
     0
102
RTVSPropertyOp55
 70
     0
102
RTVSPropertyOp56
 70
     0
102
RTVSPropertyOp57
 70
     0
102
RTVSPost2010Prop28
280
     0
102
RTVSPost2010PropOp28
 70
     0
102
RTVSPost2010Prop29
280
     1
102
RTVSPost2010PropOp29
 70
     0
102
RTVSPost2010Prop30
280
     1
102
RTVSPost2010PropOp30
 70
     0
102
RTVSPost2010Prop31
280
     0
102
RTVSPost2010PropOp31
 70
     0
102
RTVSPost2010Prop32
280
     0
102
RTVSPost2010PropOp32
 70
     0
102
RTVSPost2010Prop33
280
     0
102
RTVSPost2010PropOp33
 70
     0
102
RTVSPost2010Prop34
280
     0
102
RTVSPost2010PropOp34
 70
     0
102
RTVSPost2010Prop35
280
     0
102
RTVSPost2010PropOp35
 70
     0
102
RTVSPost2010Prop36
280
     0
102
RTVSPost2010PropOp36
 70
     0
102
RTVSPost2010Prop37
 90
       50
102
RTVSPost2010PropOp37
 70
     0
102
RTVSPost2010Prop38
140
0.0
102
RTVSPost2010PropOp38
 70
     0
102
RTVSPost2010Prop39
140
1.0
102
RTVSPost2010PropOp39
 70
     0
102
RTVSPost2010Prop40
 90
        0
102
RTVSPost2010PropOp40
 70
     0
102
RTVSPost2010Prop41ColorIndex
 90
       18
102
RTVSPost2010Prop41ColorRGB
 90
        0
102
RTVSPost2010PropOp41
 70
     0
102
RTVSPost2010Prop42
 90
       50
102
RTVSPost2010PropOp42
 70
     0
102
RTVSPost2010Prop43
 90
        3
102
RTVSPost2010PropOp43
 70
     0
102
RTVSPost2010Prop44ColorIndex
 90
        5
102
RTVSPost2010Prop44ColorRGB
 90
      255
102
RTVSPost2010PropOp44
 70
     0
102
RTVSPost2010Prop45
280
     0
102
RTVSPost2010PropOp45
 70
     0
102
RTVSPost2010Prop46
 90
       50
102
RTVSPost2010PropOp46
 70
     0
102
RTVSPost2010Prop47
 90
       50
102
RTVSPost2010PropOp47
 70
     0
102
RTVSPost2010Prop48
 90
       50
102
RTVSPost2010PropOp48
 70
     0
102
RTVSPost2010Prop49
280
     0
102
RTVSPost2010PropOp49
 70
     0
102
RTVSPost2010Prop50
 90
       50
102
RTVSPost2010PropOp50
 70
     0
102
RTVSPost2010Prop51ColorIndex
 90
      256
102
RTVSPost2010Prop51ColorRGB
 90
-16777216
102
RTVSPost2010PropOp51
 70
     0
102
RTVSPost2010Prop52
140
1.0
102
RTVSPost2010PropOp52
 70
     0
102
RTVSPost2010Prop53
 90
        2
102
RTVSPost2010PropOp53
 70
     0
102
RTVSPost2010Prop54
  1
strokes_ogs.tif
102
RTVSPost2010PropOp54
 70
     0
102
RTVSPost2010Prop55
280
     0
102
RTVSPost2010PropOp55
 70
     0
102
RTVSPost2010Prop56
140
1.0
102
RTVSPost2010PropOp56
 70
     0
102
RTVSPost2010Prop57
140
1.0
102
RTVSPost2010PropOp57
 70
     0
  0
XRECORD
  5
258
102
{ACAD_REACTORS
330
257
102
}
330
257
100
AcDbXrecord
280
     1
102
RTVSPropertyOp0
 70
     1
102
RTVSPropertyOp1
 70
     1
102
RTVSPropertyOp2
 70
     1
102
RTVSPropertyOp3
 70
     1
102
RTVSPropertyOp4
 70
     1
102
RTVSPropertyOp5
 70
     1
102
RTVSPropertyOp6
 70
     1
102
RTVSPropertyOp7
 70
     1
102
RTVSPropertyOp8
 70
     1
102
RTVSPropertyOp9
 70
     1
102
RTVSPropertyOp10
 70
     1
102
RTVSPropertyOp11
 70
     1
102
RTVSPropertyOp12
 70
     1
102
RTVSPropertyOp13
 70
     1
102
RTVSPropertyOp14
 70
     1
102
RTVSPropertyOp15
 70
     1
102
RTVSPropertyOp16
 70
     1
102
RTVSPropertyOp17
 70
     1
102
RTVSPropertyOp18
 70
     1
102
RTVSPropertyOp19
 70
     1
102
RTVSPropertyOp20
 70
     1
102
RTVSPropertyOp21
 70
     1
102
RTVSPropertyOp22
 70
     1
102
RTVSPropertyOp23
 70
     1
102
RTVSPropertyOp24
 70
     1
102
RTVSPropertyOp25
 70
     1
102
RTVSPropertyOp26
 70
     1
102
RTVSPropertyOp27
 70
     1
102
RTVSPropertyOp28
 70
     1
102
RTVSPropertyOp29
 70
     1
102
RTVSPropertyOp30
 70
     1
102
RTVSPropertyOp31
 70
     1
102
RTVSPropertyOp32
 70
     1
102
RTVSPropertyOp33
 70
     1
102
RTVSPropertyOp34
 70
     1
102
RTVSPropertyOp35
 70
     1
102
RTVSPropertyOp36
 70
     1
102
RTVSPropertyOp37
 70
     1
102
RTVSPropertyOp38
 70
     1
102
RTVSPropertyOp39
 70
     1
102
RTVSPropertyOp40
 70
     1
102
RTVSPropertyOp41
 70
     1
102
RTVSPropertyOp42
 70
     1
102
RTVSPropertyOp43
 70
     1
102
RTVSPropertyOp44
 70
     1
102
RTVSPropertyOp45
 70
     1
102
RTVSPropertyOp46
 70
     1
102
RTVSPropertyOp47
 70
     1
102
RTVSPropertyOp48
 70
     1
102
RTVSPropertyOp49
 70
     1
102
RTVSPropertyOp50
 70
     1
102
RTVSPropertyOp51
 70
     0
102
RTVSPropertyOp52
 70
     0
102
RTVSPropertyOp53
 70
     1
102
RTVSPropertyOp54
 70
     1
102
RTVSPropertyOp55
 70
     1
102
RTVSPropertyOp56
 70
     1
102
RTVSPropertyOp57
 70
     1
102
RTVSPost2010Prop28
280
     0
102
RTVSPost2010PropOp28
 70
     1
102
RTVSPost2010Prop29
280
     1
102
RTVSPost2010PropOp29
 70
     1
102
RTVSPost2010Prop30
280
     1
102
RTVSPost2010PropOp30
 70
     1
102
RTVSPost2010Prop31
280
     0
102
RTVSPost2010PropOp31
 70
     1
102
RTVSPost2010Prop32
280
     0
102
RTVSPost2010PropOp32
 70
     1
102
RTVSPost2010Prop33
280
     0
102
RTVSPost2010PropOp33
 70
     1
102
RTVSPost2010Prop34
280
     0
102
RTVSPost2010PropOp34
 70
     1
102
RTVSPost2010Prop35
280
     0
102
RTVSPost2010PropOp35
 70
     1
102
RTVSPost2010Prop36
280
     0
102
RTVSPost2010PropOp36
 70
     1
102
RTVSPost2010Prop37
 90
       50
102
RTVSPost2010PropOp37
 70
     1
102
RTVSPost2010Prop38
140
0.0
102
RTVSPost2010PropOp38
 70
     1
102
RTVSPost2010Prop39
140
1.0
102
RTVSPost2010PropOp39
 70
     1
102
RTVSPost2010Prop40
 90
        0
102
RTVSPost2010PropOp40
 70
     1
102
RTVSPost2010Prop41ColorIndex
 90
       18
102
RTVSPost2010Prop41ColorRGB
 90
        0
102
RTVSPost2010PropOp41
 70
     1
102
RTVSPost2010Prop42
 90
       50
102
RTVSPost2010PropOp42
 70
     1
102
RTVSPost2010Prop43
 90
        3
102
RTVSPost2010PropOp43
 70
     1
102
RTVSPost2010Prop44ColorIndex
 90
        5
102
RTVSPost2010Prop44ColorRGB
 90
      255
102
RTVSPost2010PropOp44
 70
     1
102
RTVSPost2010Prop45
280
     0
102
RTVSPost2010PropOp45
 70
     1
102
RTVSPost2010Prop46
 90
       50
102
RTVSPost2010PropOp46
 70
     1
102
RTVSPost2010Prop47
 90
       50
102
RTVSPost2010PropOp47
 70
     1
102
RTVSPost2010Prop48
 90
       50
102
RTVSPost2010PropOp48
 70
     1
102
RTVSPost2010Prop49
280
     0
102
RTVSPost2010PropOp49
 70
     1
102
RTVSPost2010Prop50
 90
       50
102
RTVSPost2010PropOp50
 70
     1
102
RTVSPost2010Prop51ColorIndex
 90
      256
102
RTVSPost2010Prop51ColorRGB
 90
-16777216
102
RTVSPost2010PropOp51
 70
     0
102
RTVSPost2010Prop52
140
1.0
102
RTVSPost2010PropOp52
 70
     0
102
RTVSPost2010Prop53
 90
        2
102
RTVSPost2010PropOp53
 70
     1
102
RTVSPost2010Prop54
  1
strokes_ogs.tif
102
RTVSPost2010PropOp54
 70
     1
102
RTVSPost2010Prop55
280
     0
102
RTVSPost2010PropOp55
 70
     1
102
RTVSPost2010Prop56
140
1.0
102
RTVSPost2010PropOp56
 70
     1
102
RTVSPost2010Prop57
140
1.0
102
RTVSPost2010PropOp57
 70
     1
  0
XRECORD
  5
276
102
{ACAD_REACTORS
330
275
102
}
330
275
100
AcDbXrecord
280
     1
102
RTVSPropertyOp0
 70
     1
102
RTVSPropertyOp1
 70
     1
102
RTVSPropertyOp2
 70
     1
102
RTVSPropertyOp3
 70
     1
102
RTVSPropertyOp4
 70
     1
102
RTVSPropertyOp5
 70
     1
102
RTVSPropertyOp6
 70
     1
102
RTVSPropertyOp7
 70
     1
102
RTVSPropertyOp8
 70
     1
102
RTVSPropertyOp9
 70
     1
102
RTVSPropertyOp10
 70
     1
102
RTVSPropertyOp11
 70
     1
102
RTVSPropertyOp12
 70
     1
102
RTVSPropertyOp13
 70
     1
102
RTVSPropertyOp14
 70
     1
102
RTVSPropertyOp15
 70
     1
102
RTVSPropertyOp16
 70
     1
102
RTVSPropertyOp17
 70
     1
102
RTVSPropertyOp18
 70
     1
102
RTVSPropertyOp19
 70
     1
102
RTVSPropertyOp20
 70
     1
102
RTVSPropertyOp21
 70
     1
102
RTVSPropertyOp22
 70
     1
102
RTVSPropertyOp23
 70
     1
102
RTVSPropertyOp24
 70
     1
102
RTVSPropertyOp25
 70
     1
102
RTVSPropertyOp26
 70
     1
102
RTVSPropertyOp27
 70
     1
102
RTVSPropertyOp28
 70
     1
102
RTVSPropertyOp29
 70
     1
102
RTVSPropertyOp30
 70
     1
102
RTVSPropertyOp31
 70
     1
102
RTVSPropertyOp32
 70
     1
102
RTVSPropertyOp33
 70
     1
102
RTVSPropertyOp34
 70
     1
102
RTVSPropertyOp35
 70
     1
102
RTVSPropertyOp36
 70
     1
102
RTVSPropertyOp37
 70
     1
102
RTVSPropertyOp38
 70
     1
102
RTVSPropertyOp39
 70
     1
102
RTVSPropertyOp40
 70
     1
102
RTVSPropertyOp41
 70
     1
102
RTVSPropertyOp42
 70
     1
102
RTVSPropertyOp43
 70
     1
102
RTVSPropertyOp44
 70
     1
102
RTVSPropertyOp45
 70
     1
102
RTVSPropertyOp46
 70
     1
102
RTVSPropertyOp47
 70
     1
102
RTVSPropertyOp48
 70
     1
102
RTVSPropertyOp49
 70
     1
102
RTVSPropertyOp50
 70
     1
102
RTVSPropertyOp51
 70
     0
102
RTVSPropertyOp52
 70
     0
102
RTVSPropertyOp53
 70
     1
102
RTVSPropertyOp54
 70
     1
102
RTVSPropertyOp55
 70
     1
102
RTVSPropertyOp56
 70
     1
102
RTVSPropertyOp57
 70
     1
102
RTVSPost2010Prop28
280
     0
102
RTVSPost2010PropOp28
 70
     1
102
RTVSPost2010Prop29
280
     1
102
RTVSPost2010PropOp29
 70
     1
102
RTVSPost2010Prop30
280
     1
102
RTVSPost2010PropOp30
 70
     1
102
RTVSPost2010Prop31
280
     0
102
RTVSPost2010PropOp31
 70
     1
102
RTVSPost2010Prop32
280
     0
102
RTVSPost2010PropOp32
 70
     1
102
RTVSPost2010Prop33
280
     0
102
RTVSPost2010PropOp33
 70
     1
102
RTVSPost2010Prop34
280
     0
102
RTVSPost2010PropOp34
 70
     1
102
RTVSPost2010Prop35
280
     0
102
RTVSPost2010PropOp35
 70
     1
102
RTVSPost2010Prop36
280
     0
102
RTVSPost2010PropOp36
 70
     1
102
RTVSPost2010Prop37
 90
       50
102
RTVSPost2010PropOp37
 70
     1
102
RTVSPost2010Prop38
140
0.0
102
RTVSPost2010PropOp38
 70
     1
102
RTVSPost2010Prop39
140
1.0
102
RTVSPost2010PropOp39
 70
     1
102
RTVSPost2010Prop40
 90
        0
102
RTVSPost2010PropOp40
 70
     1
102
RTVSPost2010Prop41ColorIndex
 90
       18
102
RTVSPost2010Prop41ColorRGB
 90
        0
102
RTVSPost2010PropOp41
 70
     1
102
RTVSPost2010Prop42
 90
       50
102
RTVSPost2010PropOp42
 70
     1
102
RTVSPost2010Prop43
 90
        3
102
RTVSPost2010PropOp43
 70
     1
102
RTVSPost2010Prop44ColorIndex
 90
        5
102
RTVSPost2010Prop44ColorRGB
 90
      255
102
RTVSPost2010PropOp44
 70
     1
102
RTVSPost2010Prop45
280
     0
102
RTVSPost2010PropOp45
 70
     1
102
RTVSPost2010Prop46
 90
       50
102
RTVSPost2010PropOp46
 70
     1
102
RTVSPost2010Prop47
 90
       50
102
RTVSPost2010PropOp47
 70
     1
102
RTVSPost2010Prop48
 90
       50
102
RTVSPost2010PropOp48
 70
     1
102
RTVSPost2010Prop49
280
     0
102
RTVSPost2010PropOp49
 70
     1
102
RTVSPost2010Prop50
 90
       50
102
RTVSPost2010PropOp50
 70
     1
102
RTVSPost2010Prop51ColorIndex
 90
      256
102
RTVSPost2010Prop51ColorRGB
 90
-16777216
102
RTVSPost2010PropOp51
 70
     0
102
RTVSPost2010Prop52
140
1.0
102
RTVSPost2010PropOp52
 70
     0
102
RTVSPost2010Prop53
 90
        2
102
RTVSPost2010PropOp53
 70
     1
102
RTVSPost2010Prop54
  1
strokes_ogs.tif
102
RTVSPost2010PropOp54
 70
     1
102
RTVSPost2010Prop55
280
     0
102
RTVSPost2010PropOp55
 70
     1
102
RTVSPost2010Prop56
140
1.0
102
RTVSPost2010PropOp56
 70
     1
102
RTVSPost2010Prop57
140
1.0
102
RTVSPost2010PropOp57
 70
     1
  0
XRECORD
  5
274
102
{ACAD_REACTORS
330
273
102
}
330
273
100
AcDbXrecord
280
     1
102
RTVSPropertyOp0
 70
     1
102
RTVSPropertyOp1
 70
     1
102
RTVSPropertyOp2
 70
     1
102
RTVSPropertyOp3
 70
     1
102
RTVSPropertyOp4
 70
     1
102
RTVSPropertyOp5
 70
     1
102
RTVSPropertyOp6
 70
     1
102
RTVSPropertyOp7
 70
     1
102
RTVSPropertyOp8
 70
     1
102
RTVSPropertyOp9
 70
     1
102
RTVSPropertyOp10
 70
     1
102
RTVSPropertyOp11
 70
     1
102
RTVSPropertyOp12
 70
     1
102
RTVSPropertyOp13
 70
     1
102
RTVSPropertyOp14
 70
     1
102
RTVSPropertyOp15
 70
     1
102
RTVSPropertyOp16
 70
     1
102
RTVSPropertyOp17
 70
     1
102
RTVSPropertyOp18
 70
     1
102
RTVSPropertyOp19
 70
     1
102
RTVSPropertyOp20
 70
     1
102
RTVSPropertyOp21
 70
     1
102
RTVSPropertyOp22
 70
     1
102
RTVSPropertyOp23
 70
     1
102
RTVSPropertyOp24
 70
     1
102
RTVSPropertyOp25
 70
     1
102
RTVSPropertyOp26
 70
     1
102
RTVSPropertyOp27
 70
     1
102
RTVSPropertyOp28
 70
     1
102
RTVSPropertyOp29
 70
     1
102
RTVSPropertyOp30
 70
     1
102
RTVSPropertyOp31
 70
     1
102
RTVSPropertyOp32
 70
     1
102
RTVSPropertyOp33
 70
     1
102
RTVSPropertyOp34
 70
     1
102
RTVSPropertyOp35
 70
     1
102
RTVSPropertyOp36
 70
     1
102
RTVSPropertyOp37
 70
     1
102
RTVSPropertyOp38
 70
     1
102
RTVSPropertyOp39
 70
     1
102
RTVSPropertyOp40
 70
     1
102
RTVSPropertyOp41
 70
     1
102
RTVSPropertyOp42
 70
     1
102
RTVSPropertyOp43
 70
     1
102
RTVSPropertyOp44
 70
     1
102
RTVSPropertyOp45
 70
     1
102
RTVSPropertyOp46
 70
     1
102
RTVSPropertyOp47
 70
     1
102
RTVSPropertyOp48
 70
     1
102
RTVSPropertyOp49
 70
     1
102
RTVSPropertyOp50
 70
     1
102
RTVSPropertyOp51
 70
     0
102
RTVSPropertyOp52
 70
     0
102
RTVSPropertyOp53
 70
     1
102
RTVSPropertyOp54
 70
     1
102
RTVSPropertyOp55
 70
     1
102
RTVSPropertyOp56
 70
     1
102
RTVSPropertyOp57
 70
     1
102
RTVSPost2010Prop28
280
     0
102
RTVSPost2010PropOp28
 70
     1
102
RTVSPost2010Prop29
280
     1
102
RTVSPost2010PropOp29
 70
     1
102
RTVSPost2010Prop30
280
     1
102
RTVSPost2010PropOp30
 70
     1
102
RTVSPost2010Prop31
280
     0
102
RTVSPost2010PropOp31
 70
     1
102
RTVSPost2010Prop32
280
     0
102
RTVSPost2010PropOp32
 70
     1
102
RTVSPost2010Prop33
280
     0
102
RTVSPost2010PropOp33
 70
     1
102
RTVSPost2010Prop34
280
     0
102
RTVSPost2010PropOp34
 70
     1
102
RTVSPost2010Prop35
280
     0
102
RTVSPost2010PropOp35
 70
     1
102
RTVSPost2010Prop36
280
     0
102
RTVSPost2010PropOp36
 70
     1
102
RTVSPost2010Prop37
 90
       50
102
RTVSPost2010PropOp37
 70
     1
102
RTVSPost2010Prop38
140
0.0
102
RTVSPost2010PropOp38
 70
     1
102
RTVSPost2010Prop39
140
1.0
102
RTVSPost2010PropOp39
 70
     1
102
RTVSPost2010Prop40
 90
        0
102
RTVSPost2010PropOp40
 70
     1
102
RTVSPost2010Prop41ColorIndex
 90
       18
102
RTVSPost2010Prop41ColorRGB
 90
        0
102
RTVSPost2010PropOp41
 70
     1
102
RTVSPost2010Prop42
 90
       50
102
RTVSPost2010PropOp42
 70
     1
102
RTVSPost2010Prop43
 90
        3
102
RTVSPost2010PropOp43
 70
     1
102
RTVSPost2010Prop44ColorIndex
 90
        5
102
RTVSPost2010Prop44ColorRGB
 90
      255
102
RTVSPost2010PropOp44
 70
     1
102
RTVSPost2010Prop45
280
     0
102
RTVSPost2010PropOp45
 70
     1
102
RTVSPost2010Prop46
 90
       50
102
RTVSPost2010PropOp46
 70
     1
102
RTVSPost2010Prop47
 90
       50
102
RTVSPost2010PropOp47
 70
     1
102
RTVSPost2010Prop48
 90
       50
102
RTVSPost2010PropOp48
 70
     1
102
RTVSPost2010Prop49
280
     0
102
RTVSPost2010PropOp49
 70
     1
102
RTVSPost2010Prop50
 90
       50
102
RTVSPost2010PropOp50
 70
     1
102
RTVSPost2010Prop51ColorIndex
 90
      256
102
RTVSPost2010Prop51ColorRGB
 90
-16777216
102
RTVSPost2010PropOp51
 70
     0
102
RTVSPost2010Prop52
140
1.0
102
RTVSPost2010PropOp52
 70
     0
102
RTVSPost2010Prop53
 90
        2
102
RTVSPost2010PropOp53
 70
     1
102
RTVSPost2010Prop54
  1
strokes_ogs.tif
102
RTVSPost2010PropOp54
 70
     1
102
RTVSPost2010Prop55
280
     0
102
RTVSPost2010PropOp55
 70
     1
102
RTVSPost2010Prop56
140
1.0
102
RTVSPost2010PropOp56
 70
     1
102
RTVSPost2010Prop57
140
1.0
102
RTVSPost2010PropOp57
 70
     1
  0
XRECORD
  5
26E
102
{ACAD_REACTORS
330
26D
102
}
330
26D
100
AcDbXrecord
280
     1
102
RTVSPropertyOp0
 70
     1
102
RTVSPropertyOp1
 70
     1
102
RTVSPropertyOp2
 70
     1
102
RTVSPropertyOp3
 70
     1
102
RTVSPropertyOp4
 70
     1
102
RTVSPropertyOp5
 70
     1
102
RTVSPropertyOp6
 70
     1
102
RTVSPropertyOp7
 70
     1
102
RTVSPropertyOp8
 70
     1
102
RTVSPropertyOp9
 70
     1
102
RTVSPropertyOp10
 70
     1
102
RTVSPropertyOp11
 70
     1
102
RTVSPropertyOp12
 70
     1
102
RTVSPropertyOp13
 70
     1
102
RTVSPropertyOp14
 70
     1
102
RTVSPropertyOp15
 70
     1
102
RTVSPropertyOp16
 70
     1
102
RTVSPropertyOp17
 70
     1
102
RTVSPropertyOp18
 70
     1
102
RTVSPropertyOp19
 70
     1
102
RTVSPropertyOp20
 70
     1
102
RTVSPropertyOp21
 70
     1
102
RTVSPropertyOp22
 70
     1
102
RTVSPropertyOp23
 70
     1
102
RTVSPropertyOp24
 70
     1
102
RTVSPropertyOp25
 70
     1
102
RTVSPropertyOp26
 70
     1
102
RTVSPropertyOp27
 70
     1
102
RTVSPropertyOp28
 70
     1
102
RTVSPropertyOp29
 70
     1
102
RTVSPropertyOp30
 70
     1
102
RTVSPropertyOp31
 70
     1
102
RTVSPropertyOp32
 70
     1
102
RTVSPropertyOp33
 70
     1
102
RTVSPropertyOp34
 70
     1
102
RTVSPropertyOp35
 70
     1
102
RTVSPropertyOp36
 70
     1
102
RTVSPropertyOp37
 70
     1
102
RTVSPropertyOp38
 70
     1
102
RTVSPropertyOp39
 70
     1
102
RTVSPropertyOp40
 70
     1
102
RTVSPropertyOp41
 70
     1
102
RTVSPropertyOp42
 70
     1
102
RTVSPropertyOp43
 70
     1
102
RTVSPropertyOp44
 70
     1
102
RTVSPropertyOp45
 70
     1
102
RTVSPropertyOp46
 70
     1
102
RTVSPropertyOp47
 70
     1
102
RTVSPropertyOp48
 70
     1
102
RTVSPropertyOp49
 70
     1
102
RTVSPropertyOp50
 70
     1
102
RTVSPropertyOp51
 70
     0
102
RTVSPropertyOp52
 70
     0
102
RTVSPropertyOp53
 70
     1
102
RTVSPropertyOp54
 70
     1
102
RTVSPropertyOp55
 70
     1
102
RTVSPropertyOp56
 70
     1
102
RTVSPropertyOp57
 70
     1
102
RTVSPost2010Prop28
280
     0
102
RTVSPost2010PropOp28
 70
     1
102
RTVSPost2010Prop29
280
     1
102
RTVSPost2010PropOp29
 70
     1
102
RTVSPost2010Prop30
280
     1
102
RTVSPost2010PropOp30
 70
     1
102
RTVSPost2010Prop31
280
     0
102
RTVSPost2010PropOp31
 70
     1
102
RTVSPost2010Prop32
280
     0
102
RTVSPost2010PropOp32
 70
     1
102
RTVSPost2010Prop33
280
     0
102
RTVSPost2010PropOp33
 70
     1
102
RTVSPost2010Prop34
280
     0
102
RTVSPost2010PropOp34
 70
     1
102
RTVSPost2010Prop35
280
     0
102
RTVSPost2010PropOp35
 70
     1
102
RTVSPost2010Prop36
280
     0
102
RTVSPost2010PropOp36
 70
     1
102
RTVSPost2010Prop37
 90
       50
102
RTVSPost2010PropOp37
 70
     1
102
RTVSPost2010Prop38
140
0.0
102
RTVSPost2010PropOp38
 70
     1
102
RTVSPost2010Prop39
140
1.0
102
RTVSPost2010PropOp39
 70
     1
102
RTVSPost2010Prop40
 90
        0
102
RTVSPost2010PropOp40
 70
     1
102
RTVSPost2010Prop41ColorIndex
 90
       18
102
RTVSPost2010Prop41ColorRGB
 90
        0
102
RTVSPost2010PropOp41
 70
     1
102
RTVSPost2010Prop42
 90
       50
102
RTVSPost2010PropOp42
 70
     1
102
RTVSPost2010Prop43
 90
        3
102
RTVSPost2010PropOp43
 70
     1
102
RTVSPost2010Prop44ColorIndex
 90
        5
102
RTVSPost2010Prop44ColorRGB
 90
      255
102
RTVSPost2010PropOp44
 70
     1
102
RTVSPost2010Prop45
280
     0
102
RTVSPost2010PropOp45
 70
     1
102
RTVSPost2010Prop46
 90
       50
102
RTVSPost2010PropOp46
 70
     1
102
RTVSPost2010Prop47
 90
       50
102
RTVSPost2010PropOp47
 70
     1
102
RTVSPost2010Prop48
 90
       50
102
RTVSPost2010PropOp48
 70
     1
102
RTVSPost2010Prop49
280
     0
102
RTVSPost2010PropOp49
 70
     1
102
RTVSPost2010Prop50
 90
       50
102
RTVSPost2010PropOp50
 70
     1
102
RTVSPost2010Prop51ColorIndex
 90
      256
102
RTVSPost2010Prop51ColorRGB
 90
-16777216
102
RTVSPost2010PropOp51
 70
     0
102
RTVSPost2010Prop52
140
1.0
102
RTVSPost2010PropOp52
 70
     0
102
RTVSPost2010Prop53
 90
        2
102
RTVSPost2010PropOp53
 70
     1
102
RTVSPost2010Prop54
  1
strokes_ogs.tif
102
RTVSPost2010PropOp54
 70
     1
102
RTVSPost2010Prop55
280
     0
102
RTVSPost2010PropOp55
 70
     1
102
RTVSPost2010Prop56
140
1.0
102
RTVSPost2010PropOp56
 70
     1
102
RTVSPost2010Prop57
140
1.0
102
RTVSPost2010PropOp57
 70
     1
  0
XRECORD
  5
270
102
{ACAD_REACTORS
330
26F
102
}
330
26F
100
AcDbXrecord
280
     1
102
RTVSPropertyOp0
 70
     1
102
RTVSPropertyOp1
 70
     1
102
RTVSPropertyOp2
 70
     1
102
RTVSPropertyOp3
 70
     1
102
RTVSPropertyOp4
 70
     1
102
RTVSPropertyOp5
 70
     1
102
RTVSPropertyOp6
 70
     1
102
RTVSPropertyOp7
 70
     1
102
RTVSPropertyOp8
 70
     1
102
RTVSPropertyOp9
 70
     1
102
RTVSPropertyOp10
 70
     1
102
RTVSPropertyOp11
 70
     1
102
RTVSPropertyOp12
 70
     1
102
RTVSPropertyOp13
 70
     1
102
RTVSPropertyOp14
 70
     1
102
RTVSPropertyOp15
 70
     1
102
RTVSPropertyOp16
 70
     1
102
RTVSPropertyOp17
 70
     1
102
RTVSPropertyOp18
 70
     1
102
RTVSPropertyOp19
 70
     1
102
RTVSPropertyOp20
 70
     1
102
RTVSPropertyOp21
 70
     1
102
RTVSPropertyOp22
 70
     1
102
RTVSPropertyOp23
 70
     1
102
RTVSPropertyOp24
 70
     1
102
RTVSPropertyOp25
 70
     1
102
RTVSPropertyOp26
 70
     1
102
RTVSPropertyOp27
 70
     1
102
RTVSPropertyOp28
 70
     1
102
RTVSPropertyOp29
 70
     1
102
RTVSPropertyOp30
 70
     1
102
RTVSPropertyOp31
 70
     1
102
RTVSPropertyOp32
 70
     1
102
RTVSPropertyOp33
 70
     1
102
RTVSPropertyOp34
 70
     1
102
RTVSPropertyOp35
 70
     1
102
RTVSPropertyOp36
 70
     1
102
RTVSPropertyOp37
 70
     1
102
RTVSPropertyOp38
 70
     1
102
RTVSPropertyOp39
 70
     1
102
RTVSPropertyOp40
 70
     1
102
RTVSPropertyOp41
 70
     1
102
RTVSPropertyOp42
 70
     1
102
RTVSPropertyOp43
 70
     1
102
RTVSPropertyOp44
 70
     1
102
RTVSPropertyOp45
 70
     1
102
RTVSPropertyOp46
 70
     1
102
RTVSPropertyOp47
 70
     1
102
RTVSPropertyOp48
 70
     1
102
RTVSPropertyOp49
 70
     1
102
RTVSPropertyOp50
 70
     1
102
RTVSPropertyOp51
 70
     0
102
RTVSPropertyOp52
 70
     0
102
RTVSPropertyOp53
 70
     1
102
RTVSPropertyOp54
 70
     1
102
RTVSPropertyOp55
 70
     1
102
RTVSPropertyOp56
 70
     1
102
RTVSPropertyOp57
 70
     1
102
RTVSPost2010Prop28
280
     0
102
RTVSPost2010PropOp28
 70
     1
102
RTVSPost2010Prop29
280
     1
102
RTVSPost2010PropOp29
 70
     1
102
RTVSPost2010Prop30
280
     1
102
RTVSPost2010PropOp30
 70
     1
102
RTVSPost2010Prop31
280
     0
102
RTVSPost2010PropOp31
 70
     1
102
RTVSPost2010Prop32
280
     0
102
RTVSPost2010PropOp32
 70
     1
102
RTVSPost2010Prop33
280
     0
102
RTVSPost2010PropOp33
 70
     1
102
RTVSPost2010Prop34
280
     0
102
RTVSPost2010PropOp34
 70
     1
102
RTVSPost2010Prop35
280
     0
102
RTVSPost2010PropOp35
 70
     1
102
RTVSPost2010Prop36
280
     0
102
RTVSPost2010PropOp36
 70
     1
102
RTVSPost2010Prop37
 90
       50
102
RTVSPost2010PropOp37
 70
     1
102
RTVSPost2010Prop38
140
0.0
102
RTVSPost2010PropOp38
 70
     1
102
RTVSPost2010Prop39
140
1.0
102
RTVSPost2010PropOp39
 70
     1
102
RTVSPost2010Prop40
 90
        0
102
RTVSPost2010PropOp40
 70
     1
102
RTVSPost2010Prop41ColorIndex
 90
       18
102
RTVSPost2010Prop41ColorRGB
 90
        0
102
RTVSPost2010PropOp41
 70
     1
102
RTVSPost2010Prop42
 90
       50
102
RTVSPost2010PropOp42
 70
     1
102
RTVSPost2010Prop43
 90
        3
102
RTVSPost2010PropOp43
 70
     1
102
RTVSPost2010Prop44ColorIndex
 90
        5
102
RTVSPost2010Prop44ColorRGB
 90
      255
102
RTVSPost2010PropOp44
 70
     1
102
RTVSPost2010Prop45
280
     0
102
RTVSPost2010PropOp45
 70
     1
102
RTVSPost2010Prop46
 90
       50
102
RTVSPost2010PropOp46
 70
     1
102
RTVSPost2010Prop47
 90
       50
102
RTVSPost2010PropOp47
 70
     1
102
RTVSPost2010Prop48
 90
       50
102
RTVSPost2010PropOp48
 70
     1
102
RTVSPost2010Prop49
280
     0
102
RTVSPost2010PropOp49
 70
     1
102
RTVSPost2010Prop50
 90
       50
102
RTVSPost2010PropOp50
 70
     1
102
RTVSPost2010Prop51ColorIndex
 90
      256
102
RTVSPost2010Prop51ColorRGB
 90
-16777216
102
RTVSPost2010PropOp51
 70
     0
102
RTVSPost2010Prop52
140
1.0
102
RTVSPost2010PropOp52
 70
     0
102
RTVSPost2010Prop53
 90
        2
102
RTVSPost2010PropOp53
 70
     1
102
RTVSPost2010Prop54
  1
strokes_ogs.tif
102
RTVSPost2010PropOp54
 70
     1
102
RTVSPost2010Prop55
280
     0
102
RTVSPost2010PropOp55
 70
     1
102
RTVSPost2010Prop56
140
1.0
102
RTVSPost2010PropOp56
 70
     1
102
RTVSPost2010Prop57
140
1.0
102
RTVSPost2010PropOp57
 70
     1
  0
XRECORD
  5
260
102
{ACAD_REACTORS
330
25F
102
}
330
25F
100
AcDbXrecord
280
     1
102
RTVSPropertyOp0
 70
     1
102
RTVSPropertyOp1
 70
     1
102
RTVSPropertyOp2
 70
     1
102
RTVSPropertyOp3
 70
     1
102
RTVSPropertyOp4
 70
     1
102
RTVSPropertyOp5
 70
     1
102
RTVSPropertyOp6
 70
     1
102
RTVSPropertyOp7
 70
     1
102
RTVSPropertyOp8
 70
     1
102
RTVSPropertyOp9
 70
     1
102
RTVSPropertyOp10
 70
     1
102
RTVSPropertyOp11
 70
     1
102
RTVSPropertyOp12
 70
     1
102
RTVSPropertyOp13
 70
     1
102
RTVSPropertyOp14
 70
     1
102
RTVSPropertyOp15
 70
     1
102
RTVSPropertyOp16
 70
     1
102
RTVSPropertyOp17
 70
     1
102
RTVSPropertyOp18
 70
     1
102
RTVSPropertyOp19
 70
     1
102
RTVSPropertyOp20
 70
     1
102
RTVSPropertyOp21
 70
     1
102
RTVSPropertyOp22
 70
     1
102
RTVSPropertyOp23
 70
     1
102
RTVSPropertyOp24
 70
     1
102
RTVSPropertyOp25
 70
     1
102
RTVSPropertyOp26
 70
     1
102
RTVSPropertyOp27
 70
     1
102
RTVSPropertyOp28
 70
     1
102
RTVSPropertyOp29
 70
     1
102
RTVSPropertyOp30
 70
     1
102
RTVSPropertyOp31
 70
     1
102
RTVSPropertyOp32
 70
     1
102
RTVSPropertyOp33
 70
     1
102
RTVSPropertyOp34
 70
     1
102
RTVSPropertyOp35
 70
     1
102
RTVSPropertyOp36
 70
     1
102
RTVSPropertyOp37
 70
     1
102
RTVSPropertyOp38
 70
     1
102
RTVSPropertyOp39
 70
     1
102
RTVSPropertyOp40
 70
     1
102
RTVSPropertyOp41
 70
     1
102
RTVSPropertyOp42
 70
     1
102
RTVSPropertyOp43
 70
     1
102
RTVSPropertyOp44
 70
     1
102
RTVSPropertyOp45
 70
     1
102
RTVSPropertyOp46
 70
     1
102
RTVSPropertyOp47
 70
     1
102
RTVSPropertyOp48
 70
     1
102
RTVSPropertyOp49
 70
     1
102
RTVSPropertyOp50
 70
     1
102
RTVSPropertyOp51
 70
     0
102
RTVSPropertyOp52
 70
     0
102
RTVSPropertyOp53
 70
     1
102
RTVSPropertyOp54
 70
     1
102
RTVSPropertyOp55
 70
     1
102
RTVSPropertyOp56
 70
     1
102
RTVSPropertyOp57
 70
     1
102
RTVSPost2010Prop28
280
     0
102
RTVSPost2010PropOp28
 70
     1
102
RTVSPost2010Prop29
280
     1
102
RTVSPost2010PropOp29
 70
     1
102
RTVSPost2010Prop30
280
     1
102
RTVSPost2010PropOp30
 70
     1
102
RTVSPost2010Prop31
280
     0
102
RTVSPost2010PropOp31
 70
     1
102
RTVSPost2010Prop32
280
     0
102
RTVSPost2010PropOp32
 70
     1
102
RTVSPost2010Prop33
280
     0
102
RTVSPost2010PropOp33
 70
     1
102
RTVSPost2010Prop34
280
     0
102
RTVSPost2010PropOp34
 70
     1
102
RTVSPost2010Prop35
280
     0
102
RTVSPost2010PropOp35
 70
     1
102
RTVSPost2010Prop36
280
     0
102
RTVSPost2010PropOp36
 70
     1
102
RTVSPost2010Prop37
 90
       50
102
RTVSPost2010PropOp37
 70
     1
102
RTVSPost2010Prop38
140
0.0
102
RTVSPost2010PropOp38
 70
     1
102
RTVSPost2010Prop39
140
1.0
102
RTVSPost2010PropOp39
 70
     1
102
RTVSPost2010Prop40
 90
        0
102
RTVSPost2010PropOp40
 70
     1
102
RTVSPost2010Prop41ColorIndex
 90
       18
102
RTVSPost2010Prop41ColorRGB
 90
        0
102
RTVSPost2010PropOp41
 70
     1
102
RTVSPost2010Prop42
 90
       50
102
RTVSPost2010PropOp42
 70
     1
102
RTVSPost2010Prop43
 90
        3
102
RTVSPost2010PropOp43
 70
     1
102
RTVSPost2010Prop44ColorIndex
 90
        5
102
RTVSPost2010Prop44ColorRGB
 90
      255
102
RTVSPost2010PropOp44
 70
     1
102
RTVSPost2010Prop45
280
     0
102
RTVSPost2010PropOp45
 70
     1
102
RTVSPost2010Prop46
 90
       50
102
RTVSPost2010PropOp46
 70
     1
102
RTVSPost2010Prop47
 90
       50
102
RTVSPost2010PropOp47
 70
     1
102
RTVSPost2010Prop48
 90
       50
102
RTVSPost2010PropOp48
 70
     1
102
RTVSPost2010Prop49
280
     0
102
RTVSPost2010PropOp49
 70
     1
102
RTVSPost2010Prop50
 90
       50
102
RTVSPost2010PropOp50
 70
     1
102
RTVSPost2010Prop51ColorIndex
 90
      256
102
RTVSPost2010Prop51ColorRGB
 90
-16777216
102
RTVSPost2010PropOp51
 70
     0
102
RTVSPost2010Prop52
140
1.0
102
RTVSPost2010PropOp52
 70
     0
102
RTVSPost2010Prop53
 90
        2
102
RTVSPost2010PropOp53
 70
     1
102
RTVSPost2010Prop54
  1
strokes_ogs.tif
102
RTVSPost2010PropOp54
 70
     1
102
RTVSPost2010Prop55
280
     0
102
RTVSPost2010PropOp55
 70
     1
102
RTVSPost2010Prop56
140
1.0
102
RTVSPost2010PropOp56
 70
     1
102
RTVSPost2010Prop57
140
1.0
102
RTVSPost2010PropOp57
 70
     1
  0
XRECORD
  5
252
102
{ACAD_REACTORS
330
251
102
}
330
251
100
AcDbXrecord
280
     1
102
RTVSPropertyOp0
 70
     1
102
RTVSPropertyOp1
 70
     1
102
RTVSPropertyOp2
 70
     1
102
RTVSPropertyOp3
 70
     1
102
RTVSPropertyOp4
 70
     1
102
RTVSPropertyOp5
 70
     1
102
RTVSPropertyOp6
 70
     1
102
RTVSPropertyOp7
 70
     1
102
RTVSPropertyOp8
 70
     1
102
RTVSPropertyOp9
 70
     1
102
RTVSPropertyOp10
 70
     1
102
RTVSPropertyOp11
 70
     1
102
RTVSPropertyOp12
 70
     1
102
RTVSPropertyOp13
 70
     1
102
RTVSPropertyOp14
 70
     1
102
RTVSPropertyOp15
 70
     1
102
RTVSPropertyOp16
 70
     1
102
RTVSPropertyOp17
 70
     1
102
RTVSPropertyOp18
 70
     1
102
RTVSPropertyOp19
 70
     1
102
RTVSPropertyOp20
 70
     1
102
RTVSPropertyOp21
 70
     1
102
RTVSPropertyOp22
 70
     1
102
RTVSPropertyOp23
 70
     1
102
RTVSPropertyOp24
 70
     1
102
RTVSPropertyOp25
 70
     1
102
RTVSPropertyOp26
 70
     1
102
RTVSPropertyOp27
 70
     1
102
RTVSPropertyOp28
 70
     1
102
RTVSPropertyOp29
 70
     1
102
RTVSPropertyOp30
 70
     1
102
RTVSPropertyOp31
 70
     1
102
RTVSPropertyOp32
 70
     1
102
RTVSPropertyOp33
 70
     1
102
RTVSPropertyOp34
 70
     1
102
RTVSPropertyOp35
 70
     1
102
RTVSPropertyOp36
 70
     1
102
RTVSPropertyOp37
 70
     1
102
RTVSPropertyOp38
 70
     1
102
RTVSPropertyOp39
 70
     1
102
RTVSPropertyOp40
 70
     1
102
RTVSPropertyOp41
 70
     1
102
RTVSPropertyOp42
 70
     1
102
RTVSPropertyOp43
 70
     1
102
RTVSPropertyOp44
 70
     1
102
RTVSPropertyOp45
 70
     1
102
RTVSPropertyOp46
 70
     1
102
RTVSPropertyOp47
 70
     1
102
RTVSPropertyOp48
 70
     1
102
RTVSPropertyOp49
 70
     1
102
RTVSPropertyOp50
 70
     1
102
RTVSPropertyOp51
 70
     0
102
RTVSPropertyOp52
 70
     0
102
RTVSPropertyOp53
 70
     1
102
RTVSPropertyOp54
 70
     1
102
RTVSPropertyOp55
 70
     1
102
RTVSPropertyOp56
 70
     1
102
RTVSPropertyOp57
 70
     1
102
RTVSPost2010Prop28
280
     0
102
RTVSPost2010PropOp28
 70
     1
102
RTVSPost2010Prop29
280
     1
102
RTVSPost2010PropOp29
 70
     1
102
RTVSPost2010Prop30
280
     1
102
RTVSPost2010PropOp30
 70
     1
102
RTVSPost2010Prop31
280
     0
102
RTVSPost2010PropOp31
 70
     1
102
RTVSPost2010Prop32
280
     0
102
RTVSPost2010PropOp32
 70
     1
102
RTVSPost2010Prop33
280
     0
102
RTVSPost2010PropOp33
 70
     1
102
RTVSPost2010Prop34
280
     0
102
RTVSPost2010PropOp34
 70
     1
102
RTVSPost2010Prop35
280
     0
102
RTVSPost2010PropOp35
 70
     1
102
RTVSPost2010Prop36
280
     0
102
RTVSPost2010PropOp36
 70
     1
102
RTVSPost2010Prop37
 90
       50
102
RTVSPost2010PropOp37
 70
     1
102
RTVSPost2010Prop38
140
0.0
102
RTVSPost2010PropOp38
 70
     1
102
RTVSPost2010Prop39
140
1.0
102
RTVSPost2010PropOp39
 70
     1
102
RTVSPost2010Prop40
 90
        0
102
RTVSPost2010PropOp40
 70
     1
102
RTVSPost2010Prop41ColorIndex
 90
       18
102
RTVSPost2010Prop41ColorRGB
 90
        0
102
RTVSPost2010PropOp41
 70
     1
102
RTVSPost2010Prop42
 90
       50
102
RTVSPost2010PropOp42
 70
     1
102
RTVSPost2010Prop43
 90
        3
102
RTVSPost2010PropOp43
 70
     1
102
RTVSPost2010Prop44ColorIndex
 90
        5
102
RTVSPost2010Prop44ColorRGB
 90
      255
102
RTVSPost2010PropOp44
 70
     1
102
RTVSPost2010Prop45
280
     0
102
RTVSPost2010PropOp45
 70
     1
102
RTVSPost2010Prop46
 90
       50
102
RTVSPost2010PropOp46
 70
     1
102
RTVSPost2010Prop47
 90
       50
102
RTVSPost2010PropOp47
 70
     1
102
RTVSPost2010Prop48
 90
       50
102
RTVSPost2010PropOp48
 70
     1
102
RTVSPost2010Prop49
280
     0
102
RTVSPost2010PropOp49
 70
     1
102
RTVSPost2010Prop50
 90
       50
102
RTVSPost2010PropOp50
 70
     1
102
RTVSPost2010Prop51ColorIndex
 90
      256
102
RTVSPost2010Prop51ColorRGB
 90
-16777216
102
RTVSPost2010PropOp51
 70
     0
102
RTVSPost2010Prop52
140
1.0
102
RTVSPost2010PropOp52
 70
     0
102
RTVSPost2010Prop53
 90
        2
102
RTVSPost2010PropOp53
 70
     1
102
RTVSPost2010Prop54
  1
strokes_ogs.tif
102
RTVSPost2010PropOp54
 70
     1
102
RTVSPost2010Prop55
280
     0
102
RTVSPost2010PropOp55
 70
     1
102
RTVSPost2010Prop56
140
1.0
102
RTVSPost2010PropOp56
 70
     1
102
RTVSPost2010Prop57
140
1.0
102
RTVSPost2010PropOp57
 70
     1
  0
XRECORD
  5
272
102
{ACAD_REACTORS
330
271
102
}
330
271
100
AcDbXrecord
280
     1
102
RTVSPropertyOp0
 70
     1
102
RTVSPropertyOp1
 70
     1
102
RTVSPropertyOp2
 70
     1
102
RTVSPropertyOp3
 70
     1
102
RTVSPropertyOp4
 70
     1
102
RTVSPropertyOp5
 70
     1
102
RTVSPropertyOp6
 70
     1
102
RTVSPropertyOp7
 70
     1
102
RTVSPropertyOp8
 70
     1
102
RTVSPropertyOp9
 70
     1
102
RTVSPropertyOp10
 70
     1
102
RTVSPropertyOp11
 70
     1
102
RTVSPropertyOp12
 70
     1
102
RTVSPropertyOp13
 70
     1
102
RTVSPropertyOp14
 70
     1
102
RTVSPropertyOp15
 70
     1
102
RTVSPropertyOp16
 70
     1
102
RTVSPropertyOp17
 70
     1
102
RTVSPropertyOp18
 70
     1
102
RTVSPropertyOp19
 70
     1
102
RTVSPropertyOp20
 70
     1
102
RTVSPropertyOp21
 70
     1
102
RTVSPropertyOp22
 70
     1
102
RTVSPropertyOp23
 70
     1
102
RTVSPropertyOp24
 70
     1
102
RTVSPropertyOp25
 70
     1
102
RTVSPropertyOp26
 70
     1
102
RTVSPropertyOp27
 70
     1
102
RTVSPropertyOp28
 70
     1
102
RTVSPropertyOp29
 70
     1
102
RTVSPropertyOp30
 70
     1
102
RTVSPropertyOp31
 70
     1
102
RTVSPropertyOp32
 70
     1
102
RTVSPropertyOp33
 70
     1
102
RTVSPropertyOp34
 70
     1
102
RTVSPropertyOp35
 70
     1
102
RTVSPropertyOp36
 70
     1
102
RTVSPropertyOp37
 70
     1
102
RTVSPropertyOp38
 70
     1
102
RTVSPropertyOp39
 70
     1
102
RTVSPropertyOp40
 70
     1
102
RTVSPropertyOp41
 70
     1
102
RTVSPropertyOp42
 70
     1
102
RTVSPropertyOp43
 70
     1
102
RTVSPropertyOp44
 70
     1
102
RTVSPropertyOp45
 70
     1
102
RTVSPropertyOp46
 70
     1
102
RTVSPropertyOp47
 70
     1
102
RTVSPropertyOp48
 70
     1
102
RTVSPropertyOp49
 70
     1
102
RTVSPropertyOp50
 70
     1
102
RTVSPropertyOp51
 70
     0
102
RTVSPropertyOp52
 70
     0
102
RTVSPropertyOp53
 70
     1
102
RTVSPropertyOp54
 70
     1
102
RTVSPropertyOp55
 70
     1
102
RTVSPropertyOp56
 70
     1
102
RTVSPropertyOp57
 70
     1
102
RTVSPost2010Prop28
280
     0
102
RTVSPost2010PropOp28
 70
     1
102
RTVSPost2010Prop29
280
     1
102
RTVSPost2010PropOp29
 70
     1
102
RTVSPost2010Prop30
280
     1
102
RTVSPost2010PropOp30
 70
     1
102
RTVSPost2010Prop31
280
     0
102
RTVSPost2010PropOp31
 70
     1
102
RTVSPost2010Prop32
280
     0
102
RTVSPost2010PropOp32
 70
     1
102
RTVSPost2010Prop33
280
     0
102
RTVSPost2010PropOp33
 70
     1
102
RTVSPost2010Prop34
280
     0
102
RTVSPost2010PropOp34
 70
     1
102
RTVSPost2010Prop35
280
     0
102
RTVSPost2010PropOp35
 70
     1
102
RTVSPost2010Prop36
280
     0
102
RTVSPost2010PropOp36
 70
     1
102
RTVSPost2010Prop37
 90
       50
102
RTVSPost2010PropOp37
 70
     1
102
RTVSPost2010Prop38
140
0.0
102
RTVSPost2010PropOp38
 70
     1
102
RTVSPost2010Prop39
140
1.0
102
RTVSPost2010PropOp39
 70
     1
102
RTVSPost2010Prop40
 90
        0
102
RTVSPost2010PropOp40
 70
     1
102
RTVSPost2010Prop41ColorIndex
 90
       18
102
RTVSPost2010Prop41ColorRGB
 90
        0
102
RTVSPost2010PropOp41
 70
     1
102
RTVSPost2010Prop42
 90
       50
102
RTVSPost2010PropOp42
 70
     1
102
RTVSPost2010Prop43
 90
        3
102
RTVSPost2010PropOp43
 70
     1
102
RTVSPost2010Prop44ColorIndex
 90
        5
102
RTVSPost2010Prop44ColorRGB
 90
      255
102
RTVSPost2010PropOp44
 70
     1
102
RTVSPost2010Prop45
280
     0
102
RTVSPost2010PropOp45
 70
     1
102
RTVSPost2010Prop46
 90
       50
102
RTVSPost2010PropOp46
 70
     1
102
RTVSPost2010Prop47
 90
       50
102
RTVSPost2010PropOp47
 70
     1
102
RTVSPost2010Prop48
 90
       50
102
RTVSPost2010PropOp48
 70
     1
102
RTVSPost2010Prop49
280
     0
102
RTVSPost2010PropOp49
 70
     1
102
RTVSPost2010Prop50
 90
       50
102
RTVSPost2010PropOp50
 70
     1
102
RTVSPost2010Prop51ColorIndex
 90
      256
102
RTVSPost2010Prop51ColorRGB
 90
-16777216
102
RTVSPost2010PropOp51
 70
     0
102
RTVSPost2010Prop52
140
1.0
102
RTVSPost2010PropOp52
 70
     0
102
RTVSPost2010Prop53
 90
        2
102
RTVSPost2010PropOp53
 70
     1
102
RTVSPost2010Prop54
  1
strokes_ogs.tif
102
RTVSPost2010PropOp54
 70
     1
102
RTVSPost2010Prop55
280
     0
102
RTVSPost2010PropOp55
 70
     1
102
RTVSPost2010Prop56
140
1.0
102
RTVSPost2010PropOp56
 70
     1
102
RTVSPost2010Prop57
140
1.0
102
RTVSPost2010PropOp57
 70
     1
  0
ENDSEC
  0
EOF
