  0
SECTION
  2
HEADER
  9
$ACADVER
  1
AC1015
  9
$ACADMAINTVER
 70
     6
  9
$DWGCODEPAGE
  3
ANSI_1252
  9
$INSBASE
 10
0.0
 20
0.0
 30
0.0
  9
$EXTMIN
 10
0.0
 20
0.0
 30
0.0
  9
$EXTMAX
 10
297.0
 20
210.0
 30
0.0
  9
$LIMMIN
 10
0.0
 20
0.0
  9
$LIMMAX
 10
297.0
 20
210.0
  9
$ORTHOMODE
 70
     0
  9
$REGENMODE
 70
     1
  9
$FILLMODE
 70
     1
  9
$QTEXTMODE
 70
     0
  9
$MIRRTEXT
 70
     1
  9
$LTSCALE
 40
1.0
  9
$ATTMODE
 70
     1
  9
$TEXTSIZE
 40
2.5
  9
$TRACEWID
 40
1.0
  9
$TEXTSTYLE
  7
Standard
  9
$CLAYER
  8
0
  9
$CELTYPE
  6
ByLayer
  9
$CECOLOR
 62
   256
  9
$CELTSCALE
 40
1.0
  9
$DISPSILH
 70
     0
  9
$DIMSCALE
 40
1.0
  9
$DIMASZ
 40
2.5
  9
$DIMEXO
 40
0.625
  9
$DIMDLI
 40
3.75
  9
$DIMRND
 40
0.0
  9
$DIMDLE
 40
0.0
  9
$DIMEXE
 40
1.25
  9
$DIMTP
 40
0.0
  9
$DIMTM
 40
0.0
  9
$DIMTXT
 40
2.5
  9
$DIMCEN
 40
2.5
  9
$DIMTSZ
 40
0.0
  9
$DIMTOL
 70
     0
  9
$DIMLIM
 70
     0
  9
$DIMTIH
 70
     0
  9
$DIMTOH
 70
     0
  9
$DIMSE1
 70
     0
  9
$DIMSE2
 70
     0
  9
$DIMTAD
 70
     1
  9
$DIMZIN
 70
     8
  9
$DIMBLK
  1

  9
$DIMASO
 70
     1
  9
$DIMSHO
 70
     1
  9
$DIMPOST
  1

  9
$DIMAPOST
  1

  9
$DIMALT
 70
     0
  9
$DIMALTD
 70
     3
  9
$DIMALTF
 40
0.0393700787
  9
$DIMLFAC
 40
1.0
  9
$DIMTOFL
 70
     1
  9
$DIMTVP
 40
0.0
  9
$DIMTIX
 70
     0
  9
$DIMSOXD
 70
     0
  9
$DIMSAH
 70
     0
  9
$DIMBLK1
  1

  9
$DIMBLK2
  1

  9
$DIMSTYLE
  2
ISO-25
  9
$DIMCLRD
 70
     0
  9
$DIMCLRE
 70
     0
  9
$DIMCLRT
 70
     0
  9
$DIMTFAC
 40
1.0
  9
$DIMGAP
 40
0.625
  9
$DIMJUST
 70
     0
  9
$DIMSD1
 70
     0
  9
$DIMSD2
 70
     0
  9
$DIMTOLJ
 70
     0
  9
$DIMTZIN
 70
     8
  9
$DIMALTZ
 70
     0
  9
$DIMALTTZ
 70
     0
  9
$DIMUPT
 70
     0
  9
$DIMDEC
 70
     2
  9
$DIMTDEC
 70
     2
  9
$DIMALTU
 70
     2
  9
$DIMALTTD
 70
     3
  9
$DIMTXSTY
  7
Standard
  9
$DIMAUNIT
 70
     0
  9
$DIMADEC
 70
     0
  9
$DIMALTRND
 40
0.0
  9
$DIMAZIN
 70
     0
  9
$DIMDSEP
 70
    44
  9
$DIMATFIT
 70
     3
  9
$DIMFRAC
 70
     0
  9
$DIMLDRBLK
  1

  9
$DIMLUNIT
 70
     2
  9
$DIMLWD
 70
    -2
  9
$DIMLWE
 70
    -2
  9
$DIMTMOVE
 70
     0
  9
$LUNITS
 70
     2
  9
$LUPREC
 70
     4
  9
$SKETCHINC
 40
1.0
  9
$FILLETRAD
 40
10.0
  9
$AUNITS
 70
     0
  9
$AUPREC
 70
     0
  9
$MENU
  1
.
  9
$ELEVATION
 40
0.0
  9
$PELEVATION
 40
0.0
  9
$THICKNESS
 40
0.0
  9
$LIMCHECK
 70
     0
  9
$CHAMFERA
 40
10.0
  9
$CHAMFERB
 40
10.0
  9
$CHAMFERC
 40
20.0
  9
$CHAMFERD
 40
0.0
  9
$SKPOLY
 70
     0
  9
$TDCREATE
 40
2457074.53759368
  9
$TDUCREATE
 40
2457074.495927014
  9
$TDUPDATE
 40
2457074.537652361
  9
$TDUUPDATE
 40
2457074.495985694
  9
$TDINDWG
 40
0.0000000116
  9
$TDUSRTIMER
 40
0.0000000116
  9
$USRTIMER
 70
     1
  9
$ANGBASE
 50
0.0
  9
$ANGDIR
 70
     0
  9
$PDMODE
 70
     0
  9
$PDSIZE
 40
0.0
  9
$PLINEWID
 40
0.0
  9
$SPLFRAME
 70
     0
  9
$SPLINETYPE
 70
     6
  9
$SPLINESEGS
 70
     8
  9
$HANDSEED
  5
1E8
  9
$SURFTAB1
 70
     6
  9
$SURFTAB2
 70
     6
  9
$SURFTYPE
 70
     6
  9
$SURFU
 70
     6
  9
$SURFV
 70
     6
  9
$UCSBASE
  2

  9
$UCSNAME
  2

  9
$UCSORG
 10
0.0
 20
0.0
 30
0.0
  9
$UCSXDIR
 10
1.0
 20
0.0
 30
0.0
  9
$UCSYDIR
 10
0.0
 20
1.0
 30
0.0
  9
$UCSORTHOREF
  2

  9
$UCSORTHOVIEW
 70
     0
  9
$UCSORGTOP
 10
0.0
 20
0.0
 30
0.0
  9
$UCSORGBOTTOM
 10
0.0
 20
0.0
 30
0.0
  9
$UCSORGLEFT
 10
0.0
 20
0.0
 30
0.0
  9
$UCSORGRIGHT
 10
0.0
 20
0.0
 30
0.0
  9
$UCSORGFRONT
 10
0.0
 20
0.0
 30
0.0
  9
$UCSORGBACK
 10
0.0
 20
0.0
 30
0.0
  9
$PUCSBASE
  2

  9
$PUCSNAME
  2

  9
$PUCSORG
 10
0.0
 20
0.0
 30
0.0
  9
$PUCSXDIR
 10
1.0
 20
0.0
 30
0.0
  9
$PUCSYDIR
 10
0.0
 20
1.0
 30
0.0
  9
$PUCSORTHOREF
  2

  9
$PUCSORTHOVIEW
 70
     0
  9
$PUCSORGTOP
 10
0.0
 20
0.0
 30
0.0
  9
$PUCSORGBOTTOM
 10
0.0
 20
0.0
 30
0.0
  9
$PUCSORGLEFT
 10
0.0
 20
0.0
 30
0.0
  9
$PUCSORGRIGHT
 10
0.0
 20
0.0
 30
0.0
  9
$PUCSORGFRONT
 10
0.0
 20
0.0
 30
0.0
  9
$PUCSORGBACK
 10
0.0
 20
0.0
 30
0.0
  9
$USERI1
 70
     0
  9
$USERI2
 70
     0
  9
$USERI3
 70
     0
  9
$USERI4
 70
     0
  9
$USERI5
 70
     0
  9
$USERR1
 40
0.0
  9
$USERR2
 40
0.0
  9
$USERR3
 40
0.0
  9
$USERR4
 40
0.0
  9
$USERR5
 40
0.0
  9
$WORLDVIEW
 70
     1
  9
$SHADEDGE
 70
     3
  9
$SHADEDIF
 70
    70
  9
$TILEMODE
 70
     1
  9
$MAXACTVP
 70
    64
  9
$PINSBASE
 10
0.0
 20
0.0
 30
0.0
  9
$PLIMCHECK
 70
     0
  9
$PEXTMIN
 10
0.0
 20
0.0
 30
0.0
  9
$PEXTMAX
 10
297.0
 20
210.0
 30
0.0
  9
$PLIMMIN
 10
0.0
 20
0.0
  9
$PLIMMAX
 10
297.0
 20
210.0
  9
$UNITMODE
 70
     0
  9
$VISRETAIN
 70
     1
  9
$PLINEGEN
 70
     0
  9
$PSLTSCALE
 70
     1
  9
$TREEDEPTH
 70
  3020
  9
$CMLSTYLE
  2
Standard
  9
$CMLJUST
 70
     0
  9
$CMLSCALE
 40
20.0
  9
$PROXYGRAPHICS
 70
     1
  9
$MEASUREMENT
 70
     1
  9
$CELWEIGHT
370
    -1
  9
$ENDCAPS
280
     0
  9
$JOINSTYLE
280
     0
  9
$LWDISPLAY
290
     0
  9
$INSUNITS
 70
     4
  9
$HYPERLINKBASE
  1

  9
$STYLESHEET
  1

  9
$XEDIT
290
     1
  9
$CEPSNTYPE
380
     0
  9
$PSTYLEMODE
290
     1
  9
$FINGERPRINTGUID
  2
{CFAFB1FA-FCB7-4A60-93B6-CBAB0F4768CA}
  9
$VERSIONGUID
  2
{FAEB1C32-E019-11D5-929B-00C0DF256EC4}
  9
$EXTNAMES
290
     1
  9
$PSVPSCALE
 40
0.0
  9
$OLESTARTUP
290
     0
  0
ENDSEC
  0
SECTION
  2
CLASSES
  0
CLASS
  1
ACDBDICTIONARYWDFLT
  2
AcDbDictionaryWithDefault
  3
ObjectDBX Classes
 90
        0
280
     0
281
     0
  0
CLASS
  1
VISUALSTYLE
  2
AcDbVisualStyle
  3
ObjectDBX Classes
 90
     4095
280
     0
281
     0
  0
CLASS
  1
MATERIAL
  2
AcDbMaterial
  3
ObjectDBX Classes
 90
     1153
280
     0
281
     0
  0
CLASS
  1
DICTIONARYVAR
  2
AcDbDictionaryVar
  3
ObjectDBX Classes
 90
        0
280
     0
281
     0
  0
CLASS
  1
ACDBPLACEHOLDER
  2
AcDbPlaceHolder
  3
ObjectDBX Classes
 90
        0
280
     0
281
     0
  0
CLASS
  1
LAYOUT
  2
AcDbLayout
  3
ObjectDBX Classes
 90
        0
280
     0
281
     0
  0
ENDSEC
  0
SECTION
  2
TABLES
  0
TABLE
  2
VPORT
  5
8
330
0
100
AcDbSymbolTable
 70
     1
  0
VPORT
  5
29
330
8
100
AcDbSymbolTableRecord
100
AcDbViewportTableRecord
  2
*Active
 70
     0
 10
0.0
 20
0.0
 11
1.0
 21
1.0
 12
344.1869158879
 22
148.5
 13
0.0
 23
0.0
 14
10.0
 24
10.0
 15
10.0
 25
10.0
 16
0.0
 26
0.0
 36
1.0
 17
0.0
 27
0.0
 37
0.0
 40
297.0
 41
1.9729729729
 42
50.0
 43
0.0
 44
0.0
 50
0.0
 51
0.0
 71
     0
 72
   100
 73
     1
 74
     3
 75
     0
 76
     0
 77
     0
 78
     0
281
     0
 65
     1
110
0.0
120
0.0
130
0.0
111
1.0
121
0.0
131
0.0
112
0.0
122
1.0
132
0.0
 79
     0
146
0.0
  0
ENDTAB
  0
TABLE
  2
LTYPE
  5
5
330
0
100
AcDbSymbolTable
 70
     1
  0
LTYPE
  5
14
330
5
100
AcDbSymbolTableRecord
100
AcDbLinetypeTableRecord
  2
ByBlock
 70
     0
  3

 72
    65
 73
     0
 40
0.0
  0
LTYPE
  5
15
330
5
100
AcDbSymbolTableRecord
100
AcDbLinetypeTableRecord
  2
ByLayer
 70
     0
  3

 72
    65
 73
     0
 40
0.0
  0
LTYPE
  5
16
330
5
100
AcDbSymbolTableRecord
100
AcDbLinetypeTableRecord
  2
Continuous
 70
     0
  3
Solid line
 72
    65
 73
     0
 40
0.0
  0
ENDTAB
  0
TABLE
  2
LAYER
  5
2
330
0
100
AcDbSymbolTable
 70
     3
  0
LAYER
  5
10
330
2
100
AcDbSymbolTableRecord
100
AcDbLayerTableRecord
  2
0
 70
     0
 62
     7
  6
Continuous
370
    -3
390
F
  0
LAYER
  5
3F
330
2
100
AcDbSymbolTableRecord
100
AcDbLayerTableRecord
  2
0012865
 70
     0
 62
     7
  6
Continuous
370
    -3
390
F
  0
LAYER
  5
AD
330
2
100
AcDbSymbolTableRecord
100
AcDbLayerTableRecord
  2
Default
 70
     0
 62
     7
  6
Continuous
370
    -3
390
F
  0
ENDTAB
  0
TABLE
  2
STYLE
  5
3
330
0
100
AcDbSymbolTable
 70
     4
  0
STYLE
  5
11
330
3
100
AcDbSymbolTableRecord
100
AcDbTextStyleTableRecord
  2
Standard
 70
     0
 40
0.0
 41
1.0
 50
0.0
 71
     0
 42
2.5
  3
txt
  4

  0
STYLE
  5
C0
330
3
100
AcDbSymbolTableRecord
100
AcDbTextStyleTableRecord
  2
SEACAD_Solid_Edge_ISO
 70
     0
 40
0.0
 41
1.0
 50
0.0
 71
     0
 42
0.2
  3
seiso.ttf
  4

1001
ACAD
1000
Solid Edge ISO
1071
        0
  0
STYLE
  5
E1
330
3
100
AcDbSymbolTableRecord
100
AcDbTextStyleTableRecord
  2
SEACAD_Solid_Edge_ISOB
 70
     0
 40
0.0
 41
1.0
 50
0.0
 71
     0
 42
0.2
  3
seisobd.ttf
  4

1001
ACAD
1000
Solid Edge ISO
1071
 33554432
  0
STYLE
  5
EA
330
3
100
AcDbSymbolTableRecord
100
AcDbTextStyleTableRecord
  2
SEACAD_Arial
 70
     0
 40
0.0
 41
1.0
 50
0.0
 71
     0
 42
0.2
  3
arial.ttf
  4

1001
ACAD
1000
Arial
1071
        0
  0
ENDTAB
  0
TABLE
  2
VIEW
  5
6
330
0
100
AcDbSymbolTable
 70
     0
  0
ENDTAB
  0
TABLE
  2
UCS
  5
7
330
0
100
AcDbSymbolTable
 70
     0
  0
ENDTAB
  0
TABLE
  2
APPID
  5
9
330
0
100
AcDbSymbolTable
 70
     1
  0
APPID
  5
12
330
9
100
AcDbSymbolTableRecord
100
AcDbRegAppTableRecord
  2
ACAD
 70
     0
  0
ENDTAB
  0
TABLE
  2
DIMSTYLE
  5
A
330
0
100
AcDbSymbolTable
 70
     3
100
AcDbDimStyleTable
  0
DIMSTYLE
105
27
330
A
100
AcDbSymbolTableRecord
100
AcDbDimStyleTableRecord
  2
ISO-25
 70
     0
 41
2.5
 42
0.625
 43
3.75
 44
1.25
 73
     0
 74
     0
 77
     1
 78
     8
140
2.5
141
2.5
143
0.0393700787
147
0.625
171
     3
172
     1
178
     0
271
     2
272
     2
274
     3
278
    44
283
     0
284
     8
340
11
  0
DIMSTYLE
105
AE
330
A
100
AcDbSymbolTableRecord
100
AcDbDimStyleTableRecord
  2
Standard
 70
     0
178
     0
340
11
  0
DIMSTYLE
105
C1
102
{ACAD_REACTORS
330
C2
330
CC
330
D6
102
}
330
A
100
AcDbSymbolTableRecord
100
AcDbDimStyleTableRecord
  2
DIN
 70
     0
 41
3.5
 42
0.0
 44
1.75
 73
     0
 74
     0
 77
     1
 78
     8
140
3.5
141
1.75
147
1.75
172
     1
173
     1
178
     0
179
     3
271
     3
272
     3
278
    44
284
     8
340
C0
343
BB
344
BB
  0
ENDTAB
  0
TABLE
  2
BLOCK_RECORD
  5
1
330
0
100
AcDbSymbolTable
 70
    12
  0
BLOCK_RECORD
  5
1F
330
1
100
AcDbSymbolTableRecord
100
AcDbBlockTableRecord
  2
*Model_Space
340
22
  0
BLOCK_RECORD
  5
1B
330
1
100
AcDbSymbolTableRecord
100
AcDbBlockTableRecord
  2
*Paper_Space
340
1E
  0
BLOCK_RECORD
  5
AF
330
1
100
AcDbSymbolTableRecord
100
AcDbBlockTableRecord
  2
_OBLIQUE
340
0
  0
BLOCK_RECORD
  5
B3
330
1
100
AcDbSymbolTableRecord
100
AcDbBlockTableRecord
  2
_DOT
340
0
  0
BLOCK_RECORD
  5
BB
330
1
100
AcDbSymbolTableRecord
100
AcDbBlockTableRecord
  2
_SE_FILLED
340
0
  0
BLOCK_RECORD
  5
C3
330
1
100
AcDbSymbolTableRecord
100
AcDbBlockTableRecord
  2
DMBLK37
340
0
  0
BLOCK_RECORD
  5
CD
330
1
100
AcDbSymbolTableRecord
100
AcDbBlockTableRecord
  2
DMBLK38
340
0
  0
BLOCK_RECORD
  5
D7
330
1
100
AcDbSymbolTableRecord
100
AcDbBlockTableRecord
  2
DMBLK39
340
0
  0
BLOCK_RECORD
  5
E0
330
1
100
AcDbSymbolTableRecord
100
AcDbBlockTableRecord
  2
SEANNOT_GROUP
340
0
102
{BLKREFS
331
106
102
}
  0
BLOCK_RECORD
  5
E6
330
1
100
AcDbSymbolTableRecord
100
AcDbBlockTableRecord
  2
SEANNOT_GROUP1
340
0
102
{BLKREFS
331
107
102
}
  0
BLOCK_RECORD
  5
EB
330
1
100
AcDbSymbolTableRecord
100
AcDbBlockTableRecord
  2
SEANNOT_GROUP2
340
0
102
{BLKREFS
331
1B5
102
}
  0
BLOCK_RECORD
  5
F0
330
1
100
AcDbSymbolTableRecord
100
AcDbBlockTableRecord
  2
SEANNOT_GROUP3
340
0
102
{BLKREFS
331
1B6
102
}
  0
BLOCK_RECORD
  5
F4
330
1
100
AcDbSymbolTableRecord
100
AcDbBlockTableRecord
  2
RF-Massblatt_ZR
340
0
102
{BLKREFS
331
1BA
102
}
  0
ENDTAB
  0
ENDSEC
  0
SECTION
  2
BLOCKS
  0
BLOCK
  5
20
330
1F
100
AcDbEntity
  8
0
100
AcDbBlockBegin
  2
*Model_Space
 70
     0
 10
0.0
 20
0.0
 30
0.0
  3
*Model_Space
  1

  0
ENDBLK
  5
21
330
1F
100
AcDbEntity
  8
0
100
AcDbBlockEnd
  0
BLOCK
  5
1C
330
1B
100
AcDbEntity
 67
     1
  8
0
100
AcDbBlockBegin
  2
*Paper_Space
 70
     0
 10
0.0
 20
0.0
 30
0.0
  3
*Paper_Space
  1

  0
ENDBLK
  5
1D
330
1B
100
AcDbEntity
 67
     1
  8
0
100
AcDbBlockEnd
  0
BLOCK
  5
B0
330
AF
100
AcDbEntity
  8
0
100
AcDbBlockBegin
  2
_OBLIQUE
 70
     0
 10
0.0
 20
0.0
 30
0.0
  3
_OBLIQUE
  1

  0
LINE
  5
B2
330
AF
100
AcDbEntity
  8
0
  6
ByBlock
 62
     0
370
    -2
100
AcDbLine
 10
-0.5
 20
-0.5
 30
0.0
 11
0.5
 21
0.5
 31
0.0
  0
ENDBLK
  5
B1
330
AF
100
AcDbEntity
  8
0
100
AcDbBlockEnd
  0
BLOCK
  5
B4
330
B3
100
AcDbEntity
  8
0
100
AcDbBlockBegin
  2
_DOT
 70
     0
 10
0.0
 20
0.0
 30
0.0
  3
_DOT
  1

  0
POLYLINE
  5
B6
330
B3
100
AcDbEntity
  8
0
  6
ByBlock
 62
     0
100
AcDb2dPolyline
 66
     1
 10
0.0
 20
0.0
 30
0.0
 70
     1
 40
0.5
 41
0.5
  0
VERTEX
  5
B8
330
B6
100
AcDbEntity
  8
0
  6
ByBlock
 62
     0
100
AcDbVertex
100
AcDb2dVertex
 10
-0.25
 20
0.0
 30
0.0
 42
1.0
  0
VERTEX
  5
B9
330
B6
100
AcDbEntity
  8
0
  6
ByBlock
 62
     0
100
AcDbVertex
100
AcDb2dVertex
 10
0.25
 20
0.0
 30
0.0
 42
1.0
  0
SEQEND
  5
BA
330
B6
100
AcDbEntity
  8
0
  6
ByBlock
 62
     0
  0
LINE
  5
B7
330
B3
100
AcDbEntity
  8
0
  6
ByBlock
 62
     0
370
    -2
100
AcDbLine
 10
-0.5
 20
0.0
 30
0.0
 11
-1.0
 21
0.0
 31
0.0
  0
ENDBLK
  5
B5
330
B3
100
AcDbEntity
  8
0
100
AcDbBlockEnd
  0
BLOCK
  5
BE
330
BB
100
AcDbEntity
  8
0
100
AcDbBlockBegin
  2
_SE_FILLED
 70
     0
 10
0.0
 20
0.0
 30
0.0
  3
_SE_FILLED
  1

  0
SOLID
  5
BC
330
BB
100
AcDbEntity
  8
0
 62
     0
100
AcDbTrace
 10
0.0
 20
0.0
 30
0.0
 11
-1.0
 21
-0.1665
 31
0.0
 12
-1.0
 22
0.1665
 32
0.0
 13
0.0
 23
0.0
 33
0.0
  0
LINE
  5
BD
330
BB
100
AcDbEntity
  8
0
 62
     0
100
AcDbLine
 10
0.0
 20
0.0
 30
0.0
 11
-1.0
 21
0.0
 31
0.0
  0
ENDBLK
  5
BF
330
BB
100
AcDbEntity
  8
0
100
AcDbBlockEnd
  0
BLOCK
  5
CA
330
C3
100
AcDbEntity
  8
0
100
AcDbBlockBegin
  2
DMBLK37
 70
     0
 10
0.0
 20
0.0
 30
0.0
  3
DMBLK37
  1

  0
HATCH
  5
C4
330
C3
100
AcDbEntity
  8
Default
  6
Continuous
 62
     7
100
AcDbHatch
 10
0.0
 20
0.0
 30
0.0
210
0.0
220
0.0
230
1.0
  2
SOLID
 70
     1
 71
     0
 91
        1
 92
        1
 93
        3
 72
     1
 10
53.50448128164994
 20
151.1956300694908
 11
50.00448117361653
 21
150.6122967181519
 72
     1
 10
50.00448117361653
 20
150.6122967181519
 11
53.50448128164994
 21
150.028963366813
 72
     1
 10
53.50448128164994
 20
150.028963366813
 11
53.50448128164994
 21
151.1956300694908
 97
        0
 75
     0
 76
     1
 98
        0
  0
HATCH
  5
C5
330
C3
100
AcDbEntity
  8
Default
  6
Continuous
 62
     7
100
AcDbHatch
 10
0.0
 20
0.0
 30
0.0
210
0.0
220
0.0
230
1.0
  2
SOLID
 70
     1
 71
     0
 91
        1
 92
        1
 93
        3
 72
     1
 10
256.5044745090722
 20
151.1956300694908
 11
256.5044745090722
 21
150.028963366813
 72
     1
 10
256.5044745090722
 20
150.028963366813
 11
260.0044746171056
 21
150.6122967181519
 72
     1
 10
260.0044746171056
 20
150.6122967181519
 11
256.5044745090722
 21
151.1956300694908
 97
        0
 75
     0
 76
     1
 98
        0
  0
LINE
  5
C6
330
C3
100
AcDbEntity
  8
Default
  6
Continuous
 62
     7
100
AcDbLine
 10
50.0044811736
 20
137.1107866941
 30
0.0
 11
50.0044811736
 21
152.3622967722
 31
0.0
  0
LINE
  5
C7
330
C3
100
AcDbEntity
  8
Default
  6
Continuous
 62
     7
100
AcDbLine
 10
260.0044811736
 20
137.1107866941
 30
0.0
 11
260.0044811736
 21
152.3622967722
 31
0.0
  0
LINE
  5
C8
330
C3
100
AcDbEntity
  8
Default
  6
Continuous
 62
     7
100
AcDbLine
 10
50.0044811736
 20
150.6122967182
 30
0.0
 11
260.0044746171
 21
150.6122967182
 31
0.0
  0
TEXT
  5
C9
330
C3
100
AcDbEntity
  8
Default
  6
Continuous
 62
     7
100
AcDbText
 10
152.180614259
 20
151.4872967182
 30
0.0
 40
3.5
  1
210
  7
SEACAD_Solid_Edge_ISO
 11
152.180614259
 21
154.9872967182
 31
0.0
100
AcDbText
 73
     3
  0
ENDBLK
  5
CB
330
C3
100
AcDbEntity
  8
0
100
AcDbBlockEnd
  0
BLOCK
  5
D4
330
CD
100
AcDbEntity
  8
0
100
AcDbBlockBegin
  2
DMBLK38
 70
     0
 10
0.0
 20
0.0
 30
0.0
  3
DMBLK38
  1

  0
HATCH
  5
CE
330
CD
100
AcDbEntity
  8
Default
  6
Continuous
 62
     7
100
AcDbHatch
 10
0.0
 20
0.0
 30
0.0
210
0.0
220
0.0
230
1.0
  2
SOLID
 70
     1
 71
     0
 91
        1
 92
        1
 93
        3
 72
     1
 10
39.20106162025221
 20
133.6107865860477
 11
40.36772832293001
 21
133.6107865860477
 72
     1
 10
40.36772832293001
 20
133.6107865860477
 11
39.78439497159111
 21
137.1107866940812
 72
     1
 10
39.78439497159111
 20
137.1107866940812
 11
39.20106162025221
 21
133.6107865860477
 97
        0
 75
     0
 76
     1
 98
        0
  0
HATCH
  5
CF
330
CD
100
AcDbEntity
  8
Default
  6
Continuous
 62
     7
100
AcDbHatch
 10
0.0
 20
0.0
 30
0.0
210
0.0
220
0.0
230
1.0
  2
SOLID
 70
     1
 71
     0
 91
        1
 92
        1
 93
        3
 72
     1
 10
39.20106162025221
 20
110.6107874726668
 11
39.78439497159111
 21
107.1107873646334
 72
     1
 10
39.78439497159111
 20
107.1107873646334
 11
40.36772832293001
 21
110.6107874726668
 72
     1
 10
40.36772832293001
 20
110.6107874726668
 11
39.20106162025221
 21
110.6107874726668
 97
        0
 75
     0
 76
     1
 98
        0
  0
LINE
  5
D0
330
CD
100
AcDbEntity
  8
Default
  6
Continuous
 62
     7
100
AcDbLine
 10
50.0044811736
 20
137.1107866941
 30
0.0
 11
38.0343949176
 21
137.1107866941
 31
0.0
  0
LINE
  5
D1
330
CD
100
AcDbEntity
  8
Default
  6
Continuous
 62
     7
100
AcDbLine
 10
50.0044811736
 20
107.1107866941
 30
0.0
 11
38.0343949176
 21
107.1107866941
 31
0.0
  0
LINE
  5
D2
330
CD
100
AcDbEntity
  8
Default
  6
Continuous
 62
     7
100
AcDbLine
 10
39.7843949716
 20
137.1107866941
 30
0.0
 11
39.7843949716
 21
107.1107873646
 31
0.0
  0
TEXT
  5
D3
330
CD
100
AcDbEntity
  8
Default
  6
Continuous
 62
     7
100
AcDbText
 10
38.9093949716
 20
120.161923393
 30
0.0
 40
3.5
  1
30
 50
90.0
  7
SEACAD_Solid_Edge_ISO
 11
35.4093949716
 21
120.161923393
 31
0.0
100
AcDbText
 73
     3
  0
ENDBLK
  5
D5
330
CD
100
AcDbEntity
  8
0
100
AcDbBlockEnd
  0
BLOCK
  5
DE
330
D7
100
AcDbEntity
  8
0
100
AcDbBlockBegin
  2
DMBLK39
 70
     0
 10
0.0
 20
0.0
 30
0.0
  3
DMBLK39
  1

  0
HATCH
  5
D8
330
D7
100
AcDbEntity
  8
Default
  6
Continuous
 62
     7
100
AcDbHatch
 10
0.0
 20
0.0
 30
0.0
210
0.0
220
0.0
230
1.0
  2
SOLID
 70
     1
 71
     0
 91
        1
 92
        1
 93
        3
 72
     1
 10
39.42864612384327
 20
80.58293725718907
 11
40.59531282652107
 21
80.58293725718907
 72
     1
 10
40.59531282652107
 20
80.58293725718907
 11
40.01197947518217
 21
84.08293736522249
 72
     1
 10
40.01197947518217
 20
84.08293736522249
 11
39.42864612384327
 21
80.58293725718907
 97
        0
 75
     0
 76
     1
 98
        0
  0
HATCH
  5
D9
330
D7
100
AcDbEntity
  8
Default
  6
Continuous
 62
     7
100
AcDbHatch
 10
0.0
 20
0.0
 30
0.0
210
0.0
220
0.0
230
1.0
  2
SOLID
 70
     1
 71
     0
 91
        1
 92
        1
 93
        3
 72
     1
 10
39.42864612384327
 20
75.58293736894778
 11
40.01197947518217
 21
72.08293726091436
 72
     1
 10
40.01197947518217
 20
72.08293726091436
 11
40.59531282652107
 21
75.58293736894778
 72
     1
 10
40.59531282652107
 20
75.58293736894778
 11
39.42864612384327
 21
75.58293736894778
 97
        0
 75
     0
 76
     1
 98
        0
  0
LINE
  5
DA
330
D7
100
AcDbEntity
  8
Default
  6
Continuous
 62
     7
100
AcDbLine
 10
50.0044811736
 20
84.0829373652
 30
0.0
 11
38.2619794212
 21
84.0829373652
 31
0.0
  0
LINE
  5
DB
330
D7
100
AcDbEntity
  8
Default
  6
Continuous
 62
     7
100
AcDbLine
 10
50.0044811736
 20
72.0829373652
 30
0.0
 11
38.2619794212
 21
72.0829373652
 31
0.0
  0
LINE
  5
DC
330
D7
100
AcDbEntity
  8
Default
  6
Continuous
 62
     7
100
AcDbLine
 10
40.0119794752
 20
84.0829373652
 30
0.0
 11
40.0119794752
 21
72.0829372609
 31
0.0
  0
TEXT
  5
DD
330
D7
100
AcDbEntity
  8
Default
  6
Continuous
 62
     7
100
AcDbText
 10
39.1369794752
 20
76.2931645858
 30
0.0
 40
3.5
  1
12
 50
90.0
  7
SEACAD_Solid_Edge_ISO
 11
35.6369794752
 21
76.2931645858
 31
0.0
100
AcDbText
 73
     3
  0
ENDBLK
  5
DF
330
D7
100
AcDbEntity
  8
0
100
AcDbBlockEnd
  0
BLOCK
  5
E4
330
E0
100
AcDbEntity
  8
0
100
AcDbBlockBegin
  2
SEANNOT_GROUP
 70
     0
 10
0.0
 20
0.0
 30
0.0
  3
SEANNOT_GROUP
  1

  0
TEXT
  5
E2
330
E0
100
AcDbEntity
  8
Default
  6
Continuous
 62
     7
100
AcDbText
 10
243.1483969886
 20
25.7525109624
 30
0.0
 40
3.5
  1
712108000
  7
SEACAD_Solid_Edge_ISOB
 11
243.1483969886
 21
29.2525109624
 31
0.0
100
AcDbText
 73
     3
  0
TEXT
  5
E3
330
E0
100
AcDbEntity
  8
Default
  6
Continuous
 62
     7
100
AcDbText
 10
260.8074878977
 20
25.7525109624
 30
0.0
 40
3.5
  1
 
  7
SEACAD_Solid_Edge_ISOB
 11
260.8074878977
 21
29.2525109624
 31
0.0
100
AcDbText
 73
     3
  0
ENDBLK
  5
E5
330
E0
100
AcDbEntity
  8
0
100
AcDbBlockEnd
  0
BLOCK
  5
E8
330
E6
100
AcDbEntity
  8
0
100
AcDbBlockBegin
  2
SEANNOT_GROUP1
 70
     0
 10
0.0
 20
0.0
 30
0.0
  3
SEANNOT_GROUP1
  1

  0
TEXT
  5
E7
330
E6
100
AcDbEntity
  8
Default
  6
Continuous
 62
     7
100
AcDbText
 10
243.1477357349
 20
20.0537100543
 30
0.0
 40
3.5
  1
20.02.2015
  7
SEACAD_Solid_Edge_ISO
 11
243.1477357349
 21
23.5537100543
 31
0.0
100
AcDbText
 73
     3
  0
ENDBLK
  5
E9
330
E6
100
AcDbEntity
  8
0
100
AcDbBlockEnd
  0
BLOCK
  5
EE
330
EB
100
AcDbEntity
  8
0
100
AcDbBlockBegin
  2
SEANNOT_GROUP2
 70
     0
 10
0.0
 20
0.0
 30
0.0
  3
SEANNOT_GROUP2
  1

  0
TEXT
  5
EC
330
EB
100
AcDbEntity
  8
Default
  6
Continuous
 62
     7
100
AcDbText
 10
243.1795282745
 20
31.5598894014
 30
0.0
 40
3.5
  1
ZWT 8
  7
SEACAD_Solid_Edge_ISOB
 11
243.1795282745
 21
35.0598894014
 31
0.0
100
AcDbText
 73
     3
  0
TEXT
  5
ED
330
EB
100
AcDbEntity
  8
Default
  6
Continuous
 62
     7
100
AcDbText
 10
253.7590737291
 20
31.5598894014
 30
0.0
 40
3.5
  1
 
  7
SEACAD_Solid_Edge_ISOB
 11
253.7590737291
 21
35.0598894014
 31
0.0
100
AcDbText
 73
     3
  0
ENDBLK
  5
EF
330
EB
100
AcDbEntity
  8
0
100
AcDbBlockEnd
  0
BLOCK
  5
F2
330
F0
100
AcDbEntity
  8
0
100
AcDbBlockBegin
  2
SEANNOT_GROUP3
 70
     0
 10
0.0
 20
0.0
 30
0.0
  3
SEANNOT_GROUP3
  1

  0
TEXT
  5
F1
330
F0
100
AcDbEntity
  8
Default
  6
Continuous
 62
     7
100
AcDbText
 10
243.2357917511
 20
14.1955389783
 30
0.0
 40
3.5
  1
1:1
  7
SEACAD_Solid_Edge_ISO
 11
243.2357917511
 21
17.6955389783
 31
0.0
100
AcDbText
 73
     3
  0
ENDBLK
  5
F3
330
F0
100
AcDbEntity
  8
0
100
AcDbBlockEnd
  0
BLOCK
  5
1B8
330
F4
100
AcDbEntity
  8
0
100
AcDbBlockBegin
  2
RF-Massblatt_ZR
 70
     0
 10
0.0
 20
0.0
 30
0.0
  3
RF-Massblatt_ZR
  1

  0
TEXT
  5
F5
330
F4
100
AcDbEntity
  8
Default
  6
Continuous
 62
     7
100
AcDbText
 10
15.2206856049
 20
32.4613084294
 30
0.0
 40
2.5
  1
REGO-FIX AG
  7
SEACAD_Solid_Edge_ISO
 11
15.2206856049
 21
34.9613084294
 31
0.0
100
AcDbText
 73
     3
  0
TEXT
  5
F6
330
F4
100
AcDbEntity
  8
Default
  6
Continuous
 62
     7
100
AcDbText
 10
15.2206856049
 20
28.3703993385
 30
0.0
 40
2.5
  1
Obermattweg 60
  7
SEACAD_Solid_Edge_ISO
 11
15.2206856049
 21
30.8703993385
 31
0.0
100
AcDbText
 73
     3
  0
TEXT
  5
F7
330
F4
100
AcDbEntity
  8
Default
  6
Continuous
 62
     7
100
AcDbText
 10
15.2206856049
 20
24.2794902476
 30
0.0
 40
2.5
  1
4456 Tenniken / Switzerland
  7
SEACAD_Solid_Edge_ISO
 11
15.2206856049
 21
26.7794902476
 31
0.0
100
AcDbText
 73
     3
  0
TEXT
  5
F8
330
F4
100
AcDbEntity
  8
Default
  6
Continuous
 62
     7
100
AcDbText
 10
15.2206856049
 20
20.1885811567
 30
0.0
 40
2.5
  1
 
  7
SEACAD_Solid_Edge_ISO
 11
15.2206856049
 21
22.6885811567
 31
0.0
100
AcDbText
 73
     3
  0
TEXT
  5
F9
330
F4
100
AcDbEntity
  8
Default
  6
Continuous
 62
     7
100
AcDbText
 10
15.2206856049
 20
16.0976720658
 30
0.0
 40
2.5
  1
Phone  +41 61 976 14 66
  7
SEACAD_Solid_Edge_ISO
 11
15.2206856049
 21
18.5976720658
 31
0.0
100
AcDbText
 73
     3
  0
TEXT
  5
FA
330
F4
100
AcDbEntity
  8
Default
  6
Continuous
 62
     7
100
AcDbText
 10
15.2206856049
 20
12.0067629749
 30
0.0
 40
2.5
  1
Fax     +41 61 976 14 14
  7
SEACAD_Solid_Edge_ISO
 11
15.2206856049
 21
14.5067629749
 31
0.0
100
AcDbText
 73
     3
  0
TEXT
  5
FB
330
F4
100
AcDbEntity
  8
Default
  6
Continuous
 62
     7
100
AcDbText
 10
15.2206856049
 20
7.915853884
 30
0.0
 40
2.5
  1
www.rego-fix.com
  7
SEACAD_Solid_Edge_ISO
 11
15.2206856049
 21
10.415853884
 31
0.0
100
AcDbText
 73
     3
  0
TEXT
  5
FC
330
F4
100
AcDbEntity
  8
Default
  6
Continuous
 62
     7
100
AcDbText
 10
90.3836341545
 20
32.7483194895
 30
0.0
 40
1.8
  1
This is a non-controlled copy. All information given herein is subject to change without notice
  7
SEACAD_Solid_Edge_ISO
 11
90.3836341545
 21
34.5483194895
 31
0.0
100
AcDbText
 73
     3
  0
TEXT
  5
FD
330
F4
100
AcDbEntity
  8
Default
  6
Continuous
 62
     7
100
AcDbText
 10
90.3836341545
 20
29.802864944
 30
0.0
 40
1.8
  1
 
  7
SEACAD_Solid_Edge_ISO
 11
90.3836341545
 21
31.602864944
 31
0.0
100
AcDbText
 73
     3
  0
TEXT
  5
FE
330
F4
100
AcDbEntity
  8
Default
  6
Continuous
 62
     7
100
AcDbText
 10
90.3836341545
 20
26.8574103986
 30
0.0
 40
1.8
  1
The information given herein has been carefully checked and is believed to be correct. REGO-FIX,
  7
SEACAD_Solid_Edge_ISO
 11
90.3836341545
 21
28.6574103986
 31
0.0
100
AcDbText
 73
     3
  0
TEXT
  5
FF
330
F4
100
AcDbEntity
  8
Default
  6
Continuous
 62
     7
100
AcDbText
 10
90.3836341545
 20
23.9119558531
 30
0.0
 40
1.8
  1
however, assumes no responsibility or liability for any errors, inaccuracies or omissions that may appear
  7
SEACAD_Solid_Edge_ISO
 11
90.3836341545
 21
25.7119558531
 31
0.0
100
AcDbText
 73
     3
  0
TEXT
  5
100
330
F4
100
AcDbEntity
  8
Default
  6
Continuous
 62
     7
100
AcDbText
 10
90.3836341545
 20
20.9665013077
 30
0.0
 40
1.8
  1
in this drawing
  7
SEACAD_Solid_Edge_ISO
 11
90.3836341545
 21
22.7665013077
 31
0.0
100
AcDbText
 73
     3
  0
TEXT
  5
101
330
F4
100
AcDbEntity
  8
Default
  6
Continuous
 62
     7
100
AcDbText
 10
90.3836341545
 20
18.0210467622
 30
0.0
 40
1.8
  1
 
  7
SEACAD_Solid_Edge_ISO
 11
90.3836341545
 21
19.8210467622
 31
0.0
100
AcDbText
 73
     3
  0
TEXT
  5
102
330
F4
100
AcDbEntity
  8
Default
  6
Continuous
 62
     7
100
AcDbText
 10
90.3836341545
 20
15.0755922167
 30
0.0
 40
1.8
  1
This document is subject to copyright laws. No part of this document may be reproduced or transmitted
  7
SEACAD_Solid_Edge_ISO
 11
90.3836341545
 21
16.8755922167
 31
0.0
100
AcDbText
 73
     3
  0
TEXT
  5
103
330
F4
100
AcDbEntity
  8
Default
  6
Continuous
 62
     7
100
AcDbText
 10
90.3836341545
 20
12.1301376713
 30
0.0
 40
1.8
  1
in any form or any means, electronic or mechanic, for any purpose, without the express written permission
  7
SEACAD_Solid_Edge_ISO
 11
90.3836341545
 21
13.9301376713
 31
0.0
100
AcDbText
 73
     3
  0
TEXT
  5
104
330
F4
100
AcDbEntity
  8
Default
  6
Continuous
 62
     7
100
AcDbText
 10
90.3836341545
 20
9.1846831258
 30
0.0
 40
1.8
  1
of REGO-FIX
  7
SEACAD_Solid_Edge_ISO
 11
90.3836341545
 21
10.9846831258
 31
0.0
100
AcDbText
 73
     3
  0
TEXT
  5
105
330
F4
100
AcDbEntity
  8
Default
  6
Continuous
 62
     7
100
AcDbText
 10
90.3836341545
 20
6.2392285804
 30
0.0
 40
1.8
  1
 
  7
SEACAD_Solid_Edge_ISO
 11
90.3836341545
 21
8.0392285804
 31
0.0
100
AcDbText
 73
     3
  0
INSERT
  5
106
330
F4
100
AcDbEntity
  8
Default
100
AcDbBlockReference
  2
SEANNOT_GROUP
 10
0.0
 20
0.0
 30
0.0
  0
INSERT
  5
107
330
F4
100
AcDbEntity
  8
Default
100
AcDbBlockReference
  2
SEANNOT_GROUP1
 10
0.0
 20
0.0
 30
0.0
  0
TEXT
  5
108
330
F4
100
AcDbEntity
  8
Default
  6
Continuous
 62
     7
100
AcDbText
 10
222.0323311835
 20
31.4392490761
 30
0.0
 40
3.5
  1
Type :
  7
SEACAD_Solid_Edge_ISO
 11
222.0323311835
 21
34.9392490761
 31
0.0
100
AcDbText
 73
     3
  0
TEXT
  5
109
330
F4
100
AcDbEntity
  8
Default
  6
Continuous
 62
     7
100
AcDbText
 10
222.0323311835
 20
25.7119763489
 30
0.0
 40
3.5
  1
Part No. :
  7
SEACAD_Solid_Edge_ISO
 11
222.0323311835
 21
29.2119763489
 31
0.0
100
AcDbText
 73
     3
  0
TEXT
  5
10A
330
F4
100
AcDbEntity
  8
Default
  6
Continuous
 62
     7
100
AcDbText
 10
222.0323311835
 20
19.9847036216
 30
0.0
 40
3.5
  1
Date : 
  7
SEACAD_Solid_Edge_ISO
 11
222.0323311835
 21
23.4847036216
 31
0.0
100
AcDbText
 73
     3
  0
TEXT
  5
10B
330
F4
100
AcDbEntity
  8
Default
  6
Continuous
 62
     7
100
AcDbText
 10
222.0323311835
 20
14.2574308943
 30
0.0
 40
3.5
  1
Scale :
  7
SEACAD_Solid_Edge_ISO
 11
222.0323311835
 21
17.7574308943
 31
0.0
100
AcDbText
 73
     3
  0
HATCH
  5
10C
330
F4
100
AcDbEntity
  8
Default
  6
Continuous
 62
     7
100
AcDbHatch
 10
0.0
 20
0.0
 30
0.0
210
0.0
220
0.0
230
1.0
  2
SOLID
 70
     1
 71
     0
 91
        2
 92
        1
 93
        8
 72
     1
 10
42.32151487645756
 20
194.9385447651445
 11
42.32151487645756
 21
185.754685531833
 72
     1
 10
42.32151487645756
 20
185.754685531833
 11
44.71349367764382
 21
185.754685531833
 72
     1
 10
44.71349367764382
 20
185.754685531833
 11
44.71349367764383
 21
189.3282899440406
 72
     1
 10
44.71349367764383
 20
189.3282899440406
 11
47.00448595301438
 21
185.7478114001811
 72
     1
 10
47.00448595301438
 20
185.7478114001811
 11
49.97291566094713
 21
185.7478114001811
 72
     1
 10
49.97291566094713
 20
185.7478114001811
 11
47.10204571873984
 21
189.5154994518056
 72
     4
 94
        3
 73
     0
 74
     0
 95
       13
 96
        9
 40
0.0
 40
0.0
 40
0.0
 40
0.0
 40
0.1682415633710326
 40
0.3112681914447826
 40
0.5539761544022483
 40
0.7107596191140148
 40
0.8308266189414909
 40
1.0
 40
1.0
 40
1.0
 40
1.0
 10
47.10204571873983
 20
189.5154994518056
 10
47.5931902595439
 20
189.6265805291013
 10
48.41052790741877
 20
189.9866544242094
 10
49.14927051893395
 20
191.374603553537
 10
49.14927051893395
 20
192.9422769694344
 10
48.41052790741877
 20
194.2009180278366
 10
47.29934300891939
 20
194.8460946065546
 10
46.49304789960713
 20
194.9385447651445
 10
45.98580602652625
 20
194.9385447651445
 72
     1
 10
45.98580602652625
 20
194.9385447651445
 11
42.32151487645756
 21
194.9385447651445
 97
        0
 92
        1
 93
        4
 72
     4
 94
        3
 73
     0
 74
     0
 95
       12
 96
        8
 40
0.0
 40
0.0
 40
0.0
 40
0.0
 40
0.2394376657705028
 40
0.4132736096609977
 40
0.5875160438247272
 40
0.777186877551972
 40
1.0
 40
1.0
 40
1.0
 40
1.0
 10
45.44995777665132
 20
190.809244951587
 10
45.7438733344969
 20
190.809244951587
 10
46.29138342069198
 20
191.0091856468439
 10
46.60356878458519
 20
191.6212126027502
 10
46.60356878458519
 20
192.3024082097274
 10
46.29138342069198
 20
192.9158248437984
 10
45.7438733344969
 20
193.1018851122585
 10
45.44995777665132
 20
193.1018851122585
 72
     1
 10
45.44995777665132
 20
193.1018851122585
 11
44.71349367764383
 21
193.1018851122585
 72
     1
 10
44.71349367764383
 20
193.1018851122585
 11
44.71349367764383
 21
190.809244951587
 72
     1
 10
44.71349367764383
 20
190.809244951587
 11
45.44995777665132
 21
190.809244951587
 97
        0
 75
     0
 76
     1
 98
        0
  0
LINE
  5
10D
330
F4
100
AcDbEntity
  8
Default
  6
Continuous
 62
     7
100
AcDbLine
 10
42.3215148765
 20
194.9385447651
 30
0.0
 11
42.3215148765
 21
185.7546855318
 31
0.0
  0
LINE
  5
10E
330
F4
100
AcDbEntity
  8
Default
  6
Continuous
 62
     7
100
AcDbLine
 10
42.3215148765
 20
185.7546855318
 30
0.0
 11
44.7134936776
 21
185.7546855318
 31
0.0
  0
LINE
  5
10F
330
F4
100
AcDbEntity
  8
Default
  6
Continuous
 62
     7
100
AcDbLine
 10
44.7134936776
 20
185.7546855318
 30
0.0
 11
44.7134936776
 21
189.328289944
 31
0.0
  0
LINE
  5
110
330
F4
100
AcDbEntity
  8
Default
  6
Continuous
 62
     7
100
AcDbLine
 10
44.7134936776
 20
189.328289944
 30
0.0
 11
47.004485953
 21
185.7478114002
 31
0.0
  0
LINE
  5
111
330
F4
100
AcDbEntity
  8
Default
  6
Continuous
 62
     7
100
AcDbLine
 10
47.004485953
 20
185.7478114002
 30
0.0
 11
49.9729156609
 21
185.7478114002
 31
0.0
  0
LINE
  5
112
330
F4
100
AcDbEntity
  8
Default
  6
Continuous
 62
     7
100
AcDbLine
 10
49.9729156609
 20
185.7478114002
 30
0.0
 11
47.1020457187
 21
189.5154994518
 31
0.0
  0
SPLINE
  5
113
330
F4
100
AcDbEntity
  8
Default
  6
Continuous
 62
     7
100
AcDbSpline
210
0.0
220
0.0
230
1.0
 70
     8
 71
     3
 72
    13
 73
     9
 74
     0
 42
0.0000000011628157
 43
0.0000000001
 12
1.0
 22
0.0
 32
0.0
 13
1.0
 23
0.0
 33
0.0
 40
0.0
 40
0.0
 40
0.0
 40
0.0
 40
0.1691733810585091
 40
0.2892403808859852
 40
0.4460238455977516
 40
0.6887318085552174
 40
0.8317584366289674
 40
1.0
 40
1.0
 40
1.0
 40
1.0
 10
45.98580602652625
 20
194.9385447651445
 30
0.0
 10
46.49304789960713
 20
194.9385447651445
 30
0.0
 10
47.29934300891939
 20
194.8460946065546
 30
0.0
 10
48.41052790741877
 20
194.2009180278366
 30
0.0
 10
49.14927051893395
 20
192.9422769694344
 30
0.0
 10
49.14927051893395
 20
191.374603553537
 30
0.0
 10
48.41052790741877
 20
189.9866544242094
 30
0.0
 10
47.5931902595439
 20
189.6265805291013
 30
0.0
 10
47.10204571873983
 20
189.5154994518056
 30
0.0
  0
LINE
  5
114
330
F4
100
AcDbEntity
  8
Default
  6
Continuous
 62
     7
100
AcDbLine
 10
42.3215148765
 20
194.9385447651
 30
0.0
 11
45.9858060265
 21
194.9385447651
 31
0.0
  0
LINE
  5
115
330
F4
100
AcDbEntity
  8
Default
  6
Continuous
 62
     7
100
AcDbLine
 10
44.7134936776
 20
190.8092449516
 30
0.0
 11
44.7134936776
 21
193.1018851123
 31
0.0
  0
LINE
  5
116
330
F4
100
AcDbEntity
  8
Default
  6
Continuous
 62
     7
100
AcDbLine
 10
44.7134936776
 20
193.1018851123
 30
0.0
 11
45.4499577767
 21
193.1018851123
 31
0.0
  0
SPLINE
  5
117
330
F4
100
AcDbEntity
  8
Default
  6
Continuous
 62
     7
100
AcDbSpline
210
0.0
220
0.0
230
1.0
 70
     8
 71
     3
 72
    12
 73
     8
 74
     0
 42
0.0000000026277758
 43
0.0000000001
 12
1.0
 22
0.0
 32
0.0
 13
1.0
 23
0.0
 33
0.0
 40
0.0
 40
0.0
 40
0.0
 40
0.0
 40
0.222813122448028
 40
0.4124839561752728
 40
0.5867263903390023
 40
0.7605623342294972
 40
1.0
 40
1.0
 40
1.0
 40
1.0
 10
45.44995777665132
 20
193.1018851122585
 30
0.0
 10
45.7438733344969
 20
193.1018851122585
 30
0.0
 10
46.29138342069198
 20
192.9158248437984
 30
0.0
 10
46.60356878458519
 20
192.3024082097274
 30
0.0
 10
46.60356878458519
 20
191.6212126027502
 30
0.0
 10
46.29138342069198
 20
191.0091856468439
 30
0.0
 10
45.7438733344969
 20
190.809244951587
 30
0.0
 10
45.44995777665132
 20
190.809244951587
 30
0.0
  0
LINE
  5
118
330
F4
100
AcDbEntity
  8
Default
  6
Continuous
 62
     7
100
AcDbLine
 10
45.4499577767
 20
190.8092449516
 30
0.0
 11
44.7134936776
 21
190.8092449516
 31
0.0
  0
HATCH
  5
119
330
F4
100
AcDbEntity
  8
Default
  6
Continuous
 62
     7
100
AcDbHatch
 10
0.0
 20
0.0
 30
0.0
210
0.0
220
0.0
230
1.0
  2
SOLID
 70
     1
 71
     0
 91
        1
 92
        1
 93
       12
 72
     1
 10
52.60362221190818
 20
187.798730559416
 11
52.60362221190818
 21
189.3556342128608
 72
     1
 10
52.60362221190818
 20
189.3556342128608
 11
55.28097979562975
 21
189.3556342128608
 72
     1
 10
55.28097979562974
 20
189.3556342128608
 11
55.28097979562974
 21
191.3941140266129
 72
     1
 10
55.28097979562974
 20
191.3941140266129
 11
52.59678034187073
 21
191.3941140266129
 72
     1
 10
52.59678034187073
 20
191.3941140266129
 11
52.59678034187074
 21
192.8944997375615
 72
     1
 10
52.59678034187074
 20
192.8944997375615
 11
55.41613119856132
 21
192.8944997375615
 72
     1
 10
55.41613119856132
 20
192.8944997375615
 11
55.41613119856132
 21
194.9385447651445
 72
     1
 10
55.41613119856132
 20
194.9385447651445
 11
50.21398623070634
 21
194.9385447651445
 72
     1
 10
50.21398623070634
 20
194.9385447651445
 11
50.21398623070634
 21
185.754685531833
 72
     1
 10
50.21398623070634
 20
185.754685531833
 11
55.41613119856132
 21
185.754685531833
 72
     1
 10
55.41613119856132
 20
185.754685531833
 11
55.41613119856132
 21
187.798730559416
 72
     1
 10
55.41613119856132
 20
187.798730559416
 11
52.60362221190818
 21
187.798730559416
 97
        0
 75
     0
 76
     1
 98
        0
  0
LINE
  5
11A
330
F4
100
AcDbEntity
  8
Default
  6
Continuous
 62
     7
100
AcDbLine
 10
52.6036222119
 20
189.3556342129
 30
0.0
 11
52.6036222119
 21
187.7987305594
 31
0.0
  0
LINE
  5
11B
330
F4
100
AcDbEntity
  8
Default
  6
Continuous
 62
     7
100
AcDbLine
 10
55.2809797956
 20
189.3556342129
 30
0.0
 11
52.6036222119
 21
189.3556342129
 31
0.0
  0
LINE
  5
11C
330
F4
100
AcDbEntity
  8
Default
  6
Continuous
 62
     7
100
AcDbLine
 10
55.2809797956
 20
191.3941140266
 30
0.0
 11
55.2809797956
 21
189.3556342129
 31
0.0
  0
LINE
  5
11D
330
F4
100
AcDbEntity
  8
Default
  6
Continuous
 62
     7
100
AcDbLine
 10
55.2809797956
 20
191.3941140266
 30
0.0
 11
52.5967803419
 21
191.3941140266
 31
0.0
  0
LINE
  5
11E
330
F4
100
AcDbEntity
  8
Default
  6
Continuous
 62
     7
100
AcDbLine
 10
52.5967803419
 20
191.3941140266
 30
0.0
 11
52.5967803419
 21
192.8944997376
 31
0.0
  0
LINE
  5
11F
330
F4
100
AcDbEntity
  8
Default
  6
Continuous
 62
     7
100
AcDbLine
 10
55.4161311986
 20
192.8944997376
 30
0.0
 11
52.5967803419
 21
192.8944997376
 31
0.0
  0
LINE
  5
120
330
F4
100
AcDbEntity
  8
Default
  6
Continuous
 62
     7
100
AcDbLine
 10
55.4161311986
 20
194.9385447651
 30
0.0
 11
55.4161311986
 21
192.8944997376
 31
0.0
  0
LINE
  5
121
330
F4
100
AcDbEntity
  8
Default
  6
Continuous
 62
     7
100
AcDbLine
 10
50.2139862307
 20
194.9385447651
 30
0.0
 11
55.4161311986
 21
194.9385447651
 31
0.0
  0
LINE
  5
122
330
F4
100
AcDbEntity
  8
Default
  6
Continuous
 62
     7
100
AcDbLine
 10
50.2139862307
 20
194.9385447651
 30
0.0
 11
50.2139862307
 21
185.7546855318
 31
0.0
  0
LINE
  5
123
330
F4
100
AcDbEntity
  8
Default
  6
Continuous
 62
     7
100
AcDbLine
 10
50.2139862307
 20
185.7546855318
 30
0.0
 11
55.4161311986
 21
185.7546855318
 31
0.0
  0
LINE
  5
124
330
F4
100
AcDbEntity
  8
Default
  6
Continuous
 62
     7
100
AcDbLine
 10
55.4161311986
 20
187.7987305594
 30
0.0
 11
55.4161311986
 21
185.7546855318
 31
0.0
  0
LINE
  5
125
330
F4
100
AcDbEntity
  8
Default
  6
Continuous
 62
     7
100
AcDbLine
 10
52.6036222119
 20
187.7987305594
 30
0.0
 11
55.4161311986
 21
187.7987305594
 31
0.0
  0
HATCH
  5
126
330
F4
100
AcDbEntity
  8
Default
  6
Continuous
 62
     7
100
AcDbHatch
 10
0.0
 20
0.0
 30
0.0
210
0.0
220
0.0
230
1.0
  2
SOLID
 70
     1
 71
     0
 91
        1
 92
        1
 93
        6
 72
     4
 94
        3
 73
     0
 74
     0
 95
       17
 96
       13
 40
0.0
 40
0.0
 40
0.0
 40
0.0
 40
0.0781569980609236
 40
0.1459155123438746
 40
0.2569614383774849
 40
0.3416031469267623
 40
0.4351595973751964
 40
0.5725053592530724
 40
0.6753155999625021
 40
0.8109216076953838
 40
0.9017536478098003
 40
1.0
 40
1.0
 40
1.0
 40
1.0
 10
62.60211765162255
 20
189.0131190060215
 10
62.60440332268294
 20
188.5799174877168
 10
62.35973076203619
 20
187.9560829917903
 10
61.26453463043728
 20
187.3478839187325
 10
59.91106536086289
 20
187.3897234323977
 10
58.88110830387972
 20
188.1923730818099
 10
58.24317353707665
 20
189.4502256150186
 10
58.24317353707665
 20
191.0043917765008
 10
58.87341713804551
 20
192.5922365854512
 10
60.37683856576468
 20
193.3595471623809
 10
61.92575680626642
 20
192.9199700346165
 10
62.38565067821839
 20
192.3361937533583
 10
62.64254429913613
 20
191.7092922681641
 72
     1
 10
62.64254429913613
 20
191.7092922681641
 11
64.90499610849052
 21
192.6489136254976
 72
     4
 94
        3
 73
     0
 74
     0
 95
       22
 96
       18
 40
0.0
 40
0.0
 40
0.0
 40
0.0
 40
0.059755830700327
 40
0.1018913095675961
 40
0.1777912414453394
 40
0.2493799822716574
 40
0.3125221715618911
 40
0.3682413675943287
 40
0.4482855948127654
 40
0.5137638129624216
 40
0.5768889367295501
 40
0.6366828485538842
 40
0.7158403264613673
 40
0.7994135112569251
 40
0.8649639311660863
 40
0.9312699723359608
 40
1.0
 40
1.0
 40
1.0
 40
1.0
 10
64.90499610849054
 20
192.6489136254976
 10
64.60719067814091
 20
193.3539793965547
 10
64.05851484850886
 20
194.105514126421
 10
62.63836208482976
 20
195.0658867736329
 10
60.82395695771496
 20
195.3439789500815
 10
58.83542182670931
 20
195.0743942062145
 10
57.24441368253967
 20
194.1235289339185
 10
56.00694377481819
 20
192.4650301441042
 10
55.69870535235847
 20
190.4196305360265
 10
56.01908691001423
 20
188.396539322017
 10
56.92483574722785
 20
186.8320922380815
 10
58.50462924109291
 20
185.7007626388067
 10
60.69615505427507
 20
185.3109641301924
 10
62.93316340250266
 20
185.7118776336189
 10
64.57920935278783
 20
187.0796656589289
 10
65.37197304638754
 20
188.9372101606111
 10
65.40292757463243
 20
190.1519532946387
 10
65.39532369300086
 20
190.8766363852651
 72
     1
 10
65.39532369300086
 20
190.8766363852651
 11
60.677507484394
 21
190.8766363852651
 72
     1
 10
60.677507484394
 20
190.8766363852651
 11
60.677507484394
 21
189.0131190060215
 72
     1
 10
60.677507484394
 20
189.0131190060215
 11
62.60211765162255
 21
189.0131190060215
 97
        0
 75
     0
 76
     1
 98
        0
  0
SPLINE
  5
127
330
F4
100
AcDbEntity
  8
Default
  6
Continuous
 62
     7
100
AcDbSpline
210
0.0
220
0.0
230
1.0
 70
     8
 71
     3
 72
    17
 73
    13
 74
     0
 42
0.0000000006940834
 43
0.0000000001
 12
1.0
 22
0.0
 32
0.0
 13
1.0
 23
0.0
 33
0.0
 40
0.0
 40
0.0
 40
0.0
 40
0.0
 40
0.0982463521901998
 40
0.1890783923046162
 40
0.3246844000374979
 40
0.4274946407469275
 40
0.5648404026248036
 40
0.6583968530732377
 40
0.7430385616225151
 40
0.8540844876561254
 40
0.9218430019390764
 40
1.0
 40
1.0
 40
1.0
 40
1.0
 10
62.64254429913613
 20
191.7092922681641
 30
0.0
 10
62.38565067821839
 20
192.3361937533583
 30
0.0
 10
61.92575680626642
 20
192.9199700346165
 30
0.0
 10
60.37683856576468
 20
193.3595471623809
 30
0.0
 10
58.87341713804551
 20
192.5922365854512
 30
0.0
 10
58.24317353707665
 20
191.0043917765008
 30
0.0
 10
58.24317353707665
 20
189.4502256150186
 30
0.0
 10
58.88110830387972
 20
188.1923730818099
 30
0.0
 10
59.91106536086289
 20
187.3897234323977
 30
0.0
 10
61.26453463043728
 20
187.3478839187325
 30
0.0
 10
62.35973076203619
 20
187.9560829917903
 30
0.0
 10
62.60440332268294
 20
188.5799174877168
 30
0.0
 10
62.60211765162255
 20
189.0131190060215
 30
0.0
  0
LINE
  5
128
330
F4
100
AcDbEntity
  8
Default
  6
Continuous
 62
     7
100
AcDbLine
 10
62.6425442991
 20
191.7092922682
 30
0.0
 11
64.9049961085
 21
192.6489136255
 31
0.0
  0
SPLINE
  5
129
330
F4
100
AcDbEntity
  8
Default
  6
Continuous
 62
     7
100
AcDbSpline
210
0.0
220
0.0
230
1.0
 70
     8
 71
     3
 72
    22
 73
    18
 74
     0
 42
0.0000000003373676
 43
0.0000000001
 12
1.0
 22
0.0
 32
0.0
 13
1.0
 23
0.0
 33
0.0
 40
0.0
 40
0.0
 40
0.0
 40
0.0
 40
0.0687300276640392
 40
0.1350360688339138
 40
0.2005864887430749
 40
0.2841596735386326
 40
0.3633171514461158
 40
0.4231110632704499
 40
0.4862361870375785
 40
0.5517144051872346
 40
0.6317586324056713
 40
0.6874778284381089
 40
0.7506200177283426
 40
0.8222087585546606
 40
0.8981086904324039
 40
0.940244169299673
 40
1.0
 40
1.0
 40
1.0
 40
1.0
 10
65.39532369300086
 20
190.8766363852651
 30
0.0
 10
65.40292757463243
 20
190.1519532946387
 30
0.0
 10
65.37197304638754
 20
188.9372101606111
 30
0.0
 10
64.57920935278783
 20
187.0796656589289
 30
0.0
 10
62.93316340250266
 20
185.7118776336189
 30
0.0
 10
60.69615505427507
 20
185.3109641301924
 30
0.0
 10
58.50462924109291
 20
185.7007626388067
 30
0.0
 10
56.92483574722785
 20
186.8320922380815
 30
0.0
 10
56.01908691001423
 20
188.396539322017
 30
0.0
 10
55.69870535235847
 20
190.4196305360265
 30
0.0
 10
56.00694377481819
 20
192.4650301441042
 30
0.0
 10
57.24441368253967
 20
194.1235289339185
 30
0.0
 10
58.83542182670931
 20
195.0743942062145
 30
0.0
 10
60.82395695771496
 20
195.3439789500815
 30
0.0
 10
62.63836208482976
 20
195.0658867736329
 30
0.0
 10
64.05851484850886
 20
194.105514126421
 30
0.0
 10
64.60719067814091
 20
193.3539793965547
 30
0.0
 10
64.90499610849054
 20
192.6489136254976
 30
0.0
  0
LINE
  5
12A
330
F4
100
AcDbEntity
  8
Default
  6
Continuous
 62
     7
100
AcDbLine
 10
60.6775074844
 20
190.8766363853
 30
0.0
 11
65.395323693
 21
190.8766363853
 31
0.0
  0
LINE
  5
12B
330
F4
100
AcDbEntity
  8
Default
  6
Continuous
 62
     7
100
AcDbLine
 10
60.6775074844
 20
189.013119006
 30
0.0
 11
60.6775074844
 21
190.8766363853
 31
0.0
  0
LINE
  5
12C
330
F4
100
AcDbEntity
  8
Default
  6
Continuous
 62
     7
100
AcDbLine
 10
62.6021176516
 20
189.013119006
 30
0.0
 11
60.6775074844
 21
189.013119006
 31
0.0
  0
HATCH
  5
12D
330
F4
100
AcDbEntity
  8
Default
  6
Continuous
 62
     7
100
AcDbHatch
 10
0.0
 20
0.0
 30
0.0
210
0.0
220
0.0
230
1.0
  2
SOLID
 70
     1
 71
     0
 91
        2
 92
        1
 93
        1
 72
     3
 10
70.96578140876095
 20
190.3720273578977
 11
-0.005286795527256564
 21
-4.901382380901144
 40
1.028338920689181
 50
0.0
 51
360.0
 73
     1
 97
        0
 92
        1
 93
        1
 72
     3
 10
70.96578140876095
 20
190.3720273578977
 11
2.592775394041936
 21
0.0
 40
1.0
 50
0.0
 51
360.0
 73
     1
 97
        0
 75
     0
 76
     1
 98
        0
  0
ELLIPSE
  5
12E
330
F4
100
AcDbEntity
  8
Default
  6
Continuous
 62
     7
100
AcDbEllipse
 10
70.9657814088
 20
190.3720273579
 30
0.0
 11
5.040282267460851
 21
-0.005436617606403405
 31
0.0
210
0.0
220
0.0
230
1.0
 40
0.9724420421
 41
0.0
 42
6.283185307179586
  0
CIRCLE
  5
12F
330
F4
100
AcDbEntity
  8
Default
  6
Continuous
 62
     7
100
AcDbCircle
 10
70.9657814088
 20
190.3720273579
 30
0.0
 40
2.592775394041936
  0
HATCH
  5
130
330
F4
100
AcDbEntity
  8
Default
  6
Continuous
 62
     7
100
AcDbHatch
 10
0.0
 20
0.0
 30
0.0
210
0.0
220
0.0
230
1.0
  2
SOLID
 70
     1
 71
     0
 91
        1
 92
        1
 93
        4
 72
     1
 10
76.83067844905624
 20
188.7418183146848
 11
80.3697086050752
 21
188.7418183146848
 72
     1
 10
80.3697086050752
 20
188.7418183146848
 11
80.3697086050752
 21
190.6481551185038
 72
     1
 10
80.3697086050752
 20
190.6481551185038
 11
76.83067844905625
 21
190.6481551185038
 72
     1
 10
76.83067844905625
 20
190.6481551185038
 11
76.83067844905625
 21
188.7418183146848
 97
        0
 75
     0
 76
     1
 98
        0
  0
LINE
  5
131
330
F4
100
AcDbEntity
  8
Default
  6
Continuous
 62
     7
100
AcDbLine
 10
80.3697086051
 20
188.7418183147
 30
0.0
 11
76.8306784491
 21
188.7418183147
 31
0.0
  0
LINE
  5
132
330
F4
100
AcDbEntity
  8
Default
  6
Continuous
 62
     7
100
AcDbLine
 10
80.3697086051
 20
190.6481551185
 30
0.0
 11
80.3697086051
 21
188.7418183147
 31
0.0
  0
LINE
  5
133
330
F4
100
AcDbEntity
  8
Default
  6
Continuous
 62
     7
100
AcDbLine
 10
76.8306784491
 20
190.6481551185
 30
0.0
 11
80.3697086051
 21
190.6481551185
 31
0.0
  0
LINE
  5
134
330
F4
100
AcDbEntity
  8
Default
  6
Continuous
 62
     7
100
AcDbLine
 10
76.8306784491
 20
188.7418183147
 30
0.0
 11
76.8306784491
 21
190.6481551185
 31
0.0
  0
HATCH
  5
135
330
F4
100
AcDbEntity
  8
Default
  6
Continuous
 62
     7
100
AcDbHatch
 10
0.0
 20
0.0
 30
0.0
210
0.0
220
0.0
230
1.0
  2
SOLID
 70
     1
 71
     0
 91
        1
 92
        1
 93
       10
 72
     1
 10
83.77703945951268
 20
185.754685531833
 11
83.77703945951268
 21
189.3540948096742
 72
     1
 10
83.77703945951268
 20
189.3540948096742
 11
86.38678552754043
 21
189.3540948096742
 72
     1
 10
86.38678552754043
 20
189.3540948096742
 11
86.38678552754043
 21
191.3985895549831
 72
     1
 10
86.38678552754043
 20
191.3985895549831
 11
83.78216277283542
 21
191.3985895549831
 72
     1
 10
83.78216277283542
 20
191.3985895549831
 11
83.78216277283543
 21
192.8889055285979
 72
     1
 10
83.78216277283543
 20
192.8889055285979
 11
86.63475454268763
 21
192.8889055285978
 72
     1
 10
86.63475454268763
 20
192.8889055285978
 11
86.63475454268763
 21
194.9385447651445
 72
     1
 10
86.63475454268763
 20
194.9385447651445
 11
81.38378245706785
 21
194.9385447651445
 72
     1
 10
81.38378245706784
 20
194.9385447651445
 11
81.38378245706781
 21
185.754685531833
 72
     1
 10
81.38378245706781
 20
185.754685531833
 11
83.77703945951266
 21
185.754685531833
 97
        0
 75
     0
 76
     1
 98
        0
  0
LINE
  5
136
330
F4
100
AcDbEntity
  8
Default
  6
Continuous
 62
     7
100
AcDbLine
 10
83.7770394595
 20
189.3540948097
 30
0.0
 11
83.7770394595
 21
185.7546855318
 31
0.0
  0
LINE
  5
137
330
F4
100
AcDbEntity
  8
Default
  6
Continuous
 62
     7
100
AcDbLine
 10
86.3867855275
 20
189.3540948097
 30
0.0
 11
83.7770394595
 21
189.3540948097
 31
0.0
  0
LINE
  5
138
330
F4
100
AcDbEntity
  8
Default
  6
Continuous
 62
     7
100
AcDbLine
 10
86.3867855275
 20
191.398589555
 30
0.0
 11
86.3867855275
 21
189.3540948097
 31
0.0
  0
LINE
  5
139
330
F4
100
AcDbEntity
  8
Default
  6
Continuous
 62
     7
100
AcDbLine
 10
86.3867855275
 20
191.398589555
 30
0.0
 11
83.7821627728
 21
191.398589555
 31
0.0
  0
LINE
  5
13A
330
F4
100
AcDbEntity
  8
Default
  6
Continuous
 62
     7
100
AcDbLine
 10
83.7821627728
 20
191.398589555
 30
0.0
 11
83.7821627728
 21
192.8889055286
 31
0.0
  0
LINE
  5
13B
330
F4
100
AcDbEntity
  8
Default
  6
Continuous
 62
     7
100
AcDbLine
 10
86.6347545427
 20
192.8889055286
 30
0.0
 11
83.7821627728
 21
192.8889055286
 31
0.0
  0
LINE
  5
13C
330
F4
100
AcDbEntity
  8
Default
  6
Continuous
 62
     7
100
AcDbLine
 10
86.6347545427
 20
194.9385447651
 30
0.0
 11
86.6347545427
 21
192.8889055286
 31
0.0
  0
LINE
  5
13D
330
F4
100
AcDbEntity
  8
Default
  6
Continuous
 62
     7
100
AcDbLine
 10
81.3837824571
 20
194.9385447651
 30
0.0
 11
86.6347545427
 21
194.9385447651
 31
0.0
  0
LINE
  5
13E
330
F4
100
AcDbEntity
  8
Default
  6
Continuous
 62
     7
100
AcDbLine
 10
81.3837824571
 20
194.9385447651
 30
0.0
 11
81.3837824571
 21
185.7546855318
 31
0.0
  0
LINE
  5
13F
330
F4
100
AcDbEntity
  8
Default
  6
Continuous
 62
     7
100
AcDbLine
 10
81.3837824571
 20
185.7546855318
 30
0.0
 11
83.7770394595
 21
185.7546855318
 31
0.0
  0
HATCH
  5
140
330
F4
100
AcDbEntity
  8
Default
  6
Continuous
 62
     7
100
AcDbHatch
 10
0.0
 20
0.0
 30
0.0
210
0.0
220
0.0
230
1.0
  2
SOLID
 70
     1
 71
     0
 91
        1
 92
        1
 93
        4
 72
     1
 10
89.97185990344924
 20
185.754685531833
 11
89.97185990344924
 21
194.9385447651445
 72
     1
 10
89.97185990344924
 20
194.9385447651445
 11
87.58928083822045
 21
194.9385447651445
 72
     1
 10
87.58928083822046
 20
194.9385447651445
 11
87.58928083822046
 21
185.754685531833
 72
     1
 10
87.58928083822046
 20
185.754685531833
 11
89.97185990344926
 21
185.754685531833
 97
        0
 75
     0
 76
     1
 98
        0
  0
LINE
  5
141
330
F4
100
AcDbEntity
  8
Default
  6
Continuous
 62
     7
100
AcDbLine
 10
89.9718599034
 20
194.9385447651
 30
0.0
 11
89.9718599034
 21
185.7546855318
 31
0.0
  0
LINE
  5
142
330
F4
100
AcDbEntity
  8
Default
  6
Continuous
 62
     7
100
AcDbLine
 10
87.5892808382
 20
194.9385447651
 30
0.0
 11
89.9718599034
 21
194.9385447651
 31
0.0
  0
LINE
  5
143
330
F4
100
AcDbEntity
  8
Default
  6
Continuous
 62
     7
100
AcDbLine
 10
87.5892808382
 20
194.9551488259
 30
0.0
 11
87.5892808382
 21
185.7546855318
 31
0.0
  0
LINE
  5
144
330
F4
100
AcDbEntity
  8
Default
  6
Continuous
 62
     7
100
AcDbLine
 10
87.5892808382
 20
185.7546855318
 30
0.0
 11
89.9718599034
 21
185.7546855318
 31
0.0
  0
HATCH
  5
145
330
F4
100
AcDbEntity
  8
Default
  6
Continuous
 62
     7
100
AcDbHatch
 10
0.0
 20
0.0
 30
0.0
210
0.0
220
0.0
230
1.0
  2
SOLID
 70
     1
 71
     0
 91
        1
 92
        1
 93
       12
 72
     1
 10
90.93992312325815
 20
194.9385447651445
 11
93.86565170849006
 21
190.6771667977491
 72
     1
 10
93.86565170849006
 20
190.6771667977491
 11
90.23544677063222
 21
185.754685531833
 72
     1
 10
90.23544677063222
 20
185.754685531833
 11
93.1808857211796
 21
185.754685531833
 72
     1
 10
93.1808857211796
 20
185.754685531833
 11
95.26688397738292
 21
188.746364358591
 72
     1
 10
95.26688397738292
 20
188.746364358591
 11
97.15857006725494
 21
185.754685531833
 72
     1
 10
97.15857006725496
 20
185.754685531833
 11
100.0991694138435
 21
185.754685531833
 72
     1
 10
100.0991694138435
 20
185.754685531833
 11
96.69453445955821
 21
190.6423625766103
 72
     1
 10
96.69453445955823
 20
190.6423625766103
 11
99.62030195498981
 21
194.9385447651445
 72
     1
 10
99.6203019549898
 20
194.9385447651445
 11
96.65881529073843
 21
194.9385447651445
 72
     1
 10
96.65881529073845
 20
194.9385447651445
 11
95.25899539432831
 21
192.5894803753558
 72
     1
 10
95.25899539432831
 20
192.5894803753558
 11
93.87885666756846
 21
194.9385447651445
 72
     1
 10
93.87885666756846
 20
194.9385447651445
 11
90.93992312325815
 21
194.9385447651445
 97
        0
 75
     0
 76
     1
 98
        0
  0
LINE
  5
146
330
F4
100
AcDbEntity
  8
Default
  6
Continuous
 62
     7
100
AcDbLine
 10
93.8656517085
 20
190.6771667977
 30
0.0
 11
90.9399231233
 21
194.9385447651
 31
0.0
  0
LINE
  5
147
330
F4
100
AcDbEntity
  8
Default
  6
Continuous
 62
     7
100
AcDbLine
 10
90.2354467706
 20
185.7546855318
 30
0.0
 11
93.8656517085
 21
190.6771667977
 31
0.0
  0
LINE
  5
148
330
F4
100
AcDbEntity
  8
Default
  6
Continuous
 62
     7
100
AcDbLine
 10
90.2354467706
 20
185.7546855318
 30
0.0
 11
93.1808857212
 21
185.7546855318
 31
0.0
  0
LINE
  5
149
330
F4
100
AcDbEntity
  8
Default
  6
Continuous
 62
     7
100
AcDbLine
 10
95.2668839774
 20
188.7463643586
 30
0.0
 11
93.1808857212
 21
185.7546855318
 31
0.0
  0
LINE
  5
14A
330
F4
100
AcDbEntity
  8
Default
  6
Continuous
 62
     7
100
AcDbLine
 10
97.1585700673
 20
185.7546855318
 30
0.0
 11
95.2668839774
 21
188.7463643586
 31
0.0
  0
LINE
  5
14B
330
F4
100
AcDbEntity
  8
Default
  6
Continuous
 62
     7
100
AcDbLine
 10
97.1585700673
 20
185.7546855318
 30
0.0
 11
100.0991694138
 21
185.7546855318
 31
0.0
  0
LINE
  5
14C
330
F4
100
AcDbEntity
  8
Default
  6
Continuous
 62
     7
100
AcDbLine
 10
96.6945344596
 20
190.6423625766
 30
0.0
 11
100.0991694138
 21
185.7546855318
 31
0.0
  0
LINE
  5
14D
330
F4
100
AcDbEntity
  8
Default
  6
Continuous
 62
     7
100
AcDbLine
 10
99.620301955
 20
194.9385447651
 30
0.0
 11
96.6945344596
 21
190.6423625766
 31
0.0
  0
LINE
  5
14E
330
F4
100
AcDbEntity
  8
Default
  6
Continuous
 62
     7
100
AcDbLine
 10
96.6588152907
 20
194.9385447651
 30
0.0
 11
99.620301955
 21
194.9385447651
 31
0.0
  0
LINE
  5
14F
330
F4
100
AcDbEntity
  8
Default
  6
Continuous
 62
     7
100
AcDbLine
 10
95.2589953943
 20
192.5894803754
 30
0.0
 11
96.6588152907
 21
194.9385447651
 31
0.0
  0
LINE
  5
150
330
F4
100
AcDbEntity
  8
Default
  6
Continuous
 62
     7
100
AcDbLine
 10
93.8788566676
 20
194.9385447651
 30
0.0
 11
95.2589953943
 21
192.5894803754
 31
0.0
  0
LINE
  5
151
330
F4
100
AcDbEntity
  8
Default
  6
Continuous
 62
     7
100
AcDbLine
 10
90.9399231233
 20
194.9385447651
 30
0.0
 11
93.8788566676
 21
194.9385447651
 31
0.0
  0
HATCH
  5
152
330
F4
100
AcDbEntity
  8
Default
  6
Continuous
 62
     7
100
AcDbHatch
 10
0.0
 20
0.0
 30
0.0
210
0.0
220
0.0
230
1.0
  2
SOLID
 70
     1
 71
     0
 91
        2
 92
        1
 93
        1
 72
     3
 10
101.0869246934458
 20
193.241809297309
 11
1.751245468585817
 21
0.0
 40
1.0
 50
0.0
 51
360.0
 73
     1
 97
        0
 92
        1
 93
        1
 72
     3
 10
101.0869246934458
 20
193.241809297309
 11
1.36406508544596
 21
0.0
 40
1.0
 50
0.0
 51
360.0
 73
     1
 97
        0
 75
     0
 76
     1
 98
        0
  0
CIRCLE
  5
153
330
F4
100
AcDbEntity
  8
Default
  6
Continuous
 62
     7
100
AcDbCircle
 10
101.0869246934
 20
193.2418092973
 30
0.0
 40
1.751245468585817
  0
CIRCLE
  5
154
330
F4
100
AcDbEntity
  8
Default
  6
Continuous
 62
     7
100
AcDbCircle
 10
101.0869246934
 20
193.2418092973
 30
0.0
 40
1.36406508544596
  0
HATCH
  5
155
330
F4
100
AcDbEntity
  8
Default
  6
Continuous
 62
     7
100
AcDbHatch
 10
0.0
 20
0.0
 30
0.0
210
0.0
220
0.0
230
1.0
  2
SOLID
 70
     1
 71
     0
 91
        2
 92
        1
 93
        9
 72
     1
 10
100.7806936830239
 20
192.366664053748
 11
100.7806936830239
 21
193.1428885623729
 72
     1
 10
100.7806936830239
 20
193.1428885623729
 11
101.1022199045179
 21
193.1428885623729
 72
     1
 10
101.1022199045179
 20
193.1428885623729
 11
101.5047712885049
 21
192.366664053748
 72
     1
 10
101.5047712885049
 20
192.366664053748
 11
101.8764087918349
 21
192.366664053748
 72
     1
 10
101.8764087918349
 20
192.366664053748
 11
101.4738574078479
 21
193.1428885623729
 72
     4
 94
        3
 73
     0
 74
     0
 95
       11
 96
        7
 40
0.0
 40
0.0
 40
0.0
 40
0.0
 40
0.2306009460498227
 40
0.5056923327732079
 40
0.7895006526090165
 40
1.0
 40
1.0
 40
1.0
 40
1.0
 10
101.4738574078479
 20
193.1428885623729
 10
101.6431575326942
 20
193.1534364070392
 10
101.8331662100916
 20
193.3055064590674
 10
101.9257605053318
 20
193.6341383640911
 10
101.8210688775049
 20
194.0059423058328
 10
101.5813068772545
 20
194.1419447204104
 10
101.4738574078479
 20
194.1353674976777
 72
     1
 10
101.4738574078479
 20
194.1353674976777
 11
100.4255103886626
 21
194.1353674976777
 72
     1
 10
100.4255103886626
 20
194.1353674976777
 11
100.4255103886626
 21
192.366664053748
 72
     1
 10
100.4255103886626
 20
192.366664053748
 11
100.7806936830239
 21
192.366664053748
 97
        0
 92
        1
 93
        4
 72
     4
 94
        3
 73
     0
 74
     0
 95
       11
 96
        7
 40
0.0
 40
0.0
 40
0.0
 40
0.0
 40
0.2117763581161702
 40
0.5056586337025859
 40
0.8357622146819392
 40
1.0
 40
1.0
 40
1.0
 40
1.0
 10
101.3942625768373
 20
193.48088245875
 10
101.4483854945454
 20
193.4798368267229
 10
101.5436700354477
 20
193.5357965881548
 10
101.5633309568845
 20
193.7403968269171
 10
101.4591847039673
 20
193.8346316297714
 10
101.3756204539029
 20
193.853662130763
 10
101.3189503593848
 20
193.8536779351398
 72
     1
 10
101.3189503593848
 20
193.8536779351398
 11
100.7767023937271
 21
193.8536779351398
 72
     1
 10
100.7767023937271
 20
193.8536779351398
 11
100.7767023937271
 21
193.4808824587501
 72
     1
 10
100.7767023937271
 20
193.48088245875
 11
101.3942625768373
 21
193.48088245875
 97
        0
 75
     0
 76
     1
 98
        0
  0
LINE
  5
156
330
F4
100
AcDbEntity
  8
Default
  6
Continuous
 62
     7
100
AcDbLine
 10
100.780693683
 20
193.1428885624
 30
0.0
 11
100.780693683
 21
192.3666640537
 31
0.0
  0
LINE
  5
157
330
F4
100
AcDbEntity
  8
Default
  6
Continuous
 62
     7
100
AcDbLine
 10
101.1022199045
 20
193.1428885624
 30
0.0
 11
100.780693683
 21
193.1428885624
 31
0.0
  0
LINE
  5
158
330
F4
100
AcDbEntity
  8
Default
  6
Continuous
 62
     7
100
AcDbLine
 10
101.5047712885
 20
192.3666640537
 30
0.0
 11
101.1022199045
 21
193.1428885624
 31
0.0
  0
LINE
  5
159
330
F4
100
AcDbEntity
  8
Default
  6
Continuous
 62
     7
100
AcDbLine
 10
101.5047712885
 20
192.3666640537
 30
0.0
 11
101.8764087918
 21
192.3666640537
 31
0.0
  0
LINE
  5
15A
330
F4
100
AcDbEntity
  8
Default
  6
Continuous
 62
     7
100
AcDbLine
 10
101.4738574078
 20
193.1428885624
 30
0.0
 11
101.8764087918
 21
192.3666640537
 31
0.0
  0
SPLINE
  5
15B
330
F4
100
AcDbEntity
  8
Default
  6
Continuous
 62
     7
100
AcDbSpline
210
0.0
220
0.0
230
1.0
 70
     8
 71
     3
 72
    11
 73
     7
 74
     0
 42
0.0000000065617358
 43
0.0000000001
 12
1.0
 22
0.0
 32
0.0
 13
1.0
 23
0.0
 33
0.0
 40
0.0
 40
0.0
 40
0.0
 40
0.0
 40
0.2104993473909836
 40
0.494307667226792
 40
0.7693990539501773
 40
1.0
 40
1.0
 40
1.0
 40
1.0
 10
101.4738574078479
 20
194.1353674976777
 30
0.0
 10
101.5813068772545
 20
194.1419447204104
 30
0.0
 10
101.8210688775049
 20
194.0059423058328
 30
0.0
 10
101.9257605053318
 20
193.6341383640911
 30
0.0
 10
101.8331662100916
 20
193.3055064590674
 30
0.0
 10
101.6431575326942
 20
193.1534364070392
 30
0.0
 10
101.4738574078479
 20
193.1428885623729
 30
0.0
  0
LINE
  5
15C
330
F4
100
AcDbEntity
  8
Default
  6
Continuous
 62
     7
100
AcDbLine
 10
100.4255103887
 20
194.1353674977
 30
0.0
 11
101.4738574078
 21
194.1353674977
 31
0.0
  0
LINE
  5
15D
330
F4
100
AcDbEntity
  8
Default
  6
Continuous
 62
     7
100
AcDbLine
 10
100.4255103887
 20
192.3666640537
 30
0.0
 11
100.4255103887
 21
194.1353674977
 31
0.0
  0
LINE
  5
15E
330
F4
100
AcDbEntity
  8
Default
  6
Continuous
 62
     7
100
AcDbLine
 10
100.4255103887
 20
192.3666640537
 30
0.0
 11
100.780693683
 21
192.3666640537
 31
0.0
  0
LINE
  5
15F
330
F4
100
AcDbEntity
  8
Default
  6
Continuous
 62
     7
100
AcDbLine
 10
100.7767023937
 20
193.4808824588
 30
0.0
 11
100.7767023937
 21
193.8536779351
 31
0.0
  0
LINE
  5
160
330
F4
100
AcDbEntity
  8
Default
  6
Continuous
 62
     7
100
AcDbLine
 10
100.7767023937
 20
193.8536779351
 30
0.0
 11
101.3189503594
 21
193.8536779351
 31
0.0
  0
SPLINE
  5
161
330
F4
100
AcDbEntity
  8
Default
  6
Continuous
 62
     7
100
AcDbSpline
210
0.0
220
0.0
230
1.0
 70
     8
 71
     3
 72
    11
 73
     7
 74
     0
 42
0.0000000153138662
 43
0.0000000001
 12
1.0
 22
0.0
 32
0.0
 13
1.0
 23
0.0
 33
0.0
 40
0.0
 40
0.0
 40
0.0
 40
0.0
 40
0.1642377853180608
 40
0.4943413662974141
 40
0.7882236418838298
 40
1.0
 40
1.0
 40
1.0
 40
1.0
 10
101.3189503593848
 20
193.8536779351398
 30
0.0
 10
101.3756204539029
 20
193.853662130763
 30
0.0
 10
101.4591847039673
 20
193.8346316297714
 30
0.0
 10
101.5633309568845
 20
193.7403968269171
 30
0.0
 10
101.5436700354477
 20
193.5357965881548
 30
0.0
 10
101.4483854945454
 20
193.4798368267229
 30
0.0
 10
101.3942625768373
 20
193.48088245875
 30
0.0
  0
LINE
  5
162
330
F4
100
AcDbEntity
  8
Default
  6
Continuous
 62
     7
100
AcDbLine
 10
100.7767023937
 20
193.4808824588
 30
0.0
 11
101.3942625768
 21
193.4808824588
 31
0.0
  0
TEXT
  5
163
330
F4
100
AcDbEntity
  8
Default
  6
Continuous
 62
     7
100
AcDbText
 10
29.5218912885
 20
191.6748032164
 30
0.0
 40
1.5624782114
  1
Swiss
  7
SEACAD_Arial
 11
29.5218912885
 21
193.2372814279
 31
0.0
100
AcDbText
 73
     3
  0
TEXT
  5
164
330
F4
100
AcDbEntity
  8
Default
  6
Continuous
 62
     7
100
AcDbText
 10
29.5218912885
 20
189.2291851463
 30
0.0
 40
1.5624782114
  1
 
  7
SEACAD_Arial
 11
29.5218912885
 21
190.7916633578
 31
0.0
100
AcDbText
 73
     3
  0
TEXT
  5
165
330
F4
100
AcDbEntity
  8
Default
  6
Continuous
 62
     7
100
AcDbText
 10
29.5295117651
 20
189.5324537558
 30
0.0
 40
1.5556588465
  1
Precision
  7
SEACAD_Arial
 11
29.5295117651
 21
191.0881126023
 31
0.0
100
AcDbText
 73
     3
  0
TEXT
  5
166
330
F4
100
AcDbEntity
  8
Default
  6
Continuous
 62
     7
100
AcDbText
 10
30.6049856603
 20
187.3619518946
 30
0.0
 40
1.5556588465
  1
ools
  7
SEACAD_Arial
 11
30.6049856603
 21
188.9176107411
 31
0.0
100
AcDbText
 73
     3
  0
TEXT
  5
167
330
F4
100
AcDbEntity
  8
Default
  6
Continuous
 62
     7
100
AcDbText
 10
29.5295117651
 20
187.3619518946
 30
0.0
 40
1.5556588465
  1
T
  7
SEACAD_Arial
 11
29.5295117651
 21
188.9176107411
 31
0.0
100
AcDbText
 73
     3
  0
HATCH
  5
168
330
F4
100
AcDbEntity
  8
Default
  6
Continuous
 62
     7
100
AcDbHatch
 10
0.0
 20
0.0
 30
0.0
210
0.0
220
0.0
230
1.0
  2
SOLID
 70
     1
 71
     0
 91
        2
 92
        1
 93
        4
 72
     1
 10
14.99878275002649
 20
194.974890689558
 11
14.99878275002649
 21
185.8256208126932
 72
     1
 10
14.99878275002649
 20
185.8256208126932
 11
27.17726457592141
 21
185.8256208126932
 72
     1
 10
27.1772645759214
 20
185.8256208126932
 11
27.1772645759214
 21
194.974890689558
 72
     1
 10
27.1772645759214
 20
194.974890689558
 11
14.99878275002649
 21
194.974890689558
 97
        0
 92
        1
 93
        4
 72
     1
 10
15.20275065475991
 20
186.0257023597236
 11
26.96840768357588
 21
186.0257023597236
 72
     1
 10
26.96840768357588
 20
186.0257023597236
 11
26.96840768357588
 21
194.7736155142314
 72
     1
 10
26.96840768357588
 20
194.7736155142314
 11
15.2027506547599
 21
194.7736155142314
 72
     1
 10
15.2027506547599
 20
194.7736155142314
 11
15.2027506547599
 21
186.0257023597236
 97
        0
 75
     0
 76
     1
 98
        0
  0
LINE
  5
169
330
F4
100
AcDbEntity
  8
Default
  6
Continuous
 62
     7
100
AcDbLine
 10
14.99878275
 20
185.8256208127
 30
0.0
 11
14.99878275
 21
194.9748906896
 31
0.0
  0
LINE
  5
16A
330
F4
100
AcDbEntity
  8
Default
  6
Continuous
 62
     7
100
AcDbLine
 10
27.1772645759
 20
185.8256208127
 30
0.0
 11
14.99878275
 21
185.8256208127
 31
0.0
  0
LINE
  5
16B
330
F4
100
AcDbEntity
  8
Default
  6
Continuous
 62
     7
100
AcDbLine
 10
27.1772645759
 20
194.9748906896
 30
0.0
 11
27.1772645759
 21
185.8256208127
 31
0.0
  0
LINE
  5
16C
330
F4
100
AcDbEntity
  8
Default
  6
Continuous
 62
     7
100
AcDbLine
 10
14.99878275
 20
194.9748906896
 30
0.0
 11
27.1772645759
 21
194.9748906896
 31
0.0
  0
LINE
  5
16D
330
F4
100
AcDbEntity
  8
Default
  6
Continuous
 62
     7
100
AcDbLine
 10
15.2027506548
 20
186.0257023597
 30
0.0
 11
15.2027506548
 21
194.7736155142
 31
0.0
  0
LINE
  5
16E
330
F4
100
AcDbEntity
  8
Default
  6
Continuous
 62
     7
100
AcDbLine
 10
15.2027506548
 20
194.7736155142
 30
0.0
 11
26.9684076836
 21
194.7736155142
 31
0.0
  0
LINE
  5
16F
330
F4
100
AcDbEntity
  8
Default
  6
Continuous
 62
     7
100
AcDbLine
 10
26.9684076836
 20
186.0257023597
 30
0.0
 11
26.9684076836
 21
194.7736155142
 31
0.0
  0
LINE
  5
170
330
F4
100
AcDbEntity
  8
Default
  6
Continuous
 62
     7
100
AcDbLine
 10
26.9684076836
 20
186.0257023597
 30
0.0
 11
15.2027506548
 21
186.0257023597
 31
0.0
  0
HATCH
  5
171
330
F4
100
AcDbEntity
  8
Default
  6
Continuous
 62
     7
100
AcDbHatch
 10
0.0
 20
0.0
 30
0.0
210
0.0
220
0.0
230
1.0
  2
SOLID
 70
     1
 71
     0
 91
        2
 92
        1
 93
        4
 72
     1
 10
28.17371138479891
 20
194.974890689558
 11
28.17371138479891
 21
185.8256208126932
 72
     1
 10
28.17371138479891
 20
185.8256208126932
 11
40.33963643564059
 21
185.8256208126932
 72
     1
 10
40.33963643564059
 20
185.8256208126932
 11
40.33963643564059
 21
194.974890689558
 72
     1
 10
40.33963643564059
 20
194.974890689558
 11
28.17371138479891
 21
194.974890689558
 97
        0
 92
        1
 93
        4
 72
     1
 10
28.37425239533051
 20
186.0257023597236
 11
40.13528897407203
 21
186.0257023597236
 72
     1
 10
40.13528897407203
 20
186.0257023597236
 11
40.13528897407203
 21
194.7736155142314
 72
     1
 10
40.13528897407203
 20
194.7736155142314
 11
28.37425239533052
 21
194.7736155142314
 72
     1
 10
28.37425239533052
 20
194.7736155142314
 11
28.37425239533052
 21
186.0257023597236
 97
        0
 75
     0
 76
     1
 98
        0
  0
LINE
  5
172
330
F4
100
AcDbEntity
  8
Default
  6
Continuous
 62
     7
100
AcDbLine
 10
28.1737113848
 20
185.8256208127
 30
0.0
 11
28.1737113848
 21
194.9748906896
 31
0.0
  0
LINE
  5
173
330
F4
100
AcDbEntity
  8
Default
  6
Continuous
 62
     7
100
AcDbLine
 10
40.3396364356
 20
185.8256208127
 30
0.0
 11
28.1737113848
 21
185.8256208127
 31
0.0
  0
LINE
  5
174
330
F4
100
AcDbEntity
  8
Default
  6
Continuous
 62
     7
100
AcDbLine
 10
40.3396364356
 20
194.9748906896
 30
0.0
 11
40.3396364356
 21
185.8256208127
 31
0.0
  0
LINE
  5
175
330
F4
100
AcDbEntity
  8
Default
  6
Continuous
 62
     7
100
AcDbLine
 10
28.1737113848
 20
194.9748906896
 30
0.0
 11
40.3396364356
 21
194.9748906896
 31
0.0
  0
LINE
  5
176
330
F4
100
AcDbEntity
  8
Default
  6
Continuous
 62
     7
100
AcDbLine
 10
28.3742523953
 20
194.7736155142
 30
0.0
 11
28.3742523953
 21
186.0257023597
 31
0.0
  0
LINE
  5
177
330
F4
100
AcDbEntity
  8
Default
  6
Continuous
 62
     7
100
AcDbLine
 10
28.3742523953
 20
194.7736155142
 30
0.0
 11
40.1352889741
 21
194.7736155142
 31
0.0
  0
LINE
  5
178
330
F4
100
AcDbEntity
  8
Default
  6
Continuous
 62
     7
100
AcDbLine
 10
40.1352889741
 20
194.7736155142
 30
0.0
 11
40.1352889741
 21
186.0257023597
 31
0.0
  0
LINE
  5
179
330
F4
100
AcDbEntity
  8
Default
  6
Continuous
 62
     7
100
AcDbLine
 10
40.1352889741
 20
186.0257023597
 30
0.0
 11
28.3742523953
 21
186.0257023597
 31
0.0
  0
HATCH
  5
17A
330
F4
100
AcDbEntity
  8
Default
  6
Continuous
 62
     7
100
AcDbHatch
 10
0.0
 20
0.0
 30
0.0
210
0.0
220
0.0
230
1.0
  2
SOLID
 70
     1
 71
     0
 91
        8
 92
        1
 93
        3
 72
     1
 10
15.81996887265055
 20
186.9716704369563
 11
26.41612982970763
 21
186.9716704369563
 72
     1
 10
26.41612982970763
 20
186.9716704369563
 11
21.11804935117908
 21
193.8440734706497
 72
     1
 10
21.11804935117908
 20
193.8440734706497
 11
15.81996887265054
 21
186.9716704369562
 97
        0
 92
        1
 93
       12
 72
     1
 10
21.00786416990799
 20
187.280043606177
 11
21.00786416990799
 21
188.3232248945974
 72
     1
 10
21.00786416990799
 20
188.3232248945974
 11
21.22378643526709
 21
188.3232248945974
 72
     1
 10
21.22378643526709
 20
188.3232248945974
 11
21.22378643526707
 21
188.5774880992162
 72
     1
 10
21.22378643526707
 20
188.5774880992161
 11
21.00786416990797
 21
188.5774880992161
 72
     4
 94
        3
 73
     0
 74
     0
 95
       12
 96
        8
 40
0.0
 40
0.0
 40
0.0
 40
0.0
 40
0.1963694091052418
 40
0.3659463030620277
 40
0.4747591556715436
 40
0.6080847184487777
 40
1.0
 40
1.0
 40
1.0
 40
1.0
 10
21.00786416990799
 20
188.5774880992161
 10
21.00769777732163
 20
188.6564701306604
 10
21.008600036461
 20
188.6748584257491
 10
21.0121696213488
 20
188.7248904332461
 10
21.03974084514088
 20
188.7659540369276
 10
21.09810542606024
 20
188.7885065769093
 10
21.13639494721656
 20
188.7854100798475
 10
21.20651549082839
 20
188.785424421144
 72
     1
 10
21.20651549082839
 20
188.785424421144
 11
21.20651549082839
 21
189.0485464675638
 72
     4
 94
        3
 73
     0
 74
     0
 95
       13
 96
        9
 40
0.0
 40
0.0
 40
0.0
 40
0.0
 40
0.2271078216113191
 40
0.4161221501543617
 40
0.5520930048876243
 40
0.6438038720134633
 40
0.7408124663355202
 40
1.0
 40
1.0
 40
1.0
 40
1.0
 10
21.20651549082839
 20
189.0485464675638
 10
21.11303635436383
 20
189.0484636370475
 10
20.96736573877034
 20
189.0499633625263
 10
20.81355916855328
 20
189.0444173963789
 10
20.72711481037246
 20
188.9841660419546
 10
20.67192244000064
 20
188.9069917785839
 10
20.64323791465559
 20
188.780077212837
 10
20.6490003198215
 20
188.6912660900334
 10
20.6473639143836
 20
188.5801526123739
 72
     1
 10
20.6473639143836
 20
188.5801526123739
 11
20.46156307892937
 21
188.5801526123739
 72
     1
 10
20.46156307892937
 20
188.5801526123739
 11
20.46156307892937
 21
188.3232248945973
 72
     1
 10
20.46156307892937
 20
188.3232248945973
 11
20.6473639143836
 21
188.3232248945974
 72
     1
 10
20.6473639143836
 20
188.3232248945974
 11
20.6473639143836
 21
187.280043606177
 72
     1
 10
20.6473639143836
 20
187.280043606177
 11
21.00786416990799
 21
187.280043606177
 97
        0
 92
        1
 93
        4
 72
     1
 10
21.38558994873867
 20
187.280043606177
 11
21.74163358120775
 21
187.280043606177
 72
     1
 10
21.74163358120775
 20
187.280043606177
 11
21.74163358120775
 21
188.591085677074
 72
     1
 10
21.74163358120775
 20
188.591085677074
 11
21.38558994873866
 21
188.591085677074
 72
     1
 10
21.38558994873866
 20
188.591085677074
 11
21.38558994873866
 21
187.280043606177
 97
        0
 92
        1
 93
       12
 72
     1
 10
21.86336440502292
 20
187.280043606177
 11
22.29357807976006
 21
187.280043606177
 72
     1
 10
22.29357807976006
 20
187.280043606177
 11
22.5128617489222
 21
187.664827420415
 72
     1
 10
22.5128617489222
 20
187.664827420415
 11
22.74258749756823
 21
187.280043606177
 72
     1
 10
22.74258749756822
 20
187.280043606177
 11
23.19159691537642
 21
187.280043606177
 72
     1
 10
23.19159691537642
 20
187.280043606177
 11
22.72588017039397
 21
187.9572056459645
 72
     1
 10
22.72588017039397
 20
187.9572056459645
 11
23.16235909282147
 21
188.5910856770739
 72
     1
 10
23.16235909282147
 20
188.591085677074
 11
22.72463877094573
 21
188.591085677074
 72
     1
 10
22.72463877094573
 20
188.591085677074
 11
22.52722713199285
 21
188.2372736930933
 72
     1
 10
22.52722713199285
 20
188.2372736930933
 11
22.32321064266611
 21
188.591085677074
 72
     1
 10
22.32321064266611
 20
188.591085677074
 11
21.88697687931055
 21
188.591085677074
 72
     1
 10
21.88697687931055
 20
188.591085677074
 11
22.31525575969218
 21
187.9572056459645
 72
     1
 10
22.31525575969218
 20
187.9572056459645
 11
21.86336440502293
 21
187.280043606177
 97
        0
 92
        1
 93
        7
 72
     4
 94
        3
 73
     0
 74
     0
 95
       12
 96
        8
 40
0.0
 40
0.0
 40
0.0
 40
0.0
 40
0.2996681639207807
 40
0.4964799695835521
 40
0.68434856198005
 40
0.851888826469892
 40
1.0
 40
1.0
 40
1.0
 40
1.0
 10
21.37777513087799
 20
188.785424421144
 10
21.49576861847934
 20
188.7833399947052
 10
21.65972117119823
 20
188.7870131370553
 10
21.90718946335765
 20
188.8323291653408
 10
22.07743060776147
 20
188.9468139864056
 10
22.15937922373466
 20
189.119044828017
 10
22.16779209933727
 20
189.2245324951971
 10
22.1704889117655
 20
189.2827975698994
 72
     1
 10
22.1704889117655
 20
189.2827975698994
 11
22.1704889117655
 21
190.6245107529341
 72
     1
 10
22.1704889117655
 20
190.6245107529341
 11
21.83213632999875
 21
190.6245107529341
 72
     1
 10
21.83213632999875
 20
190.6245107529341
 11
21.83213632999875
 21
190.4573794687502
 72
     4
 94
        3
 73
     0
 74
     0
 95
       18
 96
       14
 40
0.0
 40
0.0
 40
0.0
 40
0.0
 40
0.049918958198369
 40
0.1029683479443044
 40
0.2013573979316207
 40
0.306492170798069
 40
0.4454465223499084
 40
0.5715759647843356
 40
0.6883870828793712
 40
0.7902712580605774
 40
0.8901128900259564
 40
0.9499280410527614
 40
1.0
 40
1.0
 40
1.0
 40
1.0
 10
21.83213632999875
 20
190.4573794687502
 10
21.80368281700783
 20
190.5003419203894
 10
21.75089374158368
 20
190.5753776145168
 10
21.57448125557331
 20
190.668103779344
 10
21.3136873666104
 20
190.6636775466471
 10
21.02551565229992
 20
190.4904054895993
 10
20.90532992089851
 20
190.1373108059086
 10
20.89812181418541
 20
189.7794267200064
 10
21.0258478332434
 20
189.4589260502325
 10
21.29727990105132
 20
189.3051247401455
 10
21.53513384913557
 20
189.2775648072189
 10
21.74083599836752
 20
189.3568733552897
 10
21.80559464823735
 20
189.4383605848447
 10
21.83247637349007
 20
189.4835708175996
 72
     4
 94
        3
 73
     0
 74
     0
 95
       13
 96
        9
 40
0.0
 40
0.0
 40
0.0
 40
0.0
 40
0.2107584163945606
 40
0.3689251257012292
 40
0.4773402963830309
 40
0.6267974682744708
 40
0.7927243308008671
 40
1.0
 40
1.0
 40
1.0
 40
1.0
 10
21.83247637349007
 20
189.4835708175996
 10
21.83362624079747
 20
189.4231447461067
 10
21.83626231628453
 20
189.3329395645589
 10
21.82968056802527
 20
189.2218313391597
 10
21.77146133173995
 20
189.131606197854
 10
21.69912054052457
 20
189.0761020984766
 10
21.58254222345165
 20
189.052325003012
 10
21.49700976942099
 20
189.0473056955538
 10
21.37777513087799
 20
189.0485464675638
 72
     1
 10
21.37777513087799
 20
189.0485464675638
 11
21.37777513087799
 21
188.7854244211439
 97
        0
 92
        1
 93
        4
 72
     1
 10
20.76228756264485
 20
189.705476973737
 11
20.41043917969737
 21
189.705476973737
 72
     4
 94
        3
 73
     0
 74
     0
 95
       12
 96
        8
 40
0.0
 40
0.0
 40
0.0
 40
0.0
 40
0.0800021584216466
 40
0.2719128922284969
 40
0.4981704978280754
 40
0.7206073609973707
 40
1.0
 40
1.0
 40
1.0
 40
1.0
 10
20.41043917969737
 20
189.705476973737
 10
20.4017793712913
 20
189.6845033852614
 10
20.37522214184102
 20
189.6238511796164
 10
20.26174979501661
 20
189.5370825524213
 10
20.0692010684937
 20
189.5332364516581
 10
19.91639261686636
 20
189.6551658802592
 10
19.89383257649871
 20
189.7687468153739
 10
19.88834088640196
 20
189.864082794716
 72
     1
 10
19.88834088640196
 20
189.864082794716
 11
20.78440434063953
 21
189.864082794716
 72
     4
 94
        3
 73
     0
 74
     0
 95
       20
 96
       16
 40
0.0
 40
0.0
 40
0.0
 40
0.0
 40
0.053729581352792
 40
0.1421442887252777
 40
0.229735275324255
 40
0.3291790322945396
 40
0.3921445453383586
 40
0.471200640762828
 40
0.6141895552108053
 40
0.6722274543755765
 40
0.7503555249371847
 40
0.8440184738666436
 40
0.9138307141264308
 40
0.9659572729778229
 40
1.0
 40
1.0
 40
1.0
 40
1.0
 10
20.78440434063955
 20
189.864082794716
 10
20.78610633611133
 20
189.9610842287173
 10
20.7825316461883
 20
190.1829292421034
 10
20.66091904536091
 20
190.4779846055463
 10
20.34016713863363
 20
190.6683139785378
 10
20.00057836121601
 20
190.6700388293484
 10
19.70696312314157
 20
190.5106303585316
 10
19.50857301345652
 20
190.1675324499258
 10
19.51090525317629
 20
189.7585375368886
 10
19.69322977757529
 20
189.4122106635273
 10
19.97930696378491
 20
189.2510489982433
 10
20.32020287057411
 20
189.2519455235229
 10
20.59003141618623
 20
189.3743652708817
 10
20.7210110987676
 20
189.5212399094019
 10
20.75855546459628
 20
189.6388846116005
 10
20.76228756264485
 20
189.705476973737
 97
        0
 92
        1
 93
        1
 72
     3
 10
22.9487917259214
 20
189.9693031750505
 11
0.0
 21
0.7022382344309845
 40
0.963620135099746
 50
0.0
 51
360.0
 73
     1
 97
        0
 92
        1
 93
        8
 72
     1
 10
19.15364783934837
 20
189.3024706242108
 11
19.15364783934837
 21
189.9564957931844
 72
     4
 94
        3
 73
     0
 74
     0
 95
       12
 96
        8
 40
0.0
 40
0.0
 40
0.0
 40
0.0
 40
0.2862211861571168
 40
0.4920794652214968
 40
0.6813328760549254
 40
0.8350285650319174
 40
1.0
 40
1.0
 40
1.0
 40
1.0
 10
19.15364783934837
 20
189.9564957931844
 10
19.15364783934837
 20
190.0222179017491
 10
19.15845169523772
 20
190.1198921996575
 10
19.23100033948207
 20
190.2295803496729
 10
19.33475455883368
 20
190.2860983366738
 10
19.42769082204128
 20
190.3044295111388
 10
19.49621567910834
 20
190.3024045783201
 10
19.54837892683
 20
190.282221157948
 72
     1
 10
19.54837892683
 20
190.282221157948
 11
19.54837892683
 21
190.6387685773706
 72
     4
 94
        3
 73
     0
 74
     0
 95
       10
 96
        6
 40
0.0
 40
0.0
 40
0.0
 40
0.0
 40
0.4015114482364358
 40
0.6909582036092352
 40
1.0
 40
1.0
 40
1.0
 40
1.0
 10
19.54837892683
 20
190.6387685773706
 10
19.47246487849072
 20
190.6420212140671
 10
19.35806655190547
 20
190.6427324016333
 10
19.20344589048223
 20
190.5410979207596
 10
19.15362071914407
 20
190.4582103306236
 10
19.12508518002372
 20
190.4071397390069
 72
     1
 10
19.12508518002372
 20
190.4071397390069
 11
19.12508518002372
 21
190.610520962158
 72
     1
 10
19.12508518002372
 20
190.610520962158
 11
18.7893908455063
 21
190.610520962158
 72
     1
 10
18.7893908455063
 20
190.610520962158
 11
18.7893908455063
 21
189.3024706242108
 72
     1
 10
18.7893908455063
 20
189.3024706242108
 11
19.15364783934838
 21
189.3024706242108
 97
        0
 75
     0
 76
     1
 98
        0
  0
LINE
  5
17B
330
F4
100
AcDbEntity
  8
Default
  6
Continuous
 62
     7
100
AcDbLine
 10
15.8199688727
 20
186.971670437
 30
0.0
 11
26.4161298297
 21
186.971670437
 31
0.0
  0
LINE
  5
17C
330
F4
100
AcDbEntity
  8
Default
  6
Continuous
 62
     7
100
AcDbLine
 10
26.4161298297
 20
186.971670437
 30
0.0
 11
21.1180493512
 21
193.8440734706
 31
0.0
  0
LINE
  5
17D
330
F4
100
AcDbEntity
  8
Default
  6
Continuous
 62
     7
100
AcDbLine
 10
21.1180493512
 20
193.8440734706
 30
0.0
 11
15.8199688727
 21
186.971670437
 31
0.0
  0
LINE
  5
17E
330
F4
100
AcDbEntity
  8
Default
  6
Continuous
 62
     7
100
AcDbLine
 10
20.4615630789
 20
188.3232248946
 30
0.0
 11
20.6473639144
 21
188.3232248946
 31
0.0
  0
LINE
  5
17F
330
F4
100
AcDbEntity
  8
Default
  6
Continuous
 62
     7
100
AcDbLine
 10
20.4615630789
 20
188.5801526124
 30
0.0
 11
20.4615630789
 21
188.3232248946
 31
0.0
  0
LINE
  5
180
330
F4
100
AcDbEntity
  8
Default
  6
Continuous
 62
     7
100
AcDbLine
 10
20.6473639144
 20
188.5801526124
 30
0.0
 11
20.4615630789
 21
188.5801526124
 31
0.0
  0
SPLINE
  5
181
330
F4
100
AcDbEntity
  8
Default
  6
Continuous
 62
     7
100
AcDbSpline
210
0.0
220
0.0
230
1.0
 70
     8
 71
     3
 72
    13
 73
     9
 74
     0
 42
0.0000000108277551
 43
0.0000000001
 12
1.0
 22
0.0
 32
0.0
 13
1.0
 23
0.0
 33
0.0
 40
0.0
 40
0.0
 40
0.0
 40
0.0
 40
0.2591875336644798
 40
0.3561961279865367
 40
0.4479069951123757
 40
0.5838778498456383
 40
0.7728921783886809
 40
1.0
 40
1.0
 40
1.0
 40
1.0
 10
20.6473639143836
 20
188.5801526123739
 30
0.0
 10
20.6490003198215
 20
188.6912660900334
 30
0.0
 10
20.64323791465559
 20
188.780077212837
 30
0.0
 10
20.67192244000064
 20
188.9069917785839
 30
0.0
 10
20.72711481037246
 20
188.9841660419546
 30
0.0
 10
20.81355916855328
 20
189.0444173963789
 30
0.0
 10
20.96736573877034
 20
189.0499633625263
 30
0.0
 10
21.11303635436383
 20
189.0484636370475
 30
0.0
 10
21.20651549082839
 20
189.0485464675638
 30
0.0
  0
LINE
  5
182
330
F4
100
AcDbEntity
  8
Default
  6
Continuous
 62
     7
100
AcDbLine
 10
21.2065154908
 20
189.0485464676
 30
0.0
 11
21.2065154908
 21
188.7854244211
 31
0.0
  0
SPLINE
  5
183
330
F4
100
AcDbEntity
  8
Default
  6
Continuous
 62
     7
100
AcDbSpline
210
0.0
220
0.0
230
1.0
 70
     8
 71
     3
 72
    12
 73
     8
 74
     0
 42
0.0000000271651889
 43
0.0000000001
 12
1.0
 22
0.0
 32
0.0
 13
1.0
 23
0.0
 33
0.0
 40
0.0
 40
0.0
 40
0.0
 40
0.0
 40
0.1963694091052418
 40
0.3659463030620277
 40
0.4747591556715435
 40
0.6080847184487777
 40
1.0
 40
1.0
 40
1.0
 40
1.0
 10
21.00786416990799
 20
188.5774880992161
 30
0.0
 10
21.00769777732163
 20
188.6564701306604
 30
0.0
 10
21.008600036461
 20
188.6748584257491
 30
0.0
 10
21.0121696213488
 20
188.7248904332461
 30
0.0
 10
21.03974084514088
 20
188.7659540369276
 30
0.0
 10
21.09810542606024
 20
188.7885065769093
 30
0.0
 10
21.13639494721656
 20
188.7854100798475
 30
0.0
 10
21.20651549082839
 20
188.785424421144
 30
0.0
  0
LINE
  5
184
330
F4
100
AcDbEntity
  8
Default
  6
Continuous
 62
     7
100
AcDbLine
 10
21.2237864353
 20
188.5774880992
 30
0.0
 11
21.0078641699
 21
188.5774880992
 31
0.0
  0
LINE
  5
185
330
F4
100
AcDbEntity
  8
Default
  6
Continuous
 62
     7
100
AcDbLine
 10
21.2237864353
 20
188.3232248946
 30
0.0
 11
21.2237864353
 21
188.5774880992
 31
0.0
  0
LINE
  5
186
330
F4
100
AcDbEntity
  8
Default
  6
Continuous
 62
     7
100
AcDbLine
 10
21.0078641699
 20
188.3232248946
 30
0.0
 11
21.2237864353
 21
188.3232248946
 31
0.0
  0
LINE
  5
187
330
F4
100
AcDbEntity
  8
Default
  6
Continuous
 62
     7
100
AcDbLine
 10
21.0078641699
 20
187.2800436062
 30
0.0
 11
21.0078641699
 21
188.3232248946
 31
0.0
  0
LINE
  5
188
330
F4
100
AcDbEntity
  8
Default
  6
Continuous
 62
     7
100
AcDbLine
 10
20.6473639144
 20
187.2800436062
 30
0.0
 11
21.0078641699
 21
187.2800436062
 31
0.0
  0
LINE
  5
189
330
F4
100
AcDbEntity
  8
Default
  6
Continuous
 62
     7
100
AcDbLine
 10
20.6473639144
 20
188.3232248946
 30
0.0
 11
20.6473639144
 21
187.2800436062
 31
0.0
  0
LINE
  5
18A
330
F4
100
AcDbEntity
  8
Default
  6
Continuous
 62
     7
100
AcDbLine
 10
19.1536478393
 20
189.9564957932
 30
0.0
 11
19.1536478393
 21
189.3024706242
 31
0.0
  0
LINE
  5
18B
330
F4
100
AcDbEntity
  8
Default
  6
Continuous
 62
     7
100
AcDbLine
 10
19.1536478393
 20
189.3024706242
 30
0.0
 11
18.7893908455
 21
189.3024706242
 31
0.0
  0
LINE
  5
18C
330
F4
100
AcDbEntity
  8
Default
  6
Continuous
 62
     7
100
AcDbLine
 10
18.7893908455
 20
189.3024706242
 30
0.0
 11
18.7893908455
 21
190.6105209622
 31
0.0
  0
LINE
  5
18D
330
F4
100
AcDbEntity
  8
Default
  6
Continuous
 62
     7
100
AcDbLine
 10
18.7893908455
 20
190.6105209622
 30
0.0
 11
19.12508518
 21
190.6105209622
 31
0.0
  0
LINE
  5
18E
330
F4
100
AcDbEntity
  8
Default
  6
Continuous
 62
     7
100
AcDbLine
 10
19.12508518
 20
190.6105209622
 30
0.0
 11
19.12508518
 21
190.407139739
 31
0.0
  0
SPLINE
  5
18F
330
F4
100
AcDbEntity
  8
Default
  6
Continuous
 62
     7
100
AcDbSpline
210
0.0
220
0.0
230
1.0
 70
     8
 71
     3
 72
    10
 73
     6
 74
     0
 42
0.000000018845546
 43
0.0000000001
 12
1.0
 22
0.0
 32
0.0
 13
1.0
 23
0.0
 33
0.0
 40
0.0
 40
0.0
 40
0.0
 40
0.0
 40
0.3090417963907648
 40
0.5984885517635642
 40
1.0
 40
1.0
 40
1.0
 40
1.0
 10
19.12508518002372
 20
190.4071397390069
 30
0.0
 10
19.15362071914407
 20
190.4582103306236
 30
0.0
 10
19.20344589048223
 20
190.5410979207596
 30
0.0
 10
19.35806655190547
 20
190.6427324016333
 30
0.0
 10
19.47246487849072
 20
190.6420212140671
 30
0.0
 10
19.54837892683
 20
190.6387685773706
 30
0.0
  0
LINE
  5
190
330
F4
100
AcDbEntity
  8
Default
  6
Continuous
 62
     7
100
AcDbLine
 10
19.5483789268
 20
190.6387685774
 30
0.0
 11
19.5483789268
 21
190.2822211579
 31
0.0
  0
SPLINE
  5
191
330
F4
100
AcDbEntity
  8
Default
  6
Continuous
 62
     7
100
AcDbSpline
210
0.0
220
0.0
230
1.0
 70
     8
 71
     3
 72
    12
 73
     8
 74
     0
 42
0.0000000158131064
 43
0.0000000001
 12
1.0
 22
0.0
 32
0.0
 13
1.0
 23
0.0
 33
0.0
 40
0.0
 40
0.0
 40
0.0
 40
0.0
 40
0.1649714349680826
 40
0.3186671239450746
 40
0.5079205347785032
 40
0.7137788138428832
 40
1.0
 40
1.0
 40
1.0
 40
1.0
 10
19.54837892683
 20
190.282221157948
 30
0.0
 10
19.49621567910834
 20
190.3024045783201
 30
0.0
 10
19.42769082204128
 20
190.3044295111388
 30
0.0
 10
19.33475455883368
 20
190.2860983366738
 30
0.0
 10
19.23100033948207
 20
190.2295803496729
 30
0.0
 10
19.15845169523772
 20
190.1198921996575
 30
0.0
 10
19.15364783934837
 20
190.0222179017491
 30
0.0
 10
19.15364783934837
 20
189.9564957931844
 30
0.0
  0
SPLINE
  5
192
330
F4
100
AcDbEntity
  8
Default
  6
Continuous
 62
     7
100
AcDbSpline
210
0.0
220
0.0
230
1.0
 70
     8
 71
     3
 72
    20
 73
    16
 74
     0
 42
0.0000000023618715
 43
0.0000000001
 12
1.0
 22
0.0
 32
0.0
 13
1.0
 23
0.0
 33
0.0
 40
0.0
 40
0.0
 40
0.0
 40
0.0
 40
0.053729581352792
 40
0.1421442887252777
 40
0.229735275324255
 40
0.3291790322945397
 40
0.3921445453383586
 40
0.471200640762828
 40
0.6141895552108053
 40
0.6722274543755765
 40
0.7503555249371847
 40
0.8440184738666436
 40
0.9138307141264308
 40
0.9659572729778229
 40
1.0
 40
1.0
 40
1.0
 40
1.0
 10
20.78440434063955
 20
189.864082794716
 30
0.0
 10
20.78610633611133
 20
189.9610842287173
 30
0.0
 10
20.7825316461883
 20
190.1829292421034
 30
0.0
 10
20.66091904536091
 20
190.4779846055463
 30
0.0
 10
20.34016713863363
 20
190.6683139785378
 30
0.0
 10
20.00057836121601
 20
190.6700388293484
 30
0.0
 10
19.70696312314157
 20
190.5106303585316
 30
0.0
 10
19.50857301345652
 20
190.1675324499258
 30
0.0
 10
19.51090525317629
 20
189.7585375368886
 30
0.0
 10
19.69322977757529
 20
189.4122106635273
 30
0.0
 10
19.97930696378491
 20
189.2510489982433
 30
0.0
 10
20.32020287057411
 20
189.2519455235229
 30
0.0
 10
20.59003141618623
 20
189.3743652708817
 30
0.0
 10
20.7210110987676
 20
189.5212399094019
 30
0.0
 10
20.75855546459628
 20
189.6388846116005
 30
0.0
 10
20.76228756264485
 20
189.705476973737
 30
0.0
  0
LINE
  5
193
330
F4
100
AcDbEntity
  8
Default
  6
Continuous
 62
     7
100
AcDbLine
 10
19.8883408864
 20
189.8640827947
 30
0.0
 11
20.7844043406
 21
189.8640827947
 31
0.0
  0
SPLINE
  5
194
330
F4
100
AcDbEntity
  8
Default
  6
Continuous
 62
     7
100
AcDbSpline
210
0.0
220
0.0
230
1.0
 70
     8
 71
     3
 72
    12
 73
     8
 74
     0
 42
0.0000000120319417
 43
0.0000000001
 12
1.0
 22
0.0
 32
0.0
 13
1.0
 23
0.0
 33
0.0
 40
0.0
 40
0.0
 40
0.0
 40
0.0
 40
0.2793926390026293
 40
0.5018295021719246
 40
0.7280871077715031
 40
0.9199978415783534
 40
1.0
 40
1.0
 40
1.0
 40
1.0
 10
19.88834088640196
 20
189.864082794716
 30
0.0
 10
19.89383257649871
 20
189.7687468153739
 30
0.0
 10
19.91639261686636
 20
189.6551658802592
 30
0.0
 10
20.0692010684937
 20
189.5332364516581
 30
0.0
 10
20.26174979501661
 20
189.5370825524213
 30
0.0
 10
20.37522214184102
 20
189.6238511796164
 30
0.0
 10
20.4017793712913
 20
189.6845033852614
 30
0.0
 10
20.41043917969737
 20
189.705476973737
 30
0.0
  0
LINE
  5
195
330
F4
100
AcDbEntity
  8
Default
  6
Continuous
 62
     7
100
AcDbLine
 10
20.4104391797
 20
189.7054769737
 30
0.0
 11
20.7622875626
 21
189.7054769737
 31
0.0
  0
LINE
  5
196
330
F4
100
AcDbEntity
  8
Default
  6
Continuous
 62
     7
100
AcDbLine
 10
21.3855899487
 20
187.2800436062
 30
0.0
 11
21.3855899487
 21
188.5910856771
 31
0.0
  0
LINE
  5
197
330
F4
100
AcDbEntity
  8
Default
  6
Continuous
 62
     7
100
AcDbLine
 10
21.3855899487
 20
188.5910856771
 30
0.0
 11
21.7416335812
 21
188.5910856771
 31
0.0
  0
LINE
  5
198
330
F4
100
AcDbEntity
  8
Default
  6
Continuous
 62
     7
100
AcDbLine
 10
21.7416335812
 20
188.5910856771
 30
0.0
 11
21.7416335812
 21
187.2800436062
 31
0.0
  0
LINE
  5
199
330
F4
100
AcDbEntity
  8
Default
  6
Continuous
 62
     7
100
AcDbLine
 10
21.7416335812
 20
187.2800436062
 30
0.0
 11
21.3855899487
 21
187.2800436062
 31
0.0
  0
LINE
  5
19A
330
F4
100
AcDbEntity
  8
Default
  6
Continuous
 62
     7
100
AcDbLine
 10
21.3777751309
 20
189.0485464676
 30
0.0
 11
21.3777751309
 21
188.7854244211
 31
0.0
  0
SPLINE
  5
19B
330
F4
100
AcDbEntity
  8
Default
  6
Continuous
 62
     7
100
AcDbSpline
210
0.0
220
0.0
230
1.0
 70
     8
 71
     3
 72
    13
 73
     9
 74
     0
 42
0.0000000127479243
 43
0.0000000001
 12
1.0
 22
0.0
 32
0.0
 13
1.0
 23
0.0
 33
0.0
 40
0.0
 40
0.0
 40
0.0
 40
0.0
 40
0.2107584163945606
 40
0.3689251257012291
 40
0.4773402963830308
 40
0.6267974682744708
 40
0.7927243308008671
 40
1.0
 40
1.0
 40
1.0
 40
1.0
 10
21.83247637349007
 20
189.4835708175996
 30
0.0
 10
21.83362624079747
 20
189.4231447461067
 30
0.0
 10
21.83626231628453
 20
189.3329395645589
 30
0.0
 10
21.82968056802527
 20
189.2218313391597
 30
0.0
 10
21.77146133173995
 20
189.131606197854
 30
0.0
 10
21.69912054052457
 20
189.0761020984766
 30
0.0
 10
21.58254222345165
 20
189.052325003012
 30
0.0
 10
21.49700976942099
 20
189.0473056955538
 30
0.0
 10
21.37777513087799
 20
189.0485464675638
 30
0.0
  0
SPLINE
  5
19C
330
F4
100
AcDbEntity
  8
Default
  6
Continuous
 62
     7
100
AcDbSpline
210
0.0
220
0.0
230
1.0
 70
     8
 71
     3
 72
    18
 73
    14
 74
     0
 42
0.000000003396526
 43
0.0000000001
 12
1.0
 22
0.0
 32
0.0
 13
1.0
 23
0.0
 33
0.0
 40
0.0
 40
0.0
 40
0.0
 40
0.0
 40
0.049918958198369
 40
0.1029683479443044
 40
0.2013573979316206
 40
0.3064921707980691
 40
0.4454465223499085
 40
0.5715759647843356
 40
0.6883870828793712
 40
0.7902712580605774
 40
0.8901128900259564
 40
0.9499280410527614
 40
1.0
 40
1.0
 40
1.0
 40
1.0
 10
21.83213632999875
 20
190.4573794687502
 30
0.0
 10
21.80368281700783
 20
190.5003419203894
 30
0.0
 10
21.75089374158368
 20
190.5753776145168
 30
0.0
 10
21.57448125557331
 20
190.668103779344
 30
0.0
 10
21.3136873666104
 20
190.6636775466471
 30
0.0
 10
21.02551565229992
 20
190.4904054895993
 30
0.0
 10
20.90532992089851
 20
190.1373108059086
 30
0.0
 10
20.89812181418541
 20
189.7794267200064
 30
0.0
 10
21.0258478332434
 20
189.4589260502325
 30
0.0
 10
21.29727990105132
 20
189.3051247401455
 30
0.0
 10
21.53513384913557
 20
189.2775648072189
 30
0.0
 10
21.74083599836752
 20
189.3568733552897
 30
0.0
 10
21.80559464823735
 20
189.4383605848447
 30
0.0
 10
21.83247637349007
 20
189.4835708175996
 30
0.0
  0
LINE
  5
19D
330
F4
100
AcDbEntity
  8
Default
  6
Continuous
 62
     7
100
AcDbLine
 10
21.83213633
 20
190.6245107529
 30
0.0
 11
21.83213633
 21
190.4573794688
 31
0.0
  0
LINE
  5
19E
330
F4
100
AcDbEntity
  8
Default
  6
Continuous
 62
     7
100
AcDbLine
 10
21.83213633
 20
190.6245107529
 30
0.0
 11
22.1704889118
 21
190.6245107529
 31
0.0
  0
LINE
  5
19F
330
F4
100
AcDbEntity
  8
Default
  6
Continuous
 62
     7
100
AcDbLine
 10
22.1704889118
 20
190.6245107529
 30
0.0
 11
22.1704889118
 21
189.2827975699
 31
0.0
  0
SPLINE
  5
1A0
330
F4
100
AcDbEntity
  8
Default
  6
Continuous
 62
     7
100
AcDbSpline
210
0.0
220
0.0
230
1.0
 70
     8
 71
     3
 72
    12
 73
     8
 74
     0
 42
0.0000000091438826
 43
0.0000000001
 12
1.0
 22
0.0
 32
0.0
 13
1.0
 23
0.0
 33
0.0
 40
0.0
 40
0.0
 40
0.0
 40
0.0
 40
0.1481111735301081
 40
0.31565143801995
 40
0.5035200304164479
 40
0.7003318360792193
 40
1.0
 40
1.0
 40
1.0
 40
1.0
 10
22.1704889117655
 20
189.2827975698994
 30
0.0
 10
22.16779209933727
 20
189.2245324951971
 30
0.0
 10
22.15937922373466
 20
189.119044828017
 30
0.0
 10
22.07743060776147
 20
188.9468139864056
 30
0.0
 10
21.90718946335765
 20
188.8323291653408
 30
0.0
 10
21.65972117119823
 20
188.7870131370553
 30
0.0
 10
21.49576861847934
 20
188.7833399947052
 30
0.0
 10
21.37777513087799
 20
188.785424421144
 30
0.0
  0
LINE
  5
1A1
330
F4
100
AcDbEntity
  8
Default
  6
Continuous
 62
     7
100
AcDbLine
 10
21.8869768793
 20
188.5910856771
 30
0.0
 11
22.3152557597
 21
187.957205646
 31
0.0
  0
LINE
  5
1A2
330
F4
100
AcDbEntity
  8
Default
  6
Continuous
 62
     7
100
AcDbLine
 10
22.3232106427
 20
188.5910856771
 30
0.0
 11
21.8869768793
 21
188.5910856771
 31
0.0
  0
LINE
  5
1A3
330
F4
100
AcDbEntity
  8
Default
  6
Continuous
 62
     7
100
AcDbLine
 10
22.527227132
 20
188.2372736931
 30
0.0
 11
22.3232106427
 21
188.5910856771
 31
0.0
  0
LINE
  5
1A4
330
F4
100
AcDbEntity
  8
Default
  6
Continuous
 62
     7
100
AcDbLine
 10
22.7246387709
 20
188.5910856771
 30
0.0
 11
22.527227132
 21
188.2372736931
 31
0.0
  0
LINE
  5
1A5
330
F4
100
AcDbEntity
  8
Default
  6
Continuous
 62
     7
100
AcDbLine
 10
23.1623590928
 20
188.5910856771
 30
0.0
 11
22.7246387709
 21
188.5910856771
 31
0.0
  0
LINE
  5
1A6
330
F4
100
AcDbEntity
  8
Default
  6
Continuous
 62
     7
100
AcDbLine
 10
22.7258801704
 20
187.957205646
 30
0.0
 11
23.1623590928
 21
188.5910856771
 31
0.0
  0
LINE
  5
1A7
330
F4
100
AcDbEntity
  8
Default
  6
Continuous
 62
     7
100
AcDbLine
 10
23.1915969154
 20
187.2800436062
 30
0.0
 11
22.7258801704
 21
187.957205646
 31
0.0
  0
LINE
  5
1A8
330
F4
100
AcDbEntity
  8
Default
  6
Continuous
 62
     7
100
AcDbLine
 10
22.7425874976
 20
187.2800436062
 30
0.0
 11
23.1915969154
 21
187.2800436062
 31
0.0
  0
LINE
  5
1A9
330
F4
100
AcDbEntity
  8
Default
  6
Continuous
 62
     7
100
AcDbLine
 10
22.5128617489
 20
187.6648274204
 30
0.0
 11
22.7425874976
 21
187.2800436062
 31
0.0
  0
LINE
  5
1AA
330
F4
100
AcDbEntity
  8
Default
  6
Continuous
 62
     7
100
AcDbLine
 10
22.2935780798
 20
187.2800436062
 30
0.0
 11
22.5128617489
 21
187.6648274204
 31
0.0
  0
LINE
  5
1AB
330
F4
100
AcDbEntity
  8
Default
  6
Continuous
 62
     7
100
AcDbLine
 10
21.863364405
 20
187.2800436062
 30
0.0
 11
22.2935780798
 21
187.2800436062
 31
0.0
  0
LINE
  5
1AC
330
F4
100
AcDbEntity
  8
Default
  6
Continuous
 62
     7
100
AcDbLine
 10
22.3152557597
 20
187.957205646
 30
0.0
 11
21.863364405
 21
187.2800436062
 31
0.0
  0
ELLIPSE
  5
1AD
330
F4
100
AcDbEntity
  8
Default
  6
Continuous
 62
     7
100
AcDbEllipse
 10
22.9487917259
 20
189.9693031751
 30
0.0
 11
0.0
 21
0.7022382344309845
 31
0.0
210
0.0
220
0.0
230
1.0
 40
0.9636201351
 41
0.0
 42
6.283185307179586
  0
HATCH
  5
1AE
330
F4
100
AcDbEntity
  8
Default
  6
Continuous
 62
     7
100
AcDbHatch
 10
0.0
 20
0.0
 30
0.0
210
0.0
220
0.0
230
1.0
  2
SOLID
 70
     1
 71
     0
 91
        1
 92
        1
 93
        2
 72
     4
 94
        3
 73
     0
 74
     0
 95
       12
 96
        8
 40
0.0
 40
0.0
 40
0.0
 40
0.0
 40
0.222805684083124
 40
0.40592564385619
 40
0.6080013273744347
 40
0.7919843621368736
 40
1.0
 40
1.0
 40
1.0
 40
1.0
 10
20.41497467091002
 20
190.0939938125795
 10
20.40737500745012
 20
190.1598442241313
 10
20.38781272677162
 20
190.2686547174916
 10
20.23785603151567
 20
190.3691695176547
 10
20.07485797419596
 20
190.3631938487289
 10
19.93575694182442
 20
190.2570830543919
 10
19.91382980439132
 20
190.1551052691845
 10
19.90406129787981
 20
190.0939938125795
 72
     1
 10
19.90406129787981
 20
190.0939938125795
 11
20.41497467091001
 21
190.0939938125795
 97
        0
 75
     0
 76
     1
 98
        0
  0
SPLINE
  5
1AF
330
F4
100
AcDbEntity
  8
Default
  6
Continuous
 62
     7
100
AcDbSpline
210
0.0
220
0.0
230
1.0
 70
     8
 71
     3
 72
    12
 73
     8
 74
     0
 42
0.0000000116059552
 43
0.0000000001
 12
1.0
 22
0.0
 32
0.0
 13
1.0
 23
0.0
 33
0.0
 40
0.0
 40
0.0
 40
0.0
 40
0.0
 40
0.2080156378631264
 40
0.3919986726255654
 40
0.59407435614381
 40
0.777194315916876
 40
1.0
 40
1.0
 40
1.0
 40
1.0
 10
19.90406129787981
 20
190.0939938125795
 30
0.0
 10
19.91382980439132
 20
190.1551052691845
 30
0.0
 10
19.93575694182442
 20
190.2570830543919
 30
0.0
 10
20.07485797419596
 20
190.3631938487289
 30
0.0
 10
20.23785603151567
 20
190.3691695176547
 30
0.0
 10
20.38781272677162
 20
190.2686547174916
 30
0.0
 10
20.40737500745012
 20
190.1598442241313
 30
0.0
 10
20.41497467091002
 20
190.0939938125795
 30
0.0
  0
LINE
  5
1B0
330
F4
100
AcDbEntity
  8
Default
  6
Continuous
 62
     7
100
AcDbLine
 10
19.9040612979
 20
190.0939938126
 30
0.0
 11
20.4149746709
 21
190.0939938126
 31
0.0
  0
HATCH
  5
1B1
330
F4
100
AcDbEntity
  8
Default
  6
Continuous
 62
     7
100
AcDbHatch
 10
0.0
 20
0.0
 30
0.0
210
0.0
220
0.0
230
1.0
  2
SOLID
 70
     1
 71
     0
 91
        1
 92
        1
 93
        1
 72
     3
 10
21.55417040313359
 20
189.9690066507931
 11
0.0
 21
-0.3707486255374555
 40
0.765787131158088
 50
0.0
 51
360.0
 73
     1
 97
        0
 75
     0
 76
     1
 98
        0
  0
ELLIPSE
  5
1B2
330
F4
100
AcDbEntity
  8
Default
  6
Continuous
 62
     7
100
AcDbEllipse
 10
21.5541704031
 20
189.9690066508
 30
0.0
 11
0.0
 21
-0.3707486255374555
 31
0.0
210
0.0
220
0.0
230
1.0
 40
0.7657871312
 41
0.0
 42
6.283185307179586
  0
HATCH
  5
1B3
330
F4
100
AcDbEntity
  8
Default
  6
Continuous
 62
     7
100
AcDbHatch
 10
0.0
 20
0.0
 30
0.0
210
0.0
220
0.0
230
1.0
  2
SOLID
 70
     1
 71
     0
 91
        1
 92
        1
 93
        1
 72
     3
 10
22.9487917259214
 20
189.9693031750505
 11
-0.01008353416426543
 21
-0.3979909072825952
 40
0.7581952575498678
 50
0.0
 51
360.0
 73
     1
 97
        0
 75
     0
 76
     1
 98
        0
  0
ELLIPSE
  5
1B4
330
F4
100
AcDbEntity
  8
Default
  6
Continuous
 62
     7
100
AcDbEllipse
 10
22.9487917259
 20
189.9693031751
 30
0.0
 11
-0.01008353416426543
 21
-0.3979909072825952
 31
0.0
210
0.0
220
0.0
230
1.0
 40
0.7581952575
 41
0.0
 42
6.283185307179586
  0
INSERT
  5
1B5
330
F4
100
AcDbEntity
  8
Default
100
AcDbBlockReference
  2
SEANNOT_GROUP2
 10
0.0
 20
0.0
 30
0.0
  0
INSERT
  5
1B6
330
F4
100
AcDbEntity
  8
Default
100
AcDbBlockReference
  2
SEANNOT_GROUP3
 10
0.0
 20
0.0
 30
0.0
  0
POINT
  5
1B7
330
F4
100
AcDbEntity
  8
Default
  6
Continuous
 62
     7
100
AcDbPoint
 10
0.0
 20
0.0
 30
0.0
  0
ENDBLK
  5
1B9
330
F4
100
AcDbEntity
  8
0
100
AcDbBlockEnd
  0
ENDSEC
  0
SECTION
  2
ENTITIES
  0
LINE
  5
40
330
1F
100
AcDbEntity
  8
0012865
  6
Continuous
 62
     7
100
AcDbLine
 10
260.0044811736
 20
137.1107866941
 30
0.0
 11
50.0044811736
 21
137.1107866941
 31
0.0
  0
LINE
  5
41
330
1F
100
AcDbEntity
  8
0012865
  6
Continuous
 62
     7
100
AcDbLine
 10
260.0044811736
 20
107.1107866941
 30
0.0
 11
260.0044811736
 21
137.1107866941
 31
0.0
  0
LINE
  5
42
330
1F
100
AcDbEntity
  8
0012865
  6
Continuous
 62
     7
100
AcDbLine
 10
50.0044811736
 20
107.1107866941
 30
0.0
 11
260.0044811736
 21
107.1107866941
 31
0.0
  0
LINE
  5
43
330
1F
100
AcDbEntity
  8
0012865
  6
Continuous
 62
     7
100
AcDbLine
 10
50.0044811736
 20
137.1107866941
 30
0.0
 11
50.0044811736
 21
107.1107866941
 31
0.0
  0
CIRCLE
  5
44
330
1F
100
AcDbEntity
  8
0012865
  6
Continuous
 62
     7
100
AcDbCircle
 10
59.0044811736
 20
127.8107866941
 30
0.0
 40
3.949999999999995
  0
CIRCLE
  5
45
330
1F
100
AcDbEntity
  8
0012865
  6
Continuous
 62
     7
100
AcDbCircle
 10
83.0044811736
 20
127.8107866941
 30
0.0
 40
3.949999999999995
  0
CIRCLE
  5
46
330
1F
100
AcDbEntity
  8
0012865
  6
Continuous
 62
     7
100
AcDbCircle
 10
107.0044811736
 20
127.8107866941
 30
0.0
 40
3.950000000000002
  0
CIRCLE
  5
47
330
1F
100
AcDbEntity
  8
0012865
  6
Continuous
 62
     7
100
AcDbCircle
 10
131.0044811736
 20
127.8107866941
 30
0.0
 40
3.950000000000002
  0
CIRCLE
  5
48
330
1F
100
AcDbEntity
  8
0012865
  6
Continuous
 62
     7
100
AcDbCircle
 10
155.0044811736
 20
127.8107866941
 30
0.0
 40
3.95
  0
CIRCLE
  5
49
330
1F
100
AcDbEntity
  8
0012865
  6
Continuous
 62
     7
100
AcDbCircle
 10
179.0044811736
 20
127.8107866941
 30
0.0
 40
3.950000000000002
  0
CIRCLE
  5
4A
330
1F
100
AcDbEntity
  8
0012865
  6
Continuous
 62
     7
100
AcDbCircle
 10
203.0044811736
 20
127.8107866941
 30
0.0
 40
3.950000000000002
  0
CIRCLE
  5
4B
330
1F
100
AcDbEntity
  8
0012865
  6
Continuous
 62
     7
100
AcDbCircle
 10
227.0044811736
 20
127.8107866941
 30
0.0
 40
3.949999999999995
  0
CIRCLE
  5
4C
330
1F
100
AcDbEntity
  8
0012865
  6
Continuous
 62
     7
100
AcDbCircle
 10
251.0044811736
 20
127.8107866941
 30
0.0
 40
3.949999999999995
  0
LINE
  5
4D
330
1F
100
AcDbEntity
  8
0012865
  6
Continuous
 62
     7
100
AcDbLine
 10
80.25871601
 20
112.7686833331
 30
0.0
 11
80.1986775238
 21
112.4851682593
 31
0.0
  0
LINE
  5
4E
330
1F
100
AcDbEntity
  8
0012865
  6
Continuous
 62
     7
100
AcDbLine
 10
80.1986775238
 20
112.4851682593
 30
0.0
 11
78.2807814365
 21
112.4851682593
 31
0.0
  0
LINE
  5
4F
330
1F
100
AcDbEntity
  8
0012865
  6
Continuous
 62
     7
100
AcDbLine
 10
78.2807814365
 20
112.4851682593
 30
0.0
 11
78.8027827194
 21
114.99511053
 31
0.0
  0
LINE
  5
50
330
1F
100
AcDbEntity
  8
0012865
  6
Continuous
 62
     7
100
AcDbLine
 10
78.8027827194
 20
114.99511053
 30
0.0
 11
80.6256178701
 21
114.99511053
 31
0.0
  0
LINE
  5
51
330
1F
100
AcDbEntity
  8
0012865
  6
Continuous
 62
     7
100
AcDbLine
 10
80.6256178701
 20
114.99511053
 30
0.0
 11
80.5672471197
 21
114.713263192
 31
0.0
  0
LINE
  5
52
330
1F
100
AcDbEntity
  8
0012865
  6
Continuous
 62
     7
100
AcDbLine
 10
80.5672471197
 20
114.713263192
 30
0.0
 11
79.0779591145
 21
114.713263192
 31
0.0
  0
LINE
  5
53
330
1F
100
AcDbEntity
  8
0012865
  6
Continuous
 62
     7
100
AcDbLine
 10
79.0779591145
 20
114.713263192
 30
0.0
 11
78.9145210132
 21
113.9260919283
 31
0.0
  0
LINE
  5
54
330
1F
100
AcDbEntity
  8
0012865
  6
Continuous
 62
     7
100
AcDbLine
 10
78.9145210132
 20
113.9260919283
 30
0.0
 11
80.3721220395
 21
113.9260919283
 31
0.0
  0
LINE
  5
55
330
1F
100
AcDbEntity
  8
0012865
  6
Continuous
 62
     7
100
AcDbLine
 10
80.3721220395
 20
113.9260919283
 30
0.0
 11
80.3120835533
 21
113.6425768546
 31
0.0
  0
LINE
  5
56
330
1F
100
AcDbEntity
  8
0012865
  6
Continuous
 62
     7
100
AcDbLine
 10
80.3120835533
 20
113.6425768546
 30
0.0
 11
78.8561502627
 21
113.6425768546
 31
0.0
  0
LINE
  5
57
330
1F
100
AcDbEntity
  8
0012865
  6
Continuous
 62
     7
100
AcDbLine
 10
78.8561502627
 20
113.6425768546
 30
0.0
 11
78.6726993326
 21
112.7686833331
 31
0.0
  0
LINE
  5
58
330
1F
100
AcDbEntity
  8
0012865
  6
Continuous
 62
     7
100
AcDbLine
 10
78.6726993326
 20
112.7686833331
 30
0.0
 11
80.25871601
 21
112.7686833331
 31
0.0
  0
LINE
  5
59
330
1F
100
AcDbEntity
  8
0012865
  6
Continuous
 62
     7
100
AcDbLine
 10
59.617421373
 20
112.9318996509
 30
0.0
 11
59.617421373
 21
110.8457866941
 31
0.0
  0
LINE
  5
5A
330
1F
100
AcDbEntity
  8
0012865
  6
Continuous
 62
     7
100
AcDbLine
 10
59.617421373
 20
110.8457866941
 30
0.0
 11
58.9928366553
 21
110.8457866941
 31
0.0
  0
LINE
  5
5B
330
1F
100
AcDbEntity
  8
0012865
  6
Continuous
 62
     7
100
AcDbLine
 10
58.9928366553
 20
110.8457866941
 30
0.0
 11
58.9928366553
 21
115.5457866941
 31
0.0
  0
SPLINE
  5
5C
330
1F
100
AcDbEntity
  8
0012865
  6
Continuous
 62
     7
100
AcDbSpline
210
0.0
220
0.0
230
1.0
 70
     8
 71
     3
 72
    21
 73
    17
 74
     0
 42
0.0000000015120033
 43
0.0000000001
 12
1.0
 22
0.0
 32
0.0
 13
1.0
 23
0.0
 33
0.0
 40
0.0
 40
0.0
 40
0.0
 40
0.0
 40
0.3188524755255804
 40
0.3188524755255804
 40
0.3188524755255804
 40
0.4466871992896583
 40
0.4466871992896583
 40
0.5745219230537378
 40
0.5745219230537378
 40
0.5745219230537378
 40
0.6851965081129122
 40
0.6851965081129122
 40
0.8296133447145184
 40
0.8296133447145184
 40
0.8296133447145184
 40
1.0
 40
1.0
 40
1.0
 40
1.0
 10
58.99283665534411
 20
115.5457866940812
 30
0.0
 10
59.68820764094765
 20
115.5457866940812
 30
0.0
 10
60.38357862655119
 20
115.5457866940812
 30
0.0
 10
61.07894961215474
 20
115.5457866940812
 30
0.0
 10
61.49742137295208
 20
115.5457866940812
 30
0.0
 10
61.81595957893216
 20
115.5051886874366
 30
0.0
 10
62.25316888125773
 20
115.3365508136825
 30
0.0
 10
62.42805260218795
 20
115.1866504814566
 30
0.0
 10
62.55921539288564
 20
114.9711687538818
 30
0.0
 10
62.68899117476215
 20
114.7579656836562
 30
0.0
 10
62.75595957893215
 20
114.5214677572041
 30
0.0
 10
62.75595957893215
 20
113.9312351990645
 30
0.0
 10
62.64665725335075
 20
113.650172076141
 30
0.0
 10
62.43117552577598
 20
113.4221986542141
 30
0.0
 10
62.2141348124616
 20
113.1925758705626
 30
0.0
 10
61.88154097428097
 20
113.0474478236493
 30
0.0
 10
61.4287170540152
 20
112.9849893518885
 30
0.0
  0
SPLINE
  5
5D
330
1F
100
AcDbEntity
  8
0012865
  6
Continuous
 62
     7
100
AcDbSpline
210
0.0
220
0.0
230
1.0
 70
     8
 71
     3
 72
    14
 73
    10
 74
     0
 42
0.0000000045750909
 43
0.0000000001
 12
1.0
 22
0.0
 32
0.0
 13
1.0
 23
0.0
 33
0.0
 40
0.0
 40
0.0
 40
0.0
 40
0.0
 40
0.2031950052268718
 40
0.2031950052268718
 40
0.2031950052268718
 40
0.5753525708707682
 40
0.5753525708707682
 40
0.5753525708707682
 40
1.0
 40
1.0
 40
1.0
 40
1.0
 10
61.4287170540152
 20
112.9849893518885
 30
0.0
 10
61.59423200418132
 20
112.9069162621875
 30
0.0
 10
61.71914894770292
 20
112.8257202488984
 30
0.0
 10
61.80346788457999
 20
112.7507700827855
 30
0.0
 10
61.98838803580006
 20
112.5863966150343
 30
0.0
 10
62.15635825002849
 20
112.3728963286327
 30
0.0
 10
62.31875027660655
 20
112.1261853651775
 30
0.0
 10
62.48853123115583
 20
111.8682489149969
 30
0.0
 10
62.65350944915582
 20
111.6071511698724
 30
0.0
 10
62.81808244170142
 20
111.3457866940812
 30
0.0
  0
LINE
  5
5E
330
1F
100
AcDbEntity
  8
0012865
  6
Continuous
 62
     7
100
AcDbLine
 10
75.3128981738
 20
110.8457866941
 30
0.0
 11
62.3562253597
 21
110.8457866941
 31
0.0
  0
LINE
  5
5F
330
1F
100
AcDbEntity
  8
0012865
  6
Continuous
 62
     7
100
AcDbLine
 10
59.617421373
 20
115.0273813785
 30
0.0
 11
59.617421373
 21
113.469042508
 31
0.0
  0
SPLINE
  5
60
330
1F
100
AcDbEntity
  8
0012865
  6
Continuous
 62
     7
100
AcDbSpline
210
0.0
220
0.0
230
1.0
 70
     8
 71
     3
 72
    25
 73
    21
 74
     0
 42
0.0000000016937385
 43
0.0000000001
 12
1.0
 22
0.0
 32
0.0
 13
1.0
 23
0.0
 33
0.0
 40
0.0
 40
0.0
 40
0.0
 40
0.0
 40
0.2284802880085945
 40
0.2284802880085945
 40
0.2284802880085945
 40
0.3442035663753351
 40
0.3442035663753351
 40
0.3442035663753351
 40
0.424907704947
 40
0.424907704947
 40
0.424907704947
 40
0.4990904865566665
 40
0.4990904865566665
 40
0.6065798231747555
 40
0.6065798231747555
 40
0.6065798231747555
 40
0.7458944041694316
 40
0.7458944041694316
 40
0.7458944041694316
 40
1.0
 40
1.0
 40
1.0
 40
1.0
 10
59.61742137295209
 20
113.4690425080346
 30
0.0
 10
60.06295847151244
 20
113.4690425080346
 30
0.0
 10
60.50849557007279
 20
113.4690425080346
 30
0.0
 10
60.95403266863314
 20
113.4690425080346
 30
0.0
 10
61.23821871514476
 20
113.4690425080346
 30
0.0
 10
61.46306921348363
 20
113.5002717439151
 30
0.0
 10
61.62233831647368
 20
113.5564843684998
 30
0.0
 10
61.78258753702057
 20
113.6130429169281
 30
0.0
 10
61.9065243629853
 20
113.7095076243137
 30
0.0
 10
61.98772037627434
 20
113.8406704150114
 30
0.0
 10
62.06838395668935
 20
113.9709731218356
 30
0.0
 10
62.11263731979594
 20
114.1092418435828
 30
0.0
 10
62.11263731979594
 20
114.4839926741476
 30
0.0
 10
62.03456423009493
 20
114.668245165842
 30
0.0
 10
61.87217220351688
 20
114.8087767273038
 30
0.0
 10
61.70823489438518
 20
114.9506455525139
 30
0.0
 10
61.45370044271953
 20
115.0242584548785
 30
0.0
 10
61.10393300085907
 20
115.0273813784665
 30
0.0
 10
60.60846862300692
 20
115.0318051675545
 30
0.0
 10
60.11292524892106
 20
115.0273813784665
 30
0.0
 10
59.61742137295209
 20
115.0273813784665
 30
0.0
  0
SPLINE
  5
61
330
1F
100
AcDbEntity
  8
0012865
  6
Continuous
 62
     7
100
AcDbSpline
210
0.0
220
0.0
230
1.0
 70
     8
 71
     3
 72
    22
 73
    18
 74
     0
 42
0.0000000026460816
 43
0.0000000001
 12
1.0
 22
0.0
 32
0.0
 13
1.0
 23
0.0
 33
0.0
 40
0.0
 40
0.0
 40
0.0
 40
0.0
 40
0.3068698414100483
 40
0.3068698414100483
 40
0.3068698414100483
 40
0.5162606884525387
 40
0.5162606884525387
 40
0.5162606884525387
 40
0.6164695960135068
 40
0.6164695960135068
 40
0.7166785035744724
 40
0.7166785035744724
 40
0.7166785035744724
 40
0.8088759039826804
 40
0.8088759039826804
 40
0.8088759039826804
 40
1.0
 40
1.0
 40
1.0
 40
1.0
 10
62.35622535966304
 20
110.8457866940812
 30
0.0
 10
62.14907142832307
 20
111.1716117217667
 30
0.0
 10
61.94191749698308
 20
111.4974367494521
 30
0.0
 10
61.73476356564311
 20
111.8232617771376
 30
0.0
 10
61.55446872184628
 20
112.1068411043156
 30
0.0
 10
61.40373366531088
 20
112.322929551224
 30
0.0
 10
61.28506256896537
 20
112.4728298834499
 30
0.0
 10
61.16791127321338
 20
112.6208104675577
 30
0.0
 10
61.06333499421454
 20
112.7257866940812
 30
0.0
 10
60.87595957893213
 20
112.8444577904267
 30
0.0
 10
60.78227187129095
 20
112.8850557970712
 30
0.0
 10
60.68546124006172
 20
112.9069162621875
 30
0.0
 10
60.61376386168599
 20
112.9231059927885
 30
0.0
 10
60.49808582477931
 20
112.9287767273038
 30
0.0
 10
60.33881672178929
 20
112.9318996508918
 30
0.0
 10
60.09844402100456
 20
112.9366128411033
 30
0.0
 10
59.85788648923116
 20
112.9318996508918
 30
0.0
 10
59.61742137295209
 20
112.9318996508918
 30
0.0
  0
LINE
  5
62
330
1F
100
AcDbEntity
  8
0012865
  6
Continuous
 62
     7
100
AcDbLine
 10
58.1246638979
 20
111.4016670928
 30
0.0
 11
58.1246638979
 21
110.8457866941
 31
0.0
  0
LINE
  5
63
330
1F
100
AcDbEntity
  8
0012865
  6
Continuous
 62
     7
100
AcDbLine
 10
58.1246638979
 20
110.8457866941
 30
0.0
 11
54.6394811736
 21
110.8457866941
 31
0.0
  0
LINE
  5
64
330
1F
100
AcDbEntity
  8
0012865
  6
Continuous
 62
     7
100
AcDbLine
 10
54.6394811736
 20
110.8457866941
 30
0.0
 11
54.6394811736
 21
115.5457866941
 31
0.0
  0
LINE
  5
65
330
1F
100
AcDbEntity
  8
0012865
  6
Continuous
 62
     7
100
AcDbLine
 10
54.6394811736
 20
115.5457866941
 30
0.0
 11
58.0153615723
 21
115.5457866941
 31
0.0
  0
LINE
  5
66
330
1F
100
AcDbEntity
  8
0012865
  6
Continuous
 62
     7
100
AcDbLine
 10
58.0153615723
 20
115.5457866941
 30
0.0
 11
58.0153615723
 21
114.9899062954
 31
0.0
  0
LINE
  5
67
330
1F
100
AcDbEntity
  8
0012865
  6
Continuous
 62
     7
100
AcDbLine
 10
58.0153615723
 20
114.9899062954
 30
0.0
 11
55.2609429676
 21
114.9899062954
 31
0.0
  0
LINE
  5
68
330
1F
100
AcDbEntity
  8
0012865
  6
Continuous
 62
     7
100
AcDbLine
 10
55.2609429676
 20
114.9899062954
 30
0.0
 11
55.2609429676
 21
113.5627302157
 31
0.0
  0
LINE
  5
69
330
1F
100
AcDbEntity
  8
0012865
  6
Continuous
 62
     7
100
AcDbLine
 10
55.2609429676
 20
113.5627302157
 30
0.0
 11
57.8404778514
 21
113.5627302157
 31
0.0
  0
LINE
  5
6A
330
1F
100
AcDbEntity
  8
0012865
  6
Continuous
 62
     7
100
AcDbLine
 10
57.8404778514
 20
113.5627302157
 30
0.0
 11
57.8404778514
 21
113.0037268934
 31
0.0
  0
LINE
  5
6B
330
1F
100
AcDbEntity
  8
0012865
  6
Continuous
 62
     7
100
AcDbLine
 10
57.8404778514
 20
113.0037268934
 30
0.0
 11
55.2609429676
 21
113.0037268934
 31
0.0
  0
LINE
  5
6C
330
1F
100
AcDbEntity
  8
0012865
  6
Continuous
 62
     7
100
AcDbLine
 10
55.2609429676
 20
113.0037268934
 30
0.0
 11
55.2609429676
 21
111.4016670928
 31
0.0
  0
LINE
  5
6D
330
1F
100
AcDbEntity
  8
0012865
  6
Continuous
 62
     7
100
AcDbLine
 10
55.2609429676
 20
111.4016670928
 30
0.0
 11
58.1246638979
 21
111.4016670928
 31
0.0
  0
SPLINE
  5
6E
330
1F
100
AcDbEntity
  8
0012865
  6
Continuous
 62
     7
100
AcDbSpline
210
0.0
220
0.0
230
1.0
 70
     8
 71
     3
 72
    25
 73
    21
 74
     0
 42
0.0000000027913745
 43
0.0000000001
 12
1.0
 22
0.0
 32
0.0
 13
1.0
 23
0.0
 33
0.0
 40
0.0
 40
0.0
 40
0.0
 40
0.0
 40
0.0835172781847614
 40
0.0835172781847614
 40
0.0835172781847614
 40
0.1622961999490271
 40
0.1622961999490271
 40
0.2926395068680848
 40
0.2926395068680848
 40
0.2926395068680848
 40
0.4669405224626048
 40
0.4669405224626048
 40
0.6203254161857855
 40
0.6203254161857855
 40
0.7737103099089712
 40
0.7737103099089712
 40
0.8849895465316746
 40
0.8849895465316746
 40
0.8849895465316746
 40
1.0
 40
1.0
 40
1.0
 40
1.0
 10
83.78430933903242
 20
113.8643857064116
 30
0.0
 10
83.69091613826268
 20
113.9160855139805
 30
0.0
 10
83.6208712376854
 20
113.9811272073737
 30
0.0
 10
83.57417463730054
 20
114.0628462580472
 30
0.0
 10
83.52819644615236
 20
114.1433080925565
 30
0.0
 10
83.50412973672324
 20
114.2296198308503
 30
0.0
 10
83.50412973672324
 20
114.4731092471428
 30
0.0
 10
83.55916501574825
 20
114.6131990482974
 30
0.0
 10
83.66756783807028
 20
114.7432824350838
 30
0.0
 10
83.81383646339755
 20
114.9188047854765
 30
0.0
 10
84.01278913377264
 20
115.0051169443846
 30
0.0
 10
84.48309060907732
 20
115.0051169443846
 30
0.0
 10
84.65653512479251
 20
114.9467461939036
 30
0.0
 10
84.91003095545321
 20
114.7099277205232
 30
0.0
 10
84.97340491311836
 20
114.5648347121845
 30
0.0
 10
84.97340491311836
 20
114.2713132240511
 30
0.0
 10
84.94005019855777
 20
114.161242666001
 30
0.0
 10
84.87334076943654
 20
114.0628462580472
 30
0.0
 10
84.80610617259931
 20
113.9636752277123
 30
0.0
 10
84.6982285179933
 20
113.886066270876
 30
0.0
 10
84.55313550965462
 20
113.8276955203949
 30
0.0
  0
SPLINE
  5
6F
330
1F
100
AcDbEntity
  8
0012865
  6
Continuous
 62
     7
100
AcDbSpline
210
0.0
220
0.0
230
1.0
 70
    11
 71
     3
 72
    28
 73
    24
 74
     0
 42
0.0000000030828843
 43
0.0000000001
 12
1.0
 22
0.0
 32
0.0
 13
1.0
 23
0.0
 33
0.0
 40
0.0
 40
0.0
 40
0.0
 40
0.0
 40
0.0657668718983864
 40
0.0657668718983864
 40
0.0657668718983864
 40
0.1352439574150688
 40
0.1352439574150688
 40
0.1352439574150688
 40
0.2123845576680845
 40
0.2123845576680845
 40
0.2123845576680845
 40
0.3677962144026459
 40
0.3677962144026459
 40
0.3677962144026459
 40
0.5038560881798582
 40
0.5038560881798582
 40
0.6146024970682867
 40
0.6146024970682867
 40
0.725348905956705
 40
0.725348905956705
 40
0.8626744529783524
 40
0.8626744529783524
 40
1.0
 40
1.0
 40
1.0
 40
1.0
 10
83.56750369438842
 20
113.0988950072454
 30
0.0
 10
83.56750369438842
 20
113.0288501066681
 30
0.0
 10
83.58418105166874
 20
112.9621406775469
 30
0.0
 10
83.61753576622935
 20
112.8987667198817
 30
0.0
 10
83.65157783390997
 20
112.8340867912885
 30
0.0
 10
83.70259028835892
 20
112.7836929546476
 30
0.0
 10
83.77096745320817
 20
112.7453350329029
 30
0.0
 10
83.83990153614218
 20
112.706664693696
 30
0.0
 10
83.9193959330029
 20
112.6886320181499
 30
0.0
 10
84.00611819086052
 20
112.6902997538779
 30
0.0
 10
84.17446516905287
 20
112.6935371957662
 30
0.0
 10
84.31131382909015
 20
112.7686833330953
 30
0.0
 10
84.41471344422804
 20
112.9254504915302
 30
0.0
 10
84.4967155364857
 20
113.0497762443079
 30
0.0
 10
84.53979362383038
 20
113.1806140579189
 30
0.0
 10
84.53979362383038
 20
113.4407808314917
 30
0.0
 10
84.50143570208566
 20
113.5358417679895
 30
0.0
 10
84.34800401510684
 20
113.6826025120562
 30
0.0
 10
84.249607607153
 20
113.7209604338009
 30
0.0
 10
83.96942800484383
 20
113.7209604338009
 30
0.0
 10
83.8376768823294
 20
113.6625896833198
 30
0.0
 10
83.6208712376854
 20
113.4324421528516
 30
0.0
 10
83.56750369438842
 20
113.2823459373288
 30
0.0
 10
83.56750369438842
 20
113.0988950072454
 30
0.0
  0
SPLINE
  5
70
330
1F
100
AcDbEntity
  8
0012865
  6
Continuous
 62
     7
100
AcDbSpline
210
0.0
220
0.0
230
1.0
 70
    11
 71
     3
 72
    29
 73
    25
 74
     0
 42
0.0000000036626573
 43
0.0000000001
 12
1.0
 22
0.0
 32
0.0
 13
1.0
 23
0.0
 33
0.0
 40
0.0
 40
0.0
 40
0.0
 40
0.0
 40
0.1081696925707242
 40
0.1081696925707242
 40
0.1081696925707242
 40
0.2245005915990876
 40
0.2245005915990876
 40
0.2245005915990876
 40
0.3671835125059172
 40
0.3671835125059172
 40
0.3671835125059172
 40
0.5039621990089891
 40
0.5039621990089891
 40
0.62068001149161
 40
0.62068001149161
 40
0.7373978239742308
 40
0.7373978239742308
 40
0.8241475494680772
 40
0.8241475494680772
 40
0.8241475494680772
 40
0.9165152539257989
 40
0.9165152539257989
 40
0.9165152539257989
 40
1.0
 40
1.0
 40
1.0
 40
1.0
 10
83.80598990349684
 20
114.3080034100678
 30
0.0
 10
83.80598990349684
 20
114.2012683234738
 30
0.0
 10
83.84101235378546
 20
114.1145460656162
 30
0.0
 10
83.91105725436276
 20
114.0478366364949
 30
0.0
 10
83.9802692785955
 20
113.98192042294
 30
0.0
 10
84.0761630914378
 20
113.9494402285411
 30
0.0
 10
84.19790779958406
 20
113.9511079642692
 30
0.0
 10
84.34128332172926
 20
113.9530720125177
 30
0.0
 10
84.45807457315685
 20
113.9928013574699
 30
0.0
 10
84.5464645667425
 20
114.0795236153275
 30
0.0
 10
84.63487059333983
 20
114.1662616036872
 30
0.0
 10
84.681551160713
 20
114.2713132240511
 30
0.0
 10
84.681551160713
 20
114.5031284902473
 30
0.0
 10
84.64652871042433
 20
114.589850748105
 30
0.0
 10
84.50643890926976
 20
114.7232696063474
 30
0.0
 10
84.41137797277199
 20
114.756624320908
 30
0.0
 10
84.19624006385604
 20
114.756624320908
 30
0.0
 10
84.11118554172644
 20
114.7349437564436
 30
0.0
 10
84.03446969823702
 20
114.6932503632429
 30
0.0
 10
83.95705414803939
 20
114.6511766946572
 30
0.0
 10
83.89938310426653
 20
114.593186219561
 30
0.0
 10
83.86269291824985
 20
114.5214735832557
 30
0.0
 10
83.8253264879131
 20
114.4484391966884
 30
0.0
 10
83.80598990349684
 20
114.378048310645
 30
0.0
 10
83.80598990349684
 20
114.3080034100678
 30
0.0
  0
SPLINE
  5
71
330
1F
100
AcDbEntity
  8
0012865
  6
Continuous
 62
     7
100
AcDbSpline
210
0.0
220
0.0
230
1.0
 70
     8
 71
     3
 72
    25
 73
    21
 74
     0
 42
0.0000000023849877
 43
0.0000000001
 12
1.0
 22
0.0
 32
0.0
 13
1.0
 23
0.0
 33
0.0
 40
0.0
 40
0.0
 40
0.0
 40
0.0
 40
0.0722746676147294
 40
0.0722746676147294
 40
0.0722746676147294
 40
0.1590476385175507
 40
0.1590476385175507
 40
0.3161770723145522
 40
0.3161770723145522
 40
0.3161770723145522
 40
0.4895972300005885
 40
0.4895972300005885
 40
0.6281152175862919
 40
0.6281152175862919
 40
0.6281152175862919
 40
0.7572265515400134
 40
0.7572265515400134
 40
0.8786132757700083
 40
0.8786132757700083
 40
1.0
 40
1.0
 40
1.0
 40
1.0
 10
84.55313550965462
 20
113.8276955203949
 30
0.0
 10
84.65319965333646
 20
113.7659892984577
 30
0.0
 10
84.7249122896418
 20
113.6992798693365
 30
0.0
 10
84.76827341857057
 20
113.6275672330312
 30
0.0
 10
84.82362110908048
 20
113.5360306679571
 30
0.0
 10
84.85166020497212
 20
113.4274389456675
 30
0.0
 10
84.85166020497212
 20
113.0805499142371
 30
0.0
 10
84.77160889002663
 20
112.8787538911454
 30
0.0
 10
84.6115062601357
 20
112.7036416397021
 30
0.0
 10
84.45216297279055
 20
112.5293599191684
 30
0.0
 10
84.23960119278482
 20
112.4401393946733
 30
0.0
 10
83.76262877456803
 20
112.4401393946733
 30
0.0
 10
83.58918425885281
 20
112.5051810880665
 30
0.0
 10
83.45576540061036
 20
112.6352644748529
 30
0.0
 10
83.32149156730706
 20
112.7661814623236
 30
0.0
 10
83.25396937751864
 20
112.9287859629863
 30
0.0
 10
83.25396937751864
 20
113.3073619732493
 30
0.0
 10
83.30233371363153
 20
113.4641291316842
 30
0.0
 10
83.49245558662702
 20
113.727631376713
 30
0.0
 10
83.6208712376854
 20
113.8176891060267
 30
0.0
 10
83.78430933903242
 20
113.8643857064116
 30
0.0
  0
LINE
  5
72
330
1F
100
AcDbEntity
  8
0012865
  6
Continuous
 62
     7
100
AcDbLine
 10
81.1959834891
 20
113.5992157257
 30
0.0
 11
80.9641682229
 21
112.4851682593
 31
0.0
  0
LINE
  5
73
330
1F
100
AcDbEntity
  8
0012865
  6
Continuous
 62
     7
100
AcDbLine
 10
80.9641682229
 20
112.4851682593
 30
0.0
 11
80.6306210773
 21
112.4851682593
 31
0.0
  0
LINE
  5
74
330
1F
100
AcDbEntity
  8
0012865
  6
Continuous
 62
     7
100
AcDbLine
 10
80.6306210773
 20
112.4851682593
 30
0.0
 11
81.1526223602
 21
114.99511053
 31
0.0
  0
SPLINE
  5
75
330
1F
100
AcDbEntity
  8
0012865
  6
Continuous
 62
     7
100
AcDbSpline
210
0.0
220
0.0
230
1.0
 70
     8
 71
     3
 72
    21
 73
    17
 74
     0
 42
0.0000000028156493
 43
0.0000000001
 12
1.0
 22
0.0
 32
0.0
 13
1.0
 23
0.0
 33
0.0
 40
0.0
 40
0.0
 40
0.0
 40
0.0
 40
0.3002170996024661
 40
0.3002170996024661
 40
0.3002170996024661
 40
0.4364191894837646
 40
0.4364191894837646
 40
0.4364191894837646
 40
0.5297567285201913
 40
0.5297567285201913
 40
0.5297567285201913
 40
0.6526130787266268
 40
0.6526130787266268
 40
0.8263065393633109
 40
0.8263065393633109
 40
1.0
 40
1.0
 40
1.0
 40
1.0
 10
81.15262236019983
 20
114.9951105300164
 30
0.0
 10
81.503958686905
 20
114.9951105300164
 30
0.0
 10
81.85529501361013
 20
114.9951105300164
 30
0.0
 10
82.20663134031531
 20
114.9951105300164
 30
0.0
 10
82.41509830631912
 20
114.9951105300164
 30
0.0
 10
82.57186546475404
 20
114.9784331727361
 30
0.0
 10
82.68026828707603
 20
114.9434107224475
 30
0.0
 10
82.78716099721395
 20
114.9088761545568
 30
0.0
 10
82.87205789579957
 20
114.8433465787656
 30
0.0
 10
82.93376411773673
 20
114.7466179065399
 30
0.0
 10
82.9942317825042
 20
114.6518307563638
 30
0.0
 10
83.02382184705037
 20
114.5298122618958
 30
0.0
 10
83.02382184705037
 20
114.1795877590094
 30
0.0
 10
82.95878015365717
 20
114.0094787147502
 30
0.0
 10
82.69194243717226
 20
113.7393055268092
 30
0.0
 10
82.47680452825628
 20
113.6525832689517
 30
0.0
 10
82.17827983293877
 20
113.6125576114789
 30
0.0
  0
SPLINE
  5
76
330
1F
100
AcDbEntity
  8
0012865
  6
Continuous
 62
     7
100
AcDbSpline
210
0.0
220
0.0
230
1.0
 70
     8
 71
     3
 72
    14
 73
    10
 74
     0
 42
0.0000000075542558
 43
0.0000000001
 12
1.0
 22
0.0
 32
0.0
 13
1.0
 23
0.0
 33
0.0
 40
0.0
 40
0.0
 40
0.0
 40
0.0
 40
0.2187315567746868
 40
0.2187315567746868
 40
0.2187315567746868
 40
0.6139526865601093
 40
0.6139526865601093
 40
0.6139526865601093
 40
1.0
 40
1.0
 40
1.0
 40
1.0
 10
82.17827983293877
 20
113.6125576114789
 30
0.0
 10
82.27000529798045
 20
113.5458481823577
 30
0.0
 10
82.34005019855775
 20
113.4791387532365
 30
0.0
 10
82.38674679894261
 20
113.4140970598432
 30
0.0
 10
82.49223452050616
 20
113.2671677333797
 30
0.0
 10
82.57353320048207
 20
113.1139046287977
 30
0.0
 10
82.63690715814722
 20
112.9571374703628
 30
0.0
 10
82.70063045345194
 20
112.7995061609249
 30
0.0
 10
82.76587872111496
 20
112.6424913296743
 30
0.0
 10
82.83036450259881
 20
112.4851682593301
 30
0.0
  0
LINE
  5
77
330
1F
100
AcDbEntity
  8
0012865
  6
Continuous
 62
     7
100
AcDbLine
 10
82.8303645026
 20
112.4851682593
 30
0.0
 11
82.4551239638
 21
112.4851682593
 31
0.0
  0
LINE
  5
78
330
1F
100
AcDbEntity
  8
0012865
  6
Continuous
 62
     7
100
AcDbLine
 10
81.4311342268
 20
114.7216018706
 30
0.0
 11
81.2526865039
 21
113.8727243851
 31
0.0
  0
SPLINE
  5
79
330
1F
100
AcDbEntity
  8
0012865
  6
Continuous
 62
     7
100
AcDbSpline
210
0.0
220
0.0
230
1.0
 70
     8
 71
     3
 72
    31
 73
    27
 74
     0
 42
0.0000000031055242
 43
0.0000000001
 12
1.0
 22
0.0
 32
0.0
 13
1.0
 23
0.0
 33
0.0
 40
0.0
 40
0.0
 40
0.0
 40
0.0
 40
0.1452073968970948
 40
0.1452073968970948
 40
0.1452073968970948
 40
0.2769716948205818
 40
0.2769716948205818
 40
0.2769716948205818
 40
0.3784342973767239
 40
0.3784342973767239
 40
0.3784342973767239
 40
0.4607975280670577
 40
0.4607975280670577
 40
0.4607975280670577
 40
0.5376712497993839
 40
0.5376712497993839
 40
0.6027182451113527
 40
0.6027182451113527
 40
0.6027182451113527
 40
0.6572437984361457
 40
0.6572437984361457
 40
0.6572437984361457
 40
0.7439017097637242
 40
0.7439017097637242
 40
0.7439017097637242
 40
1.0
 40
1.0
 40
1.0
 40
1.0
 10
81.25268650388168
 20
113.8727243850517
 30
0.0
 10
81.40778592658855
 20
113.8727243850517
 30
0.0
 10
81.5628853492954
 20
113.8727243850517
 30
0.0
 10
81.71798477200227
 20
113.8727243850517
 30
0.0
 10
81.93479041664628
 20
113.8727243850517
 30
0.0
 10
82.07488021780085
 20
113.8743921207797
 30
0.0
 10
82.13992191119407
 20
113.8827307994199
 30
0.0
 10
82.26609269934815
 20
113.8989065414909
 30
0.0
 10
82.37006944166231
 20
113.9227564568926
 30
0.0
 10
82.45178849233581
 20
113.9677853215495
 30
0.0
 10
82.53152331046901
 20
114.011720833582
 30
0.0
 10
82.59521376494646
 20
114.0711849366874
 30
0.0
 10
82.64024262960329
 20
114.1479007801768
 30
0.0
 10
82.68454343528853
 20
114.2233762268998
 30
0.0
 10
82.70695205872453
 20
114.3046679386117
 30
0.0
 10
82.70695205872453
 20
114.4647705685026
 30
0.0
 10
82.69027470144421
 20
114.5281445261678
 30
0.0
 10
82.6569199868836
 20
114.5815120694648
 30
0.0
 10
82.62281572817557
 20
114.6360788833977
 30
0.0
 10
82.5802041433942
 20
114.6732375345065
 30
0.0
 10
82.52683660009721
 20
114.6932503632429
 30
0.0
 10
82.47401735347792
 20
114.7130575807251
 30
0.0
 10
82.38174359175854
 20
114.7216018706194
 30
0.0
 10
82.25166020497213
 20
114.7216018706194
 30
0.0
 10
81.97815154557509
 20
114.7216018706194
 30
0.0
 10
81.70464288617801
 20
114.7216018706194
 30
0.0
 10
81.43113422678097
 20
114.7216018706194
 30
0.0
  0
SPLINE
  5
7A
330
1F
100
AcDbEntity
  8
0012865
  6
Continuous
 62
     7
100
AcDbSpline
210
0.0
220
0.0
230
1.0
 70
     8
 71
     3
 72
    20
 73
    16
 74
     0
 42
0.0000000051818981
 43
0.0000000001
 12
1.0
 22
0.0
 32
0.0
 13
1.0
 23
0.0
 33
0.0
 40
0.0
 40
0.0
 40
0.0
 40
0.0
 40
0.2604888331842771
 40
0.2604888331842771
 40
0.2604888331842771
 40
0.515740049146023
 40
0.515740049146023
 40
0.515740049146023
 40
0.642987499157178
 40
0.642987499157178
 40
0.642987499157178
 40
0.7962661444931172
 40
0.7962661444931172
 40
0.7962661444931172
 40
1.0
 40
1.0
 40
1.0
 40
1.0
 10
82.45512396379188
 20
112.4851682593301
 30
0.0
 10
82.39452956567342
 20
112.6408235939463
 30
0.0
 10
82.33393516755497
 20
112.7964789285625
 30
0.0
 10
82.27334076943652
 20
112.9521342631787
 30
0.0
 10
82.20840252328112
 20
113.1189481065137
 30
0.0
 10
82.13491870400996
 20
113.2656685800485
 30
0.0
 10
82.05153191760841
 20
113.3890810239228
 30
0.0
 10
81.99482555734741
 20
113.4730064371091
 30
0.0
 10
81.93812588810235
 20
113.5308385608054
 30
0.0
 10
81.87808740189323
 20
113.5575223324539
 30
0.0
 10
81.81944156098278
 20
113.5835871506363
 30
0.0
 10
81.72298797918637
 20
113.5975479899266
 30
0.0
 10
81.58790138521587
 20
113.5992157256547
 30
0.0
 10
81.4572819949777
 20
113.6008283107193
 30
0.0
 10
81.32662278782438
 20
113.5992157256547
 30
0.0
 10
81.19598348912862
 20
113.5992157256547
 30
0.0
  0
SPLINE
  5
7B
330
1F
100
AcDbEntity
  8
0012865
  6
Continuous
 62
     7
100
AcDbSpline
210
0.0
220
0.0
230
1.0
 70
     8
 71
     3
 72
    27
 73
    23
 74
     0
 42
0.000000002679093
 43
0.0000000001
 12
1.0
 22
0.0
 32
0.0
 13
1.0
 23
0.0
 33
0.0
 40
0.0
 40
0.0
 40
0.0
 40
0.0
 40
0.3379250067985383
 40
0.3379250067985383
 40
0.3379250067985383
 40
0.3682196813315312
 40
0.3682196813315312
 40
0.4201534091023785
 40
0.4201534091023785
 40
0.4720871368732298
 40
0.4720871368732298
 40
0.4720871368732298
 40
0.5505950391780757
 40
0.5505950391780757
 40
0.5505950391780757
 40
0.6410999463312399
 40
0.6410999463312399
 40
0.6410999463312399
 40
0.7642962298882137
 40
0.7642962298882137
 40
0.7642962298882137
 40
1.0
 40
1.0
 40
1.0
 40
1.0
 10
73.47770253980212
 20
112.4851682593301
 30
0.0
 10
73.56275706193172
 20
112.8948753365163
 30
0.0
 10
73.64781158406127
 20
113.3045824137026
 30
0.0
 10
73.73286610619084
 20
113.7142894908888
 30
0.0
 10
73.7502197939508
 20
113.7978820914057
 30
0.0
 10
73.75954987783933
 20
113.8577147634994
 30
0.0
 10
73.75954987783933
 20
113.9527756999972
 30
0.0
 10
73.74120478483101
 20
113.9994723003821
 30
0.0
 10
73.66782441279766
 20
114.0728526724154
 30
0.0
 10
73.61946007668477
 20
114.0911977654237
 30
0.0
 10
73.55942159047565
 20
114.0928655011518
 30
0.0
 10
73.47281248662271
 20
114.0952713095921
 30
0.0
 10
73.37930613184831
 20
114.0628462580472
 30
0.0
 10
73.28424519535056
 20
114.0078109790222
 30
0.0
 10
73.18721204025327
 20
113.951633889229
 30
0.0
 10
73.10913294390734
 20
113.8727243850517
 30
0.0
 10
73.04909445769822
 20
113.7726602413699
 30
0.0
 10
72.98787874626933
 20
113.670634055655
 30
0.0
 10
72.93902389964818
 20
113.5291708250774
 30
0.0
 10
72.89899824217547
 20
113.3423844235379
 30
0.0
 10
72.83784522038225
 20
113.0570036551696
 30
0.0
 10
72.78003309357592
 20
112.7709069807327
 30
0.0
 10
72.72055051927617
 20
112.4851682593301
 30
0.0
  0
LINE
  5
7C
330
1F
100
AcDbEntity
  8
0012865
  6
Continuous
 62
     7
100
AcDbLine
 10
72.7205505193
 20
112.4851682593
 30
0.0
 11
72.4120194096
 21
112.4851682593
 31
0.0
  0
LINE
  5
7D
330
1F
100
AcDbEntity
  8
0012865
  6
Continuous
 62
     7
100
AcDbLine
 10
72.4120194096
 20
112.4851682593
 30
0.0
 11
72.7905954199
 21
114.3063356743
 31
0.0
  0
LINE
  5
7E
330
1F
100
AcDbEntity
  8
0012865
  6
Continuous
 62
     7
100
AcDbLine
 10
72.7905954199
 20
114.3063356743
 30
0.0
 11
73.0991265295
 21
114.3063356743
 31
0.0
  0
LINE
  5
7F
330
1F
100
AcDbEntity
  8
0012865
  6
Continuous
 62
     7
100
AcDbLine
 10
73.0991265295
 20
114.3063356743
 30
0.0
 11
73.0357525719
 21
114.0011400361
 31
0.0
  0
SPLINE
  5
80
330
1F
100
AcDbEntity
  8
0012865
  6
Continuous
 62
     7
100
AcDbSpline
210
0.0
220
0.0
230
1.0
 70
     8
 71
     3
 72
    16
 73
    12
 74
     0
 42
0.0000000074617333
 43
0.0000000001
 12
1.0
 22
0.0
 32
0.0
 13
1.0
 23
0.0
 33
0.0
 40
0.0
 40
0.0
 40
0.0
 40
0.0
 40
0.3122573331295903
 40
0.3122573331295903
 40
0.3122573331295903
 40
0.534872960041034
 40
0.534872960041034
 40
0.7751564938502046
 40
0.7751564938502046
 40
0.7751564938502046
 40
1.0
 40
1.0
 40
1.0
 40
1.0
 10
73.03575257187397
 20
114.0011400361101
 30
0.0
 10
73.1508263371081
 20
114.1312234228965
 30
0.0
 10
73.25422595224602
 20
114.2212811522101
 30
0.0
 10
73.3459514172877
 20
114.2713132240511
 30
0.0
 10
73.43639155734155
 20
114.320644209535
 30
0.0
 10
73.53607329028323
 20
114.3463613318125
 30
0.0
 10
73.75454667065526
 20
114.3463613318125
 30
0.0
 10
73.849607607153
 20
114.3163420887079
 30
0.0
 10
73.92632345064243
 20
114.2563036024988
 30
0.0
 10
74.00200502426063
 20
114.1970745448845
 30
0.0
 10
74.05140363024474
 20
114.1128783298881
 30
0.0
 10
74.07641966616518
 20
114.0061432432942
 30
0.0
  0
SPLINE
  5
81
330
1F
100
AcDbEntity
  8
0012865
  6
Continuous
 62
     7
100
AcDbSpline
210
0.0
220
0.0
230
1.0
 70
     8
 71
     3
 72
    20
 73
    16
 74
     0
 42
0.0000000034119438
 43
0.0000000001
 12
1.0
 22
0.0
 32
0.0
 13
1.0
 23
0.0
 33
0.0
 40
0.0
 40
0.0
 40
0.0
 40
0.0
 40
0.1130308046446506
 40
0.1130308046446506
 40
0.2260616092892997
 40
0.2260616092892997
 40
0.3773234213872814
 40
0.3773234213872814
 40
0.3773234213872814
 40
0.5252114115650871
 40
0.5252114115650871
 40
0.5888594073378145
 40
0.5888594073378145
 40
0.5888594073378145
 40
1.0
 40
1.0
 40
1.0
 40
1.0
 10
74.07641966616518
 20
114.0061432432942
 30
0.0
 10
74.1681451312069
 20
114.1195492728003
 30
0.0
 10
74.26654153916071
 20
114.2046037949299
 30
0.0
 10
74.47000529798045
 20
114.3180098244359
 30
0.0
 10
74.57840812030244
 20
114.3463613318125
 30
0.0
 10
74.84357810105935
 20
114.3463613318125
 30
0.0
 10
74.95865186629347
 20
114.3096711457958
 30
0.0
 10
75.03369997405487
 20
114.2362907737624
 30
0.0
 10
75.10876702857408
 20
114.1628918760103
 30
0.0
 10
75.14710600356095
 20
114.0628462580472
 30
0.0
 10
75.14710600356095
 20
113.8743921207797
 30
0.0
 10
75.13543185346475
 20
113.7826666557381
 30
0.0
 10
75.10874808181624
 20
113.6542510046797
 30
0.0
 10
75.02771886524204
 20
113.2642978999163
 30
0.0
 10
74.94419815665054
 20
112.87486250778
 30
0.0
 10
74.8619231940677
 20
112.4851682593301
 30
0.0
  0
LINE
  5
82
330
1F
100
AcDbEntity
  8
0012865
  6
Continuous
 62
     7
100
AcDbLine
 10
74.8619231941
 20
112.4851682593
 30
0.0
 11
74.5517243487
 21
112.4851682593
 31
0.0
  0
SPLINE
  5
83
330
1F
100
AcDbEntity
  8
0012865
  6
Continuous
 62
     7
100
AcDbSpline
210
0.0
220
0.0
230
1.0
 70
     8
 71
     3
 72
    27
 73
    23
 74
     0
 42
0.0000000026637805
 43
0.0000000001
 12
1.0
 22
0.0
 32
0.0
 13
1.0
 23
0.0
 33
0.0
 40
0.0
 40
0.0
 40
0.0
 40
0.0
 40
0.3291852717410325
 40
0.3291852717410325
 40
0.3291852717410325
 40
0.369833675813411
 40
0.369833675813411
 40
0.4283673776776371
 40
0.4283673776776371
 40
0.4283673776776371
 40
0.4743836868896336
 40
0.4743836868896336
 40
0.4743836868896336
 40
0.5546028510964042
 40
0.5546028510964042
 40
0.5546028510964042
 40
0.6569205378769023
 40
0.6569205378769023
 40
0.759238224657399
 40
0.759238224657399
 40
0.759238224657399
 40
1.0
 40
1.0
 40
1.0
 40
1.0
 10
74.55172434865398
 20
112.4851682593301
 30
0.0
 10
74.6351111350555
 20
112.8865366578762
 30
0.0
 10
74.71849792145704
 20
113.2879050564222
 30
0.0
 10
74.80188470785859
 20
113.6892734549683
 30
0.0
 10
74.8223784032999
 20
113.7879164423591
 30
0.0
 10
74.8352394224192
 20
113.8577147634994
 30
0.0
 10
74.8352394224192
 20
113.9594466429093
 30
0.0
 10
74.81689432941086
 20
114.0061432432942
 30
0.0
 10
74.77853640766615
 20
114.0411656935828
 30
0.0
 10
74.74100891515509
 20
114.0754299258755
 30
0.0
 10
74.68681094262448
 20
114.0911977654237
 30
0.0
 10
74.6184337777752
 20
114.0928655011518
 30
0.0
 10
74.52513675439288
 20
114.0951410383074
 30
0.0
 10
74.43164737623576
 20
114.0628462580472
 30
0.0
 10
74.33491870400997
 20
114.0078109790222
 30
0.0
 10
74.23747320129159
 20
113.9523678481652
 30
0.0
 10
74.1631419240228
 20
113.8777275922358
 30
0.0
 10
74.05640683742881
 20
113.6942766621524
 30
0.0
 10
74.00971023704395
 20
113.5541868609978
 30
0.0
 10
73.96968457957124
 20
113.3657327237303
 30
0.0
 10
73.9073951187699
 20
113.0724531791241
 30
0.0
 10
73.84738395951562
 20
112.7786897474635
 30
0.0
 10
73.78623364948783
 20
112.4851682593301
 30
0.0
  0
LINE
  5
84
330
1F
100
AcDbEntity
  8
0012865
  6
Continuous
 62
     7
100
AcDbLine
 10
73.7862336495
 20
112.4851682593
 30
0.0
 11
73.4777025398
 21
112.4851682593
 31
0.0
  0
SPLINE
  5
85
330
1F
100
AcDbEntity
  8
0012865
  6
Continuous
 62
     7
100
AcDbSpline
210
0.0
220
0.0
230
1.0
 70
     8
 71
     3
 72
    18
 73
    14
 74
     0
 42
0.0000000058801963
 43
0.0000000001
 12
1.0
 22
0.0
 32
0.0
 13
1.0
 23
0.0
 33
0.0
 40
0.0
 40
0.0
 40
0.0
 40
0.0
 40
0.021681309424402
 40
0.021681309424402
 40
0.2710163678050181
 40
0.2710163678050181
 40
0.2710163678050181
 40
0.4831047770934324
 40
0.4831047770934324
 40
0.7095234843067311
 40
0.7095234843067311
 40
0.7095234843067311
 40
1.0
 40
1.0
 40
1.0
 40
1.0
 10
71.91670189836533
 20
113.5591900681819
 30
0.0
 10
71.91836963409334
 20
113.5908770470145
 30
0.0
 10
71.91836963409334
 20
113.6142253472069
 30
0.0
 10
71.91836963409334
 20
113.78099892001
 30
0.0
 10
71.88001171234865
 20
113.9010758924282
 30
0.0
 10
71.8016281331312
 20
113.9827949431018
 30
0.0
 10
71.72404369235696
 20
114.0636808494408
 30
0.0
 10
71.62484814595993
 20
114.106207386976
 30
0.0
 10
71.36968457957121
 20
114.106207386976
 30
0.0
 10
71.24793987142498
 20
114.0611785223192
 30
0.0
 10
71.13786931337494
 20
113.9694530572775
 30
0.0
 10
71.02960319070279
 20
113.879231288384
 30
0.0
 10
70.94774744037943
 20
113.7426409982653
 30
0.0
 10
70.89437989708244
 20
113.5591900681819
 30
0.0
  0
LINE
  5
86
330
1F
100
AcDbEntity
  8
0012865
  6
Continuous
 62
     7
100
AcDbLine
 10
72.188542822
 20
113.3207038591
 30
0.0
 11
70.8443478252
 21
113.3207038591
 31
0.0
  0
SPLINE
  5
87
330
1F
100
AcDbEntity
  8
0012865
  6
Continuous
 62
     7
100
AcDbSpline
210
0.0
220
0.0
230
1.0
 70
     8
 71
     3
 72
    17
 73
    13
 74
     0
 42
0.0000000062717675
 43
0.0000000001
 12
1.0
 22
0.0
 32
0.0
 13
1.0
 23
0.0
 33
0.0
 40
0.0
 40
0.0
 40
0.0
 40
0.0
 40
0.0413881499234958
 40
0.0413881499234958
 40
0.289717049464475
 40
0.289717049464475
 40
0.5380459490054541
 40
0.5380459490054541
 40
0.5380459490054541
 40
0.769022974502731
 40
0.769022974502731
 40
1.0
 40
1.0
 40
1.0
 40
1.0
 10
70.84434782524151
 20
113.3207038590735
 30
0.0
 10
70.84101235378546
 20
113.2840136730568
 30
0.0
 10
70.83934461805744
 20
113.2523266942243
 30
0.0
 10
70.83934461805744
 20
113.0538661425886
 30
0.0
 10
70.87770253980213
 20
112.9237827558022
 30
0.0
 10
71.03446969823705
 20
112.7436672971749
 30
0.0
 10
71.13119837046281
 20
112.698638432518
 30
0.0
 10
71.2446043999689
 20
112.7003061682461
 30
0.0
 10
71.35129188848374
 20
112.7018751019007
 30
0.0
 10
71.45473910170081
 20
112.7336608828067
 30
0.0
 10
71.66153833197662
 20
112.8704152125052
 30
0.0
 10
71.7415896469221
 20
112.9704793561871
 30
0.0
 10
71.79829266167515
 20
113.1005627429735
 30
0.0
  0
LINE
  5
88
330
1F
100
AcDbEntity
  8
0012865
  6
Continuous
 62
     7
100
AcDbLine
 10
71.7982926617
 20
113.100562743
 30
0.0
 11
72.1001528284
 21
113.0705434999
 31
0.0
  0
SPLINE
  5
89
330
1F
100
AcDbEntity
  8
0012865
  6
Continuous
 62
     7
100
AcDbSpline
210
0.0
220
0.0
230
1.0
 70
     8
 71
     3
 72
    34
 73
    30
 74
     0
 42
0.0000000018158964
 43
0.0000000001
 12
1.0
 22
0.0
 32
0.0
 13
1.0
 23
0.0
 33
0.0
 40
0.0
 40
0.0
 40
0.0
 40
0.0
 40
0.0971041639436981
 40
0.0971041639436981
 40
0.0971041639436981
 40
0.2099423133125268
 40
0.2099423133125268
 40
0.2802491602269507
 40
0.2802491602269507
 40
0.2802491602269507
 40
0.3503317846186258
 40
0.3503317846186258
 40
0.3503317846186258
 40
0.4317482831038177
 40
0.4317482831038177
 40
0.5382160118921456
 40
0.5382160118921456
 40
0.5382160118921456
 40
0.6404936102112896
 40
0.6404936102112896
 40
0.6404936102112896
 40
0.7273285918861374
 40
0.7273285918861374
 40
0.8388519507038368
 40
0.8388519507038368
 40
0.8388519507038368
 40
0.9549119447565139
 40
0.9549119447565139
 40
1.0
 40
1.0
 40
1.0
 40
1.0
 10
72.1001528284487
 20
113.0705434998689
 30
0.0
 10
72.05679169951989
 20
112.9221150200742
 30
0.0
 10
71.95672755583807
 20
112.7803574831915
 30
0.0
 10
71.79996039740317
 20
112.6469386249491
 30
0.0
 10
71.64333728860193
 20
112.5136423621395
 30
0.0
 10
71.45974230888488
 20
112.4451426018574
 30
0.0
 10
71.1078500702704
 20
112.4451426018574
 30
0.0
 10
70.98443762639612
 20
112.4768295806899
 30
0.0
 10
70.87103159689
 20
112.5385358026271
 30
0.0
 10
70.75891233694948
 20
112.5995418705359
 30
0.0
 10
70.67423878098239
 20
112.6902997538779
 30
0.0
 10
70.61420029477328
 20
112.8103767262961
 30
0.0
 10
70.55516245000099
 20
112.9284524158407
 30
0.0
 10
70.52581030118765
 20
113.0638725569568
 30
0.0
 10
70.52581030118765
 20
113.4140970598432
 30
0.0
 10
70.5725069015725
 20
113.6075544042948
 30
0.0
 10
70.6642323666142
 20
113.7943408058343
 30
0.0
 10
70.75529797860916
 20
113.979783506624
 30
0.0
 10
70.87603480407412
 20
114.1178815370722
 30
0.0
 10
71.0211278124128
 20
114.2096070021139
 30
0.0
 10
71.16665908545478
 20
114.3016095310485
 30
0.0
 10
71.3263234506424
 20
114.3463613318125
 30
0.0
 10
71.7149058752736
 20
114.3463613318125
 30
0.0
 10
71.88835039098879
 20
114.2779841669632
 30
0.0
 10
72.01676604204715
 20
114.1445653087207
 30
0.0
 10
72.14681696419129
 20
114.009447467532
 30
0.0
 10
72.21189112222676
 20
113.8260277846668
 30
0.0
 10
72.21189112222676
 20
113.5041547891569
 30
0.0
 10
72.20355244358662
 20
113.4124293241152
 30
0.0
 10
72.18854282203435
 20
113.3207038590735
 30
0.0
  0
LINE
  5
8A
330
1F
100
AcDbEntity
  8
0012865
  6
Continuous
 62
     7
100
AcDbLine
 10
70.8943798971
 20
113.5591900682
 30
0.0
 11
71.9167018984
 21
113.5591900682
 31
0.0
  0
LINE
  5
8B
330
1F
100
AcDbEntity
  8
0012865
  6
Continuous
 62
     7
100
AcDbLine
 10
70.447426722
 20
114.0678494652
 30
0.0
 11
70.1455665552
 21
114.0678494652
 31
0.0
  0
SPLINE
  5
8C
330
1F
100
AcDbEntity
  8
0012865
  6
Continuous
 62
     7
100
AcDbSpline
210
0.0
220
0.0
230
1.0
 70
     8
 71
     3
 72
    18
 73
    14
 74
     0
 42
0.0000000060431638
 43
0.0000000001
 12
1.0
 22
0.0
 32
0.0
 13
1.0
 23
0.0
 33
0.0
 40
0.0
 40
0.0
 40
0.0
 40
0.0
 40
0.623077154773411
 40
0.623077154773411
 40
0.623077154773411
 40
0.7034771442276955
 40
0.7034771442276955
 40
0.8213971287606437
 40
0.8213971287606437
 40
0.8213971287606437
 40
0.8938736562200886
 40
0.8938736562200886
 40
1.0
 40
1.0
 40
1.0
 40
1.0
 10
70.14556655519664
 20
114.0678494652313
 30
0.0
 10
70.07552165461934
 20
113.7326345838971
 30
0.0
 10
70.00547675404204
 20
113.3974197025629
 30
0.0
 10
69.93543185346473
 20
113.0622048212287
 30
0.0
 10
69.90860498047951
 20
112.9338190719422
 30
0.0
 10
69.895406195992
 20
112.857073326681
 30
0.0
 10
69.895406195992
 20
112.7953671047438
 30
0.0
 10
69.90708034608822
 20
112.7670155973673
 30
0.0
 10
69.92709317482459
 20
112.7470027686309
 30
0.0
 10
69.94710600356096
 20
112.7269899398946
 30
0.0
 10
69.98379618957765
 20
112.7186512612544
 30
0.0
 10
70.09886995481176
 20
112.7186512612544
 30
0.0
 10
70.16057617674889
 20
112.7253222041665
 30
0.0
 10
70.21394372004589
 20
112.7369963542627
 30
0.0
  0
LINE
  5
8D
330
1F
100
AcDbEntity
  8
0012865
  6
Continuous
 62
     7
100
AcDbLine
 10
70.21394372
 20
112.7369963543
 30
0.0
 11
70.1622439125
 21
112.4851682593
 31
0.0
  0
SPLINE
  5
8E
330
1F
100
AcDbEntity
  8
0012865
  6
Continuous
 62
     7
100
AcDbSpline
210
0.0
220
0.0
230
1.0
 70
     8
 71
     3
 72
    18
 73
    14
 74
     0
 42
0.0000000047232998
 43
0.0000000001
 12
1.0
 22
0.0
 32
0.0
 13
1.0
 23
0.0
 33
0.0
 40
0.0
 40
0.0
 40
0.0
 40
0.0
 40
0.0919913534692661
 40
0.0919913534692661
 40
0.2518810868801273
 40
0.2518810868801273
 40
0.2518810868801273
 40
0.4099000133378546
 40
0.4099000133378546
 40
0.4856174155988487
 40
0.4856174155988487
 40
0.4856174155988487
 40
1.0
 40
1.0
 40
1.0
 40
1.0
 10
70.16224391247694
 20
112.4851682593301
 30
0.0
 10
70.08886354044358
 20
112.4651554305937
 30
0.0
 10
70.01715090413826
 20
112.4551490162255
 30
0.0
 10
69.82536129541472
 20
112.4551490162255
 30
0.0
 10
69.72696488746088
 20
112.4851682593301
 30
0.0
 10
69.65525225115557
 20
112.5452067455392
 30
0.0
 10
69.59991152991138
 20
112.5915385121623
 30
0.0
 10
69.57353320048207
 20
112.6536095678612
 30
0.0
 10
69.57353320048207
 20
112.7720188045514
 30
0.0
 10
69.58854282203433
 20
112.8654120053211
 30
0.0
 10
69.61689432941087
 20
113.0088372779318
 30
0.0
 10
69.68680960160279
 20
113.3625263019615
 30
0.0
 10
69.76365507347757
 20
113.7148454027981
 30
0.0
 10
69.83703544551092
 20
114.0678494652313
 30
0.0
  0
LINE
  5
8F
330
1F
100
AcDbEntity
  8
0012865
  6
Continuous
 62
     7
100
AcDbLine
 10
69.8370354455
 20
114.0678494652
 30
0.0
 11
69.5935460292
 21
114.0678494652
 31
0.0
  0
LINE
  5
90
330
1F
100
AcDbEntity
  8
0012865
  6
Continuous
 62
     7
100
AcDbLine
 10
69.5935460292
 20
114.0678494652
 30
0.0
 11
69.6419103653
 21
114.3063356743
 31
0.0
  0
LINE
  5
91
330
1F
100
AcDbEntity
  8
0012865
  6
Continuous
 62
     7
100
AcDbLine
 10
69.6419103653
 20
114.3063356743
 30
0.0
 11
69.8870675174
 21
114.3063356743
 31
0.0
  0
LINE
  5
92
330
1F
100
AcDbEntity
  8
0012865
  6
Continuous
 62
     7
100
AcDbLine
 10
69.8870675174
 20
114.3063356743
 30
0.0
 11
69.9787929824
 21
114.749953378
 31
0.0
  0
LINE
  5
93
330
1F
100
AcDbEntity
  8
0012865
  6
Continuous
 62
     7
100
AcDbLine
 10
69.9787929824
 20
114.749953378
 30
0.0
 11
70.330685221
 21
114.9617558155
 31
0.0
  0
LINE
  5
94
330
1F
100
AcDbEntity
  8
0012865
  6
Continuous
 62
     7
100
AcDbLine
 10
70.330685221
 20
114.9617558155
 30
0.0
 11
70.1939308913
 21
114.3063356743
 31
0.0
  0
LINE
  5
95
330
1F
100
AcDbEntity
  8
0012865
  6
Continuous
 62
     7
100
AcDbLine
 10
70.1939308913
 20
114.3063356743
 30
0.0
 11
70.4974587938
 21
114.3063356743
 31
0.0
  0
LINE
  5
96
330
1F
100
AcDbEntity
  8
0012865
  6
Continuous
 62
     7
100
AcDbLine
 10
70.4974587938
 20
114.3063356743
 30
0.0
 11
70.447426722
 21
114.0678494652
 31
0.0
  0
LINE
  5
97
330
1F
100
AcDbEntity
  8
0012865
  6
Continuous
 62
     7
100
AcDbLine
 10
69.3784081203
 20
113.7693247699
 30
0.0
 11
69.0698770106
 21
113.7493119412
 31
0.0
  0
SPLINE
  5
98
330
1F
100
AcDbEntity
  8
0012865
  6
Continuous
 62
     7
100
AcDbSpline
210
0.0
220
0.0
230
1.0
 70
     8
 71
     3
 72
    38
 73
    34
 74
     0
 42
0.0000000021250207
 43
0.0000000001
 12
1.0
 22
0.0
 32
0.0
 13
1.0
 23
0.0
 33
0.0
 40
0.0
 40
0.0
 40
0.0
 40
0.0
 40
0.0637829389361784
 40
0.0637829389361784
 40
0.0637829389361784
 40
0.1346526294780083
 40
0.1346526294780083
 40
0.192963134354197
 40
0.192963134354197
 40
0.192963134354197
 40
0.2323447494221141
 40
0.2323447494221141
 40
0.2717263644900306
 40
0.2717263644900306
 40
0.2717263644900306
 40
0.3365437187236583
 40
0.3365437187236583
 40
0.3365437187236583
 40
0.4477445621872876
 40
0.4477445621872876
 40
0.4477445621872876
 40
0.5405398669022407
 40
0.5405398669022407
 40
0.6024034033788759
 40
0.6024034033788759
 40
0.6642669398555116
 40
0.6642669398555116
 40
0.6642669398555116
 40
0.7552966033932312
 40
0.7552966033932312
 40
0.8776483016966156
 40
0.8776483016966156
 40
1.0
 40
1.0
 40
1.0
 40
1.0
 10
69.06987701061676
 20
113.7493119411774
 30
0.0
 10
69.0665415391607
 20
113.8593824992275
 30
0.0
 10
69.02651588168796
 20
113.9461047570851
 30
0.0
 10
68.95480324538264
 20
114.0111464504783
 30
0.0
 10
68.88300549022117
 20
114.0762653446945
 30
0.0
 10
68.77802325821136
 20
114.106207386976
 30
0.0
 10
68.53786931337494
 20
114.106207386976
 30
0.0
 10
68.45615026270144
 20
114.0811913510556
 30
0.0
 10
68.39611177649232
 20
114.0328270149427
 30
0.0
 10
68.33626995355111
 20
113.9846211020178
 30
0.0
 10
68.3077217829067
 20
113.9294273998048
 30
0.0
 10
68.3077217829067
 20
113.8160213702987
 30
0.0
 10
68.33440555455519
 20
113.7659892984577
 30
0.0
 10
68.38443762639612
 20
113.7226281695289
 30
0.0
 10
68.41929499624466
 20
113.6924184489935
 30
0.0
 10
68.50785007027038
 20
113.6459123260395
 30
0.0
 10
68.649607607153
 20
113.5858738398304
 30
0.0
 10
68.8881382448508
 20
113.4848490991584
 30
0.0
 10
69.03485456032813
 20
113.400755174019
 30
0.0
 10
69.0982285179933
 20
113.3407166878099
 30
0.0
 10
69.1975452239109
 20
113.2466271769406
 30
0.0
 10
69.24665699778804
 20
113.130581986078
 30
0.0
 10
69.24665699778804
 20
112.9054376627939
 30
0.0
 10
69.2183054904115
 20
112.8170476692082
 30
0.0
 10
69.10823493236148
 20
112.643603153493
 30
0.0
 10
69.02318041023189
 20
112.5752259886438
 30
0.0
 10
68.91144211645384
 20
112.5235261810748
 30
0.0
 10
68.79833015924768
 20
112.4711907978899
 30
0.0
 10
68.66461722870528
 20
112.4451426018574
 30
0.0
 10
68.30105083999457
 20
112.4451426018574
 30
0.0
 10
68.12260311709528
 20
112.4968424094263
 30
0.0
 10
67.82908162896187
 20
112.7036416397021
 30
0.0
 10
67.75903672838457
 20
112.8720829482332
 30
0.0
 10
67.7657076712967
 20
113.1055659501576
 30
0.0
  0
LINE
  5
99
330
1F
100
AcDbEntity
  8
0012865
  6
Continuous
 62
     7
100
AcDbLine
 10
67.7657076713
 20
113.1055659502
 30
0.0
 11
68.0792419882
 21
113.1239110432
 31
0.0
  0
SPLINE
  5
9A
330
1F
100
AcDbEntity
  8
0012865
  6
Continuous
 62
     7
100
AcDbSpline
210
0.0
220
0.0
230
1.0
 70
     8
 71
     3
 72
    41
 73
    37
 74
     0
 42
0.0000000021481696
 43
0.0000000001
 12
1.0
 22
0.0
 32
0.0
 13
1.0
 23
0.0
 33
0.0
 40
0.0
 40
0.0
 40
0.0
 40
0.0
 40
0.0507161692857752
 40
0.0507161692857752
 40
0.0507161692857752
 40
0.1030511479805799
 40
0.1030511479805799
 40
0.1553861266753846
 40
0.1553861266753846
 40
0.2272358431885905
 40
0.2272358431885905
 40
0.2272358431885905
 40
0.2769645081253547
 40
0.2769645081253547
 40
0.313130809897547
 40
0.313130809897547
 40
0.313130809897547
 40
0.3915194288406557
 40
0.3915194288406557
 40
0.3915194288406557
 40
0.4674355675235907
 40
0.4674355675235907
 40
0.4674355675235907
 40
0.5193141120191231
 40
0.5193141120191231
 40
0.5711926565146562
 40
0.5711926565146562
 40
0.6622447958333472
 40
0.6622447958333472
 40
0.6622447958333472
 40
0.7738226346552766
 40
0.7738226346552766
 40
0.8970981501278948
 40
0.8970981501278948
 40
0.8970981501278948
 40
1.0
 40
1.0
 40
1.0
 40
1.0
 10
68.07924198816647
 20
113.1239110431659
 30
0.0
 10
68.07924198816647
 20
113.0355210495803
 30
0.0
 10
68.09258387399072
 20
112.9604729418189
 30
0.0
 10
68.11926764563923
 20
112.8970989841537
 30
0.0
 10
68.14535495650969
 20
112.8351416208363
 30
0.0
 10
68.19598348912864
 20
112.7836929546476
 30
0.0
 10
68.34274423319533
 20
112.7036416397021
 30
0.0
 10
68.4277987553249
 20
112.6852965466938
 30
0.0
 10
68.66128175724923
 20
112.6852965466938
 30
0.0
 10
68.7630136366591
 20
112.7119803183423
 30
0.0
 10
68.83139080150835
 20
112.7670155973673
 30
0.0
 10
68.89895336475475
 20
112.8213952214437
 30
0.0
 10
68.93312268091825
 20
112.8854248340575
 30
0.0
 10
68.93312268091825
 20
113.0121727493878
 30
0.0
 10
68.91310985218188
 20
113.0638725569568
 30
0.0
 10
68.87141645898109
 20
113.1105691573416
 30
0.0
 10
68.8288945242547
 20
113.1581937242352
 30
0.0
 10
68.72632345064241
 20
113.2173042439356
 30
0.0
 10
68.56288534929541
 20
113.2890168802409
 30
0.0
 10
68.40006087218289
 20
113.3604602732597
 30
0.0
 10
68.29604763281047
 20
113.4090938526592
 30
0.0
 10
68.24935103242561
 20
113.4374453600357
 30
0.0
 10
68.1738008942447
 20
113.4833150867884
 30
0.0
 10
68.11593217418316
 20
113.5391772394456
 30
0.0
 10
68.03921633069373
 20
113.6659251547759
 30
0.0
 10
68.01920350195736
 20
113.7393055268092
 30
0.0
 10
68.01920350195736
 20
113.9644498500934
 30
0.0
 10
68.07757425243844
 20
114.0878622939677
 30
0.0
 10
68.19098028194453
 20
114.1912619091056
 30
0.0
 10
68.3052969881165
 20
114.2954918470859
 30
0.0
 10
68.46448894134157
 20
114.3463613318125
 30
0.0
 10
68.89976796635763
 20
114.3463613318125
 30
0.0
 10
69.07321248207282
 20
114.2929937885155
 30
0.0
 10
69.191621718763
 20
114.1862587019215
 30
0.0
 10
69.31012167063946
 20
114.079441843892
 30
0.0
 10
69.37340491311836
 20
113.941101549901
 30
0.0
 10
69.37840812030247
 20
113.7693247699138
 30
0.0
  0
LINE
  5
9B
330
1F
100
AcDbEntity
  8
0012865
  6
Continuous
 62
     7
100
AcDbLine
 10
67.5072086335
 20
114.3063356743
 30
0.0
 11
67.8307493647
 21
114.3063356743
 31
0.0
  0
SPLINE
  5
9C
330
1F
100
AcDbEntity
  8
0012865
  6
Continuous
 62
     7
100
AcDbSpline
210
0.0
220
0.0
230
1.0
 70
     8
 71
     3
 72
    15
 73
    11
 74
     0
 42
0.0000000029305112
 43
0.0000000001
 12
1.0
 22
0.0
 32
0.0
 13
1.0
 23
0.0
 33
0.0
 40
0.0
 40
0.0
 40
0.0
 40
0.0
 40
0.6944103924140682
 40
0.6944103924140682
 40
0.6944103924140682
 40
0.8100855546076127
 40
0.8100855546076127
 40
0.9257607168011571
 40
0.9257607168011571
 40
1.0
 40
1.0
 40
1.0
 40
1.0
 10
67.83074936468988
 20
114.3063356743397
 30
0.0
 10
67.44494649960542
 20
113.6197844663004
 30
0.0
 10
67.05914363452098
 20
112.933233258261
 30
0.0
 10
66.6733407694365
 20
112.2466820502217
 30
0.0
 10
66.56034114549955
 20
112.0455948231869
 30
0.0
 10
66.4615383319766
 20
111.9097994331595
 30
0.0
 10
66.28809381626141
 20
111.7797160463731
 30
0.0
 10
66.18802967257956
 20
111.7463613318125
 30
0.0
 10
66.00457874249618
 20
111.7463613318125
 30
0.0
 10
65.93286610619084
 20
111.7580354819087
 30
0.0
 10
65.86448894134159
 20
111.7830515178291
 30
0.0
  0
LINE
  5
9D
330
1F
100
AcDbEntity
  8
0012865
  6
Continuous
 62
     7
100
AcDbLine
 10
65.8644889413
 20
111.7830515178
 30
0.0
 11
65.8845017701
 21
112.076573006
 31
0.0
  0
SPLINE
  5
9E
330
1F
100
AcDbEntity
  8
0012865
  6
Continuous
 62
     7
100
AcDbSpline
210
0.0
220
0.0
230
1.0
 70
     8
 71
     3
 72
    16
 73
    12
 74
     0
 42
0.0000000120625217
 43
0.0000000001
 12
1.0
 22
0.0
 32
0.0
 13
1.0
 23
0.0
 33
0.0
 40
0.0
 40
0.0
 40
0.0
 40
0.0
 40
0.209593350378497
 40
0.209593350378497
 40
0.4250087382675023
 40
0.4250087382675023
 40
0.4250087382675023
 40
0.7516385063522175
 40
0.7516385063522175
 40
0.7516385063522175
 40
1.0
 40
1.0
 40
1.0
 40
1.0
 10
65.88450177007796
 20
112.0765730059625
 30
0.0
 10
65.94787572774314
 20
112.0582279129542
 30
0.0
 10
66.0112496854083
 20
112.0498892343141
 30
0.0
 10
66.13299439355455
 20
112.0498892343141
 30
0.0
 10
66.18469420112349
 20
112.0632311201383
 30
0.0
 10
66.22305212286822
 20
112.0932503632429
 30
0.0
 10
66.27188764809067
 20
112.1314694699387
 30
0.0
 10
66.32811947373415
 20
112.2016531855649
 30
0.0
 10
66.38649022421522
 20
112.3050528007028
 30
0.0
 10
66.42001492564889
 20
112.364439414671
 30
0.0
 10
66.45319965333645
 20
112.4240179493023
 30
0.0
 10
66.48655436789707
 20
112.4835005236021
 30
0.0
  0
LINE
  5
9F
330
1F
100
AcDbEntity
  8
0012865
  6
Continuous
 62
     7
100
AcDbLine
 10
66.4865543679
 20
112.4835005236
 30
0.0
 11
66.1830264654
 21
114.3063356743
 31
0.0
  0
LINE
  5
A0
330
1F
100
AcDbEntity
  8
0012865
  6
Continuous
 62
     7
100
AcDbLine
 10
66.1830264654
 20
114.3063356743
 30
0.0
 11
66.4848866322
 21
114.3063356743
 31
0.0
  0
SPLINE
  5
A1
330
1F
100
AcDbEntity
  8
0012865
  6
Continuous
 62
     7
100
AcDbSpline
210
0.0
220
0.0
230
1.0
 70
     8
 71
     3
 72
    11
 73
     7
 74
     0
 42
0.0000000067604395
 43
0.0000000001
 12
1.0
 22
0.0
 32
0.0
 13
1.0
 23
0.0
 33
0.0
 40
0.0
 40
0.0
 40
0.0
 40
0.0
 40
0.6282567672362598
 40
0.6282567672362598
 40
0.6282567672362598
 40
1.0
 40
1.0
 40
1.0
 40
1.0
 10
66.48488663216904
 20
114.3063356743397
 30
0.0
 10
66.53102732064455
 20
114.0000282122914
 30
0.0
 10
66.57716800912009
 20
113.6937207502431
 30
0.0
 10
66.62330869759559
 20
113.3874132881948
 30
0.0
 10
66.65067613400366
 20
113.2057330778231
 30
0.0
 10
66.6733407694365
 20
113.023846899484
 30
0.0
 10
66.69335359817288
 20
112.8420637051287
 30
0.0
  0
LINE
  5
A2
330
1F
100
AcDbEntity
  8
0012865
  6
Continuous
 62
     7
100
AcDbLine
 10
66.6933535982
 20
112.8420637051
 30
0.0
 11
67.5072086335
 21
114.3063356743
 31
0.0
  0
LINE
  5
A3
330
1F
100
AcDbEntity
  8
0012865
  6
Continuous
 62
     7
100
AcDbLine
 10
65.8794985629
 20
114.2813196384
 30
0.0
 11
65.5526223602
 21
114.2563036025
 31
0.0
  0
SPLINE
  5
A4
330
1F
100
AcDbEntity
  8
0012865
  6
Continuous
 62
     7
100
AcDbSpline
210
0.0
220
0.0
230
1.0
 70
     8
 71
     3
 72
    52
 73
    48
 74
     0
 42
0.0000000015488647
 43
0.0000000001
 12
1.0
 22
0.0
 32
0.0
 13
1.0
 23
0.0
 33
0.0
 40
0.0
 40
0.0
 40
0.0
 40
0.0
 40
0.0264433110871848
 40
0.0264433110871848
 40
0.0264433110871848
 40
0.0592893318230163
 40
0.0592893318230163
 40
0.0592893318230163
 40
0.0954649509175291
 40
0.0954649509175291
 40
0.0954649509175291
 40
0.1375755765023403
 40
0.1375755765023403
 40
0.2109295694565281
 40
0.2109295694565281
 40
0.2109295694565281
 40
0.2566304236944026
 40
0.2566304236944026
 40
0.2834706079293463
 40
0.2834706079293463
 40
0.2834706079293463
 40
0.3189590920973951
 40
0.3189590920973951
 40
0.3189590920973951
 40
0.3918908840021619
 40
0.3918908840021619
 40
0.3918908840021619
 40
0.4574597730848553
 40
0.4574597730848553
 40
0.4574597730848553
 40
0.5059181728425454
 40
0.5059181728425454
 40
0.5059181728425454
 40
0.5559035550512078
 40
0.5559035550512078
 40
0.6172492513982039
 40
0.6172492513982039
 40
0.6172492513982039
 40
0.6864613307814719
 40
0.6864613307814719
 40
0.6864613307814719
 40
0.7645155415926762
 40
0.7645155415926762
 40
0.881942230423691
 40
0.881942230423691
 40
0.881942230423691
 40
1.0
 40
1.0
 40
1.0
 40
1.0
 10
65.55262236019982
 20
114.2563036024988
 30
0.0
 10
65.55262236019982
 20
114.3263485030761
 30
0.0
 10
65.5459514172877
 20
114.3830515178291
 30
0.0
 10
65.5342772671915
 20
114.4230771753019
 30
0.0
 10
65.51361869118122
 20
114.4939065787656
 30
0.0
 10
65.47590651671042
 20
114.5514928263602
 30
0.0
 10
65.42920991632556
 20
114.6015248982012
 30
0.0
 10
65.38340066226628
 20
114.6506062418361
 30
0.0
 10
65.31580388681945
 20
114.6882471560588
 30
0.0
 10
65.2324171004179
 20
114.7165986634353
 30
0.0
 10
65.14852204030939
 20
114.7451229838722
 30
0.0
 10
65.05563711324666
 20
114.7616275280921
 30
0.0
 10
64.77212203948143
 20
114.7616275280921
 30
0.0
 10
64.6303645025988
 20
114.7199341348914
 30
0.0
 10
64.52863262318893
 20
114.6382150842178
 30
0.0
 10
64.45106248057454
 20
114.5759046417899
 30
0.0
 10
64.4135588579548
 20
114.4914543401511
 30
0.0
 10
64.4135588579548
 20
114.3246807673481
 30
0.0
 10
64.43023621523511
 20
114.269645488323
 30
0.0
 10
64.46192319406768
 20
114.2212811522101
 30
0.0
 10
64.4943746673979
 20
114.1717499560746
 30
0.0
 10
64.55031318765333
 20
114.1245524799844
 30
0.0
 10
64.63369997405485
 20
114.0778558795995
 30
0.0
 10
64.69235511308882
 20
114.0450090017405
 30
0.0
 10
64.83216052569051
 20
113.9794594716457
 30
0.0
 10
65.05396937751861
 20
113.8810630636919
 30
0.0
 10
65.23414061115282
 20
113.8011374788466
 30
0.0
 10
65.35749728002021
 20
113.7376377910812
 30
0.0
 10
65.42587444486949
 20
113.6926089264244
 30
0.0
 10
65.51819780354978
 20
113.6318106170496
 30
0.0
 10
65.58597707476044
 20
113.5575223324539
 30
0.0
 10
65.63600914660137
 20
113.4708000745963
 30
0.0
 10
65.68490286386655
 20
113.38605096467
 30
0.0
 10
65.70938951863472
 20
113.2873491445129
 30
0.0
 10
65.70938951863472
 20
113.0421919924924
 30
0.0
 10
65.66769612543396
 20
112.9154440771621
 30
0.0
 10
65.58430933903242
 20
112.802038047656
 30
0.0
 10
65.49991591820772
 20
112.6872629953344
 30
0.0
 10
65.38751652312477
 20
112.5969065531082
 30
0.0
 10
65.24075577905808
 20
112.535200331171
 30
0.0
 10
65.09481636692895
 20
112.4738394419804
 30
0.0
 10
64.9288891979163
 20
112.4401393946733
 30
0.0
 10
64.4569199868836
 20
112.4401393946733
 30
0.0
 10
64.22510472068733
 20
112.5018456166104
 30
0.0
 10
64.04498926206001
 20
112.6269257962127
 30
0.0
 10
63.86565514760509
 20
112.7514633756953
 30
0.0
 10
63.774816074119
 20
112.9738148276431
 30
0.0
 10
63.77314833839098
 20
113.2956878231531
 30
0.0
  0
LINE
  5
A5
330
1F
100
AcDbEntity
  8
0012865
  6
Continuous
 62
     7
100
AcDbLine
 10
63.7731483384
 20
113.2956878232
 30
0.0
 11
64.1016922768
 21
113.3257070663
 31
0.0
  0
SPLINE
  5
A6
330
1F
100
AcDbEntity
  8
0012865
  6
Continuous
 62
     7
100
AcDbSpline
210
0.0
220
0.0
230
1.0
 70
     8
 71
     3
 72
    53
 73
    49
 74
     0
 42
0.0000000015555073
 43
0.0000000001
 12
1.0
 22
0.0
 32
0.0
 13
1.0
 23
0.0
 33
0.0
 40
0.0
 40
0.0
 40
0.0
 40
0.0
 40
0.0139279295162094
 40
0.0139279295162094
 40
0.0139279295162094
 40
0.0577976464619988
 40
0.0577976464619988
 40
0.0577976464619988
 40
0.103929277082425
 40
0.103929277082425
 40
0.103929277082425
 40
0.1600699665979061
 40
0.1600699665979061
 40
0.2399878893199438
 40
0.2399878893199438
 40
0.2399878893199438
 40
0.3145741291728388
 40
0.3145741291728388
 40
0.3661263831888102
 40
0.3661263831888102
 40
0.4176786372047809
 40
0.4176786372047809
 40
0.4176786372047809
 40
0.4884441251585013
 40
0.4884441251585013
 40
0.4884441251585013
 40
0.5436731416407822
 40
0.5436731416407822
 40
0.5436731416407822
 40
0.5942702858438731
 40
0.5942702858438731
 40
0.6515641108973732
 40
0.6515641108973732
 40
0.6515641108973732
 40
0.7140850984472994
 40
0.7140850984472994
 40
0.7140850984472994
 40
0.7862250893864359
 40
0.7862250893864359
 40
0.8716724572949268
 40
0.8716724572949268
 40
0.8716724572949268
 40
0.9374079905604934
 40
0.9374079905604934
 40
0.9374079905604934
 40
0.9945572165704774
 40
0.9945572165704774
 40
1.0
 40
1.0
 40
1.0
 40
1.0
 10
64.10169227681303
 20
113.3257070662576
 30
0.0
 10
64.10058045299435
 20
113.2962437350624
 30
0.0
 10
64.09946862917568
 20
113.2667804038672
 30
0.0
 10
64.09835680535697
 20
113.237317072672
 30
0.0
 10
64.0947118571679
 20
113.1407259456609
 30
0.0
 10
64.12003736982139
 20
113.0505306711325
 30
0.0
 10
64.1650662344782
 20
112.9704793561871
 30
0.0
 10
64.20969424870785
 20
112.8911406642233
 30
0.0
 10
64.28347547116839
 20
112.8287218193044
 30
0.0
 10
64.38520735057828
 20
112.7853606903756
 30
0.0
 10
64.48895211911906
 20
112.7411416087025
 30
0.0
 10
64.61035167386243
 20
112.7186512612544
 30
0.0
 10
64.95390523383679
 20
112.7186512612544
 30
0.0
 10
65.10733692081561
 20
112.7620123901832
 30
0.0
 10
65.21240427168154
 20
112.8504023837688
 30
0.0
 10
65.31844820016694
 20
112.9396139426534
 30
0.0
 10
65.37083916584446
 20
113.0405242567643
 30
0.0
 10
65.37083916584446
 20
113.2323138654879
 30
0.0
 10
65.34415539419597
 20
113.3040265017932
 30
0.0
 10
65.2307493646899
 20
113.4341098885796
 30
0.0
 10
65.07564994198303
 20
113.5208321464372
 30
0.0
 10
64.82048637559431
 20
113.6309027044873
 30
0.0
 10
64.62363409423122
 20
113.7158193748792
 30
0.0
 10
64.48860696571617
 20
113.78099892001
 30
0.0
 10
64.41689432941087
 20
113.8276955203949
 30
0.0
 10
64.30370112147887
 20
113.9014027255599
 30
0.0
 10
64.22010151350324
 20
113.9827949431018
 30
0.0
 10
64.16673397020625
 20
114.0695172009593
 30
0.0
 10
64.11262202984611
 20
114.1574491040446
 30
0.0
 10
64.08668265526077
 20
114.2563036024988
 30
0.0
 10
64.08668265526077
 20
114.4981252830633
 30
0.0
 10
64.12170510554941
 20
114.6148667840254
 30
0.0
 10
64.19341774185474
 20
114.7182663991633
 30
0.0
 10
64.26536971420255
 20
114.8220111034788
 30
0.0
 10
64.36686225756993
 20
114.9017173292467
 30
0.0
 10
64.50361658726847
 20
114.9567526082717
 30
0.0
 10
64.6389356353805
 20
115.0112102739754
 30
0.0
 10
64.79213486821777
 20
115.0401393946733
 30
0.0
 10
65.16737540702472
 20
115.0401393946733
 30
0.0
 10
65.33915218701189
 20
115.0051169443846
 30
0.0
 10
65.47924198816649
 20
114.9367397795354
 30
0.0
 10
65.61998918680845
 20
114.868041742103
 30
0.0
 10
65.72106366873093
 20
114.7749694139164
 30
0.0
 10
65.7844376263961
 20
114.6615633844103
 30
0.0
 10
65.84852177343525
 20
114.5468864897087
 30
0.0
 10
65.87949856289386
 20
114.4380867968542
 30
0.0
 10
65.87949856289386
 20
114.32301303162
 30
0.0
 10
65.87949856289386
 20
114.3063356743397
 30
0.0
 10
65.87949856289386
 20
114.2813196384192
 30
0.0
  0
LINE
  5
A7
330
1F
100
AcDbEntity
  8
0012865
  6
Continuous
 62
     7
100
AcDbLine
 10
75.3128981738
 20
110.8457866941
 30
0.0
 11
75.4539408184
 21
111.3457866941
 31
0.0
  0
LINE
  5
A8
330
1F
100
AcDbEntity
  8
0012865
  6
Continuous
 62
     7
100
AcDbLine
 10
75.4539408184
 20
111.3457866941
 30
0.0
 11
62.8180824417
 21
111.3457866941
 31
0.0
  0
LINE
  5
A9
330
1F
100
AcDbEntity
  8
0012865
  6
Continuous
 62
     7
100
AcDbLine
 10
260.0044811736
 20
84.0829373652
 30
0.0
 11
50.0044811736
 21
84.0829373652
 31
0.0
  0
LINE
  5
AA
330
1F
100
AcDbEntity
  8
0012865
  6
Continuous
 62
     7
100
AcDbLine
 10
260.0044811736
 20
72.0829373652
 30
0.0
 11
50.0044811736
 21
72.0829373652
 31
0.0
  0
LINE
  5
AB
330
1F
100
AcDbEntity
  8
0012865
  6
Continuous
 62
     7
100
AcDbLine
 10
50.0044811736
 20
84.0829373652
 30
0.0
 11
50.0044811736
 21
72.0829373652
 31
0.0
  0
LINE
  5
AC
330
1F
100
AcDbEntity
  8
0012865
  6
Continuous
 62
     7
100
AcDbLine
 10
260.0044811736
 20
84.0829373652
 30
0.0
 11
260.0044811736
 21
72.0829373652
 31
0.0
  0
DIMENSION
  5
C2
330
1F
100
AcDbEntity
  8
Default
  6
Continuous
 62
     7
100
AcDbDimension
  2
DMBLK37
 10
50.0044811736
 20
150.6122967182
 30
0.0
 11
155.0044778954
 21
150.6122967182
 31
0.0
 70
   161
  1
\A1;<>
 71
     5
 42
-1.0
  3
DIN
100
AcDbAlignedDimension
 13
50.0044811736
 23
137.1107866941
 33
0.0
 14
260.0044811736
 24
137.1107866941
 34
0.0
  0
DIMENSION
  5
CC
330
1F
100
AcDbEntity
  8
Default
  6
Continuous
 62
     7
100
AcDbDimension
  2
DMBLK38
 10
39.7843949716
 20
137.1107866941
 30
0.0
 11
39.7843949716
 21
122.1107870294
 31
0.0
 70
   161
  1
\A1;<>
 71
     5
 42
-1.0
  3
DIN
100
AcDbAlignedDimension
 13
50.0044811736
 23
137.1107866941
 33
0.0
 14
50.0044811736
 24
107.1107866941
 34
0.0
  0
DIMENSION
  5
D6
330
1F
100
AcDbEntity
  8
Default
  6
Continuous
 62
     7
100
AcDbDimension
  2
DMBLK39
 10
40.0119794752
 20
84.0829373652
 30
0.0
 11
40.0119794752
 21
78.0829373131
 31
0.0
 70
   161
  1
\A1;<>
 71
     5
 42
-1.0
  3
DIN
100
AcDbAlignedDimension
 13
50.0044811736
 23
84.0829373652
 33
0.0
 14
50.0044811736
 24
72.0829373652
 34
0.0
  0
INSERT
  5
1BA
330
1F
100
AcDbEntity
  8
Default
 62
     7
100
AcDbBlockReference
  2
RF-Massblatt_ZR
 10
0.0
 20
0.0
 30
0.0
  0
ENDSEC
  0
SECTION
  2
OBJECTS
  0
DICTIONARY
  5
C
330
0
100
AcDbDictionary
281
     1
  3
ACAD_GROUP
350
D
  3
ACAD_LAYOUT
350
1A
  3
ACAD_MATERIAL
350
3B
  3
ACAD_MLEADERSTYLE
350
1BD
  3
ACAD_MLINESTYLE
350
17
  3
ACAD_PLOTSETTINGS
350
19
  3
ACAD_PLOTSTYLENAME
350
E
  3
ACAD_VISUALSTYLE
350
2A
  3
AcDbVariableDictionary
350
1BB
  0
DICTIONARY
  5
D
102
{ACAD_REACTORS
330
C
102
}
330
C
100
AcDbDictionary
281
     1
  0
DICTIONARY
  5
1A
102
{ACAD_REACTORS
330
C
102
}
330
C
100
AcDbDictionary
281
     1
  3
Layout1
350
1E
  3
Model
350
22
  0
DICTIONARY
  5
3B
102
{ACAD_REACTORS
330
C
102
}
330
C
100
AcDbDictionary
281
     1
  3
ByBlock
350
3D
  3
ByLayer
350
3C
  3
Global
350
3E
  0
DICTIONARY
  5
1BD
102
{ACAD_REACTORS
330
C
102
}
330
C
100
AcDbDictionary
281
     1
  0
DICTIONARY
  5
17
102
{ACAD_REACTORS
330
C
102
}
330
C
100
AcDbDictionary
281
     1
  3
Standard
350
18
  0
DICTIONARY
  5
19
102
{ACAD_REACTORS
330
C
102
}
330
C
100
AcDbDictionary
281
     1
  0
ACDBDICTIONARYWDFLT
  5
E
102
{ACAD_REACTORS
330
C
102
}
330
C
100
AcDbDictionary
281
     1
  3
Normal
350
F
100
AcDbDictionaryWithDefault
340
F
  0
DICTIONARY
  5
2A
102
{ACAD_REACTORS
330
C
102
}
330
C
100
AcDbDictionary
281
     1
  3
2dWireframe
350
2F
  3
3D Hidden
350
31
  3
3dWireframe
350
30
  3
Basic
350
32
  3
Brighten
350
36
  3
ColorChange
350
3A
  3
Conceptual
350
34
  3
Dim
350
35
  3
Facepattern
350
39
  3
Flat
350
2B
  3
FlatWithEdges
350
2C
  3
Gouraud
350
2D
  3
GouraudWithEdges
350
2E
  3
Linepattern
350
38
  3
Realistic
350
33
  3
Thicken
350
37
  0
DICTIONARY
  5
1BB
102
{ACAD_REACTORS
330
C
102
}
330
C
100
AcDbDictionary
281
     1
  3
DIMASSOC
350
1C0
  3
HIDETEXT
350
1C1
  3
PSOLHEIGHT
350
1BF
  3
PSOLWIDTH
350
1BE
  0
LAYOUT
  5
1E
102
{ACAD_REACTORS
330
1A
102
}
330
1A
100
AcDbPlotSettings
  1

  2
none_device
  4

  6

 40
0.0
 41
0.0
 42
0.0
 43
0.0
 44
0.0
 45
0.0
 46
0.0
 47
0.0
 48
0.0
 49
0.0
140
0.0
141
0.0
142
1.0
143
1.0
 70
   688
 72
     0
 73
     0
 74
     5
  7

 75
    16
147
1.0
148
0.0
149
0.0
100
AcDbLayout
  1
Layout1
 70
     1
 71
     1
 10
0.0
 20
0.0
 11
297.0
 21
210.0
 12
0.0
 22
0.0
 32
0.0
 14
0.0
 24
0.0
 34
0.0
 15
297.0
 25
210.0
 35
0.0
146
0.0
 13
0.0
 23
0.0
 33
0.0
 16
1.0
 26
0.0
 36
0.0
 17
0.0
 27
1.0
 37
0.0
 76
     0
330
1B
  0
LAYOUT
  5
22
102
{ACAD_REACTORS
330
1A
102
}
330
1A
100
AcDbPlotSettings
  1

  2
none_device
  4

  6

 40
0.0
 41
0.0
 42
0.0
 43
0.0
 44
0.0
 45
0.0
 46
0.0
 47
0.0
 48
0.0
 49
0.0
140
0.0
141
0.0
142
1.0
143
1.0
 70
  1712
 72
     0
 73
     0
 74
     0
  7

 75
     0
147
1.0
148
0.0
149
0.0
100
AcDbLayout
  1
Model
 70
     1
 71
     0
 10
0.0
 20
0.0
 11
297.0
 21
210.0
 12
0.0
 22
0.0
 32
0.0
 14
0.0
 24
0.0
 34
0.0
 15
297.0
 25
210.0
 35
0.0
146
0.0
 13
0.0
 23
0.0
 33
0.0
 16
1.0
 26
0.0
 36
0.0
 17
0.0
 27
1.0
 37
0.0
 76
     0
330
1F
331
29
  0
MATERIAL
  5
3D
102
{ACAD_REACTORS
330
3B
102
}
102
{ACAD_XDICTIONARY
360
1E4
102
}
330
3B
100
AcDbMaterial
  1
ByBlock
  0
MATERIAL
  5
3C
102
{ACAD_REACTORS
330
3B
102
}
102
{ACAD_XDICTIONARY
360
1E2
102
}
330
3B
100
AcDbMaterial
  1
ByLayer
  0
MATERIAL
  5
3E
102
{ACAD_REACTORS
330
3B
102
}
102
{ACAD_XDICTIONARY
360
1E6
102
}
330
3B
100
AcDbMaterial
  1
Global
  0
MLINESTYLE
  5
18
102
{ACAD_REACTORS
330
17
102
}
330
17
100
AcDbMlineStyle
  2
Standard
 70
     0
  3

 62
   256
 51
90.0
 52
90.0
 71
     2
 49
0.5
 62
   256
  6
BYLAYER
 49
-0.5
 62
   256
  6
BYLAYER
  0
ACDBPLACEHOLDER
  5
F
102
{ACAD_REACTORS
330
E
102
}
330
E
  0
VISUALSTYLE
  5
2F
102
{ACAD_REACTORS
330
2A
102
}
102
{ACAD_XDICTIONARY
360
1CA
102
}
330
2A
100
AcDbVisualStyle
  2
2dWireframe
 70
     4
 71
     0
 72
     2
 73
     0
 90
        0
 40
-0.6
 41
-30.0
 62
     5
 63
     7
 74
     1
 91
        4
 64
     7
 65
   257
 75
     1
175
     1
 42
1.0
 92
        0
 66
   257
 43
1.0
 76
     1
 77
     6
 78
     2
 67
     7
 79
     5
170
     0
171
     0
290
     0
174
     0
 93
        1
 44
0.0
173
     0
291
     0
 45
0.0
1001
ACAD
1000
AcDbSavedByObjectVersion
1070
     0
  0
VISUALSTYLE
  5
31
102
{ACAD_REACTORS
330
2A
102
}
102
{ACAD_XDICTIONARY
360
1CE
102
}
330
2A
100
AcDbVisualStyle
  2
3D Hidden
 70
     6
 71
     1
 72
     2
 73
     2
 90
        0
 40
-0.6
 41
-30.0
 62
     5
 63
     7
 74
     2
 91
        2
 64
     7
 65
   257
 75
     2
175
     1
 42
40.0
 92
        0
 66
   257
 43
1.0
 76
     1
 77
     6
 78
     2
 67
     7
 79
     3
170
     0
171
     0
290
     0
174
     0
 93
        1
 44
0.0
173
     0
291
     0
 45
0.0
1001
ACAD
1000
AcDbSavedByObjectVersion
1070
     0
  0
VISUALSTYLE
  5
30
102
{ACAD_REACTORS
330
2A
102
}
102
{ACAD_XDICTIONARY
360
1CC
102
}
330
2A
100
AcDbVisualStyle
  2
3dWireframe
 70
     5
 71
     0
 72
     2
 73
     0
 90
        0
 40
-0.6
 41
-30.0
 62
     5
 63
     7
 74
     1
 91
        4
 64
     7
 65
   257
 75
     1
175
     1
 42
1.0
 92
        0
 66
   257
 43
1.0
 76
     1
 77
     6
 78
     2
 67
     7
 79
     5
170
     0
171
     0
290
     0
174
     0
 93
        1
 44
0.0
173
     0
291
     0
 45
0.0
1001
ACAD
1000
AcDbSavedByObjectVersion
1070
     0
  0
VISUALSTYLE
  5
32
102
{ACAD_REACTORS
330
2A
102
}
102
{ACAD_XDICTIONARY
360
1D0
102
}
330
2A
100
AcDbVisualStyle
  2
Basic
 70
     7
 71
     1
 72
     0
 73
     1
 90
        0
 40
-0.6
 41
-30.0
 62
     5
 63
     7
 74
     0
 91
        4
 64
     7
 65
   257
 75
     1
175
     1
 42
1.0
 92
        8
 66
     7
 43
1.0
 76
     1
 77
     6
 78
     2
 67
     7
 79
     5
170
     0
171
     0
290
     0
174
     0
 93
        1
 44
0.0
173
     0
291
     1
 45
0.0
1001
ACAD
1000
AcDbSavedByObjectVersion
1070
     0
  0
VISUALSTYLE
  5
36
102
{ACAD_REACTORS
330
2A
102
}
102
{ACAD_XDICTIONARY
360
1D8
102
}
330
2A
100
AcDbVisualStyle
  2
Brighten
 70
    12
 71
     2
 72
     2
 73
     0
 90
        0
 40
-0.6
 41
-30.0
 62
     5
 63
     7
 74
     1
 91
        4
 64
     7
 65
   257
 75
     1
175
     1
 42
1.0
 92
        8
 66
     7
 43
1.0
 76
     1
 77
     6
 78
     2
 67
     7
 79
     5
170
     0
171
     0
290
     0
174
     0
 93
        1
 44
50.0
173
     0
291
     1
 45
0.0
1001
ACAD
1000
AcDbSavedByObjectVersion
1070
     0
  0
VISUALSTYLE
  5
3A
102
{ACAD_REACTORS
330
2A
102
}
102
{ACAD_XDICTIONARY
360
1E0
102
}
330
2A
100
AcDbVisualStyle
  2
ColorChange
 70
    16
 71
     2
 72
     2
 73
     3
 90
        0
 40
-0.6
 41
-30.0
 62
     5
 63
     8
 74
     1
 91
        4
 64
     7
 65
   257
 75
     1
175
     1
 42
1.0
 92
        8
 66
     8
 43
1.0
 76
     1
 77
     6
 78
     2
 67
     7
 79
     5
170
     0
171
     0
290
     0
174
     0
 93
        1
 44
0.0
173
     0
291
     1
 45
0.0
1001
ACAD
1000
AcDbSavedByObjectVersion
1070
     0
  0
VISUALSTYLE
  5
34
102
{ACAD_REACTORS
330
2A
102
}
102
{ACAD_XDICTIONARY
360
1D4
102
}
330
2A
100
AcDbVisualStyle
  2
Conceptual
 70
     9
 71
     3
 72
     2
 73
     0
 90
        0
 40
-0.6
 41
-30.0
 62
     5
 63
     7
 74
     2
 91
        2
 64
     7
 65
   257
 75
     1
175
     1
 42
40.0
 92
        8
 66
     7
 43
1.0
 76
     1
 77
     6
 78
     2
 67
     7
 79
     3
170
     0
171
     0
290
     0
174
     0
 93
        1
 44
0.0
173
     0
291
     0
 45
0.0
1001
ACAD
1000
AcDbSavedByObjectVersion
1070
     0
  0
VISUALSTYLE
  5
35
102
{ACAD_REACTORS
330
2A
102
}
102
{ACAD_XDICTIONARY
360
1D6
102
}
330
2A
100
AcDbVisualStyle
  2
Dim
 70
    11
 71
     2
 72
     2
 73
     0
 90
        0
 40
-0.6
 41
-30.0
 62
     5
 63
     7
 74
     1
 91
        4
 64
     7
 65
   257
 75
     1
175
     1
 42
1.0
 92
        8
 66
     7
 43
1.0
 76
     1
 77
     6
 78
     2
 67
     7
 79
     5
170
     0
171
     0
290
     0
174
     0
 93
        1
 44
-50.0
173
     0
291
     1
 45
0.0
1001
ACAD
1000
AcDbSavedByObjectVersion
1070
     0
  0
VISUALSTYLE
  5
39
102
{ACAD_REACTORS
330
2A
102
}
102
{ACAD_XDICTIONARY
360
1DE
102
}
330
2A
100
AcDbVisualStyle
  2
Facepattern
 70
    15
 71
     2
 72
     2
 73
     0
 90
        0
 40
-0.6
 41
-30.0
 62
     5
 63
     7
 74
     1
 91
        4
 64
     7
 65
   257
 75
     1
175
     1
 42
1.0
 92
        8
 66
     7
 43
1.0
 76
     1
 77
     6
 78
     2
 67
     7
 79
     5
170
     0
171
     0
290
     0
174
     0
 93
        1
 44
0.0
173
     0
291
     1
 45
0.0
1001
ACAD
1000
AcDbSavedByObjectVersion
1070
     0
  0
VISUALSTYLE
  5
2B
102
{ACAD_REACTORS
330
2A
102
}
102
{ACAD_XDICTIONARY
360
1C2
102
}
330
2A
100
AcDbVisualStyle
  2
Flat
 70
     0
 71
     2
 72
     1
 73
     1
 90
        2
 40
-0.6
 41
30.0
 62
     5
 63
     7
 74
     0
 91
        4
 64
     7
 65
   257
 75
     1
175
     1
 42
1.0
 92
        8
 66
     7
 43
1.0
 76
     1
 77
     6
 78
     2
 67
     7
 79
     5
170
     0
171
     0
290
     0
174
     0
 93
       13
 44
0.0
173
     0
291
     1
 45
0.0
1001
ACAD
1000
AcDbSavedByObjectVersion
1070
     0
  0
VISUALSTYLE
  5
2C
102
{ACAD_REACTORS
330
2A
102
}
102
{ACAD_XDICTIONARY
360
1C4
102
}
330
2A
100
AcDbVisualStyle
  2
FlatWithEdges
 70
     1
 71
     2
 72
     1
 73
     1
 90
        2
 40
-0.6
 41
30.0
 62
     5
 63
     7
 74
     1
 91
        4
 64
     7
 65
   257
 75
     1
175
     1
 42
1.0
 92
        0
 66
   257
 43
1.0
 76
     1
 77
     6
 78
     2
 67
     7
 79
     5
170
     0
171
     0
290
     0
174
     0
 93
       13
 44
0.0
173
     0
291
     1
 45
0.0
1001
ACAD
1000
AcDbSavedByObjectVersion
1070
     0
  0
VISUALSTYLE
  5
2D
102
{ACAD_REACTORS
330
2A
102
}
102
{ACAD_XDICTIONARY
360
1C6
102
}
330
2A
100
AcDbVisualStyle
  2
Gouraud
 70
     2
 71
     2
 72
     2
 73
     1
 90
        2
 40
-0.6
 41
30.0
 62
     5
 63
     7
 74
     0
 91
        4
 64
     7
 65
   257
 75
     1
175
     1
 42
1.0
 92
        0
 66
     7
 43
1.0
 76
     1
 77
     6
 78
     2
 67
     7
 79
     5
170
     0
171
     0
290
     0
174
     0
 93
       13
 44
0.0
173
     0
291
     1
 45
0.0
1001
ACAD
1000
AcDbSavedByObjectVersion
1070
     0
  0
VISUALSTYLE
  5
2E
102
{ACAD_REACTORS
330
2A
102
}
102
{ACAD_XDICTIONARY
360
1C8
102
}
330
2A
100
AcDbVisualStyle
  2
GouraudWithEdges
 70
     3
 71
     2
 72
     2
 73
     1
 90
        2
 40
-0.6
 41
30.0
 62
     5
 63
     7
 74
     1
 91
        4
 64
     7
 65
   257
 75
     1
175
     1
 42
1.0
 92
        0
 66
   257
 43
1.0
 76
     1
 77
     6
 78
     2
 67
     7
 79
     5
170
     0
171
     0
290
     0
174
     0
 93
       13
 44
0.0
173
     0
291
     1
 45
0.0
1001
ACAD
1000
AcDbSavedByObjectVersion
1070
     0
  0
VISUALSTYLE
  5
38
102
{ACAD_REACTORS
330
2A
102
}
102
{ACAD_XDICTIONARY
360
1DC
102
}
330
2A
100
AcDbVisualStyle
  2
Linepattern
 70
    14
 71
     2
 72
     2
 73
     0
 90
        0
 40
-0.6
 41
-30.0
 62
     5
 63
     7
 74
     1
 91
        4
 64
     7
 65
   257
 75
     7
175
     7
 42
1.0
 92
        8
 66
     7
 43
1.0
 76
     1
 77
     6
 78
     2
 67
     7
 79
     5
170
     0
171
     0
290
     0
174
     0
 93
        1
 44
0.0
173
     0
291
     1
 45
0.0
1001
ACAD
1000
AcDbSavedByObjectVersion
1070
     0
  0
VISUALSTYLE
  5
33
102
{ACAD_REACTORS
330
2A
102
}
102
{ACAD_XDICTIONARY
360
1D2
102
}
330
2A
100
AcDbVisualStyle
  2
Realistic
 70
     8
 71
     2
 72
     2
 73
     0
 90
        0
 40
-0.6
 41
-30.0
 62
     5
 63
     7
 74
     1
 91
        0
 64
     7
 65
   257
 75
     1
175
     1
 42
1.0
 92
        8
 66
     8
 43
1.0
 76
     1
 77
     6
 78
     2
 67
     7
 79
     5
170
     0
171
     0
290
     0
174
     0
 93
       13
 44
0.0
173
     0
291
     0
 45
0.0
1001
ACAD
1000
AcDbSavedByObjectVersion
1070
     0
  0
VISUALSTYLE
  5
37
102
{ACAD_REACTORS
330
2A
102
}
102
{ACAD_XDICTIONARY
360
1DA
102
}
330
2A
100
AcDbVisualStyle
  2
Thicken
 70
    13
 71
     2
 72
     2
 73
     0
 90
        0
 40
-0.6
 41
-30.0
 62
     5
 63
     7
 74
     1
 91
        4
 64
     7
 65
   257
 75
     1
175
     1
 42
1.0
 92
       12
 66
     7
 43
1.0
 76
     1
 77
     6
 78
     2
 67
     7
 79
     5
170
     0
171
     0
290
     0
174
     0
 93
        1
 44
0.0
173
     0
291
     1
 45
0.0
1001
ACAD
1000
AcDbSavedByObjectVersion
1070
     0
  0
DICTIONARYVAR
  5
1C0
102
{ACAD_REACTORS
330
1BB
102
}
330
1BB
100
DictionaryVariables
280
     0
  1
2
  0
DICTIONARYVAR
  5
1C1
102
{ACAD_REACTORS
330
1BB
102
}
330
1BB
100
DictionaryVariables
280
     0
  1
1
  0
DICTIONARYVAR
  5
1BF
102
{ACAD_REACTORS
330
1BB
102
}
330
1BB
100
DictionaryVariables
280
     0
  1
80.000000
  0
DICTIONARYVAR
  5
1BE
102
{ACAD_REACTORS
330
1BB
102
}
330
1BB
100
DictionaryVariables
280
     0
  1
5.000000
  0
DICTIONARY
  5
1E4
330
3D
100
AcDbDictionary
280
     1
281
     1
  3
ACAD_XREC_ROUNDTRIP
360
1E5
  0
DICTIONARY
  5
1E2
330
3C
100
AcDbDictionary
280
     1
281
     1
  3
ACAD_XREC_ROUNDTRIP
360
1E3
  0
DICTIONARY
  5
1E6
330
3E
100
AcDbDictionary
280
     1
281
     1
  3
ACAD_XREC_ROUNDTRIP
360
1E7
  0
DICTIONARY
  5
1CA
330
2F
100
AcDbDictionary
280
     1
281
     1
  3
ACAD_XREC_ROUNDTRIP
360
1CB
  0
DICTIONARY
  5
1CE
330
31
100
AcDbDictionary
280
     1
281
     1
  3
ACAD_XREC_ROUNDTRIP
360
1CF
  0
DICTIONARY
  5
1CC
330
30
100
AcDbDictionary
280
     1
281
     1
  3
ACAD_XREC_ROUNDTRIP
360
1CD
  0
DICTIONARY
  5
1D0
330
32
100
AcDbDictionary
280
     1
281
     1
  3
ACAD_XREC_ROUNDTRIP
360
1D1
  0
DICTIONARY
  5
1D8
330
36
100
AcDbDictionary
280
     1
281
     1
  3
ACAD_XREC_ROUNDTRIP
360
1D9
  0
DICTIONARY
  5
1E0
330
3A
100
AcDbDictionary
280
     1
281
     1
  3
ACAD_XREC_ROUNDTRIP
360
1E1
  0
DICTIONARY
  5
1D4
330
34
100
AcDbDictionary
280
     1
281
     1
  3
ACAD_XREC_ROUNDTRIP
360
1D5
  0
DICTIONARY
  5
1D6
330
35
100
AcDbDictionary
280
     1
281
     1
  3
ACAD_XREC_ROUNDTRIP
360
1D7
  0
DICTIONARY
  5
1DE
330
39
100
AcDbDictionary
280
     1
281
     1
  3
ACAD_XREC_ROUNDTRIP
360
1DF
  0
DICTIONARY
  5
1C2
330
2B
100
AcDbDictionary
280
     1
281
     1
  3
ACAD_XREC_ROUNDTRIP
360
1C3
  0
DICTIONARY
  5
1C4
330
2C
100
AcDbDictionary
280
     1
281
     1
  3
ACAD_XREC_ROUNDTRIP
360
1C5
  0
DICTIONARY
  5
1C6
330
2D
100
AcDbDictionary
280
     1
281
     1
  3
ACAD_XREC_ROUNDTRIP
360
1C7
  0
DICTIONARY
  5
1C8
330
2E
100
AcDbDictionary
280
     1
281
     1
  3
ACAD_XREC_ROUNDTRIP
360
1C9
  0
DICTIONARY
  5
1DC
330
38
100
AcDbDictionary
280
     1
281
     1
  3
ACAD_XREC_ROUNDTRIP
360
1DD
  0
DICTIONARY
  5
1D2
330
33
100
AcDbDictionary
280
     1
281
     1
  3
ACAD_XREC_ROUNDTRIP
360
1D3
  0
DICTIONARY
  5
1DA
330
37
100
AcDbDictionary
280
     1
281
     1
  3
ACAD_XREC_ROUNDTRIP
360
1DB
  0
XRECORD
  5
1E5
102
{ACAD_REACTORS
330
1E4
102
}
330
1E4
100
AcDbXrecord
280
     1
102
MATERIAL
148
0.0
149
0.0
149
0.0
 93
        0
 94
      127
282
     0
 72
     1
 77
     1
171
     1
175
     1
179
     1
273
     0
  0
XRECORD
  5
1E3
102
{ACAD_REACTORS
330
1E2
102
}
330
1E2
100
AcDbXrecord
280
     1
102
MATERIAL
148
0.0
149
0.0
149
0.0
 93
        0
 94
      127
282
     0
 72
     1
 77
     1
171
     1
175
     1
179
     1
273
     0
  0
XRECORD
  5
1E7
102
{ACAD_REACTORS
330
1E6
102
}
330
1E6
100
AcDbXrecord
280
     1
102
MATERIAL
148
0.0
149
0.0
149
0.0
 93
        0
 94
      127
282
     0
 72
     1
 77
     1
171
     1
175
     1
179
     1
273
     0
  0
XRECORD
  5
1CB
102
{ACAD_REACTORS
330
1CA
102
}
330
1CA
100
AcDbXrecord
280
     1
102
RTVSPropertyOp0
 70
     1
102
RTVSPropertyOp1
 70
     1
102
RTVSPropertyOp2
 70
     1
102
RTVSPropertyOp3
 70
     1
102
RTVSPropertyOp4
 70
     1
102
RTVSPropertyOp5
 70
     1
102
RTVSPropertyOp6
 70
     1
102
RTVSPropertyOp7
 70
     1
102
RTVSPropertyOp8
 70
     1
102
RTVSPropertyOp9
 70
     1
102
RTVSPropertyOp10
 70
     1
102
RTVSPropertyOp11
 70
     1
102
RTVSPropertyOp12
 70
     1
102
RTVSPropertyOp13
 70
     1
102
RTVSPropertyOp14
 70
     1
102
RTVSPropertyOp15
 70
     1
102
RTVSPropertyOp16
 70
     1
102
RTVSPropertyOp17
 70
     1
102
RTVSPropertyOp18
 70
     1
102
RTVSPropertyOp19
 70
     1
102
RTVSPropertyOp20
 70
     1
102
RTVSPropertyOp21
 70
     1
102
RTVSPropertyOp22
 70
     1
102
RTVSPropertyOp23
 70
     1
102
RTVSPropertyOp24
 70
     1
102
RTVSPropertyOp25
 70
     1
102
RTVSPropertyOp26
 70
     1
102
RTVSPropertyOp27
 70
     1
102
RTVSPropertyOp28
 70
     1
102
RTVSPropertyOp29
 70
     1
102
RTVSPropertyOp30
 70
     1
102
RTVSPropertyOp31
 70
     1
102
RTVSPropertyOp32
 70
     1
  0
XRECORD
  5
1CF
102
{ACAD_REACTORS
330
1CE
102
}
330
1CE
100
AcDbXrecord
280
     1
102
RTVSPropertyOp0
 70
     1
102
RTVSPropertyOp1
 70
     1
102
RTVSPropertyOp2
 70
     1
102
RTVSPropertyOp3
 70
     1
102
RTVSPropertyOp4
 70
     1
102
RTVSPropertyOp5
 70
     1
102
RTVSPropertyOp6
 70
     1
102
RTVSPropertyOp7
 70
     1
102
RTVSPropertyOp8
 70
     1
102
RTVSPropertyOp9
 70
     1
102
RTVSPropertyOp10
 70
     1
102
RTVSPropertyOp11
 70
     1
102
RTVSPropertyOp12
 70
     1
102
RTVSPropertyOp13
 70
     1
102
RTVSPropertyOp14
 70
     1
102
RTVSPropertyOp15
 70
     1
102
RTVSPropertyOp16
 70
     1
102
RTVSPropertyOp17
 70
     1
102
RTVSPropertyOp18
 70
     1
102
RTVSPropertyOp19
 70
     1
102
RTVSPropertyOp20
 70
     1
102
RTVSPropertyOp21
 70
     1
102
RTVSPropertyOp22
 70
     1
102
RTVSPropertyOp23
 70
     1
102
RTVSPropertyOp24
 70
     1
102
RTVSPropertyOp25
 70
     1
102
RTVSPropertyOp26
 70
     1
102
RTVSPropertyOp27
 70
     1
102
RTVSPropertyOp28
 70
     1
102
RTVSPropertyOp29
 70
     1
102
RTVSPropertyOp30
 70
     1
102
RTVSPropertyOp31
 70
     1
102
RTVSPropertyOp32
 70
     1
  0
XRECORD
  5
1CD
102
{ACAD_REACTORS
330
1CC
102
}
330
1CC
100
AcDbXrecord
280
     1
102
RTVSPropertyOp0
 70
     1
102
RTVSPropertyOp1
 70
     1
102
RTVSPropertyOp2
 70
     1
102
RTVSPropertyOp3
 70
     1
102
RTVSPropertyOp4
 70
     1
102
RTVSPropertyOp5
 70
     1
102
RTVSPropertyOp6
 70
     1
102
RTVSPropertyOp7
 70
     1
102
RTVSPropertyOp8
 70
     1
102
RTVSPropertyOp9
 70
     1
102
RTVSPropertyOp10
 70
     1
102
RTVSPropertyOp11
 70
     1
102
RTVSPropertyOp12
 70
     1
102
RTVSPropertyOp13
 70
     1
102
RTVSPropertyOp14
 70
     1
102
RTVSPropertyOp15
 70
     1
102
RTVSPropertyOp16
 70
     1
102
RTVSPropertyOp17
 70
     1
102
RTVSPropertyOp18
 70
     1
102
RTVSPropertyOp19
 70
     1
102
RTVSPropertyOp20
 70
     1
102
RTVSPropertyOp21
 70
     1
102
RTVSPropertyOp22
 70
     1
102
RTVSPropertyOp23
 70
     1
102
RTVSPropertyOp24
 70
     1
102
RTVSPropertyOp25
 70
     1
102
RTVSPropertyOp26
 70
     1
102
RTVSPropertyOp27
 70
     1
102
RTVSPropertyOp28
 70
     1
102
RTVSPropertyOp29
 70
     1
102
RTVSPropertyOp30
 70
     1
102
RTVSPropertyOp31
 70
     1
102
RTVSPropertyOp32
 70
     1
  0
XRECORD
  5
1D1
102
{ACAD_REACTORS
330
1D0
102
}
330
1D0
100
AcDbXrecord
280
     1
102
RTVSPropertyOp0
 70
     1
102
RTVSPropertyOp1
 70
     1
102
RTVSPropertyOp2
 70
     1
102
RTVSPropertyOp3
 70
     1
102
RTVSPropertyOp4
 70
     1
102
RTVSPropertyOp5
 70
     1
102
RTVSPropertyOp6
 70
     1
102
RTVSPropertyOp7
 70
     1
102
RTVSPropertyOp8
 70
     1
102
RTVSPropertyOp9
 70
     1
102
RTVSPropertyOp10
 70
     1
102
RTVSPropertyOp11
 70
     1
102
RTVSPropertyOp12
 70
     1
102
RTVSPropertyOp13
 70
     1
102
RTVSPropertyOp14
 70
     1
102
RTVSPropertyOp15
 70
     1
102
RTVSPropertyOp16
 70
     1
102
RTVSPropertyOp17
 70
     1
102
RTVSPropertyOp18
 70
     1
102
RTVSPropertyOp19
 70
     1
102
RTVSPropertyOp20
 70
     1
102
RTVSPropertyOp21
 70
     1
102
RTVSPropertyOp22
 70
     1
102
RTVSPropertyOp23
 70
     1
102
RTVSPropertyOp24
 70
     1
102
RTVSPropertyOp25
 70
     1
102
RTVSPropertyOp26
 70
     1
102
RTVSPropertyOp27
 70
     1
102
RTVSPropertyOp28
 70
     1
102
RTVSPropertyOp29
 70
     1
102
RTVSPropertyOp30
 70
     1
102
RTVSPropertyOp31
 70
     1
102
RTVSPropertyOp32
 70
     1
  0
XRECORD
  5
1D9
102
{ACAD_REACTORS
330
1D8
102
}
330
1D8
100
AcDbXrecord
280
     1
102
RTVSPropertyOp0
 70
     1
102
RTVSPropertyOp1
 70
     1
102
RTVSPropertyOp2
 70
     1
102
RTVSPropertyOp3
 70
     1
102
RTVSPropertyOp4
 70
     1
102
RTVSPropertyOp5
 70
     1
102
RTVSPropertyOp6
 70
     1
102
RTVSPropertyOp7
 70
     1
102
RTVSPropertyOp8
 70
     1
102
RTVSPropertyOp9
 70
     1
102
RTVSPropertyOp10
 70
     1
102
RTVSPropertyOp11
 70
     1
102
RTVSPropertyOp12
 70
     1
102
RTVSPropertyOp13
 70
     1
102
RTVSPropertyOp14
 70
     1
102
RTVSPropertyOp15
 70
     1
102
RTVSPropertyOp16
 70
     1
102
RTVSPropertyOp17
 70
     1
102
RTVSPropertyOp18
 70
     1
102
RTVSPropertyOp19
 70
     1
102
RTVSPropertyOp20
 70
     1
102
RTVSPropertyOp21
 70
     1
102
RTVSPropertyOp22
 70
     1
102
RTVSPropertyOp23
 70
     1
102
RTVSPropertyOp24
 70
     1
102
RTVSPropertyOp25
 70
     1
102
RTVSPropertyOp26
 70
     1
102
RTVSPropertyOp27
 70
     1
102
RTVSPropertyOp28
 70
     1
102
RTVSPropertyOp29
 70
     1
102
RTVSPropertyOp30
 70
     1
102
RTVSPropertyOp31
 70
     1
102
RTVSPropertyOp32
 70
     1
  0
XRECORD
  5
1E1
102
{ACAD_REACTORS
330
1E0
102
}
330
1E0
100
AcDbXrecord
280
     1
102
RTVSPropertyOp0
 70
     1
102
RTVSPropertyOp1
 70
     1
102
RTVSPropertyOp2
 70
     1
102
RTVSPropertyOp3
 70
     1
102
RTVSPropertyOp4
 70
     1
102
RTVSPropertyOp5
 70
     1
102
RTVSPropertyOp6
 70
     1
102
RTVSPropertyOp7
 70
     1
102
RTVSPropertyOp8
 70
     1
102
RTVSPropertyOp9
 70
     1
102
RTVSPropertyOp10
 70
     1
102
RTVSPropertyOp11
 70
     1
102
RTVSPropertyOp12
 70
     1
102
RTVSPropertyOp13
 70
     1
102
RTVSPropertyOp14
 70
     1
102
RTVSPropertyOp15
 70
     1
102
RTVSPropertyOp16
 70
     1
102
RTVSPropertyOp17
 70
     1
102
RTVSPropertyOp18
 70
     1
102
RTVSPropertyOp19
 70
     1
102
RTVSPropertyOp20
 70
     1
102
RTVSPropertyOp21
 70
     1
102
RTVSPropertyOp22
 70
     1
102
RTVSPropertyOp23
 70
     1
102
RTVSPropertyOp24
 70
     1
102
RTVSPropertyOp25
 70
     1
102
RTVSPropertyOp26
 70
     1
102
RTVSPropertyOp27
 70
     1
102
RTVSPropertyOp28
 70
     1
102
RTVSPropertyOp29
 70
     1
102
RTVSPropertyOp30
 70
     1
102
RTVSPropertyOp31
 70
     1
102
RTVSPropertyOp32
 70
     1
  0
XRECORD
  5
1D5
102
{ACAD_REACTORS
330
1D4
102
}
330
1D4
100
AcDbXrecord
280
     1
102
RTVSPropertyOp0
 70
     1
102
RTVSPropertyOp1
 70
     1
102
RTVSPropertyOp2
 70
     1
102
RTVSPropertyOp3
 70
     1
102
RTVSPropertyOp4
 70
     1
102
RTVSPropertyOp5
 70
     1
102
RTVSPropertyOp6
 70
     1
102
RTVSPropertyOp7
 70
     1
102
RTVSPropertyOp8
 70
     1
102
RTVSPropertyOp9
 70
     1
102
RTVSPropertyOp10
 70
     1
102
RTVSPropertyOp11
 70
     1
102
RTVSPropertyOp12
 70
     1
102
RTVSPropertyOp13
 70
     1
102
RTVSPropertyOp14
 70
     1
102
RTVSPropertyOp15
 70
     1
102
RTVSPropertyOp16
 70
     1
102
RTVSPropertyOp17
 70
     1
102
RTVSPropertyOp18
 70
     1
102
RTVSPropertyOp19
 70
     1
102
RTVSPropertyOp20
 70
     1
102
RTVSPropertyOp21
 70
     1
102
RTVSPropertyOp22
 70
     1
102
RTVSPropertyOp23
 70
     1
102
RTVSPropertyOp24
 70
     1
102
RTVSPropertyOp25
 70
     1
102
RTVSPropertyOp26
 70
     1
102
RTVSPropertyOp27
 70
     1
102
RTVSPropertyOp28
 70
     1
102
RTVSPropertyOp29
 70
     1
102
RTVSPropertyOp30
 70
     1
102
RTVSPropertyOp31
 70
     1
102
RTVSPropertyOp32
 70
     1
  0
XRECORD
  5
1D7
102
{ACAD_REACTORS
330
1D6
102
}
330
1D6
100
AcDbXrecord
280
     1
102
RTVSPropertyOp0
 70
     1
102
RTVSPropertyOp1
 70
     1
102
RTVSPropertyOp2
 70
     1
102
RTVSPropertyOp3
 70
     1
102
RTVSPropertyOp4
 70
     1
102
RTVSPropertyOp5
 70
     1
102
RTVSPropertyOp6
 70
     1
102
RTVSPropertyOp7
 70
     1
102
RTVSPropertyOp8
 70
     1
102
RTVSPropertyOp9
 70
     1
102
RTVSPropertyOp10
 70
     1
102
RTVSPropertyOp11
 70
     1
102
RTVSPropertyOp12
 70
     1
102
RTVSPropertyOp13
 70
     1
102
RTVSPropertyOp14
 70
     1
102
RTVSPropertyOp15
 70
     1
102
RTVSPropertyOp16
 70
     1
102
RTVSPropertyOp17
 70
     1
102
RTVSPropertyOp18
 70
     1
102
RTVSPropertyOp19
 70
     1
102
RTVSPropertyOp20
 70
     1
102
RTVSPropertyOp21
 70
     1
102
RTVSPropertyOp22
 70
     1
102
RTVSPropertyOp23
 70
     1
102
RTVSPropertyOp24
 70
     1
102
RTVSPropertyOp25
 70
     1
102
RTVSPropertyOp26
 70
     1
102
RTVSPropertyOp27
 70
     1
102
RTVSPropertyOp28
 70
     1
102
RTVSPropertyOp29
 70
     1
102
RTVSPropertyOp30
 70
     1
102
RTVSPropertyOp31
 70
     1
102
RTVSPropertyOp32
 70
     1
  0
XRECORD
  5
1DF
102
{ACAD_REACTORS
330
1DE
102
}
330
1DE
100
AcDbXrecord
280
     1
102
RTVSPropertyOp0
 70
     1
102
RTVSPropertyOp1
 70
     1
102
RTVSPropertyOp2
 70
     1
102
RTVSPropertyOp3
 70
     1
102
RTVSPropertyOp4
 70
     1
102
RTVSPropertyOp5
 70
     1
102
RTVSPropertyOp6
 70
     1
102
RTVSPropertyOp7
 70
     1
102
RTVSPropertyOp8
 70
     1
102
RTVSPropertyOp9
 70
     1
102
RTVSPropertyOp10
 70
     1
102
RTVSPropertyOp11
 70
     1
102
RTVSPropertyOp12
 70
     1
102
RTVSPropertyOp13
 70
     1
102
RTVSPropertyOp14
 70
     1
102
RTVSPropertyOp15
 70
     1
102
RTVSPropertyOp16
 70
     1
102
RTVSPropertyOp17
 70
     1
102
RTVSPropertyOp18
 70
     1
102
RTVSPropertyOp19
 70
     1
102
RTVSPropertyOp20
 70
     1
102
RTVSPropertyOp21
 70
     1
102
RTVSPropertyOp22
 70
     1
102
RTVSPropertyOp23
 70
     1
102
RTVSPropertyOp24
 70
     1
102
RTVSPropertyOp25
 70
     1
102
RTVSPropertyOp26
 70
     1
102
RTVSPropertyOp27
 70
     1
102
RTVSPropertyOp28
 70
     1
102
RTVSPropertyOp29
 70
     1
102
RTVSPropertyOp30
 70
     1
102
RTVSPropertyOp31
 70
     1
102
RTVSPropertyOp32
 70
     1
  0
XRECORD
  5
1C3
102
{ACAD_REACTORS
330
1C2
102
}
330
1C2
100
AcDbXrecord
280
     1
102
RTVSPropertyOp0
 70
     1
102
RTVSPropertyOp1
 70
     1
102
RTVSPropertyOp2
 70
     1
102
RTVSPropertyOp3
 70
     1
102
RTVSPropertyOp4
 70
     1
102
RTVSPropertyOp5
 70
     1
102
RTVSPropertyOp6
 70
     1
102
RTVSPropertyOp7
 70
     1
102
RTVSPropertyOp8
 70
     1
102
RTVSPropertyOp9
 70
     1
102
RTVSPropertyOp10
 70
     1
102
RTVSPropertyOp11
 70
     1
102
RTVSPropertyOp12
 70
     1
102
RTVSPropertyOp13
 70
     1
102
RTVSPropertyOp14
 70
     1
102
RTVSPropertyOp15
 70
     1
102
RTVSPropertyOp16
 70
     1
102
RTVSPropertyOp17
 70
     1
102
RTVSPropertyOp18
 70
     1
102
RTVSPropertyOp19
 70
     1
102
RTVSPropertyOp20
 70
     1
102
RTVSPropertyOp21
 70
     1
102
RTVSPropertyOp22
 70
     1
102
RTVSPropertyOp23
 70
     1
102
RTVSPropertyOp24
 70
     1
102
RTVSPropertyOp25
 70
     1
102
RTVSPropertyOp26
 70
     1
102
RTVSPropertyOp27
 70
     1
102
RTVSPropertyOp28
 70
     1
102
RTVSPropertyOp29
 70
     1
102
RTVSPropertyOp30
 70
     1
102
RTVSPropertyOp31
 70
     1
102
RTVSPropertyOp32
 70
     1
  0
XRECORD
  5
1C5
102
{ACAD_REACTORS
330
1C4
102
}
330
1C4
100
AcDbXrecord
280
     1
102
RTVSPropertyOp0
 70
     1
102
RTVSPropertyOp1
 70
     1
102
RTVSPropertyOp2
 70
     1
102
RTVSPropertyOp3
 70
     1
102
RTVSPropertyOp4
 70
     1
102
RTVSPropertyOp5
 70
     1
102
RTVSPropertyOp6
 70
     1
102
RTVSPropertyOp7
 70
     1
102
RTVSPropertyOp8
 70
     1
102
RTVSPropertyOp9
 70
     1
102
RTVSPropertyOp10
 70
     1
102
RTVSPropertyOp11
 70
     1
102
RTVSPropertyOp12
 70
     1
102
RTVSPropertyOp13
 70
     1
102
RTVSPropertyOp14
 70
     1
102
RTVSPropertyOp15
 70
     1
102
RTVSPropertyOp16
 70
     1
102
RTVSPropertyOp17
 70
     1
102
RTVSPropertyOp18
 70
     1
102
RTVSPropertyOp19
 70
     1
102
RTVSPropertyOp20
 70
     1
102
RTVSPropertyOp21
 70
     1
102
RTVSPropertyOp22
 70
     1
102
RTVSPropertyOp23
 70
     1
102
RTVSPropertyOp24
 70
     1
102
RTVSPropertyOp25
 70
     1
102
RTVSPropertyOp26
 70
     1
102
RTVSPropertyOp27
 70
     1
102
RTVSPropertyOp28
 70
     1
102
RTVSPropertyOp29
 70
     1
102
RTVSPropertyOp30
 70
     1
102
RTVSPropertyOp31
 70
     1
102
RTVSPropertyOp32
 70
     1
  0
XRECORD
  5
1C7
102
{ACAD_REACTORS
330
1C6
102
}
330
1C6
100
AcDbXrecord
280
     1
102
RTVSPropertyOp0
 70
     1
102
RTVSPropertyOp1
 70
     1
102
RTVSPropertyOp2
 70
     1
102
RTVSPropertyOp3
 70
     1
102
RTVSPropertyOp4
 70
     1
102
RTVSPropertyOp5
 70
     1
102
RTVSPropertyOp6
 70
     1
102
RTVSPropertyOp7
 70
     1
102
RTVSPropertyOp8
 70
     1
102
RTVSPropertyOp9
 70
     1
102
RTVSPropertyOp10
 70
     1
102
RTVSPropertyOp11
 70
     1
102
RTVSPropertyOp12
 70
     1
102
RTVSPropertyOp13
 70
     1
102
RTVSPropertyOp14
 70
     1
102
RTVSPropertyOp15
 70
     1
102
RTVSPropertyOp16
 70
     1
102
RTVSPropertyOp17
 70
     1
102
RTVSPropertyOp18
 70
     1
102
RTVSPropertyOp19
 70
     1
102
RTVSPropertyOp20
 70
     1
102
RTVSPropertyOp21
 70
     1
102
RTVSPropertyOp22
 70
     1
102
RTVSPropertyOp23
 70
     1
102
RTVSPropertyOp24
 70
     1
102
RTVSPropertyOp25
 70
     1
102
RTVSPropertyOp26
 70
     1
102
RTVSPropertyOp27
 70
     1
102
RTVSPropertyOp28
 70
     1
102
RTVSPropertyOp29
 70
     1
102
RTVSPropertyOp30
 70
     1
102
RTVSPropertyOp31
 70
     1
102
RTVSPropertyOp32
 70
     1
  0
XRECORD
  5
1C9
102
{ACAD_REACTORS
330
1C8
102
}
330
1C8
100
AcDbXrecord
280
     1
102
RTVSPropertyOp0
 70
     1
102
RTVSPropertyOp1
 70
     1
102
RTVSPropertyOp2
 70
     1
102
RTVSPropertyOp3
 70
     1
102
RTVSPropertyOp4
 70
     1
102
RTVSPropertyOp5
 70
     1
102
RTVSPropertyOp6
 70
     1
102
RTVSPropertyOp7
 70
     1
102
RTVSPropertyOp8
 70
     1
102
RTVSPropertyOp9
 70
     1
102
RTVSPropertyOp10
 70
     1
102
RTVSPropertyOp11
 70
     1
102
RTVSPropertyOp12
 70
     1
102
RTVSPropertyOp13
 70
     1
102
RTVSPropertyOp14
 70
     1
102
RTVSPropertyOp15
 70
     1
102
RTVSPropertyOp16
 70
     1
102
RTVSPropertyOp17
 70
     1
102
RTVSPropertyOp18
 70
     1
102
RTVSPropertyOp19
 70
     1
102
RTVSPropertyOp20
 70
     1
102
RTVSPropertyOp21
 70
     1
102
RTVSPropertyOp22
 70
     1
102
RTVSPropertyOp23
 70
     1
102
RTVSPropertyOp24
 70
     1
102
RTVSPropertyOp25
 70
     1
102
RTVSPropertyOp26
 70
     1
102
RTVSPropertyOp27
 70
     1
102
RTVSPropertyOp28
 70
     1
102
RTVSPropertyOp29
 70
     1
102
RTVSPropertyOp30
 70
     1
102
RTVSPropertyOp31
 70
     1
102
RTVSPropertyOp32
 70
     1
  0
XRECORD
  5
1DD
102
{ACAD_REACTORS
330
1DC
102
}
330
1DC
100
AcDbXrecord
280
     1
102
RTVSPropertyOp0
 70
     1
102
RTVSPropertyOp1
 70
     1
102
RTVSPropertyOp2
 70
     1
102
RTVSPropertyOp3
 70
     1
102
RTVSPropertyOp4
 70
     1
102
RTVSPropertyOp5
 70
     1
102
RTVSPropertyOp6
 70
     1
102
RTVSPropertyOp7
 70
     1
102
RTVSPropertyOp8
 70
     1
102
RTVSPropertyOp9
 70
     1
102
RTVSPropertyOp10
 70
     1
102
RTVSPropertyOp11
 70
     1
102
RTVSPropertyOp12
 70
     1
102
RTVSPropertyOp13
 70
     1
102
RTVSPropertyOp14
 70
     1
102
RTVSPropertyOp15
 70
     1
102
RTVSPropertyOp16
 70
     1
102
RTVSPropertyOp17
 70
     1
102
RTVSPropertyOp18
 70
     1
102
RTVSPropertyOp19
 70
     1
102
RTVSPropertyOp20
 70
     1
102
RTVSPropertyOp21
 70
     1
102
RTVSPropertyOp22
 70
     1
102
RTVSPropertyOp23
 70
     1
102
RTVSPropertyOp24
 70
     1
102
RTVSPropertyOp25
 70
     1
102
RTVSPropertyOp26
 70
     1
102
RTVSPropertyOp27
 70
     1
102
RTVSPropertyOp28
 70
     1
102
RTVSPropertyOp29
 70
     1
102
RTVSPropertyOp30
 70
     1
102
RTVSPropertyOp31
 70
     1
102
RTVSPropertyOp32
 70
     1
  0
XRECORD
  5
1D3
102
{ACAD_REACTORS
330
1D2
102
}
330
1D2
100
AcDbXrecord
280
     1
102
RTVSPropertyOp0
 70
     1
102
RTVSPropertyOp1
 70
     1
102
RTVSPropertyOp2
 70
     1
102
RTVSPropertyOp3
 70
     1
102
RTVSPropertyOp4
 70
     1
102
RTVSPropertyOp5
 70
     1
102
RTVSPropertyOp6
 70
     1
102
RTVSPropertyOp7
 70
     1
102
RTVSPropertyOp8
 70
     1
102
RTVSPropertyOp9
 70
     1
102
RTVSPropertyOp10
 70
     1
102
RTVSPropertyOp11
 70
     1
102
RTVSPropertyOp12
 70
     1
102
RTVSPropertyOp13
 70
     1
102
RTVSPropertyOp14
 70
     1
102
RTVSPropertyOp15
 70
     1
102
RTVSPropertyOp16
 70
     1
102
RTVSPropertyOp17
 70
     1
102
RTVSPropertyOp18
 70
     1
102
RTVSPropertyOp19
 70
     1
102
RTVSPropertyOp20
 70
     1
102
RTVSPropertyOp21
 70
     1
102
RTVSPropertyOp22
 70
     1
102
RTVSPropertyOp23
 70
     1
102
RTVSPropertyOp24
 70
     1
102
RTVSPropertyOp25
 70
     1
102
RTVSPropertyOp26
 70
     1
102
RTVSPropertyOp27
 70
     1
102
RTVSPropertyOp28
 70
     1
102
RTVSPropertyOp29
 70
     1
102
RTVSPropertyOp30
 70
     1
102
RTVSPropertyOp31
 70
     1
102
RTVSPropertyOp32
 70
     1
  0
XRECORD
  5
1DB
102
{ACAD_REACTORS
330
1DA
102
}
330
1DA
100
AcDbXrecord
280
     1
102
RTVSPropertyOp0
 70
     1
102
RTVSPropertyOp1
 70
     1
102
RTVSPropertyOp2
 70
     1
102
RTVSPropertyOp3
 70
     1
102
RTVSPropertyOp4
 70
     1
102
RTVSPropertyOp5
 70
     1
102
RTVSPropertyOp6
 70
     1
102
RTVSPropertyOp7
 70
     1
102
RTVSPropertyOp8
 70
     1
102
RTVSPropertyOp9
 70
     1
102
RTVSPropertyOp10
 70
     1
102
RTVSPropertyOp11
 70
     1
102
RTVSPropertyOp12
 70
     1
102
RTVSPropertyOp13
 70
     1
102
RTVSPropertyOp14
 70
     1
102
RTVSPropertyOp15
 70
     1
102
RTVSPropertyOp16
 70
     1
102
RTVSPropertyOp17
 70
     1
102
RTVSPropertyOp18
 70
     1
102
RTVSPropertyOp19
 70
     1
102
RTVSPropertyOp20
 70
     1
102
RTVSPropertyOp21
 70
     1
102
RTVSPropertyOp22
 70
     1
102
RTVSPropertyOp23
 70
     1
102
RTVSPropertyOp24
 70
     1
102
RTVSPropertyOp25
 70
     1
102
RTVSPropertyOp26
 70
     1
102
RTVSPropertyOp27
 70
     1
102
RTVSPropertyOp28
 70
     1
102
RTVSPropertyOp29
 70
     1
102
RTVSPropertyOp30
 70
     1
102
RTVSPropertyOp31
 70
     1
102
RTVSPropertyOp32
 70
     1
  0
ENDSEC
  0
EOF
