  0
SECTION
  2
HEADER
  9
$ACADVER
  1
AC1015
  9
$ACADMAINTVER
 70
     6
  9
$DWGCODEPAGE
  3
ANSI_1252
  9
$INSBASE
 10
0.0
 20
0.0
 30
0.0
  9
$EXTMIN
 10
0.0
 20
0.0
 30
0.0
  9
$EXTMAX
 10
297.0
 20
210.0
 30
0.0
  9
$LIMMIN
 10
0.0
 20
0.0
  9
$LIMMAX
 10
297.0
 20
210.0
  9
$ORTHOMODE
 70
     0
  9
$REGENMODE
 70
     1
  9
$FILLMODE
 70
     1
  9
$QTEXTMODE
 70
     0
  9
$MIRRTEXT
 70
     1
  9
$LTSCALE
 40
1.0
  9
$ATTMODE
 70
     1
  9
$TEXTSIZE
 40
2.5
  9
$TRACEWID
 40
1.0
  9
$TEXTSTYLE
  7
Standard
  9
$CLAYER
  8
0
  9
$CELTYPE
  6
ByLayer
  9
$CECOLOR
 62
   256
  9
$CELTSCALE
 40
1.0
  9
$DISPSILH
 70
     0
  9
$DIMSCALE
 40
1.0
  9
$DIMASZ
 40
2.5
  9
$DIMEXO
 40
0.625
  9
$DIMDLI
 40
3.75
  9
$DIMRND
 40
0.0
  9
$DIMDLE
 40
0.0
  9
$DIMEXE
 40
1.25
  9
$DIMTP
 40
0.0
  9
$DIMTM
 40
0.0
  9
$DIMTXT
 40
2.5
  9
$DIMCEN
 40
2.5
  9
$DIMTSZ
 40
0.0
  9
$DIMTOL
 70
     0
  9
$DIMLIM
 70
     0
  9
$DIMTIH
 70
     0
  9
$DIMTOH
 70
     0
  9
$DIMSE1
 70
     0
  9
$DIMSE2
 70
     0
  9
$DIMTAD
 70
     1
  9
$DIMZIN
 70
     8
  9
$DIMBLK
  1

  9
$DIMASO
 70
     1
  9
$DIMSHO
 70
     1
  9
$DIMPOST
  1

  9
$DIMAPOST
  1

  9
$DIMALT
 70
     0
  9
$DIMALTD
 70
     3
  9
$DIMALTF
 40
0.0393700787
  9
$DIMLFAC
 40
1.0
  9
$DIMTOFL
 70
     1
  9
$DIMTVP
 40
0.0
  9
$DIMTIX
 70
     0
  9
$DIMSOXD
 70
     0
  9
$DIMSAH
 70
     0
  9
$DIMBLK1
  1

  9
$DIMBLK2
  1

  9
$DIMSTYLE
  2
ISO-25
  9
$DIMCLRD
 70
     0
  9
$DIMCLRE
 70
     0
  9
$DIMCLRT
 70
     0
  9
$DIMTFAC
 40
1.0
  9
$DIMGAP
 40
0.625
  9
$DIMJUST
 70
     0
  9
$DIMSD1
 70
     0
  9
$DIMSD2
 70
     0
  9
$DIMTOLJ
 70
     0
  9
$DIMTZIN
 70
     8
  9
$DIMALTZ
 70
     0
  9
$DIMALTTZ
 70
     0
  9
$DIMUPT
 70
     0
  9
$DIMDEC
 70
     2
  9
$DIMTDEC
 70
     2
  9
$DIMALTU
 70
     2
  9
$DIMALTTD
 70
     3
  9
$DIMTXSTY
  7
Standard
  9
$DIMAUNIT
 70
     0
  9
$DIMADEC
 70
     0
  9
$DIMALTRND
 40
0.0
  9
$DIMAZIN
 70
     0
  9
$DIMDSEP
 70
    44
  9
$DIMATFIT
 70
     3
  9
$DIMFRAC
 70
     0
  9
$DIMLDRBLK
  1

  9
$DIMLUNIT
 70
     2
  9
$DIMLWD
 70
    -2
  9
$DIMLWE
 70
    -2
  9
$DIMTMOVE
 70
     0
  9
$LUNITS
 70
     2
  9
$LUPREC
 70
     4
  9
$SKETCHINC
 40
1.0
  9
$FILLETRAD
 40
10.0
  9
$AUNITS
 70
     0
  9
$AUPREC
 70
     0
  9
$MENU
  1
.
  9
$ELEVATION
 40
0.0
  9
$PELEVATION
 40
0.0
  9
$THICKNESS
 40
0.0
  9
$LIMCHECK
 70
     0
  9
$CHAMFERA
 40
10.0
  9
$CHAMFERB
 40
10.0
  9
$CHAMFERC
 40
20.0
  9
$CHAMFERD
 40
0.0
  9
$SKPOLY
 70
     0
  9
$TDCREATE
 40
2457625.598327187
  9
$TDUCREATE
 40
2457625.514993854
  9
$TDUPDATE
 40
2457625.598328276
  9
$TDUUPDATE
 40
2457625.514994942
  9
$TDINDWG
 40
0.0000000116
  9
$TDUSRTIMER
 40
0.0000000116
  9
$USRTIMER
 70
     1
  9
$ANGBASE
 50
0.0
  9
$ANGDIR
 70
     0
  9
$PDMODE
 70
     0
  9
$PDSIZE
 40
0.0
  9
$PLINEWID
 40
0.0
  9
$SPLFRAME
 70
     0
  9
$SPLINETYPE
 70
     6
  9
$SPLINESEGS
 70
     8
  9
$HANDSEED
  5
401
  9
$SURFTAB1
 70
     6
  9
$SURFTAB2
 70
     6
  9
$SURFTYPE
 70
     6
  9
$SURFU
 70
     6
  9
$SURFV
 70
     6
  9
$UCSBASE
  2

  9
$UCSNAME
  2

  9
$UCSORG
 10
0.0
 20
0.0
 30
0.0
  9
$UCSXDIR
 10
1.0
 20
0.0
 30
0.0
  9
$UCSYDIR
 10
0.0
 20
1.0
 30
0.0
  9
$UCSORTHOREF
  2

  9
$UCSORTHOVIEW
 70
     0
  9
$UCSORGTOP
 10
0.0
 20
0.0
 30
0.0
  9
$UCSORGBOTTOM
 10
0.0
 20
0.0
 30
0.0
  9
$UCSORGLEFT
 10
0.0
 20
0.0
 30
0.0
  9
$UCSORGRIGHT
 10
0.0
 20
0.0
 30
0.0
  9
$UCSORGFRONT
 10
0.0
 20
0.0
 30
0.0
  9
$UCSORGBACK
 10
0.0
 20
0.0
 30
0.0
  9
$PUCSBASE
  2

  9
$PUCSNAME
  2

  9
$PUCSORG
 10
0.0
 20
0.0
 30
0.0
  9
$PUCSXDIR
 10
1.0
 20
0.0
 30
0.0
  9
$PUCSYDIR
 10
0.0
 20
1.0
 30
0.0
  9
$PUCSORTHOREF
  2

  9
$PUCSORTHOVIEW
 70
     0
  9
$PUCSORGTOP
 10
0.0
 20
0.0
 30
0.0
  9
$PUCSORGBOTTOM
 10
0.0
 20
0.0
 30
0.0
  9
$PUCSORGLEFT
 10
0.0
 20
0.0
 30
0.0
  9
$PUCSORGRIGHT
 10
0.0
 20
0.0
 30
0.0
  9
$PUCSORGFRONT
 10
0.0
 20
0.0
 30
0.0
  9
$PUCSORGBACK
 10
0.0
 20
0.0
 30
0.0
  9
$USERI1
 70
     0
  9
$USERI2
 70
     0
  9
$USERI3
 70
     0
  9
$USERI4
 70
     0
  9
$USERI5
 70
     0
  9
$USERR1
 40
0.0
  9
$USERR2
 40
0.0
  9
$USERR3
 40
0.0
  9
$USERR4
 40
0.0
  9
$USERR5
 40
0.0
  9
$WORLDVIEW
 70
     1
  9
$SHADEDGE
 70
     3
  9
$SHADEDIF
 70
    70
  9
$TILEMODE
 70
     1
  9
$MAXACTVP
 70
    64
  9
$PINSBASE
 10
0.0
 20
0.0
 30
0.0
  9
$PLIMCHECK
 70
     0
  9
$PEXTMIN
 10
0.0
 20
0.0
 30
0.0
  9
$PEXTMAX
 10
297.0
 20
210.0
 30
0.0
  9
$PLIMMIN
 10
0.0
 20
0.0
  9
$PLIMMAX
 10
297.0
 20
210.0
  9
$UNITMODE
 70
     0
  9
$VISRETAIN
 70
     1
  9
$PLINEGEN
 70
     0
  9
$PSLTSCALE
 70
     1
  9
$TREEDEPTH
 70
  3020
  9
$CMLSTYLE
  2
Standard
  9
$CMLJUST
 70
     0
  9
$CMLSCALE
 40
20.0
  9
$PROXYGRAPHICS
 70
     1
  9
$MEASUREMENT
 70
     1
  9
$CELWEIGHT
370
    -1
  9
$ENDCAPS
280
     0
  9
$JOINSTYLE
280
     0
  9
$LWDISPLAY
290
     0
  9
$INSUNITS
 70
     4
  9
$HYPERLINKBASE
  1

  9
$STYLESHEET
  1

  9
$XEDIT
290
     1
  9
$CEPSNTYPE
380
     0
  9
$PSTYLEMODE
290
     1
  9
$FINGERPRINTGUID
  2
{ABE19E5E-7326-46D6-9634-AFF4B0634836}
  9
$VERSIONGUID
  2
{FAEB1C32-E019-11D5-929B-00C0DF256EC4}
  9
$EXTNAMES
290
     1
  9
$PSVPSCALE
 40
0.0
  9
$OLESTARTUP
290
     0
  0
ENDSEC
  0
SECTION
  2
CLASSES
  0
CLASS
  1
ACDBDICTIONARYWDFLT
  2
AcDbDictionaryWithDefault
  3
ObjectDBX Classes
 90
        0
280
     0
281
     0
  0
CLASS
  1
VISUALSTYLE
  2
AcDbVisualStyle
  3
ObjectDBX Classes
 90
     4095
280
     0
281
     0
  0
CLASS
  1
MATERIAL
  2
AcDbMaterial
  3
ObjectDBX Classes
 90
     1153
280
     0
281
     0
  0
CLASS
  1
DICTIONARYVAR
  2
AcDbDictionaryVar
  3
ObjectDBX Classes
 90
        0
280
     0
281
     0
  0
CLASS
  1
ACDBPLACEHOLDER
  2
AcDbPlaceHolder
  3
ObjectDBX Classes
 90
        0
280
     0
281
     0
  0
CLASS
  1
LAYOUT
  2
AcDbLayout
  3
ObjectDBX Classes
 90
        0
280
     0
281
     0
  0
ENDSEC
  0
SECTION
  2
TABLES
  0
TABLE
  2
VPORT
  5
8
330
0
100
AcDbSymbolTable
 70
     1
  0
VPORT
  5
29
330
8
100
AcDbSymbolTableRecord
100
AcDbViewportTableRecord
  2
*Active
 70
     0
 10
0.0
 20
0.0
 11
1.0
 21
1.0
 12
344.1869158879
 22
148.5
 13
0.0
 23
0.0
 14
10.0
 24
10.0
 15
10.0
 25
10.0
 16
0.0
 26
0.0
 36
1.0
 17
0.0
 27
0.0
 37
0.0
 40
297.0
 41
1.9729729729
 42
50.0
 43
0.0
 44
0.0
 50
0.0
 51
0.0
 71
     0
 72
   100
 73
     1
 74
     3
 75
     0
 76
     0
 77
     0
 78
     0
281
     0
 65
     1
110
0.0
120
0.0
130
0.0
111
1.0
121
0.0
131
0.0
112
0.0
122
1.0
132
0.0
 79
     0
146
0.0
  0
ENDTAB
  0
TABLE
  2
LTYPE
  5
5
330
0
100
AcDbSymbolTable
 70
     1
  0
LTYPE
  5
14
330
5
100
AcDbSymbolTableRecord
100
AcDbLinetypeTableRecord
  2
ByBlock
 70
     0
  3

 72
    65
 73
     0
 40
0.0
  0
LTYPE
  5
15
330
5
100
AcDbSymbolTableRecord
100
AcDbLinetypeTableRecord
  2
ByLayer
 70
     0
  3

 72
    65
 73
     0
 40
0.0
  0
LTYPE
  5
16
330
5
100
AcDbSymbolTableRecord
100
AcDbLinetypeTableRecord
  2
Continuous
 70
     0
  3
Solid line
 72
    65
 73
     0
 40
0.0
  0
ENDTAB
  0
TABLE
  2
LAYER
  5
2
330
0
100
AcDbSymbolTable
 70
     7
  0
LAYER
  5
10
330
2
100
AcDbSymbolTableRecord
100
AcDbLayerTableRecord
  2
0
 70
     0
 62
     7
  6
Continuous
370
    -3
390
F
  0
LAYER
  5
3F
330
2
100
AcDbSymbolTableRecord
100
AcDbLayerTableRecord
  2
Default
 70
     0
 62
     7
  6
Continuous
370
    -3
390
F
  0
LAYER
  5
42
330
2
100
AcDbSymbolTableRecord
100
AcDbLayerTableRecord
  2
0004320
 70
     0
 62
     7
  6
Continuous
370
    -3
390
F
  0
LAYER
  5
6B
330
2
100
AcDbSymbolTableRecord
100
AcDbLayerTableRecord
  2
0007711
 70
     0
 62
     7
  6
Continuous
370
    -3
390
F
  0
LAYER
  5
2E7
330
2
100
AcDbSymbolTableRecord
100
AcDbLayerTableRecord
  2
0007744
 70
     0
 62
     7
  6
Continuous
370
    -3
390
F
  0
LAYER
  5
2FE
330
2
100
AcDbSymbolTableRecord
100
AcDbLayerTableRecord
  2
0008128
 70
     0
 62
     7
  6
Continuous
370
    -3
390
F
  0
LAYER
  5
310
330
2
100
AcDbSymbolTableRecord
100
AcDbLayerTableRecord
  2
0007697
 70
     0
 62
     7
  6
Continuous
370
    -3
390
F
  0
ENDTAB
  0
TABLE
  2
STYLE
  5
3
330
0
100
AcDbSymbolTable
 70
     5
  0
STYLE
  5
11
330
3
100
AcDbSymbolTableRecord
100
AcDbTextStyleTableRecord
  2
Standard
 70
     0
 40
0.0
 41
1.0
 50
0.0
 71
     0
 42
2.5
  3
txt
  4

  0
STYLE
  5
33F
330
3
100
AcDbSymbolTableRecord
100
AcDbTextStyleTableRecord
  2
SEACAD_Solid_Edge_ISO
 70
     0
 40
0.0
 41
1.0
 50
0.0
 71
     0
 42
0.2
  3
seiso.ttf
  4

1001
ACAD
1000
Solid Edge ISO
1071
        0
  0
STYLE
  5
356
330
3
100
AcDbSymbolTableRecord
100
AcDbTextStyleTableRecord
  2
SEACAD_Solid_Edge_ISO1_Symbols
 70
     0
 40
0.0
 41
1.0
 50
0.0
 71
     0
 42
0.2
  3
semeci1.ttf
  4

1001
ACAD
1000
Solid Edge ISO1 Symbols
1071
        0
  0
STYLE
  5
36D
330
3
100
AcDbSymbolTableRecord
100
AcDbTextStyleTableRecord
  2
SEACAD_Solid_Edge_ANSIB
 70
     0
 40
0.0
 41
1.0
 50
0.0
 71
     0
 42
0.2
  3
seansbd.ttf
  4

1001
ACAD
1000
Solid Edge ANSI
1071
 33554432
  0
STYLE
  5
372
330
3
100
AcDbSymbolTableRecord
100
AcDbTextStyleTableRecord
  2
SEACAD_Solid_Edge_ANSI
 70
     0
 40
0.0
 41
1.0
 50
0.0
 71
     0
 42
0.2
  3
seans.ttf
  4

1001
ACAD
1000
Solid Edge ANSI
1071
        0
  0
ENDTAB
  0
TABLE
  2
VIEW
  5
6
330
0
100
AcDbSymbolTable
 70
     0
  0
ENDTAB
  0
TABLE
  2
UCS
  5
7
330
0
100
AcDbSymbolTable
 70
     0
  0
ENDTAB
  0
TABLE
  2
APPID
  5
9
330
0
100
AcDbSymbolTable
 70
     1
  0
APPID
  5
12
330
9
100
AcDbSymbolTableRecord
100
AcDbRegAppTableRecord
  2
ACAD
 70
     0
  0
ENDTAB
  0
TABLE
  2
DIMSTYLE
  5
A
330
0
100
AcDbSymbolTable
 70
     3
100
AcDbDimStyleTable
  0
DIMSTYLE
105
27
330
A
100
AcDbSymbolTableRecord
100
AcDbDimStyleTableRecord
  2
ISO-25
 70
     0
 41
2.5
 42
0.625
 43
3.75
 44
1.25
 73
     0
 74
     0
 77
     1
 78
     8
140
2.5
141
2.5
143
0.0393700787
147
0.625
171
     3
172
     1
178
     0
271
     2
272
     2
274
     3
278
    44
283
     0
284
     8
340
11
  0
DIMSTYLE
105
32D
330
A
100
AcDbSymbolTableRecord
100
AcDbDimStyleTableRecord
  2
Standard
 70
     0
178
     0
340
11
  0
DIMSTYLE
105
340
102
{ACAD_REACTORS
330
341
330
34B
330
355
330
361
102
}
330
A
100
AcDbSymbolTableRecord
100
AcDbDimStyleTableRecord
  2
DIN
 70
     0
 41
3.5
 42
0.0
 44
1.75
 73
     0
 74
     0
 77
     1
 78
     8
140
3.5
141
1.75
147
1.75
172
     1
173
     1
178
     0
179
     3
271
     3
272
     3
278
    44
284
     8
340
33F
343
33A
344
33A
  0
ENDTAB
  0
TABLE
  2
BLOCK_RECORD
  5
1
330
0
100
AcDbSymbolTable
 70
    14
  0
BLOCK_RECORD
  5
1F
330
1
100
AcDbSymbolTableRecord
100
AcDbBlockTableRecord
  2
*Model_Space
340
22
  0
BLOCK_RECORD
  5
1B
330
1
100
AcDbSymbolTableRecord
100
AcDbBlockTableRecord
  2
*Paper_Space
340
1E
  0
BLOCK_RECORD
  5
40
330
1
100
AcDbSymbolTableRecord
100
AcDbBlockTableRecord
  2
SE
340
0
102
{BLKREFS
331
41
102
}
  0
BLOCK_RECORD
  5
32E
330
1
100
AcDbSymbolTableRecord
100
AcDbBlockTableRecord
  2
_OBLIQUE
340
0
  0
BLOCK_RECORD
  5
332
330
1
100
AcDbSymbolTableRecord
100
AcDbBlockTableRecord
  2
_DOT
340
0
  0
BLOCK_RECORD
  5
33A
330
1
100
AcDbSymbolTableRecord
100
AcDbBlockTableRecord
  2
_SE_FILLED
340
0
  0
BLOCK_RECORD
  5
342
330
1
100
AcDbSymbolTableRecord
100
AcDbBlockTableRecord
  2
DMBLK371
340
0
  0
BLOCK_RECORD
  5
34C
330
1
100
AcDbSymbolTableRecord
100
AcDbBlockTableRecord
  2
DMBLK372
340
0
  0
BLOCK_RECORD
  5
357
330
1
100
AcDbSymbolTableRecord
100
AcDbBlockTableRecord
  2
DMBLK373
340
0
  0
BLOCK_RECORD
  5
362
330
1
100
AcDbSymbolTableRecord
100
AcDbBlockTableRecord
  2
DMBLK374
340
0
  0
BLOCK_RECORD
  5
36C
330
1
100
AcDbSymbolTableRecord
100
AcDbBlockTableRecord
  2
SEANNOT_GROUP
340
0
102
{BLKREFS
331
381
102
}
  0
BLOCK_RECORD
  5
371
330
1
100
AcDbSymbolTableRecord
100
AcDbBlockTableRecord
  2
SEANNOT_GROUP1
340
0
102
{BLKREFS
331
382
102
}
  0
BLOCK_RECORD
  5
376
330
1
100
AcDbSymbolTableRecord
100
AcDbBlockTableRecord
  2
SEANNOT_GROUP2
340
0
102
{BLKREFS
331
384
102
}
  0
BLOCK_RECORD
  5
37A
330
1
100
AcDbSymbolTableRecord
100
AcDbBlockTableRecord
  2
SEANNOT_GROUP3
340
0
102
{BLKREFS
331
385
102
}
  0
BLOCK_RECORD
  5
37E
330
1
100
AcDbSymbolTableRecord
100
AcDbBlockTableRecord
  2
RF-Massblatt_2016
340
0
102
{BLKREFS
331
3CD
102
}
  0
ENDTAB
  0
ENDSEC
  0
SECTION
  2
BLOCKS
  0
BLOCK
  5
20
330
1F
100
AcDbEntity
  8
0
100
AcDbBlockBegin
  2
*Model_Space
 70
     0
 10
0.0
 20
0.0
 30
0.0
  3
*Model_Space
  1

  0
ENDBLK
  5
21
330
1F
100
AcDbEntity
  8
0
100
AcDbBlockEnd
  0
BLOCK
  5
1C
330
1B
100
AcDbEntity
 67
     1
  8
0
100
AcDbBlockBegin
  2
*Paper_Space
 70
     0
 10
0.0
 20
0.0
 30
0.0
  3
*Paper_Space
  1

  0
ENDBLK
  5
1D
330
1B
100
AcDbEntity
 67
     1
  8
0
100
AcDbBlockEnd
  0
BLOCK
  5
32B
330
40
100
AcDbEntity
  8
0
100
AcDbBlockBegin
  2
SE
 70
     0
 10
0.0
 20
0.0
 30
0.0
  3
SE
  1

  0
ARC
  5
43
330
40
100
AcDbEntity
  8
0004320
  6
Continuous
 62
     7
100
AcDbCircle
 10
141.0130948778
 20
111.4286182707
 30
0.0
 40
10.99999999999999
100
AcDbArc
 50
216.2215466198
 51
323.7784533802
  0
LINE
  5
44
330
40
100
AcDbEntity
  8
0004320
  6
Continuous
 62
     7
100
AcDbLine
 10
132.1389752032
 20
104.9286182707
 30
0.0
 11
132.9305191829
 21
104.9286182707
 31
0.0
  0
LINE
  5
45
330
40
100
AcDbEntity
  8
0004320
  6
Continuous
 62
     7
100
AcDbLine
 10
132.1389752032
 20
104.9286182707
 30
0.0
 11
132.1389752032
 21
128.9286182707
 31
0.0
  0
LINE
  5
46
330
40
100
AcDbEntity
  8
0004320
  6
Continuous
 62
     7
100
AcDbLine
 10
132.1389752032
 20
128.9286182707
 30
0.0
 11
132.9305191829
 21
128.9286182707
 31
0.0
  0
ARC
  5
47
330
40
100
AcDbEntity
  8
0004320
  6
Continuous
 62
     7
100
AcDbCircle
 10
141.0130948778
 20
122.4286182707
 30
0.0
 40
10.99999999999999
100
AcDbArc
 50
36.2215466198
 51
143.7784533802
  0
LINE
  5
48
330
40
100
AcDbEntity
  8
0004320
  6
Continuous
 62
     7
100
AcDbLine
 10
149.8872145525
 20
104.9286182707
 30
0.0
 11
149.8872145525
 21
128.9286182707
 31
0.0
  0
LINE
  5
49
330
40
100
AcDbEntity
  8
0004320
  6
Continuous
 62
     7
100
AcDbLine
 10
149.8872145525
 20
128.9286182707
 30
0.0
 11
149.0956705728
 21
128.9286182707
 31
0.0
  0
LINE
  5
4A
330
40
100
AcDbEntity
  8
0004320
  6
Continuous
 62
     7
100
AcDbLine
 10
144.5130948778
 20
131.9286182707
 30
0.0
 11
137.5130948778
 21
131.9286182707
 31
0.0
  0
LINE
  5
4B
330
40
100
AcDbEntity
  8
0004320
  6
Continuous
 62
     7
100
AcDbLine
 10
149.0956705728
 20
104.9286182707
 30
0.0
 11
149.8872145525
 21
104.9286182707
 31
0.0
  0
ARC
  5
4C
330
40
100
AcDbEntity
  8
0004320
  6
Continuous
 62
     7
100
AcDbCircle
 10
137.5130948778
 20
126.9286182707
 30
0.0
 40
5.000000000000003
100
AcDbArc
 50
90.0
 51
156.4218215218
  0
ARC
  5
4D
330
40
100
AcDbEntity
  8
0004320
  6
Continuous
 62
     7
100
AcDbCircle
 10
137.5130948778
 20
126.9286182707
 30
0.0
 40
5.00000000000001
100
AcDbArc
 50
156.4218215218
 51
180.0
  0
LINE
  5
4E
330
40
100
AcDbEntity
  8
0004320
  6
Continuous
 62
     7
100
AcDbLine
 10
132.5130948778
 20
126.9286182707
 30
0.0
 11
132.5130948778
 21
106.9286182707
 31
0.0
  0
ARC
  5
4F
330
40
100
AcDbEntity
  8
0004320
  6
Continuous
 62
     7
100
AcDbCircle
 10
137.5130948778
 20
106.9286182707
 30
0.0
 40
5.000000000000002
100
AcDbArc
 50
180.0
 51
203.5781784782
  0
ARC
  5
50
330
40
100
AcDbEntity
  8
0004320
  6
Continuous
 62
     7
100
AcDbCircle
 10
137.5130948778
 20
106.9286182707
 30
0.0
 40
5.000000000000002
100
AcDbArc
 50
203.5781784782
 51
270.0
  0
ARC
  5
51
330
40
100
AcDbEntity
  8
0004320
  6
Continuous
 62
     7
100
AcDbCircle
 10
144.5130948778
 20
106.9286182707
 30
0.0
 40
4.999999999999997
100
AcDbArc
 50
270.0
 51
336.4218215218
  0
ARC
  5
52
330
40
100
AcDbEntity
  8
0004320
  6
Continuous
 62
     7
100
AcDbCircle
 10
144.5130948778
 20
106.9286182707
 30
0.0
 40
4.999999999999999
100
AcDbArc
 50
336.4218215218
 51
0.0
  0
LINE
  5
53
330
40
100
AcDbEntity
  8
0004320
  6
Continuous
 62
     7
100
AcDbLine
 10
149.5130948778
 20
106.9286182707
 30
0.0
 11
149.5130948778
 21
126.9286182707
 31
0.0
  0
ARC
  5
54
330
40
100
AcDbEntity
  8
0004320
  6
Continuous
 62
     7
100
AcDbCircle
 10
144.5130948778
 20
126.9286182707
 30
0.0
 40
5.000000000000001
100
AcDbArc
 50
0.0
 51
23.5781784782
  0
ARC
  5
55
330
40
100
AcDbEntity
  8
0004320
  6
Continuous
 62
     7
100
AcDbCircle
 10
144.5130948778
 20
126.9286182707
 30
0.0
 40
5.000000000000001
100
AcDbArc
 50
23.5781784782
 51
90.0
  0
LINE
  5
56
330
40
100
AcDbEntity
  8
0004320
  6
Continuous
 62
     7
100
AcDbLine
 10
137.5130948778
 20
101.9286182707
 30
0.0
 11
144.5130948778
 21
101.9286182707
 31
0.0
  0
LINE
  5
57
330
40
100
AcDbEntity
  8
0004320
  6
Continuous
 62
     7
100
AcDbLine
 10
132.0130948778
 20
76.9286182707
 30
0.0
 11
150.0130948778
 21
76.9286182707
 31
0.0
  0
LINE
  5
58
330
40
100
AcDbEntity
  8
0004320
  6
Continuous
 62
     7
100
AcDbLine
 10
130.0130948778
 20
78.9286182707
 30
0.0
 11
152.0130948778
 21
78.9286182707
 31
0.0
  0
LINE
  5
59
330
40
100
AcDbEntity
  8
0004320
  6
Continuous
 62
     7
100
AcDbLine
 10
134.6606127096
 20
56.9286182707
 30
0.0
 11
147.3655770461
 21
56.9286182707
 31
0.0
  0
LINE
  5
5A
330
40
100
AcDbEntity
  8
0004320
  6
Continuous
 62
     7
100
AcDbLine
 10
130.0130948778
 20
171.4336634318
 30
0.0
 11
152.0130948778
 21
171.4336634318
 31
0.0
  0
LINE
  5
5B
330
40
100
AcDbEntity
  8
0004320
  6
Continuous
 62
     7
100
AcDbLine
 10
132.0130948778
 20
176.9286182707
 30
0.0
 11
150.0130948778
 21
176.9286182707
 31
0.0
  0
LINE
  5
5C
330
40
100
AcDbEntity
  8
0004320
  6
Continuous
 62
     7
100
AcDbLine
 10
133.5705928279
 20
75.9286182707
 30
0.0
 11
148.4555969277
 21
75.9286182707
 31
0.0
  0
LINE
  5
5D
330
40
100
AcDbEntity
  8
0004320
  6
Continuous
 62
     7
100
AcDbLine
 10
133.5705928279
 20
75.9286182707
 30
0.0
 11
133.6606252114
 21
57.9236179233
 31
0.0
  0
LINE
  5
5E
330
40
100
AcDbEntity
  8
0004320
  6
Continuous
 62
     7
100
AcDbLine
 10
148.3655645442
 20
57.9236179233
 30
0.0
 11
148.4555969277
 21
75.9286182707
 31
0.0
  0
LINE
  5
5F
330
40
100
AcDbEntity
  8
0004320
  6
Continuous
 62
     7
100
AcDbLine
 10
152.0130948778
 20
78.9286182707
 30
0.0
 11
152.0130948778
 21
171.4336634318
 31
0.0
  0
LINE
  5
60
330
40
100
AcDbEntity
  8
0004320
  6
Continuous
 62
     7
100
AcDbLine
 10
130.0130948778
 20
171.4336634318
 30
0.0
 11
130.0130948778
 21
78.9286182707
 31
0.0
  0
LINE
  5
61
330
40
100
AcDbEntity
  8
0004320
  6
Continuous
 62
     7
100
AcDbLine
 10
130.0130948778
 20
78.9286182707
 30
0.0
 11
132.0130948778
 21
76.9286182707
 31
0.0
  0
LINE
  5
62
330
40
100
AcDbEntity
  8
0004320
  6
Continuous
 62
     7
100
AcDbLine
 10
150.0130948778
 20
76.9286182707
 30
0.0
 11
152.0130948778
 21
78.9286182707
 31
0.0
  0
ARC
  5
63
330
40
100
AcDbEntity
  8
0004320
  6
Continuous
 62
     7
100
AcDbCircle
 10
134.6606127096
 20
57.9286182707
 30
0.0
 40
1.0
100
AcDbArc
 50
180.2865
 51
270.0
  0
ARC
  5
64
330
40
100
AcDbEntity
  8
0004320
  6
Continuous
 62
     7
100
AcDbCircle
 10
147.3655770461
 20
57.9286182707
 30
0.0
 40
1.000000000000001
100
AcDbArc
 50
270.0
 51
359.7135
  0
LINE
  5
65
330
40
100
AcDbEntity
  8
0004320
  6
Continuous
 62
     7
100
AcDbLine
 10
152.0130948778
 20
171.4336634318
 30
0.0
 11
150.0130948778
 21
176.9286182707
 31
0.0
  0
LINE
  5
66
330
40
100
AcDbEntity
  8
0004320
  6
Continuous
 62
     7
100
AcDbLine
 10
132.0130948778
 20
176.9286182707
 30
0.0
 11
130.0130948778
 21
171.4336634318
 31
0.0
  0
LINE
  5
67
330
40
100
AcDbEntity
  8
0004320
  6
Continuous
 62
     7
100
AcDbLine
 10
148.4555969277
 20
75.9286182707
 30
0.0
 11
148.2775435015
 21
76.4933315918
 31
0.0
  0
LINE
  5
68
330
40
100
AcDbEntity
  8
0004320
  6
Continuous
 62
     7
100
AcDbLine
 10
133.7486462541
 20
76.4933315918
 30
0.0
 11
133.5705928279
 21
75.9286182707
 31
0.0
  0
ARC
  5
69
330
40
100
AcDbEntity
  8
0004320
  6
Continuous
 62
     7
100
AcDbCircle
 10
148.6590302818
 20
76.6136139116
 30
0.0
 40
0.4000000000000001
100
AcDbArc
 50
128.046494335
 51
197.5
  0
ARC
  5
6A
330
40
100
AcDbEntity
  8
0004320
  6
Continuous
 62
     7
100
AcDbCircle
 10
133.3671594738
 20
76.6136139116
 30
0.0
 40
0.3999999999999976
100
AcDbArc
 50
342.5
 51
51.953505665
  0
LINE
  5
6C
330
40
100
AcDbEntity
  8
0007711
  6
Continuous
 62
     7
100
AcDbLine
 10
133.5130948778
 20
126.3786182707
 30
0.0
 11
148.5130948778
 21
126.3786182707
 31
0.0
  0
LINE
  5
6D
330
40
100
AcDbEntity
  8
0007711
  6
Continuous
 62
     7
100
AcDbLine
 10
133.5130948778
 20
121.3786182707
 30
0.0
 11
148.5130948778
 21
121.3786182707
 31
0.0
  0
LINE
  5
6E
330
40
100
AcDbEntity
  8
0007711
  6
Continuous
 62
     7
100
AcDbLine
 10
133.013146003
 20
121.8786182707
 30
0.0
 11
133.0130948777
 21
121.8786182707
 31
0.0
  0
LINE
  5
6F
330
40
100
AcDbEntity
  8
0007711
  6
Continuous
 62
     7
100
AcDbLine
 10
133.013146003
 20
125.8786182707
 30
0.0
 11
133.0130948777
 21
125.8786182707
 31
0.0
  0
LINE
  5
70
330
40
100
AcDbEntity
  8
0007711
  6
Continuous
 62
     7
100
AcDbLine
 10
133.0189656437
 20
121.8786182707
 30
0.0
 11
133.0213609911
 21
121.8786182707
 31
0.0
  0
LINE
  5
71
330
40
100
AcDbEntity
  8
0007711
  6
Continuous
 62
     7
100
AcDbLine
 10
133.0189656437
 20
121.8786182707
 30
0.0
 11
133.0189656437
 21
125.8786182707
 31
0.0
  0
LINE
  5
72
330
40
100
AcDbEntity
  8
0007711
  6
Continuous
 62
     7
100
AcDbLine
 10
133.0189656437
 20
125.8786182707
 30
0.0
 11
133.2566608396
 21
126.1204827452
 31
0.0
  0
LINE
  5
73
330
40
100
AcDbEntity
  8
0007711
  6
Continuous
 62
     7
100
AcDbLine
 10
133.0189656437
 20
121.8786182707
 30
0.0
 11
133.2566608396
 21
121.6367537963
 31
0.0
  0
LINE
  5
74
330
40
100
AcDbEntity
  8
0007711
  6
Continuous
 62
     7
100
AcDbLine
 10
133.013146003
 20
125.8786182707
 30
0.0
 11
133.013146003
 21
121.8786182707
 31
0.0
  0
LINE
  5
75
330
40
100
AcDbEntity
  8
0007711
  6
Continuous
 62
     7
100
AcDbLine
 10
133.2566608396
 20
121.6367537963
 30
0.0
 11
133.013146003
 21
121.8786182707
 31
0.0
  0
LINE
  5
76
330
40
100
AcDbEntity
  8
0007711
  6
Continuous
 62
     7
100
AcDbLine
 10
133.2566608396
 20
126.1204827452
 30
0.0
 11
133.013146003
 21
125.8786182707
 31
0.0
  0
LINE
  5
77
330
40
100
AcDbEntity
  8
0007711
  6
Continuous
 62
     7
100
AcDbLine
 10
133.0213609911
 20
125.8786182707
 30
0.0
 11
133.0189656437
 21
125.8786182707
 31
0.0
  0
LINE
  5
78
330
40
100
AcDbEntity
  8
0007711
  6
Continuous
 62
     7
100
AcDbLine
 10
133.0388097034
 20
121.8786182707
 30
0.0
 11
133.0435961961
 21
121.8786182707
 31
0.0
  0
LINE
  5
79
330
40
100
AcDbEntity
  8
0007711
  6
Continuous
 62
     7
100
AcDbLine
 10
133.0388097034
 20
121.8786182707
 30
0.0
 11
133.0388097034
 21
125.8786182707
 31
0.0
  0
LINE
  5
7A
330
40
100
AcDbEntity
  8
0007711
  6
Continuous
 62
     7
100
AcDbLine
 10
133.0388097034
 20
125.8786182707
 30
0.0
 11
133.2702682605
 21
126.1204827452
 31
0.0
  0
LINE
  5
7B
330
40
100
AcDbEntity
  8
0007711
  6
Continuous
 62
     7
100
AcDbLine
 10
133.0388097034
 20
121.8786182707
 30
0.0
 11
133.2702682605
 21
121.6367537963
 31
0.0
  0
LINE
  5
7C
330
40
100
AcDbEntity
  8
0007711
  6
Continuous
 62
     7
100
AcDbLine
 10
133.0213609911
 20
125.8786182707
 30
0.0
 11
133.0213609911
 21
121.8786182707
 31
0.0
  0
LINE
  5
7D
330
40
100
AcDbEntity
  8
0007711
  6
Continuous
 62
     7
100
AcDbLine
 10
133.2702682605
 20
121.6367537963
 30
0.0
 11
133.0213609911
 21
121.8786182707
 31
0.0
  0
LINE
  5
7E
330
40
100
AcDbEntity
  8
0007711
  6
Continuous
 62
     7
100
AcDbLine
 10
133.2702682605
 20
126.1204827452
 30
0.0
 11
133.0213609911
 21
125.8786182707
 31
0.0
  0
LINE
  5
7F
330
40
100
AcDbEntity
  8
0007711
  6
Continuous
 62
     7
100
AcDbLine
 10
133.0435961961
 20
125.8786182707
 30
0.0
 11
133.0388097034
 21
125.8786182707
 31
0.0
  0
LINE
  5
80
330
40
100
AcDbEntity
  8
0007711
  6
Continuous
 62
     7
100
AcDbLine
 10
133.072643369
 20
121.8786182707
 30
0.0
 11
133.0798126098
 21
121.8786182707
 31
0.0
  0
LINE
  5
81
330
40
100
AcDbEntity
  8
0007711
  6
Continuous
 62
     7
100
AcDbLine
 10
133.072643369
 20
121.8786182707
 30
0.0
 11
133.072643369
 21
125.8786182707
 31
0.0
  0
LINE
  5
82
330
40
100
AcDbEntity
  8
0007711
  6
Continuous
 62
     7
100
AcDbLine
 10
133.072643369
 20
125.8786182707
 30
0.0
 11
133.2974592304
 21
126.1204827452
 31
0.0
  0
LINE
  5
83
330
40
100
AcDbEntity
  8
0007711
  6
Continuous
 62
     7
100
AcDbLine
 10
133.072643369
 20
121.8786182707
 30
0.0
 11
133.2974592304
 21
121.6367537963
 31
0.0
  0
LINE
  5
84
330
40
100
AcDbEntity
  8
0007711
  6
Continuous
 62
     7
100
AcDbLine
 10
133.0435961961
 20
125.8786182707
 30
0.0
 11
133.0435961961
 21
121.8786182707
 31
0.0
  0
LINE
  5
85
330
40
100
AcDbEntity
  8
0007711
  6
Continuous
 62
     7
100
AcDbLine
 10
133.2974592304
 20
121.6367537963
 30
0.0
 11
133.0435961961
 21
121.8786182707
 31
0.0
  0
LINE
  5
86
330
40
100
AcDbEntity
  8
0007711
  6
Continuous
 62
     7
100
AcDbLine
 10
133.2974592304
 20
126.1204827452
 30
0.0
 11
133.0435961961
 21
125.8786182707
 31
0.0
  0
LINE
  5
87
330
40
100
AcDbEntity
  8
0007711
  6
Continuous
 62
     7
100
AcDbLine
 10
133.0798126098
 20
125.8786182707
 30
0.0
 11
133.072643369
 21
125.8786182707
 31
0.0
  0
LINE
  5
88
330
40
100
AcDbEntity
  8
0007711
  6
Continuous
 62
     7
100
AcDbLine
 10
133.1204072847
 20
121.8786182707
 30
0.0
 11
133.1299466963
 21
121.8786182707
 31
0.0
  0
LINE
  5
89
330
40
100
AcDbEntity
  8
0007711
  6
Continuous
 62
     7
100
AcDbLine
 10
133.1204072847
 20
121.8786182707
 30
0.0
 11
133.1204072847
 21
125.8786182707
 31
0.0
  0
LINE
  5
8A
330
40
100
AcDbEntity
  8
0007711
  6
Continuous
 62
     7
100
AcDbLine
 10
133.1204072847
 20
125.8786182707
 30
0.0
 11
133.338186047
 21
126.1204827452
 31
0.0
  0
LINE
  5
8B
330
40
100
AcDbEntity
  8
0007711
  6
Continuous
 62
     7
100
AcDbLine
 10
133.1204072847
 20
121.8786182707
 30
0.0
 11
133.338186047
 21
121.6367537963
 31
0.0
  0
LINE
  5
8C
330
40
100
AcDbEntity
  8
0007711
  6
Continuous
 62
     7
100
AcDbLine
 10
133.0798126098
 20
125.8786182707
 30
0.0
 11
133.0798126098
 21
121.8786182707
 31
0.0
  0
LINE
  5
8D
330
40
100
AcDbEntity
  8
0007711
  6
Continuous
 62
     7
100
AcDbLine
 10
133.338186047
 20
121.6367537963
 30
0.0
 11
133.0798126098
 21
121.8786182707
 31
0.0
  0
LINE
  5
8E
330
40
100
AcDbEntity
  8
0007711
  6
Continuous
 62
     7
100
AcDbLine
 10
133.338186047
 20
126.1204827452
 30
0.0
 11
133.0798126098
 21
125.8786182707
 31
0.0
  0
LINE
  5
8F
330
40
100
AcDbEntity
  8
0007711
  6
Continuous
 62
     7
100
AcDbLine
 10
133.1299466963
 20
125.8786182707
 30
0.0
 11
133.1204072847
 21
125.8786182707
 31
0.0
  0
LINE
  5
90
330
40
100
AcDbEntity
  8
0007711
  6
Continuous
 62
     7
100
AcDbLine
 10
133.1820176564
 20
121.8786182707
 30
0.0
 11
133.1939105035
 21
121.8786182707
 31
0.0
  0
LINE
  5
91
330
40
100
AcDbEntity
  8
0007711
  6
Continuous
 62
     7
100
AcDbLine
 10
133.1820176564
 20
121.8786182707
 30
0.0
 11
133.1820176564
 21
125.8786182707
 31
0.0
  0
LINE
  5
92
330
40
100
AcDbEntity
  8
0007711
  6
Continuous
 62
     7
100
AcDbLine
 10
133.1820176564
 20
125.8786182707
 30
0.0
 11
133.3923772616
 21
126.1204827452
 31
0.0
  0
LINE
  5
93
330
40
100
AcDbEntity
  8
0007711
  6
Continuous
 62
     7
100
AcDbLine
 10
133.1820176564
 20
121.8786182707
 30
0.0
 11
133.3923772616
 21
121.6367537963
 31
0.0
  0
LINE
  5
94
330
40
100
AcDbEntity
  8
0007711
  6
Continuous
 62
     7
100
AcDbLine
 10
133.1299466963
 20
125.8786182707
 30
0.0
 11
133.1299466963
 21
121.8786182707
 31
0.0
  0
LINE
  5
95
330
40
100
AcDbEntity
  8
0007711
  6
Continuous
 62
     7
100
AcDbLine
 10
133.3923772616
 20
121.6367537963
 30
0.0
 11
133.1299466963
 21
121.8786182707
 31
0.0
  0
LINE
  5
96
330
40
100
AcDbEntity
  8
0007711
  6
Continuous
 62
     7
100
AcDbLine
 10
133.3923772616
 20
126.1204827452
 30
0.0
 11
133.1299466963
 21
125.8786182707
 31
0.0
  0
LINE
  5
97
330
40
100
AcDbEntity
  8
0007711
  6
Continuous
 62
     7
100
AcDbLine
 10
133.1939105035
 20
125.8786182707
 30
0.0
 11
133.1820176564
 21
125.8786182707
 31
0.0
  0
LINE
  5
98
330
40
100
AcDbEntity
  8
0007711
  6
Continuous
 62
     7
100
AcDbLine
 10
133.2573663986
 20
121.8786182707
 30
0.0
 11
133.271591817
 21
121.8786182707
 31
0.0
  0
LINE
  5
99
330
40
100
AcDbEntity
  8
0007711
  6
Continuous
 62
     7
100
AcDbLine
 10
133.2573663986
 20
121.8786182707
 30
0.0
 11
133.2573663986
 21
125.8786182707
 31
0.0
  0
LINE
  5
9A
330
40
100
AcDbEntity
  8
0007711
  6
Continuous
 62
     7
100
AcDbLine
 10
133.2573663986
 20
125.8786182707
 30
0.0
 11
133.4599378045
 21
126.1204827452
 31
0.0
  0
LINE
  5
9B
330
40
100
AcDbEntity
  8
0007711
  6
Continuous
 62
     7
100
AcDbLine
 10
133.2573663986
 20
121.8786182707
 30
0.0
 11
133.4599378045
 21
121.6367537963
 31
0.0
  0
LINE
  5
9C
330
40
100
AcDbEntity
  8
0007711
  6
Continuous
 62
     7
100
AcDbLine
 10
133.1939105035
 20
125.8786182707
 30
0.0
 11
133.1939105035
 21
121.8786182707
 31
0.0
  0
LINE
  5
9D
330
40
100
AcDbEntity
  8
0007711
  6
Continuous
 62
     7
100
AcDbLine
 10
133.4599378045
 20
121.6367537963
 30
0.0
 11
133.1939105035
 21
121.8786182707
 31
0.0
  0
LINE
  5
9E
330
40
100
AcDbEntity
  8
0007711
  6
Continuous
 62
     7
100
AcDbLine
 10
133.4599378045
 20
126.1204827452
 30
0.0
 11
133.1939105035
 21
125.8786182707
 31
0.0
  0
LINE
  5
9F
330
40
100
AcDbEntity
  8
0007711
  6
Continuous
 62
     7
100
AcDbLine
 10
133.271591817
 20
125.8786182707
 30
0.0
 11
133.2573663986
 21
125.8786182707
 31
0.0
  0
LINE
  5
A0
330
40
100
AcDbEntity
  8
0007711
  6
Continuous
 62
     7
100
AcDbLine
 10
133.346321324
 20
121.8786182707
 30
0.0
 11
133.3628543575
 21
121.8786182707
 31
0.0
  0
LINE
  5
A1
330
40
100
AcDbEntity
  8
0007711
  6
Continuous
 62
     7
100
AcDbLine
 10
133.346321324
 20
121.8786182707
 30
0.0
 11
133.346321324
 21
125.8786182707
 31
0.0
  0
LINE
  5
A2
330
40
100
AcDbEntity
  8
0007711
  6
Continuous
 62
     7
100
AcDbLine
 10
133.346321324
 20
125.8786182707
 30
0.0
 11
133.5407491515
 21
126.1204827452
 31
0.0
  0
LINE
  5
A3
330
40
100
AcDbEntity
  8
0007711
  6
Continuous
 62
     7
100
AcDbLine
 10
133.346321324
 20
121.8786182707
 30
0.0
 11
133.5407491515
 21
121.6367537963
 31
0.0
  0
LINE
  5
A4
330
40
100
AcDbEntity
  8
0007711
  6
Continuous
 62
     7
100
AcDbLine
 10
133.271591817
 20
125.8786182707
 30
0.0
 11
133.271591817
 21
121.8786182707
 31
0.0
  0
LINE
  5
A5
330
40
100
AcDbEntity
  8
0007711
  6
Continuous
 62
     7
100
AcDbLine
 10
133.5407491515
 20
121.6367537963
 30
0.0
 11
133.271591817
 21
121.8786182707
 31
0.0
  0
LINE
  5
A6
330
40
100
AcDbEntity
  8
0007711
  6
Continuous
 62
     7
100
AcDbLine
 10
133.5407491515
 20
126.1204827452
 30
0.0
 11
133.271591817
 21
125.8786182707
 31
0.0
  0
LINE
  5
A7
330
40
100
AcDbEntity
  8
0007711
  6
Continuous
 62
     7
100
AcDbLine
 10
133.3628543575
 20
125.8786182707
 30
0.0
 11
133.346321324
 21
125.8786182707
 31
0.0
  0
LINE
  5
A8
330
40
100
AcDbEntity
  8
0007711
  6
Continuous
 62
     7
100
AcDbLine
 10
133.4487263753
 20
121.8786182707
 30
0.0
 11
133.4675380194
 21
121.8786182707
 31
0.0
  0
LINE
  5
A9
330
40
100
AcDbEntity
  8
0007711
  6
Continuous
 62
     7
100
AcDbLine
 10
133.4487263753
 20
121.8786182707
 30
0.0
 11
133.4487263753
 21
125.8786182707
 31
0.0
  0
LINE
  5
AA
330
40
100
AcDbEntity
  8
0007711
  6
Continuous
 62
     7
100
AcDbLine
 10
133.4487263753
 20
125.8786182707
 30
0.0
 11
133.6346695319
 21
126.1204827452
 31
0.0
  0
LINE
  5
AB
330
40
100
AcDbEntity
  8
0007711
  6
Continuous
 62
     7
100
AcDbLine
 10
133.4487263753
 20
121.8786182707
 30
0.0
 11
133.6346695319
 21
121.6367537963
 31
0.0
  0
LINE
  5
AC
330
40
100
AcDbEntity
  8
0007711
  6
Continuous
 62
     7
100
AcDbLine
 10
133.3628543575
 20
125.8786182707
 30
0.0
 11
133.3628543575
 21
121.8786182707
 31
0.0
  0
LINE
  5
AD
330
40
100
AcDbEntity
  8
0007711
  6
Continuous
 62
     7
100
AcDbLine
 10
133.6346695319
 20
121.6367537963
 30
0.0
 11
133.3628543575
 21
121.8786182707
 31
0.0
  0
LINE
  5
AE
330
40
100
AcDbEntity
  8
0007711
  6
Continuous
 62
     7
100
AcDbLine
 10
133.6346695319
 20
126.1204827452
 30
0.0
 11
133.3628543575
 21
125.8786182707
 31
0.0
  0
LINE
  5
AF
330
40
100
AcDbEntity
  8
0007711
  6
Continuous
 62
     7
100
AcDbLine
 10
133.4675380194
 20
125.8786182707
 30
0.0
 11
133.4487263753
 21
125.8786182707
 31
0.0
  0
LINE
  5
B0
330
40
100
AcDbEntity
  8
0007711
  6
Continuous
 62
     7
100
AcDbLine
 10
133.5644018994
 20
121.8786182707
 30
0.0
 11
133.5854591521
 21
121.8786182707
 31
0.0
  0
LINE
  5
B1
330
40
100
AcDbEntity
  8
0007711
  6
Continuous
 62
     7
100
AcDbLine
 10
133.5644018994
 20
121.8786182707
 30
0.0
 11
133.5644018994
 21
125.8786182707
 31
0.0
  0
LINE
  5
B2
330
40
100
AcDbEntity
  8
0007711
  6
Continuous
 62
     7
100
AcDbLine
 10
133.5644018994
 20
125.8786182707
 30
0.0
 11
133.7415341777
 21
126.1204827452
 31
0.0
  0
LINE
  5
B3
330
40
100
AcDbEntity
  8
0007711
  6
Continuous
 62
     7
100
AcDbLine
 10
133.5644018994
 20
121.8786182707
 30
0.0
 11
133.7415341777
 21
121.6367537963
 31
0.0
  0
LINE
  5
B4
330
40
100
AcDbEntity
  8
0007711
  6
Continuous
 62
     7
100
AcDbLine
 10
133.4675380194
 20
125.8786182707
 30
0.0
 11
133.4675380194
 21
121.8786182707
 31
0.0
  0
LINE
  5
B5
330
40
100
AcDbEntity
  8
0007711
  6
Continuous
 62
     7
100
AcDbLine
 10
133.7415341777
 20
121.6367537963
 30
0.0
 11
133.4675380194
 21
121.8786182707
 31
0.0
  0
LINE
  5
B6
330
40
100
AcDbEntity
  8
0007711
  6
Continuous
 62
     7
100
AcDbLine
 10
133.7415341777
 20
126.1204827452
 30
0.0
 11
133.4675380194
 21
125.8786182707
 31
0.0
  0
LINE
  5
B7
330
40
100
AcDbEntity
  8
0007711
  6
Continuous
 62
     7
100
AcDbLine
 10
133.5854591521
 20
125.8786182707
 30
0.0
 11
133.5644018994
 21
125.8786182707
 31
0.0
  0
LINE
  5
B8
330
40
100
AcDbEntity
  8
0007711
  6
Continuous
 62
     7
100
AcDbLine
 10
133.6931449621
 20
121.8786182707
 30
0.0
 11
133.7164108817
 21
121.8786182707
 31
0.0
  0
LINE
  5
B9
330
40
100
AcDbEntity
  8
0007711
  6
Continuous
 62
     7
100
AcDbLine
 10
133.6931449621
 20
121.8786182707
 30
0.0
 11
133.6931449621
 21
125.8786182707
 31
0.0
  0
LINE
  5
BA
330
40
100
AcDbEntity
  8
0007711
  6
Continuous
 62
     7
100
AcDbLine
 10
133.6931449621
 20
125.8786182707
 30
0.0
 11
133.8611556118
 21
126.1204827452
 31
0.0
  0
LINE
  5
BB
330
40
100
AcDbEntity
  8
0007711
  6
Continuous
 62
     7
100
AcDbLine
 10
133.6931449621
 20
121.8786182707
 30
0.0
 11
133.8611556118
 21
121.6367537963
 31
0.0
  0
LINE
  5
BC
330
40
100
AcDbEntity
  8
0007711
  6
Continuous
 62
     7
100
AcDbLine
 10
133.5854591521
 20
125.8786182707
 30
0.0
 11
133.5854591521
 21
121.8786182707
 31
0.0
  0
LINE
  5
BD
330
40
100
AcDbEntity
  8
0007711
  6
Continuous
 62
     7
100
AcDbLine
 10
133.8611556118
 20
121.6367537963
 30
0.0
 11
133.5854591521
 21
121.8786182707
 31
0.0
  0
LINE
  5
BE
330
40
100
AcDbEntity
  8
0007711
  6
Continuous
 62
     7
100
AcDbLine
 10
133.8611556118
 20
126.1204827452
 30
0.0
 11
133.5854591521
 21
125.8786182707
 31
0.0
  0
LINE
  5
BF
330
40
100
AcDbEntity
  8
0007711
  6
Continuous
 62
     7
100
AcDbLine
 10
133.7164108817
 20
125.8786182707
 30
0.0
 11
133.6931449621
 21
125.8786182707
 31
0.0
  0
LINE
  5
C0
330
40
100
AcDbEntity
  8
0007711
  6
Continuous
 62
     7
100
AcDbLine
 10
133.8347297043
 20
121.8786182707
 30
0.0
 11
133.8601634745
 21
121.8786182707
 31
0.0
  0
LINE
  5
C1
330
40
100
AcDbEntity
  8
0007711
  6
Continuous
 62
     7
100
AcDbLine
 10
133.8347297043
 20
121.8786182707
 30
0.0
 11
133.8347297043
 21
125.8786182707
 31
0.0
  0
LINE
  5
C2
330
40
100
AcDbEntity
  8
0007711
  6
Continuous
 62
     7
100
AcDbLine
 10
133.8347297043
 20
125.8786182707
 30
0.0
 11
133.9933239776
 21
126.1204827452
 31
0.0
  0
LINE
  5
C3
330
40
100
AcDbEntity
  8
0007711
  6
Continuous
 62
     7
100
AcDbLine
 10
133.8347297043
 20
121.8786182707
 30
0.0
 11
133.9933239776
 21
121.6367537963
 31
0.0
  0
LINE
  5
C4
330
40
100
AcDbEntity
  8
0007711
  6
Continuous
 62
     7
100
AcDbLine
 10
133.7164108817
 20
125.8786182707
 30
0.0
 11
133.7164108817
 21
121.8786182707
 31
0.0
  0
LINE
  5
C5
330
40
100
AcDbEntity
  8
0007711
  6
Continuous
 62
     7
100
AcDbLine
 10
133.9933239776
 20
121.6367537963
 30
0.0
 11
133.7164108817
 21
121.8786182707
 31
0.0
  0
LINE
  5
C6
330
40
100
AcDbEntity
  8
0007711
  6
Continuous
 62
     7
100
AcDbLine
 10
133.9933239776
 20
126.1204827452
 30
0.0
 11
133.7164108817
 21
125.8786182707
 31
0.0
  0
LINE
  5
C7
330
40
100
AcDbEntity
  8
0007711
  6
Continuous
 62
     7
100
AcDbLine
 10
133.8601634745
 20
125.8786182707
 30
0.0
 11
133.8347297043
 21
125.8786182707
 31
0.0
  0
LINE
  5
C8
330
40
100
AcDbEntity
  8
0007711
  6
Continuous
 62
     7
100
AcDbLine
 10
133.9889077381
 20
121.8786182707
 30
0.0
 11
134.0164647395
 21
121.8786182707
 31
0.0
  0
LINE
  5
C9
330
40
100
AcDbEntity
  8
0007711
  6
Continuous
 62
     7
100
AcDbLine
 10
133.9889077381
 20
121.8786182707
 30
0.0
 11
133.9889077381
 21
125.8786182707
 31
0.0
  0
LINE
  5
CA
330
40
100
AcDbEntity
  8
0007711
  6
Continuous
 62
     7
100
AcDbLine
 10
133.9889077381
 20
125.8786182707
 30
0.0
 11
134.1378074069
 21
126.1204827452
 31
0.0
  0
LINE
  5
CB
330
40
100
AcDbEntity
  8
0007711
  6
Continuous
 62
     7
100
AcDbLine
 10
133.9889077381
 20
121.8786182707
 30
0.0
 11
134.1378074069
 21
121.6367537963
 31
0.0
  0
LINE
  5
CC
330
40
100
AcDbEntity
  8
0007711
  6
Continuous
 62
     7
100
AcDbLine
 10
133.8601634745
 20
125.8786182707
 30
0.0
 11
133.8601634745
 21
121.8786182707
 31
0.0
  0
LINE
  5
CD
330
40
100
AcDbEntity
  8
0007711
  6
Continuous
 62
     7
100
AcDbLine
 10
134.1378074069
 20
121.6367537963
 30
0.0
 11
133.8601634745
 21
121.8786182707
 31
0.0
  0
LINE
  5
CE
330
40
100
AcDbEntity
  8
0007711
  6
Continuous
 62
     7
100
AcDbLine
 10
134.1378074069
 20
126.1204827452
 30
0.0
 11
133.8601634745
 21
125.8786182707
 31
0.0
  0
LINE
  5
CF
330
40
100
AcDbEntity
  8
0007711
  6
Continuous
 62
     7
100
AcDbLine
 10
134.0164647395
 20
125.8786182707
 30
0.0
 11
133.9889077381
 21
125.8786182707
 31
0.0
  0
LINE
  5
D0
330
40
100
AcDbEntity
  8
0007711
  6
Continuous
 62
     7
100
AcDbLine
 10
134.1554085831
 20
121.8786182707
 30
0.0
 11
134.1850404713
 21
121.8786182707
 31
0.0
  0
LINE
  5
D1
330
40
100
AcDbEntity
  8
0007711
  6
Continuous
 62
     7
100
AcDbLine
 10
134.1554085831
 20
121.8786182707
 30
0.0
 11
134.1554085831
 21
125.8786182707
 31
0.0
  0
LINE
  5
D2
330
40
100
AcDbEntity
  8
0007711
  6
Continuous
 62
     7
100
AcDbLine
 10
134.1554085831
 20
125.8786182707
 30
0.0
 11
134.2943524267
 21
126.1204827452
 31
0.0
  0
LINE
  5
D3
330
40
100
AcDbEntity
  8
0007711
  6
Continuous
 62
     7
100
AcDbLine
 10
134.1554085831
 20
121.8786182707
 30
0.0
 11
134.2943524267
 21
121.6367537963
 31
0.0
  0
LINE
  5
D4
330
40
100
AcDbEntity
  8
0007711
  6
Continuous
 62
     7
100
AcDbLine
 10
134.0164647395
 20
125.8786182707
 30
0.0
 11
134.0164647395
 21
121.8786182707
 31
0.0
  0
LINE
  5
D5
330
40
100
AcDbEntity
  8
0007711
  6
Continuous
 62
     7
100
AcDbLine
 10
134.2943524267
 20
121.6367537963
 30
0.0
 11
134.0164647395
 21
121.8786182707
 31
0.0
  0
LINE
  5
D6
330
40
100
AcDbEntity
  8
0007711
  6
Continuous
 62
     7
100
AcDbLine
 10
134.2943524267
 20
126.1204827452
 30
0.0
 11
134.0164647395
 21
125.8786182707
 31
0.0
  0
LINE
  5
D7
330
40
100
AcDbEntity
  8
0007711
  6
Continuous
 62
     7
100
AcDbLine
 10
134.1850404713
 20
125.8786182707
 30
0.0
 11
134.1554085831
 21
125.8786182707
 31
0.0
  0
LINE
  5
D8
330
40
100
AcDbEntity
  8
0007711
  6
Continuous
 62
     7
100
AcDbLine
 10
134.3339401401
 20
121.8786182707
 30
0.0
 11
134.3655949307
 21
121.8786182707
 31
0.0
  0
LINE
  5
D9
330
40
100
AcDbEntity
  8
0007711
  6
Continuous
 62
     7
100
AcDbLine
 10
134.3339401401
 20
121.8786182707
 30
0.0
 11
134.3339401401
 21
125.8786182707
 31
0.0
  0
LINE
  5
DA
330
40
100
AcDbEntity
  8
0007711
  6
Continuous
 62
     7
100
AcDbLine
 10
134.3339401401
 20
125.8786182707
 30
0.0
 11
134.4626844038
 21
126.1204827452
 31
0.0
  0
LINE
  5
DB
330
40
100
AcDbEntity
  8
0007711
  6
Continuous
 62
     7
100
AcDbLine
 10
134.3339401401
 20
121.8786182707
 30
0.0
 11
134.4626844038
 21
121.6367537963
 31
0.0
  0
LINE
  5
DC
330
40
100
AcDbEntity
  8
0007711
  6
Continuous
 62
     7
100
AcDbLine
 10
134.1850404713
 20
125.8786182707
 30
0.0
 11
134.1850404713
 21
121.8786182707
 31
0.0
  0
LINE
  5
DD
330
40
100
AcDbEntity
  8
0007711
  6
Continuous
 62
     7
100
AcDbLine
 10
134.4626844038
 20
121.6367537963
 30
0.0
 11
134.1850404713
 21
121.8786182707
 31
0.0
  0
LINE
  5
DE
330
40
100
AcDbEntity
  8
0007711
  6
Continuous
 62
     7
100
AcDbLine
 10
134.4626844038
 20
126.1204827452
 30
0.0
 11
134.1850404713
 21
125.8786182707
 31
0.0
  0
LINE
  5
DF
330
40
100
AcDbEntity
  8
0007711
  6
Continuous
 62
     7
100
AcDbLine
 10
134.3655949307
 20
125.8786182707
 30
0.0
 11
134.3339401401
 21
125.8786182707
 31
0.0
  0
LINE
  5
E0
330
40
100
AcDbEntity
  8
0007711
  6
Continuous
 62
     7
100
AcDbLine
 10
134.5241892041
 20
121.8786182707
 30
0.0
 11
134.5578113639
 21
121.8786182707
 31
0.0
  0
LINE
  5
E1
330
40
100
AcDbEntity
  8
0007711
  6
Continuous
 62
     7
100
AcDbLine
 10
134.5241892041
 20
121.8786182707
 30
0.0
 11
134.5241892041
 21
125.8786182707
 31
0.0
  0
LINE
  5
E2
330
40
100
AcDbEntity
  8
0007711
  6
Continuous
 62
     7
100
AcDbLine
 10
134.5241892041
 20
125.8786182707
 30
0.0
 11
134.6425080267
 21
126.1204827452
 31
0.0
  0
LINE
  5
E3
330
40
100
AcDbEntity
  8
0007711
  6
Continuous
 62
     7
100
AcDbLine
 10
134.5241892041
 20
121.8786182707
 30
0.0
 11
134.6425080267
 21
121.6367537963
 31
0.0
  0
LINE
  5
E4
330
40
100
AcDbEntity
  8
0007711
  6
Continuous
 62
     7
100
AcDbLine
 10
134.3655949307
 20
125.8786182707
 30
0.0
 11
134.3655949307
 21
121.8786182707
 31
0.0
  0
LINE
  5
E5
330
40
100
AcDbEntity
  8
0007711
  6
Continuous
 62
     7
100
AcDbLine
 10
134.6425080267
 20
121.6367537963
 30
0.0
 11
134.3655949307
 21
121.8786182707
 31
0.0
  0
LINE
  5
E6
330
40
100
AcDbEntity
  8
0007711
  6
Continuous
 62
     7
100
AcDbLine
 10
134.6425080267
 20
126.1204827452
 30
0.0
 11
134.3655949307
 21
125.8786182707
 31
0.0
  0
LINE
  5
E7
330
40
100
AcDbEntity
  8
0007711
  6
Continuous
 62
     7
100
AcDbLine
 10
134.5578113639
 20
125.8786182707
 30
0.0
 11
134.5241892041
 21
125.8786182707
 31
0.0
  0
LINE
  5
E8
330
40
100
AcDbEntity
  8
0007711
  6
Continuous
 62
     7
100
AcDbLine
 10
134.7258220136
 20
121.8786182707
 30
0.0
 11
134.7613525579
 21
121.8786182707
 31
0.0
  0
LINE
  5
E9
330
40
100
AcDbEntity
  8
0007711
  6
Continuous
 62
     7
100
AcDbLine
 10
134.7258220136
 20
121.8786182707
 30
0.0
 11
134.7258220136
 21
125.8786182707
 31
0.0
  0
LINE
  5
EA
330
40
100
AcDbEntity
  8
0007711
  6
Continuous
 62
     7
100
AcDbLine
 10
134.7258220136
 20
125.8786182707
 30
0.0
 11
134.8335078236
 21
126.1204827452
 31
0.0
  0
LINE
  5
EB
330
40
100
AcDbEntity
  8
0007711
  6
Continuous
 62
     7
100
AcDbLine
 10
134.7258220136
 20
121.8786182707
 30
0.0
 11
134.8335078236
 21
121.6367537963
 31
0.0
  0
LINE
  5
EC
330
40
100
AcDbEntity
  8
0007711
  6
Continuous
 62
     7
100
AcDbLine
 10
134.5578113639
 20
125.8786182707
 30
0.0
 11
134.5578113639
 21
121.8786182707
 31
0.0
  0
LINE
  5
ED
330
40
100
AcDbEntity
  8
0007711
  6
Continuous
 62
     7
100
AcDbLine
 10
134.8335078236
 20
121.6367537963
 30
0.0
 11
134.5578113639
 21
121.8786182707
 31
0.0
  0
LINE
  5
EE
330
40
100
AcDbEntity
  8
0007711
  6
Continuous
 62
     7
100
AcDbLine
 10
134.8335078236
 20
126.1204827452
 30
0.0
 11
134.5578113639
 21
125.8786182707
 31
0.0
  0
LINE
  5
EF
330
40
100
AcDbEntity
  8
0007711
  6
Continuous
 62
     7
100
AcDbLine
 10
134.7613525579
 20
125.8786182707
 30
0.0
 11
134.7258220136
 21
125.8786182707
 31
0.0
  0
LINE
  5
F0
330
40
100
AcDbEntity
  8
0007711
  6
Continuous
 62
     7
100
AcDbLine
 10
134.9384848361
 20
121.8786182707
 30
0.0
 11
134.9758614322
 21
121.8786182707
 31
0.0
  0
LINE
  5
F1
330
40
100
AcDbEntity
  8
0007711
  6
Continuous
 62
     7
100
AcDbLine
 10
134.9384848361
 20
121.8786182707
 30
0.0
 11
134.9384848361
 21
125.8786182707
 31
0.0
  0
LINE
  5
F2
330
40
100
AcDbEntity
  8
0007711
  6
Continuous
 62
     7
100
AcDbLine
 10
134.9384848361
 20
125.8786182707
 30
0.0
 11
135.0353487161
 21
126.1204827452
 31
0.0
  0
LINE
  5
F3
330
40
100
AcDbEntity
  8
0007711
  6
Continuous
 62
     7
100
AcDbLine
 10
134.9384848361
 20
121.8786182707
 30
0.0
 11
135.0353487161
 21
121.6367537963
 31
0.0
  0
LINE
  5
F4
330
40
100
AcDbEntity
  8
0007711
  6
Continuous
 62
     7
100
AcDbLine
 10
134.7613525579
 20
125.8786182707
 30
0.0
 11
134.7613525579
 21
121.8786182707
 31
0.0
  0
LINE
  5
F5
330
40
100
AcDbEntity
  8
0007711
  6
Continuous
 62
     7
100
AcDbLine
 10
135.0353487161
 20
121.6367537963
 30
0.0
 11
134.7613525579
 21
121.8786182707
 31
0.0
  0
LINE
  5
F6
330
40
100
AcDbEntity
  8
0007711
  6
Continuous
 62
     7
100
AcDbLine
 10
135.0353487161
 20
126.1204827452
 30
0.0
 11
134.7613525579
 21
125.8786182707
 31
0.0
  0
LINE
  5
F7
330
40
100
AcDbEntity
  8
0007711
  6
Continuous
 62
     7
100
AcDbLine
 10
134.9758614322
 20
125.8786182707
 30
0.0
 11
134.9384848361
 21
125.8786182707
 31
0.0
  0
LINE
  5
F8
330
40
100
AcDbEntity
  8
0007711
  6
Continuous
 62
     7
100
AcDbLine
 10
135.1618045888
 20
121.8786182707
 30
0.0
 11
135.2009616655
 21
121.8786182707
 31
0.0
  0
LINE
  5
F9
330
40
100
AcDbEntity
  8
0007711
  6
Continuous
 62
     7
100
AcDbLine
 10
135.1618045888
 20
121.8786182707
 30
0.0
 11
135.1618045888
 21
125.8786182707
 31
0.0
  0
LINE
  5
FA
330
40
100
AcDbEntity
  8
0007711
  6
Continuous
 62
     7
100
AcDbLine
 10
135.1618045888
 20
125.8786182707
 30
0.0
 11
135.2476766066
 21
126.1204827452
 31
0.0
  0
LINE
  5
FB
330
40
100
AcDbEntity
  8
0007711
  6
Continuous
 62
     7
100
AcDbLine
 10
135.1618045888
 20
121.8786182707
 30
0.0
 11
135.2476766066
 21
121.6367537963
 31
0.0
  0
LINE
  5
FC
330
40
100
AcDbEntity
  8
0007711
  6
Continuous
 62
     7
100
AcDbLine
 10
134.9758614322
 20
125.8786182707
 30
0.0
 11
134.9758614322
 21
121.8786182707
 31
0.0
  0
LINE
  5
FD
330
40
100
AcDbEntity
  8
0007711
  6
Continuous
 62
     7
100
AcDbLine
 10
135.2476766066
 20
121.6367537963
 30
0.0
 11
134.9758614322
 21
121.8786182707
 31
0.0
  0
LINE
  5
FE
330
40
100
AcDbEntity
  8
0007711
  6
Continuous
 62
     7
100
AcDbLine
 10
135.2476766066
 20
126.1204827452
 30
0.0
 11
134.9758614322
 21
125.8786182707
 31
0.0
  0
LINE
  5
FF
330
40
100
AcDbEntity
  8
0007711
  6
Continuous
 62
     7
100
AcDbLine
 10
135.2009616655
 20
125.8786182707
 30
0.0
 11
135.1618045888
 21
125.8786182707
 31
0.0
  0
LINE
  5
100
330
40
100
AcDbEntity
  8
0007711
  6
Continuous
 62
     7
100
AcDbLine
 10
135.3953894929
 20
121.8786182707
 30
0.0
 11
135.4362583554
 21
121.8786182707
 31
0.0
  0
LINE
  5
101
330
40
100
AcDbEntity
  8
0007711
  6
Continuous
 62
     7
100
AcDbLine
 10
135.3953894929
 20
121.8786182707
 30
0.0
 11
135.3953894929
 21
125.8786182707
 31
0.0
  0
LINE
  5
102
330
40
100
AcDbEntity
  8
0007711
  6
Continuous
 62
     7
100
AcDbLine
 10
135.3953894929
 20
125.8786182707
 30
0.0
 11
135.4701189999
 21
126.1204827452
 31
0.0
  0
LINE
  5
103
330
40
100
AcDbEntity
  8
0007711
  6
Continuous
 62
     7
100
AcDbLine
 10
135.3953894929
 20
121.8786182707
 30
0.0
 11
135.4701189999
 21
121.6367537963
 31
0.0
  0
LINE
  5
104
330
40
100
AcDbEntity
  8
0007711
  6
Continuous
 62
     7
100
AcDbLine
 10
135.2009616655
 20
125.8786182707
 30
0.0
 11
135.2009616655
 21
121.8786182707
 31
0.0
  0
LINE
  5
105
330
40
100
AcDbEntity
  8
0007711
  6
Continuous
 62
     7
100
AcDbLine
 10
135.4701189999
 20
121.6367537963
 30
0.0
 11
135.2009616655
 21
121.8786182707
 31
0.0
  0
LINE
  5
106
330
40
100
AcDbEntity
  8
0007711
  6
Continuous
 62
     7
100
AcDbLine
 10
135.4701189999
 20
126.1204827452
 30
0.0
 11
135.2009616655
 21
125.8786182707
 31
0.0
  0
LINE
  5
107
330
40
100
AcDbEntity
  8
0007711
  6
Continuous
 62
     7
100
AcDbLine
 10
135.4362583554
 20
125.8786182707
 30
0.0
 11
135.3953894929
 21
125.8786182707
 31
0.0
  0
LINE
  5
108
330
40
100
AcDbEntity
  8
0007711
  6
Continuous
 62
     7
100
AcDbLine
 10
135.6388297612
 20
121.8786182707
 30
0.0
 11
135.6813387116
 21
121.8786182707
 31
0.0
  0
LINE
  5
109
330
40
100
AcDbEntity
  8
0007711
  6
Continuous
 62
     7
100
AcDbLine
 10
135.6388297612
 20
121.8786182707
 30
0.0
 11
135.6388297612
 21
125.8786182707
 31
0.0
  0
LINE
  5
10A
330
40
100
AcDbEntity
  8
0007711
  6
Continuous
 62
     7
100
AcDbLine
 10
135.6388297612
 20
125.8786182707
 30
0.0
 11
135.7022856564
 21
126.1204827452
 31
0.0
  0
LINE
  5
10B
330
40
100
AcDbEntity
  8
0007711
  6
Continuous
 62
     7
100
AcDbLine
 10
135.6388297612
 20
121.8786182707
 30
0.0
 11
135.7022856564
 21
121.6367537963
 31
0.0
  0
LINE
  5
10C
330
40
100
AcDbEntity
  8
0007711
  6
Continuous
 62
     7
100
AcDbLine
 10
135.4362583554
 20
125.8786182707
 30
0.0
 11
135.4362583554
 21
121.8786182707
 31
0.0
  0
LINE
  5
10D
330
40
100
AcDbEntity
  8
0007711
  6
Continuous
 62
     7
100
AcDbLine
 10
135.7022856564
 20
121.6367537963
 30
0.0
 11
135.4362583554
 21
121.8786182707
 31
0.0
  0
LINE
  5
10E
330
40
100
AcDbEntity
  8
0007711
  6
Continuous
 62
     7
100
AcDbLine
 10
135.7022856564
 20
126.1204827452
 30
0.0
 11
135.4362583554
 21
125.8786182707
 31
0.0
  0
LINE
  5
10F
330
40
100
AcDbEntity
  8
0007711
  6
Continuous
 62
     7
100
AcDbLine
 10
135.6813387116
 20
125.8786182707
 30
0.0
 11
135.6388297612
 21
125.8786182707
 31
0.0
  0
LINE
  5
110
330
40
100
AcDbEntity
  8
0007711
  6
Continuous
 62
     7
100
AcDbLine
 10
135.8916983167
 20
121.8786182707
 30
0.0
 11
135.9357727798
 21
121.8786182707
 31
0.0
  0
LINE
  5
111
330
40
100
AcDbEntity
  8
0007711
  6
Continuous
 62
     7
100
AcDbLine
 10
135.8916983167
 20
121.8786182707
 30
0.0
 11
135.8916983167
 21
125.8786182707
 31
0.0
  0
LINE
  5
112
330
40
100
AcDbEntity
  8
0007711
  6
Continuous
 62
     7
100
AcDbLine
 10
135.8916983167
 20
125.8786182707
 30
0.0
 11
135.9437692769
 21
126.1204827452
 31
0.0
  0
LINE
  5
113
330
40
100
AcDbEntity
  8
0007711
  6
Continuous
 62
     7
100
AcDbLine
 10
135.8916983167
 20
121.8786182707
 30
0.0
 11
135.9437692769
 21
121.6367537963
 31
0.0
  0
LINE
  5
114
330
40
100
AcDbEntity
  8
0007711
  6
Continuous
 62
     7
100
AcDbLine
 10
135.6813387116
 20
125.8786182707
 30
0.0
 11
135.6813387116
 21
121.8786182707
 31
0.0
  0
LINE
  5
115
330
40
100
AcDbEntity
  8
0007711
  6
Continuous
 62
     7
100
AcDbLine
 10
135.9437692769
 20
121.6367537963
 30
0.0
 11
135.6813387116
 21
121.8786182707
 31
0.0
  0
LINE
  5
116
330
40
100
AcDbEntity
  8
0007711
  6
Continuous
 62
     7
100
AcDbLine
 10
135.9437692769
 20
126.1204827452
 30
0.0
 11
135.6813387116
 21
125.8786182707
 31
0.0
  0
LINE
  5
117
330
40
100
AcDbEntity
  8
0007711
  6
Continuous
 62
     7
100
AcDbLine
 10
135.9357727798
 20
125.8786182707
 30
0.0
 11
135.8916983167
 21
125.8786182707
 31
0.0
  0
LINE
  5
118
330
40
100
AcDbEntity
  8
0007711
  6
Continuous
 62
     7
100
AcDbLine
 10
136.1535515421
 20
121.8786182707
 30
0.0
 11
136.1991141963
 21
121.8786182707
 31
0.0
  0
LINE
  5
119
330
40
100
AcDbEntity
  8
0007711
  6
Continuous
 62
     7
100
AcDbLine
 10
136.1535515421
 20
121.8786182707
 30
0.0
 11
136.1535515421
 21
125.8786182707
 31
0.0
  0
LINE
  5
11A
330
40
100
AcDbEntity
  8
0007711
  6
Continuous
 62
     7
100
AcDbLine
 10
136.1535515421
 20
125.8786182707
 30
0.0
 11
136.194146217
 21
126.1204827452
 31
0.0
  0
LINE
  5
11B
330
40
100
AcDbEntity
  8
0007711
  6
Continuous
 62
     7
100
AcDbLine
 10
136.1535515421
 20
121.8786182707
 30
0.0
 11
136.194146217
 21
121.6367537963
 31
0.0
  0
LINE
  5
11C
330
40
100
AcDbEntity
  8
0007711
  6
Continuous
 62
     7
100
AcDbLine
 10
135.9357727798
 20
125.8786182707
 30
0.0
 11
135.9357727798
 21
121.8786182707
 31
0.0
  0
LINE
  5
11D
330
40
100
AcDbEntity
  8
0007711
  6
Continuous
 62
     7
100
AcDbLine
 10
136.194146217
 20
121.6367537963
 30
0.0
 11
135.9357727798
 21
121.8786182707
 31
0.0
  0
LINE
  5
11E
330
40
100
AcDbEntity
  8
0007711
  6
Continuous
 62
     7
100
AcDbLine
 10
136.194146217
 20
126.1204827452
 30
0.0
 11
135.9357727798
 21
125.8786182707
 31
0.0
  0
LINE
  5
11F
330
40
100
AcDbEntity
  8
0007711
  6
Continuous
 62
     7
100
AcDbLine
 10
136.1991141963
 20
125.8786182707
 30
0.0
 11
136.1535515421
 21
125.8786182707
 31
0.0
  0
LINE
  5
120
330
40
100
AcDbEntity
  8
0007711
  6
Continuous
 62
     7
100
AcDbLine
 10
136.4239300577
 20
121.8786182707
 30
0.0
 11
136.4709009707
 21
121.8786182707
 31
0.0
  0
LINE
  5
121
330
40
100
AcDbEntity
  8
0007711
  6
Continuous
 62
     7
100
AcDbLine
 10
136.4239300577
 20
121.8786182707
 30
0.0
 11
136.4239300577
 21
125.8786182707
 31
0.0
  0
LINE
  5
122
330
40
100
AcDbEntity
  8
0007711
  6
Continuous
 62
     7
100
AcDbLine
 10
136.4239300577
 20
125.8786182707
 30
0.0
 11
136.4529772306
 21
126.1204827452
 31
0.0
  0
LINE
  5
123
330
40
100
AcDbEntity
  8
0007711
  6
Continuous
 62
     7
100
AcDbLine
 10
136.4239300577
 20
121.8786182707
 30
0.0
 11
136.4529772306
 21
121.6367537963
 31
0.0
  0
LINE
  5
124
330
40
100
AcDbEntity
  8
0007711
  6
Continuous
 62
     7
100
AcDbLine
 10
136.1991141963
 20
125.8786182707
 30
0.0
 11
136.1991141963
 21
121.8786182707
 31
0.0
  0
LINE
  5
125
330
40
100
AcDbEntity
  8
0007711
  6
Continuous
 62
     7
100
AcDbLine
 10
136.4529772306
 20
121.6367537963
 30
0.0
 11
136.1991141963
 21
121.8786182707
 31
0.0
  0
LINE
  5
126
330
40
100
AcDbEntity
  8
0007711
  6
Continuous
 62
     7
100
AcDbLine
 10
136.4529772306
 20
126.1204827452
 30
0.0
 11
136.1991141963
 21
125.8786182707
 31
0.0
  0
LINE
  5
127
330
40
100
AcDbEntity
  8
0007711
  6
Continuous
 62
     7
100
AcDbLine
 10
136.4709009707
 20
125.8786182707
 30
0.0
 11
136.4239300577
 21
125.8786182707
 31
0.0
  0
LINE
  5
128
330
40
100
AcDbEntity
  8
0007711
  6
Continuous
 62
     7
100
AcDbLine
 10
136.7023595278
 20
121.8786182707
 30
0.0
 11
136.7506562967
 21
121.8786182707
 31
0.0
  0
LINE
  5
129
330
40
100
AcDbEntity
  8
0007711
  6
Continuous
 62
     7
100
AcDbLine
 10
136.7023595278
 20
121.8786182707
 30
0.0
 11
136.7023595278
 21
125.8786182707
 31
0.0
  0
LINE
  5
12A
330
40
100
AcDbEntity
  8
0007711
  6
Continuous
 62
     7
100
AcDbLine
 10
136.7023595278
 20
125.8786182707
 30
0.0
 11
136.7198082401
 21
126.1204827452
 31
0.0
  0
LINE
  5
12B
330
40
100
AcDbEntity
  8
0007711
  6
Continuous
 62
     7
100
AcDbLine
 10
136.7023595278
 20
121.8786182707
 30
0.0
 11
136.7198082401
 21
121.6367537963
 31
0.0
  0
LINE
  5
12C
330
40
100
AcDbEntity
  8
0007711
  6
Continuous
 62
     7
100
AcDbLine
 10
136.4709009707
 20
125.8786182707
 30
0.0
 11
136.4709009707
 21
121.8786182707
 31
0.0
  0
LINE
  5
12D
330
40
100
AcDbEntity
  8
0007711
  6
Continuous
 62
     7
100
AcDbLine
 10
136.7198082401
 20
121.6367537963
 30
0.0
 11
136.4709009707
 21
121.8786182707
 31
0.0
  0
LINE
  5
12E
330
40
100
AcDbEntity
  8
0007711
  6
Continuous
 62
     7
100
AcDbLine
 10
136.7198082401
 20
126.1204827452
 30
0.0
 11
136.4709009707
 21
125.8786182707
 31
0.0
  0
LINE
  5
12F
330
40
100
AcDbEntity
  8
0007711
  6
Continuous
 62
     7
100
AcDbLine
 10
136.7506562967
 20
125.8786182707
 30
0.0
 11
136.7023595278
 21
125.8786182707
 31
0.0
  0
LINE
  5
130
330
40
100
AcDbEntity
  8
0007711
  6
Continuous
 62
     7
100
AcDbLine
 10
136.9883514926
 20
121.8786182707
 30
0.0
 11
137.0378893883
 21
121.8786182707
 31
0.0
  0
LINE
  5
131
330
40
100
AcDbEntity
  8
0007711
  6
Continuous
 62
     7
100
AcDbLine
 10
136.9883514926
 20
121.8786182707
 30
0.0
 11
136.9883514926
 21
125.8786182707
 31
0.0
  0
LINE
  5
132
330
40
100
AcDbEntity
  8
0007711
  6
Continuous
 62
     7
100
AcDbLine
 10
136.9883514926
 20
125.8786182707
 30
0.0
 11
136.9941711332
 21
126.1204827452
 31
0.0
  0
LINE
  5
133
330
40
100
AcDbEntity
  8
0007711
  6
Continuous
 62
     7
100
AcDbLine
 10
136.9883514926
 20
121.8786182707
 30
0.0
 11
136.9941711332
 21
121.6367537963
 31
0.0
  0
LINE
  5
134
330
40
100
AcDbEntity
  8
0007711
  6
Continuous
 62
     7
100
AcDbLine
 10
136.7506562967
 20
125.8786182707
 30
0.0
 11
136.7506562967
 21
121.8786182707
 31
0.0
  0
LINE
  5
135
330
40
100
AcDbEntity
  8
0007711
  6
Continuous
 62
     7
100
AcDbLine
 10
136.9941711332
 20
121.6367537963
 30
0.0
 11
136.7506562967
 21
121.8786182707
 31
0.0
  0
LINE
  5
136
330
40
100
AcDbEntity
  8
0007711
  6
Continuous
 62
     7
100
AcDbLine
 10
136.9941711332
 20
126.1204827452
 30
0.0
 11
136.7506562967
 21
125.8786182707
 31
0.0
  0
LINE
  5
137
330
40
100
AcDbEntity
  8
0007711
  6
Continuous
 62
     7
100
AcDbLine
 10
137.0378893883
 20
125.8786182707
 30
0.0
 11
136.9883514926
 21
125.8786182707
 31
0.0
  0
LINE
  5
138
330
40
100
AcDbEntity
  8
0007711
  6
Continuous
 62
     7
100
AcDbLine
 10
137.2814042248
 20
121.8786182707
 30
0.0
 11
137.3320963411
 21
121.8786182707
 31
0.0
  0
LINE
  5
139
330
40
100
AcDbEntity
  8
0007711
  6
Continuous
 62
     7
100
AcDbLine
 10
137.2814042248
 20
121.8786182707
 30
0.0
 11
137.2814042248
 21
125.8786182707
 31
0.0
  0
LINE
  5
13A
330
40
100
AcDbEntity
  8
0007711
  6
Continuous
 62
     7
100
AcDbLine
 10
137.2814042248
 20
125.8786182707
 30
0.0
 11
137.2755845842
 21
126.1204827452
 31
0.0
  0
LINE
  5
13B
330
40
100
AcDbEntity
  8
0007711
  6
Continuous
 62
     7
100
AcDbLine
 10
137.2755845842
 20
121.6367537963
 30
0.0
 11
137.2755845842
 21
126.1204827452
 31
0.0
  0
LINE
  5
13C
330
40
100
AcDbEntity
  8
0007711
  6
Continuous
 62
     7
100
AcDbLine
 10
137.2814042248
 20
121.8786182707
 30
0.0
 11
137.2755845842
 21
121.6367537963
 31
0.0
  0
LINE
  5
13D
330
40
100
AcDbEntity
  8
0007711
  6
Continuous
 62
     7
100
AcDbLine
 10
137.0378893883
 20
125.8786182707
 30
0.0
 11
137.0378893883
 21
121.8786182707
 31
0.0
  0
LINE
  5
13E
330
40
100
AcDbEntity
  8
0007711
  6
Continuous
 62
     7
100
AcDbLine
 10
137.2755845842
 20
121.6367537963
 30
0.0
 11
137.0378893883
 21
121.8786182707
 31
0.0
  0
LINE
  5
13F
330
40
100
AcDbEntity
  8
0007711
  6
Continuous
 62
     7
100
AcDbLine
 10
137.2755845842
 20
126.1204827452
 30
0.0
 11
137.0378893883
 21
125.8786182707
 31
0.0
  0
LINE
  5
140
330
40
100
AcDbEntity
  8
0007711
  6
Continuous
 62
     7
100
AcDbLine
 10
137.3320963411
 20
125.8786182707
 30
0.0
 11
137.2814042248
 21
125.8786182707
 31
0.0
  0
LINE
  5
141
330
40
100
AcDbEntity
  8
0007711
  6
Continuous
 62
     7
100
AcDbLine
 10
137.5810036105
 20
121.8786182707
 30
0.0
 11
137.6327610162
 21
121.8786182707
 31
0.0
  0
LINE
  5
142
330
40
100
AcDbEntity
  8
0007711
  6
Continuous
 62
     7
100
AcDbLine
 10
137.5810036105
 20
121.8786182707
 30
0.0
 11
137.5810036105
 21
125.8786182707
 31
0.0
  0
LINE
  5
143
330
40
100
AcDbEntity
  8
0007711
  6
Continuous
 62
     7
100
AcDbLine
 10
137.5810036105
 20
125.8786182707
 30
0.0
 11
137.5635548983
 21
126.1204827452
 31
0.0
  0
LINE
  5
144
330
40
100
AcDbEntity
  8
0007711
  6
Continuous
 62
     7
100
AcDbLine
 10
137.5635548983
 20
121.6367537963
 30
0.0
 11
137.5635548983
 21
126.1204827452
 31
0.0
  0
LINE
  5
145
330
40
100
AcDbEntity
  8
0007711
  6
Continuous
 62
     7
100
AcDbLine
 10
137.5810036105
 20
121.8786182707
 30
0.0
 11
137.5635548983
 21
121.6367537963
 31
0.0
  0
LINE
  5
146
330
40
100
AcDbEntity
  8
0007711
  6
Continuous
 62
     7
100
AcDbLine
 10
137.3320963411
 20
125.8786182707
 30
0.0
 11
137.3320963411
 21
121.8786182707
 31
0.0
  0
LINE
  5
147
330
40
100
AcDbEntity
  8
0007711
  6
Continuous
 62
     7
100
AcDbLine
 10
137.5635548983
 20
121.6367537963
 30
0.0
 11
137.3320963411
 21
121.8786182707
 31
0.0
  0
LINE
  5
148
330
40
100
AcDbEntity
  8
0007711
  6
Continuous
 62
     7
100
AcDbLine
 10
137.5635548983
 20
126.1204827452
 30
0.0
 11
137.3320963411
 21
125.8786182707
 31
0.0
  0
LINE
  5
149
330
40
100
AcDbEntity
  8
0007711
  6
Continuous
 62
     7
100
AcDbLine
 10
137.6327610162
 20
125.8786182707
 30
0.0
 11
137.5810036105
 21
125.8786182707
 31
0.0
  0
LINE
  5
14A
330
40
100
AcDbEntity
  8
0007711
  6
Continuous
 62
     7
100
AcDbLine
 10
137.8866240505
 20
121.8786182707
 30
0.0
 11
137.9393559455
 21
121.8786182707
 31
0.0
  0
LINE
  5
14B
330
40
100
AcDbEntity
  8
0007711
  6
Continuous
 62
     7
100
AcDbLine
 10
137.8866240505
 20
121.8786182707
 30
0.0
 11
137.8866240505
 21
125.8786182707
 31
0.0
  0
LINE
  5
14C
330
40
100
AcDbEntity
  8
0007711
  6
Continuous
 62
     7
100
AcDbLine
 10
137.8866240505
 20
125.8786182707
 30
0.0
 11
137.8575768776
 21
126.1204827452
 31
0.0
  0
LINE
  5
14D
330
40
100
AcDbEntity
  8
0007711
  6
Continuous
 62
     7
100
AcDbLine
 10
137.8575768776
 20
121.6367537963
 30
0.0
 11
137.8575768776
 21
126.1204827452
 31
0.0
  0
LINE
  5
14E
330
40
100
AcDbEntity
  8
0007711
  6
Continuous
 62
     7
100
AcDbLine
 10
137.8866240505
 20
121.8786182707
 30
0.0
 11
137.8575768776
 21
121.6367537963
 31
0.0
  0
LINE
  5
14F
330
40
100
AcDbEntity
  8
0007711
  6
Continuous
 62
     7
100
AcDbLine
 10
137.6327610162
 20
125.8786182707
 30
0.0
 11
137.6327610162
 21
121.8786182707
 31
0.0
  0
LINE
  5
150
330
40
100
AcDbEntity
  8
0007711
  6
Continuous
 62
     7
100
AcDbLine
 10
137.8575768776
 20
121.6367537963
 30
0.0
 11
137.6327610162
 21
121.8786182707
 31
0.0
  0
LINE
  5
151
330
40
100
AcDbEntity
  8
0007711
  6
Continuous
 62
     7
100
AcDbLine
 10
137.8575768776
 20
126.1204827452
 30
0.0
 11
137.6327610162
 21
125.8786182707
 31
0.0
  0
LINE
  5
152
330
40
100
AcDbEntity
  8
0007711
  6
Continuous
 62
     7
100
AcDbLine
 10
137.9393559455
 20
125.8786182707
 30
0.0
 11
137.8866240505
 21
125.8786182707
 31
0.0
  0
LINE
  5
153
330
40
100
AcDbEntity
  8
0007711
  6
Continuous
 62
     7
100
AcDbLine
 10
138.1977293827
 20
121.8786182707
 30
0.0
 11
138.2513432574
 21
121.8786182707
 31
0.0
  0
LINE
  5
154
330
40
100
AcDbEntity
  8
0007711
  6
Continuous
 62
     7
100
AcDbLine
 10
138.1977293827
 20
121.8786182707
 30
0.0
 11
138.1977293827
 21
125.8786182707
 31
0.0
  0
LINE
  5
155
330
40
100
AcDbEntity
  8
0007711
  6
Continuous
 62
     7
100
AcDbLine
 10
138.1977293827
 20
125.8786182707
 30
0.0
 11
138.1571347078
 21
126.1204827452
 31
0.0
  0
LINE
  5
156
330
40
100
AcDbEntity
  8
0007711
  6
Continuous
 62
     7
100
AcDbLine
 10
138.1571347078
 20
121.6367537963
 30
0.0
 11
138.1571347078
 21
126.1204827452
 31
0.0
  0
LINE
  5
157
330
40
100
AcDbEntity
  8
0007711
  6
Continuous
 62
     7
100
AcDbLine
 10
138.1977293827
 20
121.8786182707
 30
0.0
 11
138.1571347078
 21
121.6367537963
 31
0.0
  0
LINE
  5
158
330
40
100
AcDbEntity
  8
0007711
  6
Continuous
 62
     7
100
AcDbLine
 10
137.9393559455
 20
125.8786182707
 30
0.0
 11
137.9393559455
 21
121.8786182707
 31
0.0
  0
LINE
  5
159
330
40
100
AcDbEntity
  8
0007711
  6
Continuous
 62
     7
100
AcDbLine
 10
138.1571347078
 20
121.6367537963
 30
0.0
 11
137.9393559455
 21
121.8786182707
 31
0.0
  0
LINE
  5
15A
330
40
100
AcDbEntity
  8
0007711
  6
Continuous
 62
     7
100
AcDbLine
 10
138.1571347078
 20
126.1204827452
 30
0.0
 11
137.9393559455
 21
125.8786182707
 31
0.0
  0
LINE
  5
15B
330
40
100
AcDbEntity
  8
0007711
  6
Continuous
 62
     7
100
AcDbLine
 10
138.2513432574
 20
125.8786182707
 30
0.0
 11
138.1977293827
 21
125.8786182707
 31
0.0
  0
LINE
  5
15C
330
40
100
AcDbEntity
  8
0007711
  6
Continuous
 62
     7
100
AcDbLine
 10
138.5137738227
 20
121.8786182707
 30
0.0
 11
138.5681756201
 21
121.8786182707
 31
0.0
  0
LINE
  5
15D
330
40
100
AcDbEntity
  8
0007711
  6
Continuous
 62
     7
100
AcDbLine
 10
138.5137738227
 20
121.8786182707
 30
0.0
 11
138.5137738227
 21
125.8786182707
 31
0.0
  0
LINE
  5
15E
330
40
100
AcDbEntity
  8
0007711
  6
Continuous
 62
     7
100
AcDbLine
 10
138.5137738227
 20
125.8786182707
 30
0.0
 11
138.4617028626
 21
126.1204827452
 31
0.0
  0
LINE
  5
15F
330
40
100
AcDbEntity
  8
0007711
  6
Continuous
 62
     7
100
AcDbLine
 10
138.4617028626
 20
121.6367537963
 30
0.0
 11
138.4617028626
 21
126.1204827452
 31
0.0
  0
LINE
  5
160
330
40
100
AcDbEntity
  8
0007711
  6
Continuous
 62
     7
100
AcDbLine
 10
138.5137738227
 20
121.8786182707
 30
0.0
 11
138.4617028626
 21
121.6367537963
 31
0.0
  0
LINE
  5
161
330
40
100
AcDbEntity
  8
0007711
  6
Continuous
 62
     7
100
AcDbLine
 10
138.2513432574
 20
125.8786182707
 30
0.0
 11
138.2513432574
 21
121.8786182707
 31
0.0
  0
LINE
  5
162
330
40
100
AcDbEntity
  8
0007711
  6
Continuous
 62
     7
100
AcDbLine
 10
138.4617028626
 20
121.6367537963
 30
0.0
 11
138.2513432574
 21
121.8786182707
 31
0.0
  0
LINE
  5
163
330
40
100
AcDbEntity
  8
0007711
  6
Continuous
 62
     7
100
AcDbLine
 10
138.4617028626
 20
126.1204827452
 30
0.0
 11
138.2513432574
 21
125.8786182707
 31
0.0
  0
LINE
  5
164
330
40
100
AcDbEntity
  8
0007711
  6
Continuous
 62
     7
100
AcDbLine
 10
138.5681756201
 20
125.8786182707
 30
0.0
 11
138.5137738227
 21
125.8786182707
 31
0.0
  0
LINE
  5
165
330
40
100
AcDbEntity
  8
0007711
  6
Continuous
 62
     7
100
AcDbLine
 10
138.8342029211
 20
121.8786182707
 30
0.0
 11
138.8892972019
 21
121.8786182707
 31
0.0
  0
LINE
  5
166
330
40
100
AcDbEntity
  8
0007711
  6
Continuous
 62
     7
100
AcDbLine
 10
138.8342029211
 20
121.8786182707
 30
0.0
 11
138.8342029211
 21
125.8786182707
 31
0.0
  0
LINE
  5
167
330
40
100
AcDbEntity
  8
0007711
  6
Continuous
 62
     7
100
AcDbLine
 10
138.8342029211
 20
125.8786182707
 30
0.0
 11
138.7707470259
 21
126.1204827452
 31
0.0
  0
LINE
  5
168
330
40
100
AcDbEntity
  8
0007711
  6
Continuous
 62
     7
100
AcDbLine
 10
138.7707470259
 20
121.6367537963
 30
0.0
 11
138.7707470259
 21
126.1204827452
 31
0.0
  0
LINE
  5
169
330
40
100
AcDbEntity
  8
0007711
  6
Continuous
 62
     7
100
AcDbLine
 10
138.8342029211
 20
121.8786182707
 30
0.0
 11
138.7707470259
 21
121.6367537963
 31
0.0
  0
LINE
  5
16A
330
40
100
AcDbEntity
  8
0007711
  6
Continuous
 62
     7
100
AcDbLine
 10
138.5681756201
 20
125.8786182707
 30
0.0
 11
138.5681756201
 21
121.8786182707
 31
0.0
  0
LINE
  5
16B
330
40
100
AcDbEntity
  8
0007711
  6
Continuous
 62
     7
100
AcDbLine
 10
138.7707470259
 20
121.6367537963
 30
0.0
 11
138.5681756201
 21
121.8786182707
 31
0.0
  0
LINE
  5
16C
330
40
100
AcDbEntity
  8
0007711
  6
Continuous
 62
     7
100
AcDbLine
 10
138.7707470259
 20
126.1204827452
 30
0.0
 11
138.5681756201
 21
125.8786182707
 31
0.0
  0
LINE
  5
16D
330
40
100
AcDbEntity
  8
0007711
  6
Continuous
 62
     7
100
AcDbLine
 10
138.8892972019
 20
125.8786182707
 30
0.0
 11
138.8342029211
 21
125.8786182707
 31
0.0
  0
LINE
  5
16E
330
40
100
AcDbEntity
  8
0007711
  6
Continuous
 62
     7
100
AcDbLine
 10
139.1584545363
 20
121.8786182707
 30
0.0
 11
139.2141446465
 21
121.8786182707
 31
0.0
  0
LINE
  5
16F
330
40
100
AcDbEntity
  8
0007711
  6
Continuous
 62
     7
100
AcDbLine
 10
139.1584545363
 20
121.8786182707
 30
0.0
 11
139.1584545363
 21
125.8786182707
 31
0.0
  0
LINE
  5
170
330
40
100
AcDbEntity
  8
0007711
  6
Continuous
 62
     7
100
AcDbLine
 10
139.1584545363
 20
125.8786182707
 30
0.0
 11
139.0837250294
 21
126.1204827452
 31
0.0
  0
LINE
  5
171
330
40
100
AcDbEntity
  8
0007711
  6
Continuous
 62
     7
100
AcDbLine
 10
139.0837250294
 20
121.6367537963
 30
0.0
 11
139.0837250294
 21
126.1204827452
 31
0.0
  0
LINE
  5
172
330
40
100
AcDbEntity
  8
0007711
  6
Continuous
 62
     7
100
AcDbLine
 10
139.1584545363
 20
121.8786182707
 30
0.0
 11
139.0837250294
 21
121.6367537963
 31
0.0
  0
LINE
  5
173
330
40
100
AcDbEntity
  8
0007711
  6
Continuous
 62
     7
100
AcDbLine
 10
138.8892972019
 20
125.8786182707
 30
0.0
 11
138.8892972019
 21
121.8786182707
 31
0.0
  0
LINE
  5
174
330
40
100
AcDbEntity
  8
0007711
  6
Continuous
 62
     7
100
AcDbLine
 10
139.0837250294
 20
121.6367537963
 30
0.0
 11
138.8892972019
 21
121.8786182707
 31
0.0
  0
LINE
  5
175
330
40
100
AcDbEntity
  8
0007711
  6
Continuous
 62
     7
100
AcDbLine
 10
139.0837250294
 20
126.1204827452
 30
0.0
 11
138.8892972019
 21
125.8786182707
 31
0.0
  0
LINE
  5
176
330
40
100
AcDbEntity
  8
0007711
  6
Continuous
 62
     7
100
AcDbLine
 10
139.2141446465
 20
125.8786182707
 30
0.0
 11
139.1584545363
 21
125.8786182707
 31
0.0
  0
LINE
  5
177
330
40
100
AcDbEntity
  8
0007711
  6
Continuous
 62
     7
100
AcDbLine
 10
139.485959821
 20
121.8786182707
 30
0.0
 11
139.5421480611
 21
121.8786182707
 31
0.0
  0
LINE
  5
178
330
40
100
AcDbEntity
  8
0007711
  6
Continuous
 62
     7
100
AcDbLine
 10
139.485959821
 20
121.8786182707
 30
0.0
 11
139.485959821
 21
125.8786182707
 31
0.0
  0
LINE
  5
179
330
40
100
AcDbEntity
  8
0007711
  6
Continuous
 62
     7
100
AcDbLine
 10
139.485959821
 20
125.8786182707
 30
0.0
 11
139.4000878031
 21
126.1204827452
 31
0.0
  0
LINE
  5
17A
330
40
100
AcDbEntity
  8
0007711
  6
Continuous
 62
     7
100
AcDbLine
 10
139.4000878031
 20
121.6367537963
 30
0.0
 11
139.4000878031
 21
126.1204827452
 31
0.0
  0
LINE
  5
17B
330
40
100
AcDbEntity
  8
0007711
  6
Continuous
 62
     7
100
AcDbLine
 10
139.485959821
 20
121.8786182707
 30
0.0
 11
139.4000878031
 21
121.6367537963
 31
0.0
  0
LINE
  5
17C
330
40
100
AcDbEntity
  8
0007711
  6
Continuous
 62
     7
100
AcDbLine
 10
139.2141446465
 20
125.8786182707
 30
0.0
 11
139.2141446465
 21
121.8786182707
 31
0.0
  0
LINE
  5
17D
330
40
100
AcDbEntity
  8
0007711
  6
Continuous
 62
     7
100
AcDbLine
 10
139.4000878031
 20
121.6367537963
 30
0.0
 11
139.2141446465
 21
121.8786182707
 31
0.0
  0
LINE
  5
17E
330
40
100
AcDbEntity
  8
0007711
  6
Continuous
 62
     7
100
AcDbLine
 10
139.4000878031
 20
126.1204827452
 30
0.0
 11
139.2141446465
 21
125.8786182707
 31
0.0
  0
LINE
  5
17F
330
40
100
AcDbEntity
  8
0007711
  6
Continuous
 62
     7
100
AcDbLine
 10
139.5421480611
 20
125.8786182707
 30
0.0
 11
139.485959821
 21
125.8786182707
 31
0.0
  0
LINE
  5
180
330
40
100
AcDbEntity
  8
0007711
  6
Continuous
 62
     7
100
AcDbLine
 10
139.8161442194
 20
121.8786182707
 30
0.0
 11
139.8727320163
 21
121.8786182707
 31
0.0
  0
LINE
  5
181
330
40
100
AcDbEntity
  8
0007711
  6
Continuous
 62
     7
100
AcDbLine
 10
139.8161442194
 20
121.8786182707
 30
0.0
 11
139.8161442194
 21
125.8786182707
 31
0.0
  0
LINE
  5
182
330
40
100
AcDbEntity
  8
0007711
  6
Continuous
 62
     7
100
AcDbLine
 10
139.8161442194
 20
125.8786182707
 30
0.0
 11
139.7192803394
 21
126.1204827452
 31
0.0
  0
LINE
  5
183
330
40
100
AcDbEntity
  8
0007711
  6
Continuous
 62
     7
100
AcDbLine
 10
139.7192803394
 20
121.6367537963
 30
0.0
 11
139.7192803394
 21
126.1204827452
 31
0.0
  0
LINE
  5
184
330
40
100
AcDbEntity
  8
0007711
  6
Continuous
 62
     7
100
AcDbLine
 10
139.8161442194
 20
121.8786182707
 30
0.0
 11
139.7192803394
 21
121.6367537963
 31
0.0
  0
LINE
  5
185
330
40
100
AcDbEntity
  8
0007711
  6
Continuous
 62
     7
100
AcDbLine
 10
139.5421480611
 20
125.8786182707
 30
0.0
 11
139.5421480611
 21
121.8786182707
 31
0.0
  0
LINE
  5
186
330
40
100
AcDbEntity
  8
0007711
  6
Continuous
 62
     7
100
AcDbLine
 10
139.7192803394
 20
121.6367537963
 30
0.0
 11
139.5421480611
 21
121.8786182707
 31
0.0
  0
LINE
  5
187
330
40
100
AcDbEntity
  8
0007711
  6
Continuous
 62
     7
100
AcDbLine
 10
139.7192803394
 20
126.1204827452
 30
0.0
 11
139.5421480611
 21
125.8786182707
 31
0.0
  0
LINE
  5
188
330
40
100
AcDbEntity
  8
0007711
  6
Continuous
 62
     7
100
AcDbLine
 10
139.8727320163
 20
125.8786182707
 30
0.0
 11
139.8161442194
 21
125.8786182707
 31
0.0
  0
LINE
  5
189
330
40
100
AcDbEntity
  8
0007711
  6
Continuous
 62
     7
100
AcDbLine
 10
140.148428476
 20
121.8786182707
 30
0.0
 11
140.2053165554
 21
121.8786182707
 31
0.0
  0
LINE
  5
18A
330
40
100
AcDbEntity
  8
0007711
  6
Continuous
 62
     7
100
AcDbLine
 10
140.148428476
 20
121.8786182707
 30
0.0
 11
140.148428476
 21
125.8786182707
 31
0.0
  0
LINE
  5
18B
330
40
100
AcDbEntity
  8
0007711
  6
Continuous
 62
     7
100
AcDbLine
 10
140.148428476
 20
125.8786182707
 30
0.0
 11
140.040742666
 21
126.1204827452
 31
0.0
  0
LINE
  5
18C
330
40
100
AcDbEntity
  8
0007711
  6
Continuous
 62
     7
100
AcDbLine
 10
140.040742666
 20
121.6367537963
 30
0.0
 11
140.040742666
 21
126.1204827452
 31
0.0
  0
LINE
  5
18D
330
40
100
AcDbEntity
  8
0007711
  6
Continuous
 62
     7
100
AcDbLine
 10
140.148428476
 20
121.8786182707
 30
0.0
 11
140.040742666
 21
121.6367537963
 31
0.0
  0
LINE
  5
18E
330
40
100
AcDbEntity
  8
0007711
  6
Continuous
 62
     7
100
AcDbLine
 10
139.8727320163
 20
125.8786182707
 30
0.0
 11
139.8727320163
 21
121.8786182707
 31
0.0
  0
LINE
  5
18F
330
40
100
AcDbEntity
  8
0007711
  6
Continuous
 62
     7
100
AcDbLine
 10
140.040742666
 20
121.6367537963
 30
0.0
 11
139.8727320163
 21
121.8786182707
 31
0.0
  0
LINE
  5
190
330
40
100
AcDbEntity
  8
0007711
  6
Continuous
 62
     7
100
AcDbLine
 10
140.040742666
 20
126.1204827452
 30
0.0
 11
139.8727320163
 21
125.8786182707
 31
0.0
  0
LINE
  5
191
330
40
100
AcDbEntity
  8
0007711
  6
Continuous
 62
     7
100
AcDbLine
 10
140.2053165554
 20
125.8786182707
 30
0.0
 11
140.148428476
 21
125.8786182707
 31
0.0
  0
LINE
  5
192
330
40
100
AcDbEntity
  8
0007711
  6
Continuous
 62
     7
100
AcDbLine
 10
140.4822296513
 20
121.8786182707
 30
0.0
 11
140.5393182122
 21
121.8786182707
 31
0.0
  0
LINE
  5
193
330
40
100
AcDbEntity
  8
0007711
  6
Continuous
 62
     7
100
AcDbLine
 10
140.4822296513
 20
121.8786182707
 30
0.0
 11
140.4822296513
 21
125.8786182707
 31
0.0
  0
LINE
  5
194
330
40
100
AcDbEntity
  8
0007711
  6
Continuous
 62
     7
100
AcDbLine
 10
140.4822296513
 20
125.8786182707
 30
0.0
 11
140.3639108288
 21
126.1204827452
 31
0.0
  0
LINE
  5
195
330
40
100
AcDbEntity
  8
0007711
  6
Continuous
 62
     7
100
AcDbLine
 10
140.3639108288
 20
121.6367537963
 30
0.0
 11
140.3639108288
 21
126.1204827452
 31
0.0
  0
LINE
  5
196
330
40
100
AcDbEntity
  8
0007711
  6
Continuous
 62
     7
100
AcDbLine
 10
140.4822296513
 20
121.8786182707
 30
0.0
 11
140.3639108288
 21
121.6367537963
 31
0.0
  0
LINE
  5
197
330
40
100
AcDbEntity
  8
0007711
  6
Continuous
 62
     7
100
AcDbLine
 10
140.2053165554
 20
125.8786182707
 30
0.0
 11
140.2053165554
 21
121.8786182707
 31
0.0
  0
LINE
  5
198
330
40
100
AcDbEntity
  8
0007711
  6
Continuous
 62
     7
100
AcDbLine
 10
140.3639108288
 20
121.6367537963
 30
0.0
 11
140.2053165554
 21
121.8786182707
 31
0.0
  0
LINE
  5
199
330
40
100
AcDbEntity
  8
0007711
  6
Continuous
 62
     7
100
AcDbLine
 10
140.3639108288
 20
126.1204827452
 30
0.0
 11
140.2053165554
 21
125.8786182707
 31
0.0
  0
LINE
  5
19A
330
40
100
AcDbEntity
  8
0007711
  6
Continuous
 62
     7
100
AcDbLine
 10
140.5393182122
 20
125.8786182707
 30
0.0
 11
140.4822296513
 21
125.8786182707
 31
0.0
  0
LINE
  5
19B
330
40
100
AcDbEntity
  8
0007711
  6
Continuous
 62
     7
100
AcDbLine
 10
140.8169621446
 20
121.8786182707
 30
0.0
 11
140.8741510342
 21
121.8786182707
 31
0.0
  0
LINE
  5
19C
330
40
100
AcDbEntity
  8
0007711
  6
Continuous
 62
     7
100
AcDbLine
 10
140.8169621446
 20
121.8786182707
 30
0.0
 11
140.8169621446
 21
125.8786182707
 31
0.0
  0
LINE
  5
19D
330
40
100
AcDbEntity
  8
0007711
  6
Continuous
 62
     7
100
AcDbLine
 10
140.8169621446
 20
125.8786182707
 30
0.0
 11
140.688217881
 21
126.1204827452
 31
0.0
  0
LINE
  5
19E
330
40
100
AcDbEntity
  8
0007711
  6
Continuous
 62
     7
100
AcDbLine
 10
140.688217881
 20
121.6367537963
 30
0.0
 11
140.688217881
 21
126.1204827452
 31
0.0
  0
LINE
  5
19F
330
40
100
AcDbEntity
  8
0007711
  6
Continuous
 62
     7
100
AcDbLine
 10
140.8169621446
 20
121.8786182707
 30
0.0
 11
140.688217881
 21
121.6367537963
 31
0.0
  0
LINE
  5
1A0
330
40
100
AcDbEntity
  8
0007711
  6
Continuous
 62
     7
100
AcDbLine
 10
140.5393182122
 20
125.8786182707
 30
0.0
 11
140.5393182122
 21
121.8786182707
 31
0.0
  0
LINE
  5
1A1
330
40
100
AcDbEntity
  8
0007711
  6
Continuous
 62
     7
100
AcDbLine
 10
140.688217881
 20
121.6367537963
 30
0.0
 11
140.5393182122
 21
121.8786182707
 31
0.0
  0
LINE
  5
1A2
330
40
100
AcDbEntity
  8
0007711
  6
Continuous
 62
     7
100
AcDbLine
 10
140.688217881
 20
126.1204827452
 30
0.0
 11
140.5393182122
 21
125.8786182707
 31
0.0
  0
LINE
  5
1A3
330
40
100
AcDbEntity
  8
0007711
  6
Continuous
 62
     7
100
AcDbLine
 10
140.8741510342
 20
125.8786182707
 30
0.0
 11
140.8169621446
 21
125.8786182707
 31
0.0
  0
LINE
  5
1A4
330
40
100
AcDbEntity
  8
0007711
  6
Continuous
 62
     7
100
AcDbLine
 10
141.1520387214
 20
121.8786182707
 30
0.0
 11
141.209227611
 21
121.8786182707
 31
0.0
  0
LINE
  5
1A5
330
40
100
AcDbEntity
  8
0007711
  6
Continuous
 62
     7
100
AcDbLine
 10
141.1520387214
 20
121.8786182707
 30
0.0
 11
141.1520387214
 21
125.8786182707
 31
0.0
  0
LINE
  5
1A6
330
40
100
AcDbEntity
  8
0007711
  6
Continuous
 62
     7
100
AcDbLine
 10
141.1520387214
 20
125.8786182707
 30
0.0
 11
141.0130948778
 21
126.1204827452
 31
0.0
  0
LINE
  5
1A7
330
40
100
AcDbEntity
  8
0007711
  6
Continuous
 62
     7
100
AcDbLine
 10
141.0130948778
 20
121.6367537963
 30
0.0
 11
141.0130948778
 21
126.1204827452
 31
0.0
  0
LINE
  5
1A8
330
40
100
AcDbEntity
  8
0007711
  6
Continuous
 62
     7
100
AcDbLine
 10
141.1520387214
 20
121.8786182707
 30
0.0
 11
141.0130948778
 21
121.6367537963
 31
0.0
  0
LINE
  5
1A9
330
40
100
AcDbEntity
  8
0007711
  6
Continuous
 62
     7
100
AcDbLine
 10
140.8741510342
 20
125.8786182707
 30
0.0
 11
140.8741510342
 21
121.8786182707
 31
0.0
  0
LINE
  5
1AA
330
40
100
AcDbEntity
  8
0007711
  6
Continuous
 62
     7
100
AcDbLine
 10
141.0130948778
 20
121.6367537963
 30
0.0
 11
140.8741510342
 21
121.8786182707
 31
0.0
  0
LINE
  5
1AB
330
40
100
AcDbEntity
  8
0007711
  6
Continuous
 62
     7
100
AcDbLine
 10
141.0130948778
 20
126.1204827452
 30
0.0
 11
140.8741510342
 21
125.8786182707
 31
0.0
  0
LINE
  5
1AC
330
40
100
AcDbEntity
  8
0007711
  6
Continuous
 62
     7
100
AcDbLine
 10
141.209227611
 20
125.8786182707
 30
0.0
 11
141.1520387214
 21
125.8786182707
 31
0.0
  0
LINE
  5
1AD
330
40
100
AcDbEntity
  8
0007711
  6
Continuous
 62
     7
100
AcDbLine
 10
141.4868715434
 20
121.8786182707
 30
0.0
 11
141.5439601043
 21
121.8786182707
 31
0.0
  0
LINE
  5
1AE
330
40
100
AcDbEntity
  8
0007711
  6
Continuous
 62
     7
100
AcDbLine
 10
141.4868715434
 20
121.8786182707
 30
0.0
 11
141.4868715434
 21
125.8786182707
 31
0.0
  0
LINE
  5
1AF
330
40
100
AcDbEntity
  8
0007711
  6
Continuous
 62
     7
100
AcDbLine
 10
141.4868715434
 20
125.8786182707
 30
0.0
 11
141.3379718747
 21
126.1204827452
 31
0.0
  0
LINE
  5
1B0
330
40
100
AcDbEntity
  8
0007711
  6
Continuous
 62
     7
100
AcDbLine
 10
141.3379718747
 20
121.6367537963
 30
0.0
 11
141.3379718747
 21
126.1204827452
 31
0.0
  0
LINE
  5
1B1
330
40
100
AcDbEntity
  8
0007711
  6
Continuous
 62
     7
100
AcDbLine
 10
141.4868715434
 20
121.8786182707
 30
0.0
 11
141.3379718747
 21
121.6367537963
 31
0.0
  0
LINE
  5
1B2
330
40
100
AcDbEntity
  8
0007711
  6
Continuous
 62
     7
100
AcDbLine
 10
141.209227611
 20
125.8786182707
 30
0.0
 11
141.209227611
 21
121.8786182707
 31
0.0
  0
LINE
  5
1B3
330
40
100
AcDbEntity
  8
0007711
  6
Continuous
 62
     7
100
AcDbLine
 10
141.3379718747
 20
121.6367537963
 30
0.0
 11
141.209227611
 21
121.8786182707
 31
0.0
  0
LINE
  5
1B4
330
40
100
AcDbEntity
  8
0007711
  6
Continuous
 62
     7
100
AcDbLine
 10
141.3379718747
 20
126.1204827452
 30
0.0
 11
141.209227611
 21
125.8786182707
 31
0.0
  0
LINE
  5
1B5
330
40
100
AcDbEntity
  8
0007711
  6
Continuous
 62
     7
100
AcDbLine
 10
141.5439601043
 20
125.8786182707
 30
0.0
 11
141.4868715434
 21
125.8786182707
 31
0.0
  0
LINE
  5
1B6
330
40
100
AcDbEntity
  8
0007711
  6
Continuous
 62
     7
100
AcDbLine
 10
141.8208732002
 20
121.8786182707
 30
0.0
 11
141.8777612796
 21
121.8786182707
 31
0.0
  0
LINE
  5
1B7
330
40
100
AcDbEntity
  8
0007711
  6
Continuous
 62
     7
100
AcDbLine
 10
141.8208732002
 20
121.8786182707
 30
0.0
 11
141.8208732002
 21
125.8786182707
 31
0.0
  0
LINE
  5
1B8
330
40
100
AcDbEntity
  8
0007711
  6
Continuous
 62
     7
100
AcDbLine
 10
141.8208732002
 20
125.8786182707
 30
0.0
 11
141.6622789269
 21
126.1204827452
 31
0.0
  0
LINE
  5
1B9
330
40
100
AcDbEntity
  8
0007711
  6
Continuous
 62
     7
100
AcDbLine
 10
141.6622789269
 20
121.6367537963
 30
0.0
 11
141.6622789269
 21
126.1204827452
 31
0.0
  0
LINE
  5
1BA
330
40
100
AcDbEntity
  8
0007711
  6
Continuous
 62
     7
100
AcDbLine
 10
141.8208732002
 20
121.8786182707
 30
0.0
 11
141.6622789269
 21
121.6367537963
 31
0.0
  0
LINE
  5
1BB
330
40
100
AcDbEntity
  8
0007711
  6
Continuous
 62
     7
100
AcDbLine
 10
141.5439601043
 20
125.8786182707
 30
0.0
 11
141.5439601043
 21
121.8786182707
 31
0.0
  0
LINE
  5
1BC
330
40
100
AcDbEntity
  8
0007711
  6
Continuous
 62
     7
100
AcDbLine
 10
141.6622789269
 20
121.6367537963
 30
0.0
 11
141.5439601043
 21
121.8786182707
 31
0.0
  0
LINE
  5
1BD
330
40
100
AcDbEntity
  8
0007711
  6
Continuous
 62
     7
100
AcDbLine
 10
141.6622789269
 20
126.1204827452
 30
0.0
 11
141.5439601043
 21
125.8786182707
 31
0.0
  0
LINE
  5
1BE
330
40
100
AcDbEntity
  8
0007711
  6
Continuous
 62
     7
100
AcDbLine
 10
141.8777612796
 20
125.8786182707
 30
0.0
 11
141.8208732002
 21
125.8786182707
 31
0.0
  0
LINE
  5
1BF
330
40
100
AcDbEntity
  8
0007711
  6
Continuous
 62
     7
100
AcDbLine
 10
142.1534577393
 20
121.8786182707
 30
0.0
 11
142.2100455362
 21
121.8786182707
 31
0.0
  0
LINE
  5
1C0
330
40
100
AcDbEntity
  8
0007711
  6
Continuous
 62
     7
100
AcDbLine
 10
142.1534577393
 20
121.8786182707
 30
0.0
 11
142.1534577393
 21
125.8786182707
 31
0.0
  0
LINE
  5
1C1
330
40
100
AcDbEntity
  8
0007711
  6
Continuous
 62
     7
100
AcDbLine
 10
142.1534577393
 20
125.8786182707
 30
0.0
 11
141.9854470897
 21
126.1204827452
 31
0.0
  0
LINE
  5
1C2
330
40
100
AcDbEntity
  8
0007711
  6
Continuous
 62
     7
100
AcDbLine
 10
141.9854470897
 20
121.6367537963
 30
0.0
 11
141.9854470897
 21
126.1204827452
 31
0.0
  0
LINE
  5
1C3
330
40
100
AcDbEntity
  8
0007711
  6
Continuous
 62
     7
100
AcDbLine
 10
142.1534577393
 20
121.8786182707
 30
0.0
 11
141.9854470897
 21
121.6367537963
 31
0.0
  0
LINE
  5
1C4
330
40
100
AcDbEntity
  8
0007711
  6
Continuous
 62
     7
100
AcDbLine
 10
141.8777612796
 20
125.8786182707
 30
0.0
 11
141.8777612796
 21
121.8786182707
 31
0.0
  0
LINE
  5
1C5
330
40
100
AcDbEntity
  8
0007711
  6
Continuous
 62
     7
100
AcDbLine
 10
141.9854470897
 20
121.6367537963
 30
0.0
 11
141.8777612796
 21
121.8786182707
 31
0.0
  0
LINE
  5
1C6
330
40
100
AcDbEntity
  8
0007711
  6
Continuous
 62
     7
100
AcDbLine
 10
141.9854470897
 20
126.1204827452
 30
0.0
 11
141.8777612796
 21
125.8786182707
 31
0.0
  0
LINE
  5
1C7
330
40
100
AcDbEntity
  8
0007711
  6
Continuous
 62
     7
100
AcDbLine
 10
142.2100455362
 20
125.8786182707
 30
0.0
 11
142.1534577393
 21
125.8786182707
 31
0.0
  0
LINE
  5
1C8
330
40
100
AcDbEntity
  8
0007711
  6
Continuous
 62
     7
100
AcDbLine
 10
142.4840416945
 20
121.8786182707
 30
0.0
 11
142.5402299347
 21
121.8786182707
 31
0.0
  0
LINE
  5
1C9
330
40
100
AcDbEntity
  8
0007711
  6
Continuous
 62
     7
100
AcDbLine
 10
142.4840416945
 20
121.8786182707
 30
0.0
 11
142.4840416945
 21
125.8786182707
 31
0.0
  0
LINE
  5
1CA
330
40
100
AcDbEntity
  8
0007711
  6
Continuous
 62
     7
100
AcDbLine
 10
142.4840416945
 20
125.8786182707
 30
0.0
 11
142.3069094163
 21
126.1204827452
 31
0.0
  0
LINE
  5
1CB
330
40
100
AcDbEntity
  8
0007711
  6
Continuous
 62
     7
100
AcDbLine
 10
142.3069094163
 20
121.6367537963
 30
0.0
 11
142.3069094163
 21
126.1204827452
 31
0.0
  0
LINE
  5
1CC
330
40
100
AcDbEntity
  8
0007711
  6
Continuous
 62
     7
100
AcDbLine
 10
142.4840416945
 20
121.8786182707
 30
0.0
 11
142.3069094163
 21
121.6367537963
 31
0.0
  0
LINE
  5
1CD
330
40
100
AcDbEntity
  8
0007711
  6
Continuous
 62
     7
100
AcDbLine
 10
142.2100455362
 20
125.8786182707
 30
0.0
 11
142.2100455362
 21
121.8786182707
 31
0.0
  0
LINE
  5
1CE
330
40
100
AcDbEntity
  8
0007711
  6
Continuous
 62
     7
100
AcDbLine
 10
142.3069094163
 20
121.6367537963
 30
0.0
 11
142.2100455362
 21
121.8786182707
 31
0.0
  0
LINE
  5
1CF
330
40
100
AcDbEntity
  8
0007711
  6
Continuous
 62
     7
100
AcDbLine
 10
142.3069094163
 20
126.1204827452
 30
0.0
 11
142.2100455362
 21
125.8786182707
 31
0.0
  0
LINE
  5
1D0
330
40
100
AcDbEntity
  8
0007711
  6
Continuous
 62
     7
100
AcDbLine
 10
142.5402299347
 20
125.8786182707
 30
0.0
 11
142.4840416945
 21
125.8786182707
 31
0.0
  0
LINE
  5
1D1
330
40
100
AcDbEntity
  8
0007711
  6
Continuous
 62
     7
100
AcDbLine
 10
142.8120451091
 20
121.8786182707
 30
0.0
 11
142.8677352193
 21
121.8786182707
 31
0.0
  0
LINE
  5
1D2
330
40
100
AcDbEntity
  8
0007711
  6
Continuous
 62
     7
100
AcDbLine
 10
142.8120451091
 20
121.8786182707
 30
0.0
 11
142.8120451091
 21
125.8786182707
 31
0.0
  0
LINE
  5
1D3
330
40
100
AcDbEntity
  8
0007711
  6
Continuous
 62
     7
100
AcDbLine
 10
142.8120451091
 20
125.8786182707
 30
0.0
 11
142.6261019525
 21
126.1204827452
 31
0.0
  0
LINE
  5
1D4
330
40
100
AcDbEntity
  8
0007711
  6
Continuous
 62
     7
100
AcDbLine
 10
142.6261019525
 20
121.6367537963
 30
0.0
 11
142.6261019525
 21
126.1204827452
 31
0.0
  0
LINE
  5
1D5
330
40
100
AcDbEntity
  8
0007711
  6
Continuous
 62
     7
100
AcDbLine
 10
142.8120451091
 20
121.8786182707
 30
0.0
 11
142.6261019525
 21
121.6367537963
 31
0.0
  0
LINE
  5
1D6
330
40
100
AcDbEntity
  8
0007711
  6
Continuous
 62
     7
100
AcDbLine
 10
142.5402299347
 20
125.8786182707
 30
0.0
 11
142.5402299347
 21
121.8786182707
 31
0.0
  0
LINE
  5
1D7
330
40
100
AcDbEntity
  8
0007711
  6
Continuous
 62
     7
100
AcDbLine
 10
142.6261019525
 20
121.6367537963
 30
0.0
 11
142.5402299347
 21
121.8786182707
 31
0.0
  0
LINE
  5
1D8
330
40
100
AcDbEntity
  8
0007711
  6
Continuous
 62
     7
100
AcDbLine
 10
142.6261019525
 20
126.1204827452
 30
0.0
 11
142.5402299347
 21
125.8786182707
 31
0.0
  0
LINE
  5
1D9
330
40
100
AcDbEntity
  8
0007711
  6
Continuous
 62
     7
100
AcDbLine
 10
142.8677352193
 20
125.8786182707
 30
0.0
 11
142.8120451091
 21
125.8786182707
 31
0.0
  0
LINE
  5
1DA
330
40
100
AcDbEntity
  8
0007711
  6
Continuous
 62
     7
100
AcDbLine
 10
143.1368925537
 20
121.8786182707
 30
0.0
 11
143.1919868346
 21
121.8786182707
 31
0.0
  0
LINE
  5
1DB
330
40
100
AcDbEntity
  8
0007711
  6
Continuous
 62
     7
100
AcDbLine
 10
143.1368925537
 20
121.8786182707
 30
0.0
 11
143.1368925537
 21
125.8786182707
 31
0.0
  0
LINE
  5
1DC
330
40
100
AcDbEntity
  8
0007711
  6
Continuous
 62
     7
100
AcDbLine
 10
143.1368925537
 20
125.8786182707
 30
0.0
 11
142.9424647263
 21
126.1204827452
 31
0.0
  0
LINE
  5
1DD
330
40
100
AcDbEntity
  8
0007711
  6
Continuous
 62
     7
100
AcDbLine
 10
142.9424647263
 20
121.6367537963
 30
0.0
 11
142.9424647263
 21
126.1204827452
 31
0.0
  0
LINE
  5
1DE
330
40
100
AcDbEntity
  8
0007711
  6
Continuous
 62
     7
100
AcDbLine
 10
143.1368925537
 20
121.8786182707
 30
0.0
 11
142.9424647263
 21
121.6367537963
 31
0.0
  0
LINE
  5
1DF
330
40
100
AcDbEntity
  8
0007711
  6
Continuous
 62
     7
100
AcDbLine
 10
142.8677352193
 20
125.8786182707
 30
0.0
 11
142.8677352193
 21
121.8786182707
 31
0.0
  0
LINE
  5
1E0
330
40
100
AcDbEntity
  8
0007711
  6
Continuous
 62
     7
100
AcDbLine
 10
142.9424647263
 20
121.6367537963
 30
0.0
 11
142.8677352193
 21
121.8786182707
 31
0.0
  0
LINE
  5
1E1
330
40
100
AcDbEntity
  8
0007711
  6
Continuous
 62
     7
100
AcDbLine
 10
142.9424647263
 20
126.1204827452
 30
0.0
 11
142.8677352193
 21
125.8786182707
 31
0.0
  0
LINE
  5
1E2
330
40
100
AcDbEntity
  8
0007711
  6
Continuous
 62
     7
100
AcDbLine
 10
143.1919868346
 20
125.8786182707
 30
0.0
 11
143.1368925537
 21
125.8786182707
 31
0.0
  0
LINE
  5
1E3
330
40
100
AcDbEntity
  8
0007711
  6
Continuous
 62
     7
100
AcDbLine
 10
143.4580141356
 20
121.8786182707
 30
0.0
 11
143.5124159329
 21
121.8786182707
 31
0.0
  0
LINE
  5
1E4
330
40
100
AcDbEntity
  8
0007711
  6
Continuous
 62
     7
100
AcDbLine
 10
143.4580141356
 20
121.8786182707
 30
0.0
 11
143.4580141356
 21
125.8786182707
 31
0.0
  0
LINE
  5
1E5
330
40
100
AcDbEntity
  8
0007711
  6
Continuous
 62
     7
100
AcDbLine
 10
143.4580141356
 20
125.8786182707
 30
0.0
 11
143.2554427297
 21
126.1204827452
 31
0.0
  0
LINE
  5
1E6
330
40
100
AcDbEntity
  8
0007711
  6
Continuous
 62
     7
100
AcDbLine
 10
143.2554427297
 20
121.6367537963
 30
0.0
 11
143.2554427297
 21
126.1204827452
 31
0.0
  0
LINE
  5
1E7
330
40
100
AcDbEntity
  8
0007711
  6
Continuous
 62
     7
100
AcDbLine
 10
143.4580141356
 20
121.8786182707
 30
0.0
 11
143.2554427297
 21
121.6367537963
 31
0.0
  0
LINE
  5
1E8
330
40
100
AcDbEntity
  8
0007711
  6
Continuous
 62
     7
100
AcDbLine
 10
143.1919868346
 20
125.8786182707
 30
0.0
 11
143.1919868346
 21
121.8786182707
 31
0.0
  0
LINE
  5
1E9
330
40
100
AcDbEntity
  8
0007711
  6
Continuous
 62
     7
100
AcDbLine
 10
143.2554427297
 20
121.6367537963
 30
0.0
 11
143.1919868346
 21
121.8786182707
 31
0.0
  0
LINE
  5
1EA
330
40
100
AcDbEntity
  8
0007711
  6
Continuous
 62
     7
100
AcDbLine
 10
143.2554427297
 20
126.1204827452
 30
0.0
 11
143.1919868346
 21
125.8786182707
 31
0.0
  0
LINE
  5
1EB
330
40
100
AcDbEntity
  8
0007711
  6
Continuous
 62
     7
100
AcDbLine
 10
143.5124159329
 20
125.8786182707
 30
0.0
 11
143.4580141356
 21
125.8786182707
 31
0.0
  0
LINE
  5
1EC
330
40
100
AcDbEntity
  8
0007711
  6
Continuous
 62
     7
100
AcDbLine
 10
143.7748464982
 20
121.8786182707
 30
0.0
 11
143.8284603729
 21
121.8786182707
 31
0.0
  0
LINE
  5
1ED
330
40
100
AcDbEntity
  8
0007711
  6
Continuous
 62
     7
100
AcDbLine
 10
143.7748464982
 20
121.8786182707
 30
0.0
 11
143.7748464982
 21
125.8786182707
 31
0.0
  0
LINE
  5
1EE
330
40
100
AcDbEntity
  8
0007711
  6
Continuous
 62
     7
100
AcDbLine
 10
143.7748464982
 20
125.8786182707
 30
0.0
 11
143.564486893
 21
126.1204827452
 31
0.0
  0
LINE
  5
1EF
330
40
100
AcDbEntity
  8
0007711
  6
Continuous
 62
     7
100
AcDbLine
 10
143.564486893
 20
121.6367537963
 30
0.0
 11
143.564486893
 21
126.1204827452
 31
0.0
  0
LINE
  5
1F0
330
40
100
AcDbEntity
  8
0007711
  6
Continuous
 62
     7
100
AcDbLine
 10
143.7748464982
 20
121.8786182707
 30
0.0
 11
143.564486893
 21
121.6367537963
 31
0.0
  0
LINE
  5
1F1
330
40
100
AcDbEntity
  8
0007711
  6
Continuous
 62
     7
100
AcDbLine
 10
143.5124159329
 20
125.8786182707
 30
0.0
 11
143.5124159329
 21
121.8786182707
 31
0.0
  0
LINE
  5
1F2
330
40
100
AcDbEntity
  8
0007711
  6
Continuous
 62
     7
100
AcDbLine
 10
143.564486893
 20
121.6367537963
 30
0.0
 11
143.5124159329
 21
121.8786182707
 31
0.0
  0
LINE
  5
1F3
330
40
100
AcDbEntity
  8
0007711
  6
Continuous
 62
     7
100
AcDbLine
 10
143.564486893
 20
126.1204827452
 30
0.0
 11
143.5124159329
 21
125.8786182707
 31
0.0
  0
LINE
  5
1F4
330
40
100
AcDbEntity
  8
0007711
  6
Continuous
 62
     7
100
AcDbLine
 10
143.8284603729
 20
125.8786182707
 30
0.0
 11
143.7748464982
 21
125.8786182707
 31
0.0
  0
LINE
  5
1F5
330
40
100
AcDbEntity
  8
0007711
  6
Continuous
 62
     7
100
AcDbLine
 10
144.0868338101
 20
121.8786182707
 30
0.0
 11
144.1395657051
 21
121.8786182707
 31
0.0
  0
LINE
  5
1F6
330
40
100
AcDbEntity
  8
0007711
  6
Continuous
 62
     7
100
AcDbLine
 10
144.0868338101
 20
121.8786182707
 30
0.0
 11
144.0868338101
 21
125.8786182707
 31
0.0
  0
LINE
  5
1F7
330
40
100
AcDbEntity
  8
0007711
  6
Continuous
 62
     7
100
AcDbLine
 10
144.0868338101
 20
125.8786182707
 30
0.0
 11
143.8690550478
 21
126.1204827452
 31
0.0
  0
LINE
  5
1F8
330
40
100
AcDbEntity
  8
0007711
  6
Continuous
 62
     7
100
AcDbLine
 10
143.8690550478
 20
121.6367537963
 30
0.0
 11
143.8690550478
 21
126.1204827452
 31
0.0
  0
LINE
  5
1F9
330
40
100
AcDbEntity
  8
0007711
  6
Continuous
 62
     7
100
AcDbLine
 10
144.0868338101
 20
121.8786182707
 30
0.0
 11
143.8690550478
 21
121.6367537963
 31
0.0
  0
LINE
  5
1FA
330
40
100
AcDbEntity
  8
0007711
  6
Continuous
 62
     7
100
AcDbLine
 10
143.8284603729
 20
125.8786182707
 30
0.0
 11
143.8284603729
 21
121.8786182707
 31
0.0
  0
LINE
  5
1FB
330
40
100
AcDbEntity
  8
0007711
  6
Continuous
 62
     7
100
AcDbLine
 10
143.8690550478
 20
121.6367537963
 30
0.0
 11
143.8284603729
 21
121.8786182707
 31
0.0
  0
LINE
  5
1FC
330
40
100
AcDbEntity
  8
0007711
  6
Continuous
 62
     7
100
AcDbLine
 10
143.8690550478
 20
126.1204827452
 30
0.0
 11
143.8284603729
 21
125.8786182707
 31
0.0
  0
LINE
  5
1FD
330
40
100
AcDbEntity
  8
0007711
  6
Continuous
 62
     7
100
AcDbLine
 10
144.1395657051
 20
125.8786182707
 30
0.0
 11
144.0868338101
 21
125.8786182707
 31
0.0
  0
LINE
  5
1FE
330
40
100
AcDbEntity
  8
0007711
  6
Continuous
 62
     7
100
AcDbLine
 10
144.3934287394
 20
121.8786182707
 30
0.0
 11
144.4451861451
 21
121.8786182707
 31
0.0
  0
LINE
  5
1FF
330
40
100
AcDbEntity
  8
0007711
  6
Continuous
 62
     7
100
AcDbLine
 10
144.3934287394
 20
121.8786182707
 30
0.0
 11
144.3934287394
 21
125.8786182707
 31
0.0
  0
LINE
  5
200
330
40
100
AcDbEntity
  8
0007711
  6
Continuous
 62
     7
100
AcDbLine
 10
144.3934287394
 20
125.8786182707
 30
0.0
 11
144.168612878
 21
126.1204827452
 31
0.0
  0
LINE
  5
201
330
40
100
AcDbEntity
  8
0007711
  6
Continuous
 62
     7
100
AcDbLine
 10
144.168612878
 20
121.6367537963
 30
0.0
 11
144.168612878
 21
126.1204827452
 31
0.0
  0
LINE
  5
202
330
40
100
AcDbEntity
  8
0007711
  6
Continuous
 62
     7
100
AcDbLine
 10
144.3934287394
 20
121.8786182707
 30
0.0
 11
144.168612878
 21
121.6367537963
 31
0.0
  0
LINE
  5
203
330
40
100
AcDbEntity
  8
0007711
  6
Continuous
 62
     7
100
AcDbLine
 10
144.1395657051
 20
125.8786182707
 30
0.0
 11
144.1395657051
 21
121.8786182707
 31
0.0
  0
LINE
  5
204
330
40
100
AcDbEntity
  8
0007711
  6
Continuous
 62
     7
100
AcDbLine
 10
144.168612878
 20
121.6367537963
 30
0.0
 11
144.1395657051
 21
121.8786182707
 31
0.0
  0
LINE
  5
205
330
40
100
AcDbEntity
  8
0007711
  6
Continuous
 62
     7
100
AcDbLine
 10
144.168612878
 20
126.1204827452
 30
0.0
 11
144.1395657051
 21
125.8786182707
 31
0.0
  0
LINE
  5
206
330
40
100
AcDbEntity
  8
0007711
  6
Continuous
 62
     7
100
AcDbLine
 10
144.4451861451
 20
125.8786182707
 30
0.0
 11
144.3934287394
 21
125.8786182707
 31
0.0
  0
LINE
  5
207
330
40
100
AcDbEntity
  8
0007711
  6
Continuous
 62
     7
100
AcDbLine
 10
144.6940934145
 20
121.8786182707
 30
0.0
 11
144.7447855308
 21
121.8786182707
 31
0.0
  0
LINE
  5
208
330
40
100
AcDbEntity
  8
0007711
  6
Continuous
 62
     7
100
AcDbLine
 10
144.6940934145
 20
121.8786182707
 30
0.0
 11
144.6940934145
 21
125.8786182707
 31
0.0
  0
LINE
  5
209
330
40
100
AcDbEntity
  8
0007711
  6
Continuous
 62
     7
100
AcDbLine
 10
144.6940934145
 20
125.8786182707
 30
0.0
 11
144.4626348574
 21
126.1204827452
 31
0.0
  0
LINE
  5
20A
330
40
100
AcDbEntity
  8
0007711
  6
Continuous
 62
     7
100
AcDbLine
 10
144.4626348574
 20
121.6367537963
 30
0.0
 11
144.4626348574
 21
126.1204827452
 31
0.0
  0
LINE
  5
20B
330
40
100
AcDbEntity
  8
0007711
  6
Continuous
 62
     7
100
AcDbLine
 10
144.6940934145
 20
121.8786182707
 30
0.0
 11
144.4626348574
 21
121.6367537963
 31
0.0
  0
LINE
  5
20C
330
40
100
AcDbEntity
  8
0007711
  6
Continuous
 62
     7
100
AcDbLine
 10
144.4451861451
 20
125.8786182707
 30
0.0
 11
144.4451861451
 21
121.8786182707
 31
0.0
  0
LINE
  5
20D
330
40
100
AcDbEntity
  8
0007711
  6
Continuous
 62
     7
100
AcDbLine
 10
144.4626348574
 20
121.6367537963
 30
0.0
 11
144.4451861451
 21
121.8786182707
 31
0.0
  0
LINE
  5
20E
330
40
100
AcDbEntity
  8
0007711
  6
Continuous
 62
     7
100
AcDbLine
 10
144.4626348574
 20
126.1204827452
 30
0.0
 11
144.4451861451
 21
125.8786182707
 31
0.0
  0
LINE
  5
20F
330
40
100
AcDbEntity
  8
0007711
  6
Continuous
 62
     7
100
AcDbLine
 10
144.7447855308
 20
125.8786182707
 30
0.0
 11
144.6940934145
 21
125.8786182707
 31
0.0
  0
LINE
  5
210
330
40
100
AcDbEntity
  8
0007711
  6
Continuous
 62
     7
100
AcDbLine
 10
144.9883003673
 20
121.8786182707
 30
0.0
 11
145.0378382631
 21
121.8786182707
 31
0.0
  0
LINE
  5
211
330
40
100
AcDbEntity
  8
0007711
  6
Continuous
 62
     7
100
AcDbLine
 10
144.9883003673
 20
121.8786182707
 30
0.0
 11
144.9883003673
 21
125.8786182707
 31
0.0
  0
LINE
  5
212
330
40
100
AcDbEntity
  8
0007711
  6
Continuous
 62
     7
100
AcDbLine
 10
144.9883003673
 20
125.8786182707
 30
0.0
 11
144.7506051714
 21
126.1204827452
 31
0.0
  0
LINE
  5
213
330
40
100
AcDbEntity
  8
0007711
  6
Continuous
 62
     7
100
AcDbLine
 10
144.7506051714
 20
121.6367537963
 30
0.0
 11
144.7506051714
 21
126.1204827452
 31
0.0
  0
LINE
  5
214
330
40
100
AcDbEntity
  8
0007711
  6
Continuous
 62
     7
100
AcDbLine
 10
144.9883003673
 20
121.8786182707
 30
0.0
 11
144.7506051714
 21
121.6367537963
 31
0.0
  0
LINE
  5
215
330
40
100
AcDbEntity
  8
0007711
  6
Continuous
 62
     7
100
AcDbLine
 10
144.7447855308
 20
125.8786182707
 30
0.0
 11
144.7447855308
 21
121.8786182707
 31
0.0
  0
LINE
  5
216
330
40
100
AcDbEntity
  8
0007711
  6
Continuous
 62
     7
100
AcDbLine
 10
144.7506051714
 20
121.6367537963
 30
0.0
 11
144.7447855308
 21
121.8786182707
 31
0.0
  0
LINE
  5
217
330
40
100
AcDbEntity
  8
0007711
  6
Continuous
 62
     7
100
AcDbLine
 10
144.7506051714
 20
126.1204827452
 30
0.0
 11
144.7447855308
 21
125.8786182707
 31
0.0
  0
LINE
  5
218
330
40
100
AcDbEntity
  8
0007711
  6
Continuous
 62
     7
100
AcDbLine
 10
145.0378382631
 20
125.8786182707
 30
0.0
 11
144.9883003673
 21
125.8786182707
 31
0.0
  0
LINE
  5
219
330
40
100
AcDbEntity
  8
0007711
  6
Continuous
 62
     7
100
AcDbLine
 10
145.275533459
 20
121.8786182707
 30
0.0
 11
145.3238302278
 21
121.8786182707
 31
0.0
  0
LINE
  5
21A
330
40
100
AcDbEntity
  8
0007711
  6
Continuous
 62
     7
100
AcDbLine
 10
145.275533459
 20
121.8786182707
 30
0.0
 11
145.275533459
 21
125.8786182707
 31
0.0
  0
LINE
  5
21B
330
40
100
AcDbEntity
  8
0007711
  6
Continuous
 62
     7
100
AcDbLine
 10
145.275533459
 20
125.8786182707
 30
0.0
 11
145.0320186224
 21
126.1204827452
 31
0.0
  0
LINE
  5
21C
330
40
100
AcDbEntity
  8
0007711
  6
Continuous
 62
     7
100
AcDbLine
 10
145.275533459
 20
121.8786182707
 30
0.0
 11
145.0320186224
 21
121.6367537963
 31
0.0
  0
LINE
  5
21D
330
40
100
AcDbEntity
  8
0007711
  6
Continuous
 62
     7
100
AcDbLine
 10
145.0378382631
 20
125.8786182707
 30
0.0
 11
145.0378382631
 21
121.8786182707
 31
0.0
  0
LINE
  5
21E
330
40
100
AcDbEntity
  8
0007711
  6
Continuous
 62
     7
100
AcDbLine
 10
145.0320186224
 20
121.6367537963
 30
0.0
 11
145.0378382631
 21
121.8786182707
 31
0.0
  0
LINE
  5
21F
330
40
100
AcDbEntity
  8
0007711
  6
Continuous
 62
     7
100
AcDbLine
 10
145.0320186224
 20
126.1204827452
 30
0.0
 11
145.0378382631
 21
125.8786182707
 31
0.0
  0
LINE
  5
220
330
40
100
AcDbEntity
  8
0007711
  6
Continuous
 62
     7
100
AcDbLine
 10
145.3238302278
 20
125.8786182707
 30
0.0
 11
145.275533459
 21
125.8786182707
 31
0.0
  0
LINE
  5
221
330
40
100
AcDbEntity
  8
0007711
  6
Continuous
 62
     7
100
AcDbLine
 10
145.5552887849
 20
121.8786182707
 30
0.0
 11
145.6022596979
 21
121.8786182707
 31
0.0
  0
LINE
  5
222
330
40
100
AcDbEntity
  8
0007711
  6
Continuous
 62
     7
100
AcDbLine
 10
145.5552887849
 20
121.8786182707
 30
0.0
 11
145.5552887849
 21
125.8786182707
 31
0.0
  0
LINE
  5
223
330
40
100
AcDbEntity
  8
0007711
  6
Continuous
 62
     7
100
AcDbLine
 10
145.5552887849
 20
125.8786182707
 30
0.0
 11
145.3063815155
 21
126.1204827452
 31
0.0
  0
LINE
  5
224
330
40
100
AcDbEntity
  8
0007711
  6
Continuous
 62
     7
100
AcDbLine
 10
145.5552887849
 20
121.8786182707
 30
0.0
 11
145.3063815155
 21
121.6367537963
 31
0.0
  0
LINE
  5
225
330
40
100
AcDbEntity
  8
0007711
  6
Continuous
 62
     7
100
AcDbLine
 10
145.3238302278
 20
125.8786182707
 30
0.0
 11
145.3238302278
 21
121.8786182707
 31
0.0
  0
LINE
  5
226
330
40
100
AcDbEntity
  8
0007711
  6
Continuous
 62
     7
100
AcDbLine
 10
145.3063815155
 20
121.6367537963
 30
0.0
 11
145.3238302278
 21
121.8786182707
 31
0.0
  0
LINE
  5
227
330
40
100
AcDbEntity
  8
0007711
  6
Continuous
 62
     7
100
AcDbLine
 10
145.3063815155
 20
126.1204827452
 30
0.0
 11
145.3238302278
 21
125.8786182707
 31
0.0
  0
LINE
  5
228
330
40
100
AcDbEntity
  8
0007711
  6
Continuous
 62
     7
100
AcDbLine
 10
145.6022596979
 20
125.8786182707
 30
0.0
 11
145.5552887849
 21
125.8786182707
 31
0.0
  0
LINE
  5
229
330
40
100
AcDbEntity
  8
0007711
  6
Continuous
 62
     7
100
AcDbLine
 10
145.8270755593
 20
121.8786182707
 30
0.0
 11
145.8726382136
 21
121.8786182707
 31
0.0
  0
LINE
  5
22A
330
40
100
AcDbEntity
  8
0007711
  6
Continuous
 62
     7
100
AcDbLine
 10
145.8270755593
 20
121.8786182707
 30
0.0
 11
145.8270755593
 21
125.8786182707
 31
0.0
  0
LINE
  5
22B
330
40
100
AcDbEntity
  8
0007711
  6
Continuous
 62
     7
100
AcDbLine
 10
145.8270755593
 20
125.8786182707
 30
0.0
 11
145.573212525
 21
126.1204827452
 31
0.0
  0
LINE
  5
22C
330
40
100
AcDbEntity
  8
0007711
  6
Continuous
 62
     7
100
AcDbLine
 10
145.8270755593
 20
121.8786182707
 30
0.0
 11
145.573212525
 21
121.6367537963
 31
0.0
  0
LINE
  5
22D
330
40
100
AcDbEntity
  8
0007711
  6
Continuous
 62
     7
100
AcDbLine
 10
145.6022596979
 20
125.8786182707
 30
0.0
 11
145.6022596979
 21
121.8786182707
 31
0.0
  0
LINE
  5
22E
330
40
100
AcDbEntity
  8
0007711
  6
Continuous
 62
     7
100
AcDbLine
 10
145.573212525
 20
121.6367537963
 30
0.0
 11
145.6022596979
 21
121.8786182707
 31
0.0
  0
LINE
  5
22F
330
40
100
AcDbEntity
  8
0007711
  6
Continuous
 62
     7
100
AcDbLine
 10
145.573212525
 20
126.1204827452
 30
0.0
 11
145.6022596979
 21
125.8786182707
 31
0.0
  0
LINE
  5
230
330
40
100
AcDbEntity
  8
0007711
  6
Continuous
 62
     7
100
AcDbLine
 10
145.8726382136
 20
125.8786182707
 30
0.0
 11
145.8270755593
 21
125.8786182707
 31
0.0
  0
LINE
  5
231
330
40
100
AcDbEntity
  8
0007711
  6
Continuous
 62
     7
100
AcDbLine
 10
146.0904169758
 20
121.8786182707
 30
0.0
 11
146.1344914389
 21
121.8786182707
 31
0.0
  0
LINE
  5
232
330
40
100
AcDbEntity
  8
0007711
  6
Continuous
 62
     7
100
AcDbLine
 10
146.0904169758
 20
121.8786182707
 30
0.0
 11
146.0904169758
 21
125.8786182707
 31
0.0
  0
LINE
  5
233
330
40
100
AcDbEntity
  8
0007711
  6
Continuous
 62
     7
100
AcDbLine
 10
146.0904169758
 20
125.8786182707
 30
0.0
 11
145.8320435386
 21
126.1204827452
 31
0.0
  0
LINE
  5
234
330
40
100
AcDbEntity
  8
0007711
  6
Continuous
 62
     7
100
AcDbLine
 10
146.0904169758
 20
121.8786182707
 30
0.0
 11
145.8320435386
 21
121.6367537963
 31
0.0
  0
LINE
  5
235
330
40
100
AcDbEntity
  8
0007711
  6
Continuous
 62
     7
100
AcDbLine
 10
145.8726382136
 20
125.8786182707
 30
0.0
 11
145.8726382136
 21
121.8786182707
 31
0.0
  0
LINE
  5
236
330
40
100
AcDbEntity
  8
0007711
  6
Continuous
 62
     7
100
AcDbLine
 10
145.8320435386
 20
121.6367537963
 30
0.0
 11
145.8726382136
 21
121.8786182707
 31
0.0
  0
LINE
  5
237
330
40
100
AcDbEntity
  8
0007711
  6
Continuous
 62
     7
100
AcDbLine
 10
145.8320435386
 20
126.1204827452
 30
0.0
 11
145.8726382136
 21
125.8786182707
 31
0.0
  0
LINE
  5
238
330
40
100
AcDbEntity
  8
0007711
  6
Continuous
 62
     7
100
AcDbLine
 10
146.1344914389
 20
125.8786182707
 30
0.0
 11
146.0904169758
 21
125.8786182707
 31
0.0
  0
LINE
  5
239
330
40
100
AcDbEntity
  8
0007711
  6
Continuous
 62
     7
100
AcDbLine
 10
146.3448510441
 20
121.8786182707
 30
0.0
 11
146.3873599944
 21
121.8786182707
 31
0.0
  0
LINE
  5
23A
330
40
100
AcDbEntity
  8
0007711
  6
Continuous
 62
     7
100
AcDbLine
 10
146.3448510441
 20
121.8786182707
 30
0.0
 11
146.3448510441
 21
125.8786182707
 31
0.0
  0
LINE
  5
23B
330
40
100
AcDbEntity
  8
0007711
  6
Continuous
 62
     7
100
AcDbLine
 10
146.3448510441
 20
125.8786182707
 30
0.0
 11
146.0824204788
 21
126.1204827452
 31
0.0
  0
LINE
  5
23C
330
40
100
AcDbEntity
  8
0007711
  6
Continuous
 62
     7
100
AcDbLine
 10
146.3448510441
 20
121.8786182707
 30
0.0
 11
146.0824204788
 21
121.6367537963
 31
0.0
  0
LINE
  5
23D
330
40
100
AcDbEntity
  8
0007711
  6
Continuous
 62
     7
100
AcDbLine
 10
146.1344914389
 20
125.8786182707
 30
0.0
 11
146.1344914389
 21
121.8786182707
 31
0.0
  0
LINE
  5
23E
330
40
100
AcDbEntity
  8
0007711
  6
Continuous
 62
     7
100
AcDbLine
 10
146.0824204788
 20
121.6367537963
 30
0.0
 11
146.1344914389
 21
121.8786182707
 31
0.0
  0
LINE
  5
23F
330
40
100
AcDbEntity
  8
0007711
  6
Continuous
 62
     7
100
AcDbLine
 10
146.0824204788
 20
126.1204827452
 30
0.0
 11
146.1344914389
 21
125.8786182707
 31
0.0
  0
LINE
  5
240
330
40
100
AcDbEntity
  8
0007711
  6
Continuous
 62
     7
100
AcDbLine
 10
146.3873599944
 20
125.8786182707
 30
0.0
 11
146.3448510441
 21
125.8786182707
 31
0.0
  0
LINE
  5
241
330
40
100
AcDbEntity
  8
0007711
  6
Continuous
 62
     7
100
AcDbLine
 10
146.5899314003
 20
121.8786182707
 30
0.0
 11
146.6308002627
 21
121.8786182707
 31
0.0
  0
LINE
  5
242
330
40
100
AcDbEntity
  8
0007711
  6
Continuous
 62
     7
100
AcDbLine
 10
146.5899314003
 20
121.8786182707
 30
0.0
 11
146.5899314003
 21
125.8786182707
 31
0.0
  0
LINE
  5
243
330
40
100
AcDbEntity
  8
0007711
  6
Continuous
 62
     7
100
AcDbLine
 10
146.5899314003
 20
125.8786182707
 30
0.0
 11
146.3239040992
 21
126.1204827452
 31
0.0
  0
LINE
  5
244
330
40
100
AcDbEntity
  8
0007711
  6
Continuous
 62
     7
100
AcDbLine
 10
146.5899314003
 20
121.8786182707
 30
0.0
 11
146.3239040992
 21
121.6367537963
 31
0.0
  0
LINE
  5
245
330
40
100
AcDbEntity
  8
0007711
  6
Continuous
 62
     7
100
AcDbLine
 10
146.3873599944
 20
125.8786182707
 30
0.0
 11
146.3873599944
 21
121.8786182707
 31
0.0
  0
LINE
  5
246
330
40
100
AcDbEntity
  8
0007711
  6
Continuous
 62
     7
100
AcDbLine
 10
146.3239040992
 20
121.6367537963
 30
0.0
 11
146.3873599944
 21
121.8786182707
 31
0.0
  0
LINE
  5
247
330
40
100
AcDbEntity
  8
0007711
  6
Continuous
 62
     7
100
AcDbLine
 10
146.3239040992
 20
126.1204827452
 30
0.0
 11
146.3873599944
 21
125.8786182707
 31
0.0
  0
LINE
  5
248
330
40
100
AcDbEntity
  8
0007711
  6
Continuous
 62
     7
100
AcDbLine
 10
146.6308002627
 20
125.8786182707
 30
0.0
 11
146.5899314003
 21
125.8786182707
 31
0.0
  0
LINE
  5
249
330
40
100
AcDbEntity
  8
0007711
  6
Continuous
 62
     7
100
AcDbLine
 10
146.8252280902
 20
121.8786182707
 30
0.0
 11
146.8643851668
 21
121.8786182707
 31
0.0
  0
LINE
  5
24A
330
40
100
AcDbEntity
  8
0007711
  6
Continuous
 62
     7
100
AcDbLine
 10
146.8252280902
 20
121.8786182707
 30
0.0
 11
146.8252280902
 21
125.8786182707
 31
0.0
  0
LINE
  5
24B
330
40
100
AcDbEntity
  8
0007711
  6
Continuous
 62
     7
100
AcDbLine
 10
146.8252280902
 20
125.8786182707
 30
0.0
 11
146.5560707557
 21
126.1204827452
 31
0.0
  0
LINE
  5
24C
330
40
100
AcDbEntity
  8
0007711
  6
Continuous
 62
     7
100
AcDbLine
 10
146.8252280902
 20
121.8786182707
 30
0.0
 11
146.5560707557
 21
121.6367537963
 31
0.0
  0
LINE
  5
24D
330
40
100
AcDbEntity
  8
0007711
  6
Continuous
 62
     7
100
AcDbLine
 10
146.6308002627
 20
125.8786182707
 30
0.0
 11
146.6308002627
 21
121.8786182707
 31
0.0
  0
LINE
  5
24E
330
40
100
AcDbEntity
  8
0007711
  6
Continuous
 62
     7
100
AcDbLine
 10
146.5560707557
 20
121.6367537963
 30
0.0
 11
146.6308002627
 21
121.8786182707
 31
0.0
  0
LINE
  5
24F
330
40
100
AcDbEntity
  8
0007711
  6
Continuous
 62
     7
100
AcDbLine
 10
146.5560707557
 20
126.1204827452
 30
0.0
 11
146.6308002627
 21
125.8786182707
 31
0.0
  0
LINE
  5
250
330
40
100
AcDbEntity
  8
0007711
  6
Continuous
 62
     7
100
AcDbLine
 10
146.8643851668
 20
125.8786182707
 30
0.0
 11
146.8252280902
 21
125.8786182707
 31
0.0
  0
LINE
  5
251
330
40
100
AcDbEntity
  8
0007711
  6
Continuous
 62
     7
100
AcDbLine
 10
147.0503283234
 20
121.8786182707
 30
0.0
 11
147.0877049195
 21
121.8786182707
 31
0.0
  0
LINE
  5
252
330
40
100
AcDbEntity
  8
0007711
  6
Continuous
 62
     7
100
AcDbLine
 10
147.0503283234
 20
121.8786182707
 30
0.0
 11
147.0503283234
 21
125.8786182707
 31
0.0
  0
LINE
  5
253
330
40
100
AcDbEntity
  8
0007711
  6
Continuous
 62
     7
100
AcDbLine
 10
147.0503283234
 20
125.8786182707
 30
0.0
 11
146.778513149
 21
126.1204827452
 31
0.0
  0
LINE
  5
254
330
40
100
AcDbEntity
  8
0007711
  6
Continuous
 62
     7
100
AcDbLine
 10
147.0503283234
 20
121.8786182707
 30
0.0
 11
146.778513149
 21
121.6367537963
 31
0.0
  0
LINE
  5
255
330
40
100
AcDbEntity
  8
0007711
  6
Continuous
 62
     7
100
AcDbLine
 10
146.8643851668
 20
125.8786182707
 30
0.0
 11
146.8643851668
 21
121.8786182707
 31
0.0
  0
LINE
  5
256
330
40
100
AcDbEntity
  8
0007711
  6
Continuous
 62
     7
100
AcDbLine
 10
146.778513149
 20
121.6367537963
 30
0.0
 11
146.8643851668
 21
121.8786182707
 31
0.0
  0
LINE
  5
257
330
40
100
AcDbEntity
  8
0007711
  6
Continuous
 62
     7
100
AcDbLine
 10
146.778513149
 20
126.1204827452
 30
0.0
 11
146.8643851668
 21
125.8786182707
 31
0.0
  0
LINE
  5
258
330
40
100
AcDbEntity
  8
0007711
  6
Continuous
 62
     7
100
AcDbLine
 10
147.0877049195
 20
125.8786182707
 30
0.0
 11
147.0503283234
 21
125.8786182707
 31
0.0
  0
LINE
  5
259
330
40
100
AcDbEntity
  8
0007711
  6
Continuous
 62
     7
100
AcDbLine
 10
147.2648371978
 20
121.8786182707
 30
0.0
 11
147.3003677421
 21
121.8786182707
 31
0.0
  0
LINE
  5
25A
330
40
100
AcDbEntity
  8
0007711
  6
Continuous
 62
     7
100
AcDbLine
 10
147.2648371978
 20
121.8786182707
 30
0.0
 11
147.2648371978
 21
125.8786182707
 31
0.0
  0
LINE
  5
25B
330
40
100
AcDbEntity
  8
0007711
  6
Continuous
 62
     7
100
AcDbLine
 10
147.2648371978
 20
125.8786182707
 30
0.0
 11
146.9908410395
 21
126.1204827452
 31
0.0
  0
LINE
  5
25C
330
40
100
AcDbEntity
  8
0007711
  6
Continuous
 62
     7
100
AcDbLine
 10
147.2648371978
 20
121.8786182707
 30
0.0
 11
146.9908410395
 21
121.6367537963
 31
0.0
  0
LINE
  5
25D
330
40
100
AcDbEntity
  8
0007711
  6
Continuous
 62
     7
100
AcDbLine
 10
147.0877049195
 20
125.8786182707
 30
0.0
 11
147.0877049195
 21
121.8786182707
 31
0.0
  0
LINE
  5
25E
330
40
100
AcDbEntity
  8
0007711
  6
Continuous
 62
     7
100
AcDbLine
 10
146.9908410395
 20
121.6367537963
 30
0.0
 11
147.0877049195
 21
121.8786182707
 31
0.0
  0
LINE
  5
25F
330
40
100
AcDbEntity
  8
0007711
  6
Continuous
 62
     7
100
AcDbLine
 10
146.9908410395
 20
126.1204827452
 30
0.0
 11
147.0877049195
 21
125.8786182707
 31
0.0
  0
LINE
  5
260
330
40
100
AcDbEntity
  8
0007711
  6
Continuous
 62
     7
100
AcDbLine
 10
147.3003677421
 20
125.8786182707
 30
0.0
 11
147.2648371978
 21
125.8786182707
 31
0.0
  0
LINE
  5
261
330
40
100
AcDbEntity
  8
0007711
  6
Continuous
 62
     7
100
AcDbLine
 10
147.4683783917
 20
121.8786182707
 30
0.0
 11
147.5020005515
 21
121.8786182707
 31
0.0
  0
LINE
  5
262
330
40
100
AcDbEntity
  8
0007711
  6
Continuous
 62
     7
100
AcDbLine
 10
147.4683783917
 20
121.8786182707
 30
0.0
 11
147.4683783917
 21
125.8786182707
 31
0.0
  0
LINE
  5
263
330
40
100
AcDbEntity
  8
0007711
  6
Continuous
 62
     7
100
AcDbLine
 10
147.4683783917
 20
125.8786182707
 30
0.0
 11
147.192681932
 21
126.1204827452
 31
0.0
  0
LINE
  5
264
330
40
100
AcDbEntity
  8
0007711
  6
Continuous
 62
     7
100
AcDbLine
 10
147.4683783917
 20
121.8786182707
 30
0.0
 11
147.192681932
 21
121.6367537963
 31
0.0
  0
LINE
  5
265
330
40
100
AcDbEntity
  8
0007711
  6
Continuous
 62
     7
100
AcDbLine
 10
147.3003677421
 20
125.8786182707
 30
0.0
 11
147.3003677421
 21
121.8786182707
 31
0.0
  0
LINE
  5
266
330
40
100
AcDbEntity
  8
0007711
  6
Continuous
 62
     7
100
AcDbLine
 10
147.192681932
 20
121.6367537963
 30
0.0
 11
147.3003677421
 21
121.8786182707
 31
0.0
  0
LINE
  5
267
330
40
100
AcDbEntity
  8
0007711
  6
Continuous
 62
     7
100
AcDbLine
 10
147.192681932
 20
126.1204827452
 30
0.0
 11
147.3003677421
 21
125.8786182707
 31
0.0
  0
LINE
  5
268
330
40
100
AcDbEntity
  8
0007711
  6
Continuous
 62
     7
100
AcDbLine
 10
147.5020005515
 20
125.8786182707
 30
0.0
 11
147.4683783917
 21
125.8786182707
 31
0.0
  0
LINE
  5
269
330
40
100
AcDbEntity
  8
0007711
  6
Continuous
 62
     7
100
AcDbLine
 10
147.6605948249
 20
121.8786182707
 30
0.0
 11
147.6922496155
 21
121.8786182707
 31
0.0
  0
LINE
  5
26A
330
40
100
AcDbEntity
  8
0007711
  6
Continuous
 62
     7
100
AcDbLine
 10
147.6605948249
 20
121.8786182707
 30
0.0
 11
147.6605948249
 21
125.8786182707
 31
0.0
  0
LINE
  5
26B
330
40
100
AcDbEntity
  8
0007711
  6
Continuous
 62
     7
100
AcDbLine
 10
147.6605948249
 20
125.8786182707
 30
0.0
 11
147.383681729
 21
126.1204827452
 31
0.0
  0
LINE
  5
26C
330
40
100
AcDbEntity
  8
0007711
  6
Continuous
 62
     7
100
AcDbLine
 10
147.6605948249
 20
121.8786182707
 30
0.0
 11
147.383681729
 21
121.6367537963
 31
0.0
  0
LINE
  5
26D
330
40
100
AcDbEntity
  8
0007711
  6
Continuous
 62
     7
100
AcDbLine
 10
147.5020005515
 20
125.8786182707
 30
0.0
 11
147.5020005515
 21
121.8786182707
 31
0.0
  0
LINE
  5
26E
330
40
100
AcDbEntity
  8
0007711
  6
Continuous
 62
     7
100
AcDbLine
 10
147.383681729
 20
121.6367537963
 30
0.0
 11
147.5020005515
 21
121.8786182707
 31
0.0
  0
LINE
  5
26F
330
40
100
AcDbEntity
  8
0007711
  6
Continuous
 62
     7
100
AcDbLine
 10
147.383681729
 20
126.1204827452
 30
0.0
 11
147.5020005515
 21
125.8786182707
 31
0.0
  0
LINE
  5
270
330
40
100
AcDbEntity
  8
0007711
  6
Continuous
 62
     7
100
AcDbLine
 10
147.6922496155
 20
125.8786182707
 30
0.0
 11
147.6605948249
 21
125.8786182707
 31
0.0
  0
LINE
  5
271
330
40
100
AcDbEntity
  8
0007711
  6
Continuous
 62
     7
100
AcDbLine
 10
147.8411492843
 20
121.8786182707
 30
0.0
 11
147.8707811725
 21
121.8786182707
 31
0.0
  0
LINE
  5
272
330
40
100
AcDbEntity
  8
0007711
  6
Continuous
 62
     7
100
AcDbLine
 10
147.8411492843
 20
121.8786182707
 30
0.0
 11
147.8411492843
 21
125.8786182707
 31
0.0
  0
LINE
  5
273
330
40
100
AcDbEntity
  8
0007711
  6
Continuous
 62
     7
100
AcDbLine
 10
147.8411492843
 20
125.8786182707
 30
0.0
 11
147.5635053519
 21
126.1204827452
 31
0.0
  0
LINE
  5
274
330
40
100
AcDbEntity
  8
0007711
  6
Continuous
 62
     7
100
AcDbLine
 10
147.8411492843
 20
121.8786182707
 30
0.0
 11
147.5635053519
 21
121.6367537963
 31
0.0
  0
LINE
  5
275
330
40
100
AcDbEntity
  8
0007711
  6
Continuous
 62
     7
100
AcDbLine
 10
147.6922496155
 20
125.8786182707
 30
0.0
 11
147.6922496155
 21
121.8786182707
 31
0.0
  0
LINE
  5
276
330
40
100
AcDbEntity
  8
0007711
  6
Continuous
 62
     7
100
AcDbLine
 10
147.5635053519
 20
121.6367537963
 30
0.0
 11
147.6922496155
 21
121.8786182707
 31
0.0
  0
LINE
  5
277
330
40
100
AcDbEntity
  8
0007711
  6
Continuous
 62
     7
100
AcDbLine
 10
147.5635053519
 20
126.1204827452
 30
0.0
 11
147.6922496155
 21
125.8786182707
 31
0.0
  0
LINE
  5
278
330
40
100
AcDbEntity
  8
0007711
  6
Continuous
 62
     7
100
AcDbLine
 10
147.8707811725
 20
125.8786182707
 30
0.0
 11
147.8411492843
 21
125.8786182707
 31
0.0
  0
LINE
  5
279
330
40
100
AcDbEntity
  8
0007711
  6
Continuous
 62
     7
100
AcDbLine
 10
148.0097250161
 20
121.8786182707
 30
0.0
 11
148.0372820175
 21
121.8786182707
 31
0.0
  0
LINE
  5
27A
330
40
100
AcDbEntity
  8
0007711
  6
Continuous
 62
     7
100
AcDbLine
 10
148.0097250161
 20
121.8786182707
 30
0.0
 11
148.0097250161
 21
125.8786182707
 31
0.0
  0
LINE
  5
27B
330
40
100
AcDbEntity
  8
0007711
  6
Continuous
 62
     7
100
AcDbLine
 10
148.0097250161
 20
125.8786182707
 30
0.0
 11
147.731837329
 21
126.1204827452
 31
0.0
  0
LINE
  5
27C
330
40
100
AcDbEntity
  8
0007711
  6
Continuous
 62
     7
100
AcDbLine
 10
148.0097250161
 20
121.8786182707
 30
0.0
 11
147.731837329
 21
121.6367537963
 31
0.0
  0
LINE
  5
27D
330
40
100
AcDbEntity
  8
0007711
  6
Continuous
 62
     7
100
AcDbLine
 10
147.8707811725
 20
125.8786182707
 30
0.0
 11
147.8707811725
 21
121.8786182707
 31
0.0
  0
LINE
  5
27E
330
40
100
AcDbEntity
  8
0007711
  6
Continuous
 62
     7
100
AcDbLine
 10
147.731837329
 20
121.6367537963
 30
0.0
 11
147.8707811725
 21
121.8786182707
 31
0.0
  0
LINE
  5
27F
330
40
100
AcDbEntity
  8
0007711
  6
Continuous
 62
     7
100
AcDbLine
 10
147.731837329
 20
126.1204827452
 30
0.0
 11
147.8707811725
 21
125.8786182707
 31
0.0
  0
LINE
  5
280
330
40
100
AcDbEntity
  8
0007711
  6
Continuous
 62
     7
100
AcDbLine
 10
148.0372820175
 20
125.8786182707
 30
0.0
 11
148.0097250161
 21
125.8786182707
 31
0.0
  0
LINE
  5
281
330
40
100
AcDbEntity
  8
0007711
  6
Continuous
 62
     7
100
AcDbLine
 10
148.1660262811
 20
121.8786182707
 30
0.0
 11
148.1914600514
 21
121.8786182707
 31
0.0
  0
LINE
  5
282
330
40
100
AcDbEntity
  8
0007711
  6
Continuous
 62
     7
100
AcDbLine
 10
148.1660262811
 20
121.8786182707
 30
0.0
 11
148.1660262811
 21
125.8786182707
 31
0.0
  0
LINE
  5
283
330
40
100
AcDbEntity
  8
0007711
  6
Continuous
 62
     7
100
AcDbLine
 10
148.1660262811
 20
125.8786182707
 30
0.0
 11
147.8883823487
 21
126.1204827452
 31
0.0
  0
LINE
  5
284
330
40
100
AcDbEntity
  8
0007711
  6
Continuous
 62
     7
100
AcDbLine
 10
148.1660262811
 20
121.8786182707
 30
0.0
 11
147.8883823487
 21
121.6367537963
 31
0.0
  0
LINE
  5
285
330
40
100
AcDbEntity
  8
0007711
  6
Continuous
 62
     7
100
AcDbLine
 10
148.0372820175
 20
125.8786182707
 30
0.0
 11
148.0372820175
 21
121.8786182707
 31
0.0
  0
LINE
  5
286
330
40
100
AcDbEntity
  8
0007711
  6
Continuous
 62
     7
100
AcDbLine
 10
147.8883823487
 20
121.6367537963
 30
0.0
 11
148.0372820175
 21
121.8786182707
 31
0.0
  0
LINE
  5
287
330
40
100
AcDbEntity
  8
0007711
  6
Continuous
 62
     7
100
AcDbLine
 10
147.8883823487
 20
126.1204827452
 30
0.0
 11
148.0372820175
 21
125.8786182707
 31
0.0
  0
LINE
  5
288
330
40
100
AcDbEntity
  8
0007711
  6
Continuous
 62
     7
100
AcDbLine
 10
148.1914600514
 20
125.8786182707
 30
0.0
 11
148.1660262811
 21
125.8786182707
 31
0.0
  0
LINE
  5
289
330
40
100
AcDbEntity
  8
0007711
  6
Continuous
 62
     7
100
AcDbLine
 10
148.3097788739
 20
121.8786182707
 30
0.0
 11
148.3330447935
 21
121.8786182707
 31
0.0
  0
LINE
  5
28A
330
40
100
AcDbEntity
  8
0007711
  6
Continuous
 62
     7
100
AcDbLine
 10
148.3097788739
 20
121.8786182707
 30
0.0
 11
148.3097788739
 21
125.8786182707
 31
0.0
  0
LINE
  5
28B
330
40
100
AcDbEntity
  8
0007711
  6
Continuous
 62
     7
100
AcDbLine
 10
148.3097788739
 20
125.8786182707
 30
0.0
 11
148.032865778
 21
126.1204827452
 31
0.0
  0
LINE
  5
28C
330
40
100
AcDbEntity
  8
0007711
  6
Continuous
 62
     7
100
AcDbLine
 10
148.3097788739
 20
121.8786182707
 30
0.0
 11
148.032865778
 21
121.6367537963
 31
0.0
  0
LINE
  5
28D
330
40
100
AcDbEntity
  8
0007711
  6
Continuous
 62
     7
100
AcDbLine
 10
148.1914600514
 20
125.8786182707
 30
0.0
 11
148.1914600514
 21
121.8786182707
 31
0.0
  0
LINE
  5
28E
330
40
100
AcDbEntity
  8
0007711
  6
Continuous
 62
     7
100
AcDbLine
 10
148.032865778
 20
121.6367537963
 30
0.0
 11
148.1914600514
 21
121.8786182707
 31
0.0
  0
LINE
  5
28F
330
40
100
AcDbEntity
  8
0007711
  6
Continuous
 62
     7
100
AcDbLine
 10
148.032865778
 20
126.1204827452
 30
0.0
 11
148.1914600514
 21
125.8786182707
 31
0.0
  0
LINE
  5
290
330
40
100
AcDbEntity
  8
0007711
  6
Continuous
 62
     7
100
AcDbLine
 10
148.3330447935
 20
125.8786182707
 30
0.0
 11
148.3097788739
 21
125.8786182707
 31
0.0
  0
LINE
  5
291
330
40
100
AcDbEntity
  8
0007711
  6
Continuous
 62
     7
100
AcDbLine
 10
148.4407306036
 20
121.8786182707
 30
0.0
 11
148.4617878562
 21
121.8786182707
 31
0.0
  0
LINE
  5
292
330
40
100
AcDbEntity
  8
0007711
  6
Continuous
 62
     7
100
AcDbLine
 10
148.4407306036
 20
121.8786182707
 30
0.0
 11
148.4407306036
 21
125.8786182707
 31
0.0
  0
LINE
  5
293
330
40
100
AcDbEntity
  8
0007711
  6
Continuous
 62
     7
100
AcDbLine
 10
148.4407306036
 20
125.8786182707
 30
0.0
 11
148.1650341439
 21
126.1204827452
 31
0.0
  0
LINE
  5
294
330
40
100
AcDbEntity
  8
0007711
  6
Continuous
 62
     7
100
AcDbLine
 10
148.4407306036
 20
121.8786182707
 30
0.0
 11
148.1650341439
 21
121.6367537963
 31
0.0
  0
LINE
  5
295
330
40
100
AcDbEntity
  8
0007711
  6
Continuous
 62
     7
100
AcDbLine
 10
148.3330447935
 20
125.8786182707
 30
0.0
 11
148.3330447935
 21
121.8786182707
 31
0.0
  0
LINE
  5
296
330
40
100
AcDbEntity
  8
0007711
  6
Continuous
 62
     7
100
AcDbLine
 10
148.1650341439
 20
121.6367537963
 30
0.0
 11
148.3330447935
 21
121.8786182707
 31
0.0
  0
LINE
  5
297
330
40
100
AcDbEntity
  8
0007711
  6
Continuous
 62
     7
100
AcDbLine
 10
148.1650341439
 20
126.1204827452
 30
0.0
 11
148.3330447935
 21
125.8786182707
 31
0.0
  0
LINE
  5
298
330
40
100
AcDbEntity
  8
0007711
  6
Continuous
 62
     7
100
AcDbLine
 10
148.4617878562
 20
125.8786182707
 30
0.0
 11
148.4407306036
 21
125.8786182707
 31
0.0
  0
LINE
  5
299
330
40
100
AcDbEntity
  8
0007711
  6
Continuous
 62
     7
100
AcDbLine
 10
148.5586517362
 20
121.8786182707
 30
0.0
 11
148.5774633803
 21
121.8786182707
 31
0.0
  0
LINE
  5
29A
330
40
100
AcDbEntity
  8
0007711
  6
Continuous
 62
     7
100
AcDbLine
 10
148.5586517362
 20
121.8786182707
 30
0.0
 11
148.5586517362
 21
125.8786182707
 31
0.0
  0
LINE
  5
29B
330
40
100
AcDbEntity
  8
0007711
  6
Continuous
 62
     7
100
AcDbLine
 10
148.5586517362
 20
125.8786182707
 30
0.0
 11
148.284655578
 21
126.1204827452
 31
0.0
  0
LINE
  5
29C
330
40
100
AcDbEntity
  8
0007711
  6
Continuous
 62
     7
100
AcDbLine
 10
148.5586517362
 20
121.8786182707
 30
0.0
 11
148.284655578
 21
121.6367537963
 31
0.0
  0
LINE
  5
29D
330
40
100
AcDbEntity
  8
0007711
  6
Continuous
 62
     7
100
AcDbLine
 10
148.4617878562
 20
125.8786182707
 30
0.0
 11
148.4617878562
 21
121.8786182707
 31
0.0
  0
LINE
  5
29E
330
40
100
AcDbEntity
  8
0007711
  6
Continuous
 62
     7
100
AcDbLine
 10
148.284655578
 20
121.6367537963
 30
0.0
 11
148.4617878562
 21
121.8786182707
 31
0.0
  0
LINE
  5
29F
330
40
100
AcDbEntity
  8
0007711
  6
Continuous
 62
     7
100
AcDbLine
 10
148.284655578
 20
126.1204827452
 30
0.0
 11
148.4617878562
 21
125.8786182707
 31
0.0
  0
LINE
  5
2A0
330
40
100
AcDbEntity
  8
0007711
  6
Continuous
 62
     7
100
AcDbLine
 10
148.5774633803
 20
125.8786182707
 30
0.0
 11
148.5586517362
 21
125.8786182707
 31
0.0
  0
LINE
  5
2A1
330
40
100
AcDbEntity
  8
0007711
  6
Continuous
 62
     7
100
AcDbLine
 10
148.6633353981
 20
121.8786182707
 30
0.0
 11
148.6798684316
 21
121.8786182707
 31
0.0
  0
LINE
  5
2A2
330
40
100
AcDbEntity
  8
0007711
  6
Continuous
 62
     7
100
AcDbLine
 10
148.6633353981
 20
121.8786182707
 30
0.0
 11
148.6633353981
 21
125.8786182707
 31
0.0
  0
LINE
  5
2A3
330
40
100
AcDbEntity
  8
0007711
  6
Continuous
 62
     7
100
AcDbLine
 10
148.6633353981
 20
125.8786182707
 30
0.0
 11
148.3915202237
 21
126.1204827452
 31
0.0
  0
LINE
  5
2A4
330
40
100
AcDbEntity
  8
0007711
  6
Continuous
 62
     7
100
AcDbLine
 10
148.6633353981
 20
121.8786182707
 30
0.0
 11
148.3915202237
 21
121.6367537963
 31
0.0
  0
LINE
  5
2A5
330
40
100
AcDbEntity
  8
0007711
  6
Continuous
 62
     7
100
AcDbLine
 10
148.5774633803
 20
125.8786182707
 30
0.0
 11
148.5774633803
 21
121.8786182707
 31
0.0
  0
LINE
  5
2A6
330
40
100
AcDbEntity
  8
0007711
  6
Continuous
 62
     7
100
AcDbLine
 10
148.3915202237
 20
121.6367537963
 30
0.0
 11
148.5774633803
 21
121.8786182707
 31
0.0
  0
LINE
  5
2A7
330
40
100
AcDbEntity
  8
0007711
  6
Continuous
 62
     7
100
AcDbLine
 10
148.3915202237
 20
126.1204827452
 30
0.0
 11
148.5774633803
 21
125.8786182707
 31
0.0
  0
LINE
  5
2A8
330
40
100
AcDbEntity
  8
0007711
  6
Continuous
 62
     7
100
AcDbLine
 10
148.6798684316
 20
125.8786182707
 30
0.0
 11
148.6633353981
 21
125.8786182707
 31
0.0
  0
LINE
  5
2A9
330
40
100
AcDbEntity
  8
0007711
  6
Continuous
 62
     7
100
AcDbLine
 10
148.7545979386
 20
121.8786182707
 30
0.0
 11
148.768823357
 21
121.8786182707
 31
0.0
  0
LINE
  5
2AA
330
40
100
AcDbEntity
  8
0007711
  6
Continuous
 62
     7
100
AcDbLine
 10
148.7545979386
 20
121.8786182707
 30
0.0
 11
148.7545979386
 21
125.8786182707
 31
0.0
  0
LINE
  5
2AB
330
40
100
AcDbEntity
  8
0007711
  6
Continuous
 62
     7
100
AcDbLine
 10
148.7545979386
 20
125.8786182707
 30
0.0
 11
148.4854406042
 21
126.1204827452
 31
0.0
  0
LINE
  5
2AC
330
40
100
AcDbEntity
  8
0007711
  6
Continuous
 62
     7
100
AcDbLine
 10
148.7545979386
 20
121.8786182707
 30
0.0
 11
148.4854406042
 21
121.6367537963
 31
0.0
  0
LINE
  5
2AD
330
40
100
AcDbEntity
  8
0007711
  6
Continuous
 62
     7
100
AcDbLine
 10
148.6798684316
 20
125.8786182707
 30
0.0
 11
148.6798684316
 21
121.8786182707
 31
0.0
  0
LINE
  5
2AE
330
40
100
AcDbEntity
  8
0007711
  6
Continuous
 62
     7
100
AcDbLine
 10
148.4854406042
 20
121.6367537963
 30
0.0
 11
148.6798684316
 21
121.8786182707
 31
0.0
  0
LINE
  5
2AF
330
40
100
AcDbEntity
  8
0007711
  6
Continuous
 62
     7
100
AcDbLine
 10
148.4854406042
 20
126.1204827452
 30
0.0
 11
148.6798684316
 21
125.8786182707
 31
0.0
  0
LINE
  5
2B0
330
40
100
AcDbEntity
  8
0007711
  6
Continuous
 62
     7
100
AcDbLine
 10
148.768823357
 20
125.8786182707
 30
0.0
 11
148.7545979386
 21
125.8786182707
 31
0.0
  0
LINE
  5
2B1
330
40
100
AcDbEntity
  8
0007711
  6
Continuous
 62
     7
100
AcDbLine
 10
148.8322792521
 20
121.8786182707
 30
0.0
 11
148.8441720992
 21
121.8786182707
 31
0.0
  0
LINE
  5
2B2
330
40
100
AcDbEntity
  8
0007711
  6
Continuous
 62
     7
100
AcDbLine
 10
148.8322792521
 20
121.8786182707
 30
0.0
 11
148.8322792521
 21
125.8786182707
 31
0.0
  0
LINE
  5
2B3
330
40
100
AcDbEntity
  8
0007711
  6
Continuous
 62
     7
100
AcDbLine
 10
148.8322792521
 20
125.8786182707
 30
0.0
 11
148.5662519511
 21
126.1204827452
 31
0.0
  0
LINE
  5
2B4
330
40
100
AcDbEntity
  8
0007711
  6
Continuous
 62
     7
100
AcDbLine
 10
148.8322792521
 20
121.8786182707
 30
0.0
 11
148.5662519511
 21
121.6367537963
 31
0.0
  0
LINE
  5
2B5
330
40
100
AcDbEntity
  8
0007711
  6
Continuous
 62
     7
100
AcDbLine
 10
148.768823357
 20
125.8786182707
 30
0.0
 11
148.768823357
 21
121.8786182707
 31
0.0
  0
LINE
  5
2B6
330
40
100
AcDbEntity
  8
0007711
  6
Continuous
 62
     7
100
AcDbLine
 10
148.5662519511
 20
121.6367537963
 30
0.0
 11
148.768823357
 21
121.8786182707
 31
0.0
  0
LINE
  5
2B7
330
40
100
AcDbEntity
  8
0007711
  6
Continuous
 62
     7
100
AcDbLine
 10
148.5662519511
 20
126.1204827452
 30
0.0
 11
148.768823357
 21
125.8786182707
 31
0.0
  0
LINE
  5
2B8
330
40
100
AcDbEntity
  8
0007711
  6
Continuous
 62
     7
100
AcDbLine
 10
148.8441720992
 20
125.8786182707
 30
0.0
 11
148.8322792521
 21
125.8786182707
 31
0.0
  0
LINE
  5
2B9
330
40
100
AcDbEntity
  8
0007711
  6
Continuous
 62
     7
100
AcDbLine
 10
148.8962430593
 20
121.8786182707
 30
0.0
 11
148.9057824709
 21
121.8786182707
 31
0.0
  0
LINE
  5
2BA
330
40
100
AcDbEntity
  8
0007711
  6
Continuous
 62
     7
100
AcDbLine
 10
148.8962430593
 20
121.8786182707
 30
0.0
 11
148.8962430593
 21
125.8786182707
 31
0.0
  0
LINE
  5
2BB
330
40
100
AcDbEntity
  8
0007711
  6
Continuous
 62
     7
100
AcDbLine
 10
148.8962430593
 20
125.8786182707
 30
0.0
 11
148.633812494
 21
126.1204827452
 31
0.0
  0
LINE
  5
2BC
330
40
100
AcDbEntity
  8
0007711
  6
Continuous
 62
     7
100
AcDbLine
 10
148.8962430593
 20
121.8786182707
 30
0.0
 11
148.633812494
 21
121.6367537963
 31
0.0
  0
LINE
  5
2BD
330
40
100
AcDbEntity
  8
0007711
  6
Continuous
 62
     7
100
AcDbLine
 10
148.8441720992
 20
125.8786182707
 30
0.0
 11
148.8441720992
 21
121.8786182707
 31
0.0
  0
LINE
  5
2BE
330
40
100
AcDbEntity
  8
0007711
  6
Continuous
 62
     7
100
AcDbLine
 10
148.633812494
 20
121.6367537963
 30
0.0
 11
148.8441720992
 21
121.8786182707
 31
0.0
  0
LINE
  5
2BF
330
40
100
AcDbEntity
  8
0007711
  6
Continuous
 62
     7
100
AcDbLine
 10
148.633812494
 20
126.1204827452
 30
0.0
 11
148.8441720992
 21
125.8786182707
 31
0.0
  0
LINE
  5
2C0
330
40
100
AcDbEntity
  8
0007711
  6
Continuous
 62
     7
100
AcDbLine
 10
148.9057824709
 20
125.8786182707
 30
0.0
 11
148.8962430593
 21
125.8786182707
 31
0.0
  0
LINE
  5
2C1
330
40
100
AcDbEntity
  8
0007711
  6
Continuous
 62
     7
100
AcDbLine
 10
148.9463771458
 20
121.8786182707
 30
0.0
 11
148.9535463866
 21
121.8786182707
 31
0.0
  0
LINE
  5
2C2
330
40
100
AcDbEntity
  8
0007711
  6
Continuous
 62
     7
100
AcDbLine
 10
148.9463771458
 20
121.8786182707
 30
0.0
 11
148.9463771458
 21
125.8786182707
 31
0.0
  0
LINE
  5
2C3
330
40
100
AcDbEntity
  8
0007711
  6
Continuous
 62
     7
100
AcDbLine
 10
148.9463771458
 20
125.8786182707
 30
0.0
 11
148.6880037086
 21
126.1204827452
 31
0.0
  0
LINE
  5
2C4
330
40
100
AcDbEntity
  8
0007711
  6
Continuous
 62
     7
100
AcDbLine
 10
148.9463771458
 20
121.8786182707
 30
0.0
 11
148.6880037086
 21
121.6367537963
 31
0.0
  0
LINE
  5
2C5
330
40
100
AcDbEntity
  8
0007711
  6
Continuous
 62
     7
100
AcDbLine
 10
148.9057824709
 20
125.8786182707
 30
0.0
 11
148.9057824709
 21
121.8786182707
 31
0.0
  0
LINE
  5
2C6
330
40
100
AcDbEntity
  8
0007711
  6
Continuous
 62
     7
100
AcDbLine
 10
148.6880037086
 20
121.6367537963
 30
0.0
 11
148.9057824709
 21
121.8786182707
 31
0.0
  0
LINE
  5
2C7
330
40
100
AcDbEntity
  8
0007711
  6
Continuous
 62
     7
100
AcDbLine
 10
148.6880037086
 20
126.1204827452
 30
0.0
 11
148.9057824709
 21
125.8786182707
 31
0.0
  0
LINE
  5
2C8
330
40
100
AcDbEntity
  8
0007711
  6
Continuous
 62
     7
100
AcDbLine
 10
148.9535463866
 20
125.8786182707
 30
0.0
 11
148.9463771458
 21
125.8786182707
 31
0.0
  0
LINE
  5
2C9
330
40
100
AcDbEntity
  8
0007711
  6
Continuous
 62
     7
100
AcDbLine
 10
148.9825935595
 20
121.8786182707
 30
0.0
 11
148.9873800522
 21
121.8786182707
 31
0.0
  0
LINE
  5
2CA
330
40
100
AcDbEntity
  8
0007711
  6
Continuous
 62
     7
100
AcDbLine
 10
148.9825935595
 20
121.8786182707
 30
0.0
 11
148.9825935595
 21
125.8786182707
 31
0.0
  0
LINE
  5
2CB
330
40
100
AcDbEntity
  8
0007711
  6
Continuous
 62
     7
100
AcDbLine
 10
148.9825935595
 20
125.8786182707
 30
0.0
 11
148.7287305252
 21
126.1204827452
 31
0.0
  0
LINE
  5
2CC
330
40
100
AcDbEntity
  8
0007711
  6
Continuous
 62
     7
100
AcDbLine
 10
148.9825935595
 20
121.8786182707
 30
0.0
 11
148.7287305252
 21
121.6367537963
 31
0.0
  0
LINE
  5
2CD
330
40
100
AcDbEntity
  8
0007711
  6
Continuous
 62
     7
100
AcDbLine
 10
148.9535463866
 20
125.8786182707
 30
0.0
 11
148.9535463866
 21
121.8786182707
 31
0.0
  0
LINE
  5
2CE
330
40
100
AcDbEntity
  8
0007711
  6
Continuous
 62
     7
100
AcDbLine
 10
148.7287305252
 20
121.6367537963
 30
0.0
 11
148.9535463866
 21
121.8786182707
 31
0.0
  0
LINE
  5
2CF
330
40
100
AcDbEntity
  8
0007711
  6
Continuous
 62
     7
100
AcDbLine
 10
148.7287305252
 20
126.1204827452
 30
0.0
 11
148.9535463866
 21
125.8786182707
 31
0.0
  0
LINE
  5
2D0
330
40
100
AcDbEntity
  8
0007711
  6
Continuous
 62
     7
100
AcDbLine
 10
148.9873800522
 20
125.8786182707
 30
0.0
 11
148.9825935595
 21
125.8786182707
 31
0.0
  0
LINE
  5
2D1
330
40
100
AcDbEntity
  8
0007711
  6
Continuous
 62
     7
100
AcDbLine
 10
149.0048287645
 20
121.8786182707
 30
0.0
 11
149.007224112
 21
121.8786182707
 31
0.0
  0
LINE
  5
2D2
330
40
100
AcDbEntity
  8
0007711
  6
Continuous
 62
     7
100
AcDbLine
 10
149.0048287645
 20
121.8786182707
 30
0.0
 11
149.0048287645
 21
125.8786182707
 31
0.0
  0
LINE
  5
2D3
330
40
100
AcDbEntity
  8
0007711
  6
Continuous
 62
     7
100
AcDbLine
 10
149.0048287645
 20
125.8786182707
 30
0.0
 11
148.7559214951
 21
126.1204827452
 31
0.0
  0
LINE
  5
2D4
330
40
100
AcDbEntity
  8
0007711
  6
Continuous
 62
     7
100
AcDbLine
 10
149.0048287645
 20
121.8786182707
 30
0.0
 11
148.7559214951
 21
121.6367537963
 31
0.0
  0
LINE
  5
2D5
330
40
100
AcDbEntity
  8
0007711
  6
Continuous
 62
     7
100
AcDbLine
 10
148.9873800522
 20
125.8786182707
 30
0.0
 11
148.9873800522
 21
121.8786182707
 31
0.0
  0
LINE
  5
2D6
330
40
100
AcDbEntity
  8
0007711
  6
Continuous
 62
     7
100
AcDbLine
 10
148.7559214951
 20
121.6367537963
 30
0.0
 11
148.9873800522
 21
121.8786182707
 31
0.0
  0
LINE
  5
2D7
330
40
100
AcDbEntity
  8
0007711
  6
Continuous
 62
     7
100
AcDbLine
 10
148.7559214951
 20
126.1204827452
 30
0.0
 11
148.9873800522
 21
125.8786182707
 31
0.0
  0
LINE
  5
2D8
330
40
100
AcDbEntity
  8
0007711
  6
Continuous
 62
     7
100
AcDbLine
 10
149.007224112
 20
125.8786182707
 30
0.0
 11
149.0048287645
 21
125.8786182707
 31
0.0
  0
LINE
  5
2D9
330
40
100
AcDbEntity
  8
0007711
  6
Continuous
 62
     7
100
AcDbLine
 10
149.0130437526
 20
121.8786182707
 30
0.0
 11
149.013094878
 21
121.8786182707
 31
0.0
  0
LINE
  5
2DA
330
40
100
AcDbEntity
  8
0007711
  6
Continuous
 62
     7
100
AcDbLine
 10
149.0130437526
 20
121.8786182707
 30
0.0
 11
149.0130437526
 21
125.8786182707
 31
0.0
  0
LINE
  5
2DB
330
40
100
AcDbEntity
  8
0007711
  6
Continuous
 62
     7
100
AcDbLine
 10
149.0130437526
 20
125.8786182707
 30
0.0
 11
148.769528916
 21
126.1204827452
 31
0.0
  0
LINE
  5
2DC
330
40
100
AcDbEntity
  8
0007711
  6
Continuous
 62
     7
100
AcDbLine
 10
149.0130437526
 20
121.8786182707
 30
0.0
 11
148.769528916
 21
121.6367537963
 31
0.0
  0
LINE
  5
2DD
330
40
100
AcDbEntity
  8
0007711
  6
Continuous
 62
     7
100
AcDbLine
 10
149.007224112
 20
125.8786182707
 30
0.0
 11
149.007224112
 21
121.8786182707
 31
0.0
  0
LINE
  5
2DE
330
40
100
AcDbEntity
  8
0007711
  6
Continuous
 62
     7
100
AcDbLine
 10
148.769528916
 20
121.6367537963
 30
0.0
 11
149.007224112
 21
121.8786182707
 31
0.0
  0
LINE
  5
2DF
330
40
100
AcDbEntity
  8
0007711
  6
Continuous
 62
     7
100
AcDbLine
 10
148.769528916
 20
126.1204827452
 30
0.0
 11
149.007224112
 21
125.8786182707
 31
0.0
  0
LINE
  5
2E0
330
40
100
AcDbEntity
  8
0007711
  6
Continuous
 62
     7
100
AcDbLine
 10
149.0130437526
 20
125.8786182707
 30
0.0
 11
149.013094878
 21
125.8786182707
 31
0.0
  0
LINE
  5
2E1
330
40
100
AcDbEntity
  8
0007711
  6
Continuous
 62
     7
100
AcDbLine
 10
149.0130948778
 20
125.8786182707
 30
0.0
 11
148.5130948778
 21
126.3786182707
 31
0.0
  0
LINE
  5
2E2
330
40
100
AcDbEntity
  8
0007711
  6
Continuous
 62
     7
100
AcDbLine
 10
133.5130948778
 20
126.3786182707
 30
0.0
 11
133.0130948778
 21
125.8786182707
 31
0.0
  0
LINE
  5
2E3
330
40
100
AcDbEntity
  8
0007711
  6
Continuous
 62
     7
100
AcDbLine
 10
133.0130948778
 20
121.8786182707
 30
0.0
 11
133.5130948778
 21
121.3786182707
 31
0.0
  0
LINE
  5
2E4
330
40
100
AcDbEntity
  8
0007711
  6
Continuous
 62
     7
100
AcDbLine
 10
148.5130948778
 20
121.3786182707
 30
0.0
 11
149.0130948778
 21
121.8786182707
 31
0.0
  0
LINE
  5
2E5
330
40
100
AcDbEntity
  8
0007711
  6
Continuous
 62
     7
100
AcDbLine
 10
133.0130948778
 20
125.8786182707
 30
0.0
 11
133.0130948778
 21
121.8786182707
 31
0.0
  0
LINE
  5
2E6
330
40
100
AcDbEntity
  8
0007711
  6
Continuous
 62
     7
100
AcDbLine
 10
149.0130948778
 20
121.8786182707
 30
0.0
 11
149.0130948778
 21
125.8786182707
 31
0.0
  0
LINE
  5
2E8
330
40
100
AcDbEntity
  8
0007744
  6
Continuous
 62
     7
100
AcDbLine
 10
144.0130009218
 20
120.9786182707
 30
0.0
 11
144.2200555475
 21
120.9786182707
 31
0.0
  0
SPLINE
  5
2E9
330
40
100
AcDbEntity
  8
0007744
  6
Continuous
 62
     7
100
AcDbSpline
210
0.0
220
0.0
230
1.0
 70
     8
 71
     3
 72
    30
 73
    26
 74
     0
 42
0.0000000000736078
 43
0.0000000001
 12
1.0
 22
0.0
 32
0.0
 13
1.0
 23
0.0
 33
0.0
 40
0.0151794683646187
 40
0.0151794683646187
 40
0.0151794683646187
 40
0.0151794683646187
 40
0.016814913731538
 40
0.0195784138218674
 40
0.0216535981579481
 40
0.0233836090468285
 40
0.0248466924568817
 40
0.0267328655947125
 40
0.0298509384440241
 40
0.0332964647336611
 40
0.0361326086690252
 40
0.0394419688766722
 40
0.0432207261468573
 40
0.0465463191338262
 40
0.0490994225775755
 40
0.0505752210633935
 40
0.0523008486424382
 40
0.055236783362464
 40
0.0592616742523039
 40
0.0629712082208714
 40
0.0659205998554081
 40
0.0682477462160208
 40
0.0706982975300441
 40
0.0732953815808299
 40
0.0740557779767954
 40
0.0740557779767954
 40
0.0740557779767954
 40
0.0740557779767954
 10
138.0125915724779
 20
120.6920401824627
 30
0.0
 10
137.9524722392827
 20
120.6818787809365
 30
0.0
 10
137.8011321053847
 20
120.6531612657446
 30
0.0
 10
137.6203043274446
 20
120.6054046991517
 30
0.0
 10
137.4983712367968
 20
120.5495981624011
 30
0.0
 10
137.3821855961139
 20
120.4611785214381
 30
0.0
 10
137.3448570785263
 20
120.2512789199342
 30
0.0
 10
137.4875857257331
 20
120.0961596705057
 30
0.0
 10
137.6481792269413
 20
120.0403845604696
 30
0.0
 10
137.9319129452616
 20
119.9783684773601
 30
0.0
 10
138.3214217972205
 20
119.9183755573242
 30
0.0
 10
138.8131427150136
 20
119.8528538676198
 30
0.0
 10
139.4302160883496
 20
119.7847176913479
 30
0.0
 10
140.0646179242136
 20
119.723281988191
 30
0.0
 10
140.5719612611783
 20
119.6809177731038
 30
0.0
 10
140.9733844169789
 20
119.6474163015532
 30
0.0
 10
141.4019331148774
 20
119.6094294056252
 30
0.0
 10
142.0004695462852
 20
119.5537143679838
 30
0.0
 10
142.6927310754891
 20
119.4831111682798
 30
0.0
 10
143.2989196115668
 20
119.4146968679283
 30
0.0
 10
143.7189793064454
 20
119.361403445108
 30
0.0
 10
144.0114186528205
 20
119.3191634595359
 30
0.0
 10
144.20928400546
 20
119.2716758508112
 30
0.0
 10
144.3000730944723
 20
119.2484326236232
 30
0.0
 10
144.3115932765887
 20
119.2345374193812
 30
0.0
 10
144.3116731017905
 20
119.234144984051
 30
0.0
  0
SPLINE
  5
2EA
330
40
100
AcDbEntity
  8
0007744
  6
Continuous
 62
     7
100
AcDbSpline
210
0.0
220
0.0
230
1.0
 70
     8
 71
     3
 72
    28
 73
    24
 74
     0
 42
0.0000000000737577
 43
0.0000000001
 12
1.0
 22
0.0
 32
0.0
 13
1.0
 23
0.0
 33
0.0
 40
0.1194099332105839
 40
0.1194099332105839
 40
0.1194099332105839
 40
0.1194099332105839
 40
0.1196603868640933
 40
0.1230321975332702
 40
0.1257666742533134
 40
0.127941138109795
 40
0.1291603190752839
 40
0.1308304640445255
 40
0.1331599226460221
 40
0.1358972622355047
 40
0.1389266414261332
 40
0.1427759526766854
 40
0.146658286788412
 40
0.149825754623759
 40
0.1525933906188643
 40
0.1546597916839233
 40
0.1577558336780983
 40
0.16168017103047
 40
0.1658882092958843
 40
0.1701990797048341
 40
0.1745145521450132
 40
0.177483781643079
 40
0.1782873250248739
 40
0.1782873250248739
 40
0.1782873250248739
 40
0.1782873250248739
 10
138.0126123908142
 20
118.7468181680204
 30
0.0
 10
138.0032610030933
 20
118.7452436792019
 30
0.0
 10
137.8695008644238
 20
118.7223537443602
 30
0.0
 10
137.6730300436075
 20
118.6789015314868
 30
0.0
 10
137.5068962985368
 20
118.6130253972061
 30
0.0
 10
137.3716330088883
 20
118.5062425812067
 30
0.0
 10
137.3540175399116
 20
118.3081400216635
 30
0.0
 10
137.4697826959384
 20
118.1627228068229
 30
0.0
 10
137.5908660746399
 20
118.1185454193284
 30
0.0
 10
137.797641245934
 20
118.0572620423158
 30
0.0
 10
138.133981081887
 20
118.002296902521
 30
0.0
 10
138.6337210834983
 20
117.9288057872486
 30
0.0
 10
139.2557713517849
 20
117.8585150621394
 30
0.0
 10
139.8870050279114
 20
117.7945767939135
 30
0.0
 10
140.4327104252813
 20
117.7471063161126
 30
0.0
 10
140.9856478054966
 20
117.7019671334782
 30
0.0
 10
141.6208591124544
 20
117.6442858186301
 30
0.0
 10
142.3792138818382
 20
117.5721034325073
 30
0.0
 10
143.1319651956375
 20
117.4881222420695
 30
0.0
 10
143.7676809970202
 20
117.4148593631598
 30
0.0
 10
144.1439821141956
 20
117.3464237558494
 30
0.0
 10
144.2867142721966
 20
117.3103994675763
 30
0.0
 10
144.300088450171
 20
117.2961218656246
 30
0.0
 10
144.300639856268
 20
117.2957918863833
 30
0.0
  0
SPLINE
  5
2EB
330
40
100
AcDbEntity
  8
0007744
  6
Continuous
 62
     7
100
AcDbSpline
210
0.0
220
0.0
230
1.0
 70
     8
 71
     3
 72
    29
 73
    25
 74
     0
 42
0.0000000000735777
 43
0.0000000001
 12
1.0
 22
0.0
 32
0.0
 13
1.0
 23
0.0
 33
0.0
 40
0.2236673467590603
 40
0.2236673467590603
 40
0.2236673467590603
 40
0.2236673467590603
 40
0.2247916031881476
 40
0.228355141689725
 40
0.2307408169826623
 40
0.2328731670017203
 40
0.2344975826578535
 40
0.2367543339981025
 40
0.2399805155117065
 40
0.243561444157448
 40
0.2482443622328967
 40
0.2526841962513741
 40
0.2565554734188517
 40
0.2594380138147694
 40
0.2612157165732572
 40
0.2638985498956015
 40
0.2674507597907724
 40
0.2705196182304583
 40
0.2731250001408409
 40
0.2755345478021042
 40
0.2769056592753921
 40
0.278614824462013
 40
0.2808570885156825
 40
0.2825232802767378
 40
0.2825232802767378
 40
0.2825232802767378
 40
0.2825232802767378
 10
138.0108013053043
 20
116.8025110413438
 30
0.0
 10
137.9694382162272
 20
116.7957644971471
 30
0.0
 10
137.8056325206191
 20
116.7664204139595
 30
0.0
 10
137.6136056146739
 20
116.7077882837604
 30
0.0
 10
137.4608390717289
 20
116.6532244271181
 30
0.0
 10
137.3313847135541
 20
116.4701831657697
 30
0.0
 10
137.418196917875
 20
116.2501830869089
 30
0.0
 10
137.5645976079167
 20
116.1819789354788
 30
0.0
 10
137.7758257732335
 20
116.1155079945216
 30
0.0
 10
138.1943356903851
 20
116.0467110259789
 30
0.0
 10
138.8108090916155
 20
115.961317374276
 30
0.0
 10
139.6015900431134
 20
115.8767723653387
 30
0.0
 10
140.3566060023356
 20
115.8076237285248
 30
0.0
 10
140.9535254822261
 20
115.7597051099182
 30
0.0
 10
141.4653953552684
 20
115.7134242222958
 30
0.0
 10
142.0153156296117
 20
115.662179670297
 30
0.0
 10
142.6190987801156
 20
115.6005380336076
 30
0.0
 10
143.1556351195684
 20
115.5412320094428
 30
0.0
 10
143.5630771648206
 20
115.4914638257909
 30
0.0
 10
143.8332935699282
 20
115.4559031710558
 30
0.0
 10
144.0262474611256
 20
115.4233073827339
 30
0.0
 10
144.1711384885201
 20
115.3934912234958
 30
0.0
 10
144.277707896019
 20
115.3626312135071
 30
0.0
 10
144.3080612098862
 20
115.3486046730444
 30
0.0
 10
144.3083627118332
 20
115.3499646109231
 30
0.0
  0
SPLINE
  5
2EC
330
40
100
AcDbEntity
  8
0007744
  6
Continuous
 62
     7
100
AcDbSpline
210
0.0
220
0.0
230
1.0
 70
     8
 71
     3
 72
    30
 73
    26
 74
     0
 42
0.0000000000739549
 43
0.0000000001
 12
1.0
 22
0.0
 32
0.0
 13
1.0
 23
0.0
 33
0.0
 40
0.3279373094475527
 40
0.3279373094475527
 40
0.3279373094475527
 40
0.3279373094475527
 40
0.3299331072932592
 40
0.3329861963741318
 40
0.3345742601047293
 40
0.3359475362797533
 40
0.3377928822801408
 40
0.3399465627626484
 40
0.3430801667334787
 40
0.3457825031218346
 40
0.3488554567269017
 40
0.3524147164235716
 40
0.3559234549040559
 40
0.3597394367483079
 40
0.3630120568349454
 40
0.3652682095874515
 40
0.3675420430767682
 40
0.3705640833005012
 40
0.3742655275538292
 40
0.3778789085451311
 40
0.3807613799473244
 40
0.3826993218324929
 40
0.3847404317737546
 40
0.3867479997626984
 40
0.3870449585082036
 40
0.3870449585082036
 40
0.3870449585082036
 40
0.3870449585082036
 10
138.0123413663263
 20
114.8569119564205
 30
0.0
 10
137.9394553847245
 20
114.8444968379579
 30
0.0
 10
137.7712156924597
 20
114.8117654210618
 30
0.0
 10
137.5957207660171
 20
114.7630077619285
 30
0.0
 10
137.4922490525311
 20
114.706824897359
 30
0.0
 10
137.3750800855291
 20
114.6241740289399
 30
0.0
 10
137.3487101635525
 20
114.3880484388275
 30
0.0
 10
137.5123106477724
 20
114.2504482478587
 30
0.0
 10
137.6752639358378
 20
114.1983776482052
 30
0.0
 10
137.944057442625
 20
114.1419224748187
 30
0.0
 10
138.3098953576313
 20
114.084761023861
 30
0.0
 10
138.81943533905
 20
114.0170995813335
 30
0.0
 10
139.4634598597175
 20
113.9462043988703
 30
0.0
 10
140.1652636346068
 20
113.878711464865
 30
0.0
 10
140.8153340091894
 20
113.8263058020148
 30
0.0
 10
141.3610637453679
 20
113.7781899440221
 30
0.0
 10
141.8810138681112
 20
113.7297526300435
 30
0.0
 10
142.4762099092108
 20
113.6708214515984
 30
0.0
 10
143.0976085164999
 20
113.6030362348296
 30
0.0
 10
143.6143348963543
 20
113.5410693662189
 30
0.0
 10
143.9458005361866
 20
113.4939986450045
 30
0.0
 10
144.1541119984742
 20
113.4531766076119
 30
0.0
 10
144.2703518183384
 20
113.4181310278032
 30
0.0
 10
144.2980544362063
 20
113.4115306622498
 30
0.0
 10
144.303240222919
 20
113.4081554848859
 30
0.0
 10
144.303648210846
 20
113.4079399820232
 30
0.0
  0
SPLINE
  5
2ED
330
40
100
AcDbEntity
  8
0007744
  6
Continuous
 62
     7
100
AcDbSpline
210
0.0
220
0.0
230
1.0
 70
     8
 71
     3
 72
    28
 73
    24
 74
     0
 42
0.0000000000737316
 43
0.0000000001
 12
1.0
 22
0.0
 32
0.0
 13
1.0
 23
0.0
 33
0.0
 40
0.43211955667955
 40
0.43211955667955
 40
0.43211955667955
 40
0.43211955667955
 40
0.4351420269100508
 40
0.4384233114846804
 40
0.4398930381846476
 40
0.4408718230964183
 40
0.4424174564615401
 40
0.4446907185410351
 40
0.4482148710086421
 40
0.4520389376946388
 40
0.4554814215364776
 40
0.459299533322739
 40
0.462702820563059
 40
0.4654842252201187
 40
0.4685277743330145
 40
0.4708745030488181
 40
0.4731881170818858
 40
0.4761881861552927
 40
0.4797878309352346
 40
0.4832053813966717
 40
0.4861240705349197
 40
0.4894783290760043
 40
0.4910743822835422
 40
0.4910743822835422
 40
0.4910743822835422
 40
0.4910743822835422
 10
138.011096963887
 20
112.9115115706423
 30
0.0
 10
137.9012449869292
 20
112.8931210073356
 30
0.0
 10
137.7044483478522
 20
112.853006691536
 30
0.0
 10
137.5220657855219
 20
112.787593489146
 30
0.0
 10
137.4257230932965
 20
112.7116477574521
 30
0.0
 10
137.3481707748093
 20
112.598311346262
 30
0.0
 10
137.3909904222253
 20
112.3862710506635
 30
0.0
 10
137.5461937377032
 20
112.2957902783159
 30
0.0
 10
137.7540813413916
 20
112.2300779808519
 30
0.0
 10
138.1358459555764
 20
112.1660062905
 30
0.0
 10
138.6536256269627
 20
112.0920110876684
 30
0.0
 10
139.2620294116478
 20
112.0226811646066
 30
0.0
 10
139.9060478199449
 20
111.957547080096
 30
0.0
 10
140.5372091893337
 20
111.9035865490999
 30
0.0
 10
141.109734967022
 20
111.8560143496656
 30
0.0
 10
141.6449046199824
 20
111.8071385453132
 30
0.0
 10
142.1627878111735
 20
111.7568496388879
 30
0.0
 10
142.7317005807953
 20
111.6995347114264
 30
0.0
 10
143.30303783343
 20
111.6324911617991
 30
0.0
 10
143.7659975090831
 20
111.578646706961
 30
0.0
 10
144.1062399407596
 20
111.5176700627359
 30
0.0
 10
144.2748220388521
 20
111.4818355163623
 30
0.0
 10
144.3108434831402
 20
111.4527191361445
 30
0.0
 10
144.3103394589965
 20
111.4556270330833
 30
0.0
  0
SPLINE
  5
2EE
330
40
100
AcDbEntity
  8
0007744
  6
Continuous
 62
     7
100
AcDbSpline
210
0.0
220
0.0
230
1.0
 70
     8
 71
     3
 72
    30
 73
    26
 74
     0
 42
0.0000000000736826
 43
0.0000000001
 12
1.0
 22
0.0
 32
0.0
 13
1.0
 23
0.0
 33
0.0
 40
0.5364030405902062
 40
0.5364030405902062
 40
0.5364030405902062
 40
0.5364030405902062
 40
0.5381525604589029
 40
0.5406867350522911
 40
0.5426006981882413
 40
0.5441509257342855
 40
0.5453585404020982
 40
0.5465906150450732
 40
0.5489856873764686
 40
0.5526133415633929
 40
0.5568375484472605
 40
0.5608427484908174
 40
0.5654987037277617
 40
0.5689714499799472
 40
0.5710443830237164
 40
0.5724154378597092
 40
0.5746518899860432
 40
0.577805846933964
 40
0.5808995014186872
 40
0.5839309507562859
 40
0.5869364903967671
 40
0.5893129462641562
 40
0.5917365244361759
 40
0.5943345836323027
 40
0.5952795763894704
 40
0.5952795763894704
 40
0.5952795763894704
 40
0.5952795763894704
 10
138.012617544749
 20
110.9670800404717
 30
0.0
 10
137.9481880077827
 20
110.9561359377079
 30
0.0
 10
137.8008313703494
 20
110.9276923755259
 30
0.0
 10
137.630205361058
 20
110.8832219381585
 30
0.0
 10
137.5110066593319
 20
110.830774622187
 30
0.0
 10
137.4183494849435
 20
110.7668072259763
 30
0.0
 10
137.3490303158535
 20
110.6344832007388
 30
0.0
 10
137.3886108902537
 20
110.4523631007586
 30
0.0
 10
137.5482978879291
 20
110.3438693435041
 30
0.0
 10
137.7673268055654
 20
110.2849219285575
 30
0.0
 10
138.2135358851898
 20
110.2066108445297
 30
0.0
 10
138.8424669105237
 20
110.1241276035814
 30
0.0
 10
139.58331235662
 20
110.0430928175209
 30
0.0
 10
140.2681070606866
 20
109.9807059954093
 30
0.0
 10
140.7495072972982
 20
109.9414051263933
 30
0.0
 10
141.1459243331214
 20
109.9072948545209
 30
0.0
 10
141.6169921138156
 20
109.8648188037235
 30
0.0
 10
142.1919078760045
 20
109.809563318352
 30
0.0
 10
142.7777448283206
 20
109.7484557043164
 30
0.0
 10
143.2924261447909
 20
109.6902938781451
 30
0.0
 10
143.6929067055403
 20
109.6398076765717
 30
0.0
 10
143.9922470020893
 20
109.5975607923164
 30
0.0
 10
144.2000171903902
 20
109.5494920318325
 30
0.0
 10
144.2930126047227
 20
109.5256056681216
 30
0.0
 10
144.3130203758123
 20
109.5089926311121
 30
0.0
 10
144.3134812236941
 20
109.509114222636
 30
0.0
  0
SPLINE
  5
2EF
330
40
100
AcDbEntity
  8
0007744
  6
Continuous
 62
     7
100
AcDbSpline
210
0.0
220
0.0
230
1.0
 70
     8
 71
     3
 72
    28
 73
    24
 74
     0
 42
0.0000000000737637
 43
0.0000000001
 12
1.0
 22
0.0
 32
0.0
 13
1.0
 23
0.0
 33
0.0
 40
0.6406494489097141
 40
0.6406494489097141
 40
0.6406494489097141
 40
0.6406494489097141
 40
0.6406643930420881
 40
0.6440511640307983
 40
0.6475974432847306
 40
0.6496147790136864
 40
0.6505902834412761
 40
0.6521218839934941
 40
0.6540152519030253
 40
0.6565982474895412
 40
0.6599023408516316
 40
0.6636904868697724
 40
0.6672366877802274
 40
0.6705112049771698
 40
0.6736070531189018
 40
0.6756702750878328
 40
0.6775647188179468
 40
0.6810371626232643
 40
0.6851335753381171
 40
0.6894209594382534
 40
0.6937664862763857
 40
0.6970540988520698
 40
0.6995179020301353
 40
0.6995179020301353
 40
0.6995179020301353
 40
0.6995179020301353
 10
138.0104397037941
 20
109.0217243774394
 30
0.0
 10
138.009884083036
 20
109.0216296085925
 30
0.0
 10
137.8834934613474
 20
109.0000466211945
 30
0.0
 10
137.6647355612931
 20
108.9508765643098
 30
0.0
 10
137.4873424703407
 20
108.8860464471396
 30
0.0
 10
137.3538172621109
 20
108.7395887456675
 30
0.0
 10
137.3700497939226
 20
108.5544828825548
 30
0.0
 10
137.466873204126
 20
108.4484812129479
 30
0.0
 10
137.5764521250032
 20
108.3960255809072
 30
0.0
 10
137.7634011053216
 20
108.3408604136518
 30
0.0
 10
138.0895840367694
 20
108.2831670103274
 30
0.0
 10
138.5743652855866
 20
108.2123060408277
 30
0.0
 10
139.1667897311172
 20
108.1430053730629
 30
0.0
 10
139.7942040534736
 20
108.0783423951117
 30
0.0
 10
140.3668117560492
 20
108.0274963144455
 30
0.0
 10
140.8579721628372
 20
107.9874122662689
 30
0.0
 10
141.3772709889537
 20
107.9418912187036
 30
0.0
 10
142.0303217696328
 20
107.8807609033237
 30
0.0
 10
142.7932948358389
 20
107.8028936731868
 30
0.0
 10
143.4943992049392
 20
107.7209968647669
 30
0.0
 10
143.9861705263747
 20
107.6567641917023
 30
0.0
 10
144.2310312953789
 20
107.5986379749796
 30
0.0
 10
144.3054910194822
 20
107.5738845308244
 30
0.0
 10
144.3029711171711
 20
107.5748933632532
 30
0.0
  0
SPLINE
  5
2F0
330
40
100
AcDbEntity
  8
0007744
  6
Continuous
 62
     7
100
AcDbSpline
210
0.0
220
0.0
230
1.0
 70
     8
 71
     3
 72
    29
 73
    25
 74
     0
 42
0.0000000000735203
 43
0.0000000001
 12
1.0
 22
0.0
 32
0.0
 13
1.0
 23
0.0
 33
0.0
 40
0.7448849425038335
 40
0.7448849425038335
 40
0.7448849425038335
 40
0.7448849425038335
 40
0.746162109758526
 40
0.7498408318298205
 40
0.7527874181071189
 40
0.7546563702077655
 40
0.7563839673286237
 40
0.7587490917507482
 40
0.7627304003670246
 40
0.7672765448934058
 40
0.7719094977371994
 40
0.7760640052663323
 40
0.7786148859620998
 40
0.7805394883391016
 40
0.7822807853320365
 40
0.7848881876344226
 40
0.7881116216365595
 40
0.791215075588817
 40
0.7941348846292836
 40
0.7966162271805515
 40
0.7980449800159926
 40
0.800237825523354
 40
0.8028064444231654
 40
0.8037350835529055
 40
0.8037350835529055
 40
0.8037350835529055
 40
0.8037350835529055
 10
138.0102545030282
 20
107.0777124173974
 30
0.0
 10
137.962994637972
 20
107.0700453869679
 30
0.0
 10
137.7907712034985
 20
107.0389557623294
 30
0.0
 10
137.5920880840876
 20
106.9734557768323
 30
0.0
 10
137.4161505868949
 20
106.9130898333959
 30
0.0
 10
137.3348804716972
 20
106.6521839237059
 30
0.0
 10
137.4694355193784
 20
106.4982551303457
 30
0.0
 10
137.6171829019907
 20
106.4337280793973
 30
0.0
 10
137.9271752828943
 20
106.3615766247364
 30
0.0
 10
138.4847347366716
 20
106.2790617241178
 30
0.0
 10
139.2271237100003
 20
106.1896860322968
 30
0.0
 10
139.9647023934252
 20
106.1173562049307
 30
0.0
 10
140.55784739807
 20
106.0668223856507
 30
0.0
 10
140.9921153592863
 20
106.0309968702042
 30
0.0
 10
141.4297712631704
 20
105.9917488040246
 30
0.0
 10
141.9504875981438
 20
105.943349824943
 30
0.0
 10
142.5353241059121
 20
105.8842697884917
 30
0.0
 10
143.0847247605043
 20
105.8245506320762
 30
0.0
 10
143.5232811363061
 20
105.7714472257076
 30
0.0
 10
143.8162647509987
 20
105.7335578095199
 30
0.0
 10
144.0339817786323
 20
105.6970651779731
 30
0.0
 10
144.1975175001996
 20
105.6632149426738
 30
0.0
 10
144.292223101609
 20
105.6311659917468
 30
0.0
 10
144.3077848171793
 20
105.6239917488252
 30
0.0
 10
144.3082045829912
 20
105.6247670226291
 30
0.0
  0
SPLINE
  5
2F1
330
40
100
AcDbEntity
  8
0007744
  6
Continuous
 62
     7
100
AcDbSpline
210
0.0
220
0.0
230
1.0
 70
     8
 71
     3
 72
    32
 73
    28
 74
     0
 42
0.0000000000738997
 43
0.0000000001
 12
1.0
 22
0.0
 32
0.0
 13
1.0
 23
0.0
 33
0.0
 40
0.8491588218489197
 40
0.8491588218489197
 40
0.8491588218489197
 40
0.8491588218489197
 40
0.8501449156697896
 40
0.8527730293270928
 40
0.8552693736668794
 40
0.8568787346752109
 40
0.858666308940739
 40
0.8608689445884845
 40
0.8635939035729006
 40
0.8657932209867221
 40
0.8683156723690629
 40
0.8715279714588898
 40
0.8752110128320448
 40
0.8784900498305203
 40
0.8812096907402105
 40
0.8837918649598158
 40
0.8861325259224233
 40
0.8885671760688992
 40
0.8915363356931626
 40
0.8952179445903764
 40
0.8988858360084673
 40
0.9018109785651769
 40
0.9033276252808276
 40
0.9046300718465853
 40
0.9061858823002732
 40
0.9077756442137394
 40
0.9082621066648676
 40
0.9082621066648676
 40
0.9082621066648676
 40
0.9082621066648676
 10
138.0131601362664
 20
105.1318110951868
 30
0.0
 10
137.977203686854
 20
105.1256627562535
 30
0.0
 10
137.850679684367
 20
105.1027705927299
 30
0.0
 10
137.6642978641051
 20
105.0619210221735
 30
0.0
 10
137.5331903067288
 20
105.0038388965856
 30
0.0
 10
137.4057235706952
 20
104.9362729700001
 30
0.0
 10
137.3310281770993
 20
104.7030327509358
 30
0.0
 10
137.4841014403977
 20
104.5368208804879
 30
0.0
 10
137.6247180646993
 20
104.4908184885305
 30
0.0
 10
137.829522664116
 20
104.437682806898
 30
0.0
 10
138.0982456245282
 20
104.393055752864
 30
0.0
 10
138.5159256793497
 20
104.3299839256929
 30
0.0
 10
139.0668516157177
 20
104.264112225849
 30
0.0
 10
139.6709424636308
 20
104.2005390390141
 30
0.0
 10
140.2453245559946
 20
104.1476585428037
 30
0.0
 10
140.7759525189767
 20
104.1043573752247
 30
0.0
 10
141.2906996799908
 20
104.0596128936433
 30
0.0
 10
141.8259181659928
 20
104.0100981469245
 30
0.0
 10
142.4293962717323
 20
103.9505056684425
 30
0.0
 10
143.0560764548411
 20
103.8830791076447
 30
0.0
 10
143.5835699554995
 20
103.8194962608176
 30
0.0
 10
143.9096302078193
 20
103.7751221820216
 30
0.0
 10
144.0906546653152
 20
103.7402076323117
 30
0.0
 10
144.2019994021902
 20
103.7152470491879
 30
0.0
 10
144.2726295793724
 20
103.6920465921096
 30
0.0
 10
144.2968291876832
 20
103.6869473576885
 30
0.0
 10
144.3036270952195
 20
103.6828978557818
 30
0.0
 10
144.3043923012115
 20
103.6826532720518
 30
0.0
  0
SPLINE
  5
2F2
330
40
100
AcDbEntity
  8
0007744
  6
Continuous
 62
     7
100
AcDbSpline
210
0.0
220
0.0
230
1.0
 70
     8
 71
     3
 72
    24
 73
    20
 74
     0
 42
0.000000000068733
 43
0.0000000001
 12
1.0
 22
0.0
 32
0.0
 13
1.0
 23
0.0
 33
0.0
 40
0.953331279544369
 40
0.953331279544369
 40
0.953331279544369
 40
0.953331279544369
 40
0.9546621997476938
 40
0.9588106073454004
 40
0.9608119773077424
 40
0.9618904179867097
 40
0.9633121971678934
 40
0.9654935343760599
 40
0.9678568663164345
 40
0.9715338923053309
 40
0.9746719657994439
 40
0.9783503870507424
 40
0.9820938035067024
 40
0.985228168493055
 40
0.9883025144131512
 40
0.9914503193884536
 40
0.9942156439584712
 40
0.9971688998576831
 40
1.0
 40
1.0
 40
1.0
 40
1.0
 10
138.0134515021112
 20
103.1867746853167
 30
0.0
 10
137.9647089686541
 20
103.1785305394218
 30
0.0
 10
137.7759915938017
 20
103.1440091728321
 30
0.0
 10
137.5818633344471
 20
103.0925597958345
 30
0.0
 10
137.4478926595397
 20
103.0089291821443
 30
0.0
 10
137.3623613637452
 20
102.9099374410875
 30
0.0
 10
137.366261243755
 20
102.6935724081687
 30
0.0
 10
137.5014390364896
 20
102.5930062985145
 30
0.0
 10
137.6638624132336
 20
102.5288367469465
 30
0.0
 10
137.9335428333876
 20
102.4739804434655
 30
0.0
 10
138.361203981014
 20
102.4067803180646
 30
0.0
 10
138.9044178625808
 20
102.3371379471681
 30
0.0
 10
139.5435963958166
 20
102.268083478997
 30
0.0
 10
140.2070733847884
 20
102.2055087086266
 30
0.0
 10
140.8553056527006
 20
102.1530264143897
 30
0.0
 10
141.4889033087611
 20
102.0967878148641
 30
0.0
 10
142.085173473889
 20
102.0400191343863
 30
0.0
 10
142.6507830302822
 20
101.9820923660984
 30
0.0
 10
142.9601114670804
 20
101.9477483844924
 30
0.0
 10
143.1281522008879
 20
101.9282397868106
 30
0.0
  0
SPLINE
  5
2F3
330
40
100
AcDbEntity
  8
0007744
  6
Continuous
 62
     7
100
AcDbSpline
210
0.0
220
0.0
230
1.0
 70
     8
 71
     3
 72
    25
 73
    21
 74
     0
 42
0.0000000000659882
 43
0.0000000001
 12
1.0
 22
0.0
 32
0.0
 13
1.0
 23
0.0
 33
0.0
 40
0.0
 40
0.0
 40
0.0
 40
0.0
 40
0.0009247905267252
 40
0.0029921256235751
 40
0.0069376667049476
 40
0.0104588429081546
 40
0.0131491231993391
 40
0.0163712564094977
 40
0.0197603904864216
 40
0.022026615552532
 40
0.0233295190154769
 40
0.0253700645929961
 40
0.0275625879809779
 40
0.0303788775536616
 40
0.034008731121335
 40
0.0370872730016303
 40
0.0395835364819715
 40
0.0428950875372123
 40
0.045386640495387
 40
0.0466094831160973
 40
0.0466094831160973
 40
0.0466094831160973
 40
0.0466094831160973
 10
144.6458449178562
 20
101.9293888285816
 30
0.0
 10
144.6315756475298
 20
101.9639767348628
 30
0.0
 10
144.5737015195832
 20
102.0465228683582
 30
0.0
 10
144.4119829116733
 20
102.130694512325
 30
0.0
 10
144.1635258815424
 20
102.1922326761666
 30
0.0
 10
143.7371256857544
 20
102.2582398992739
 30
0.0
 10
143.2577501091388
 20
102.3145573327116
 30
0.0
 10
142.6989791117429
 20
102.378303156068
 30
0.0
 10
142.1062889218326
 20
102.4378124767038
 30
0.0
 10
141.6141996827347
 20
102.4849775971009
 30
0.0
 10
141.2116430871258
 20
102.5213440136886
 30
0.0
 10
140.811012737137
 20
102.5564812729322
 30
0.0
 10
140.3046558402727
 20
102.5976523976469
 30
0.0
 10
139.7045084343461
 20
102.6522267614183
 30
0.0
 10
139.0930441424987
 20
102.7167835842049
 30
0.0
 10
138.586100108979
 20
102.7784088697835
 30
0.0
 10
138.1742270821609
 20
102.8387289098408
 30
0.0
 10
137.8946149439249
 20
102.8860512104319
 30
0.0
 10
137.7474116414155
 20
102.9252222038399
 30
0.0
 10
137.7254077641398
 20
102.9333372611604
 30
0.0
 10
137.7237860560216
 20
102.9320798278234
 30
0.0
  0
SPLINE
  5
2F4
330
40
100
AcDbEntity
  8
0007744
  6
Continuous
 62
     7
100
AcDbSpline
210
0.0
220
0.0
230
1.0
 70
     8
 71
     3
 72
    30
 73
    26
 74
     0
 42
0.0000000000715198
 43
0.0000000001
 12
1.0
 22
0.0
 32
0.0
 13
1.0
 23
0.0
 33
0.0
 40
0.0907523177818013
 40
0.0907523177818013
 40
0.0907523177818013
 40
0.0907523177818013
 40
0.0946756045510835
 40
0.0972478432125399
 40
0.0985309457571051
 40
0.0990312461793984
 40
0.0997515789709947
 40
0.1006178805575552
 40
0.1020605609745398
 40
0.1046154775967399
 40
0.1063217949857947
 40
0.1088071260740408
 40
0.1123859858836584
 40
0.1160848047922155
 40
0.1195169906424708
 40
0.1224881780439372
 40
0.1248298659270495
 40
0.1272113864639504
 40
0.1306543956956748
 40
0.133628603278098
 40
0.1370619303943938
 40
0.1405311193728749
 40
0.1447641624235403
 40
0.1471073271501129
 40
0.1477551149857313
 40
0.1477551149857313
 40
0.1477551149857313
 40
0.1477551149857313
 10
144.0189461463267
 20
103.4364298219513
 30
0.0
 10
144.1732199069643
 20
103.4625959495555
 30
0.0
 10
144.3890931953524
 20
103.5072485216819
 30
0.0
 10
144.556804653843
 20
103.5903027630099
 30
0.0
 10
144.6154419721001
 20
103.6455122042692
 30
0.0
 10
144.6520691833813
 20
103.7163987739235
 30
0.0
 10
144.674548596355
 20
103.8044967292994
 30
0.0
 10
144.6280284363612
 20
103.9305007277996
 30
0.0
 10
144.5501329200748
 20
104.005516372719
 30
0.0
 10
144.4275375829319
 20
104.0648792783813
 30
0.0
 10
144.233299832989
 20
104.1189730226683
 30
0.0
 10
143.9770834078313
 20
104.1691138424041
 30
0.0
 10
143.5361295459852
 20
104.2276202311858
 30
0.0
 10
142.9347541558327
 20
104.2972874676448
 30
0.0
 10
142.277471355846
 20
104.3664016967405
 30
0.0
 10
141.6657011560954
 20
104.4251313754225
 30
0.0
 10
141.1112293671317
 20
104.4759071518419
 30
0.0
 10
140.5205612043364
 20
104.5249094128763
 30
0.0
 10
139.8984343439171
 20
104.5784908474598
 30
0.0
 10
139.2517607177801
 20
104.6440618299085
 30
0.0
 10
138.6765593796461
 20
104.7116662870857
 30
0.0
 10
138.1502572558736
 20
104.7845732794906
 30
0.0
 10
137.8349340137379
 20
104.8455622810457
 30
0.0
 10
137.7225750329387
 20
104.8750544081985
 30
0.0
 10
137.711871998956
 20
104.8866127913669
 30
0.0
 10
137.7117404496479
 20
104.8869116104625
 30
0.0
  0
SPLINE
  5
2F5
330
40
100
AcDbEntity
  8
0007744
  6
Continuous
 62
     7
100
AcDbSpline
210
0.0
220
0.0
230
1.0
 70
     8
 71
     3
 72
    32
 73
    28
 74
     0
 42
0.0000000000714848
 43
0.0000000001
 12
1.0
 22
0.0
 32
0.0
 13
1.0
 23
0.0
 33
0.0
 40
0.1915927842455909
 40
0.1915927842455909
 40
0.1915927842455909
 40
0.1915927842455909
 40
0.1924696639370209
 40
0.1937499419547887
 40
0.1951599385398013
 40
0.1970607061607207
 40
0.1988874346003866
 40
0.1997289841159511
 40
0.2005340990580098
 40
0.2015111481538484
 40
0.2024639578046482
 40
0.2046318279516352
 40
0.2086691433855435
 40
0.212585454521707
 40
0.2172841015722046
 40
0.2220283033310171
 40
0.2249075924124747
 40
0.2266723525296684
 40
0.228068895034085
 40
0.2305231358828144
 40
0.2335619617631448
 40
0.2367227321643389
 40
0.2401948801964521
 40
0.2434784281748684
 40
0.2461499287974218
 40
0.2480478885743348
 40
0.2486082755690745
 40
0.2486082755690745
 40
0.2486082755690745
 40
0.2486082755690745
 10
144.0132874233324
 20
105.3802125759737
 30
0.0
 10
144.0463912534714
 20
105.3858522921513
 30
0.0
 10
144.1242621921862
 20
105.3996405172477
 30
0.0
 10
144.2376701134921
 20
105.4221478222328
 30
0.0
 10
144.3699277761217
 20
105.4513756911669
 30
0.0
 10
144.504195164112
 20
105.5035066890282
 30
0.0
 10
144.5808035816344
 20
105.5508551299326
 30
0.0
 10
144.6425033049442
 20
105.6316489922109
 30
0.0
 10
144.6773502066505
 20
105.7466891753824
 30
0.0
 10
144.6321515052052
 20
105.8607897901397
 30
0.0
 10
144.5786735708446
 20
105.92851875377
 30
0.0
 10
144.4246415939375
 20
106.0170908850312
 30
0.0
 10
144.1331465997973
 20
106.0903774142843
 30
0.0
 10
143.6075769227488
 20
106.1649335320879
 30
0.0
 10
142.8536778547366
 20
106.2518027020786
 30
0.0
 10
142.0259931424571
 20
106.3367892418191
 30
0.0
 10
141.3534648253213
 20
106.3987801376763
 30
0.0
 10
140.9170524976305
 20
106.4373281114769
 30
0.0
 10
140.5123560475017
 20
106.4707058597447
 30
0.0
 10
140.0239340651395
 20
106.5122997541232
 30
0.0
 10
139.440913034547
 20
106.5691501092829
 30
0.0
 10
138.8524421103418
 20
106.6346837172385
 30
0.0
 10
138.3460088610285
 20
106.7011922504969
 30
0.0
 10
137.9843561416485
 20
106.7603076124236
 30
0.0
 10
137.7888724163101
 20
106.8004732672341
 30
0.0
 10
137.7219488957458
 20
106.8244706714727
 30
0.0
 10
137.7119739071801
 20
106.8295199289545
 30
0.0
 10
137.7118625137759
 20
106.8290827286936
 30
0.0
  0
SPLINE
  5
2F6
330
40
100
AcDbEntity
  8
0007744
  6
Continuous
 62
     7
100
AcDbSpline
210
0.0
220
0.0
230
1.0
 70
     8
 71
     3
 72
    28
 73
    24
 74
     0
 42
0.0000000000711754
 43
0.0000000001
 12
1.0
 22
0.0
 32
0.0
 13
1.0
 23
0.0
 33
0.0
 40
0.2924096669024004
 40
0.2924096669024004
 40
0.2924096669024004
 40
0.2924096669024004
 40
0.2937412944232927
 40
0.2975477506255991
 40
0.3003549682374327
 40
0.3014672347764944
 40
0.3025610641842059
 40
0.3046100704011289
 40
0.3071703375139962
 40
0.3115424531634317
 40
0.3157336099379475
 40
0.3198553213668603
 40
0.3235280681050841
 40
0.3258062839805762
 40
0.3276236864886931
 40
0.3296748482309439
 40
0.3329308939288653
 40
0.3365386795661237
 40
0.3396871833242501
 40
0.3429190281757085
 40
0.3456851307483546
 40
0.347791948008089
 40
0.349232498913084
 40
0.349232498913084
 40
0.349232498913084
 40
0.349232498913084
 10
144.017533938468
 20
107.3259388712225
 30
0.0
 10
144.0685882819559
 20
107.3346306430946
 30
0.0
 10
144.2531616349997
 20
107.3678748046729
 30
0.0
 10
144.4517028575841
 20
107.4165767434306
 30
0.0
 10
144.6263680519204
 20
107.5147737771227
 30
0.0
 10
144.6756943770497
 20
107.6996061715285
 30
0.0
 10
144.619302826457
 20
107.8437779434638
 30
0.0
 10
144.4940517474611
 20
107.9273674942537
 30
0.0
 10
144.2960247683318
 20
107.9993236208297
 30
0.0
 10
143.901692548931
 20
108.0727911642847
 30
0.0
 10
143.2680857266092
 20
108.1493210714893
 30
0.0
 10
142.5301256960201
 20
108.2312749716331
 30
0.0
 10
141.8345015400409
 20
108.2994005759055
 30
0.0
 10
141.277578069271
 20
108.3506778656841
 30
0.0
 10
140.8329264109798
 20
108.3895544189215
 30
0.0
 10
140.3207524622776
 20
108.4312203701593
 30
0.0
 10
139.6996913529267
 20
108.4875643034419
 30
0.0
 10
139.0619130077697
 20
108.5550723020541
 30
0.0
 10
138.5164039505219
 20
108.6226310069427
 30
0.0
 10
138.1175147330295
 20
108.6820754752433
 30
0.0
 10
137.8649661339546
 20
108.7289404899124
 30
0.0
 10
137.74435222442
 20
108.7594240155886
 30
0.0
 10
137.7167909671371
 20
108.773045897693
 30
0.0
 10
137.7160761006757
 20
108.7714360176721
 30
0.0
  0
SPLINE
  5
2F7
330
40
100
AcDbEntity
  8
0007744
  6
Continuous
 62
     7
100
AcDbSpline
210
0.0
220
0.0
230
1.0
 70
     8
 71
     3
 72
    31
 73
    27
 74
     0
 42
0.0000000000714116
 43
0.0000000001
 12
1.0
 22
0.0
 32
0.0
 13
1.0
 23
0.0
 33
0.0
 40
0.3931664347934466
 40
0.3931664347934466
 40
0.3931664347934466
 40
0.3931664347934466
 40
0.3939611974923464
 40
0.3964217137942894
 40
0.3989201706933009
 40
0.4005911109873716
 40
0.4022768971432922
 40
0.4042077361330235
 40
0.4068260002804177
 40
0.4090383410849336
 40
0.4113831527246086
 40
0.4142953275428387
 40
0.4177742048504382
 40
0.4213431414879835
 40
0.4251312704696775
 40
0.4276110992740908
 40
0.429836582411509
 40
0.4322762547087703
 40
0.4353767404955411
 40
0.4391153511810243
 40
0.442502529692143
 40
0.4450259119949848
 40
0.4466110261602351
 40
0.4485210049892512
 40
0.4500999152253922
 40
0.4502402782196838
 40
0.4502402782196838
 40
0.4502402782196838
 40
0.4502402782196838
 10
144.0139768753859
 20
109.2706936791685
 30
0.0
 10
144.043807597811
 20
109.2758368233785
 30
0.0
 10
144.162086428466
 20
109.2967101611113
 30
0.0
 10
144.3470502766536
 20
109.3315852148321
 30
0.0
 10
144.4848643466532
 20
109.3870349327388
 30
0.0
 10
144.6136200935352
 20
109.4505752387931
 30
0.0
 10
144.696047103073
 20
109.6757991349521
 30
0.0
 10
144.5554545518304
 20
109.8487832504049
 30
0.0
 10
144.4232628466923
 20
109.8980759465589
 30
0.0
 10
144.2211777408021
 20
109.9588459816647
 30
0.0
 10
143.9651119978569
 20
110.0041783786828
 30
0.0
 10
143.574591081732
 20
110.0581443498699
 30
0.0
 10
143.0314456909732
 20
110.1211796632318
 30
0.0
 10
142.3393518947327
 20
110.1956575329096
 30
0.0
 10
141.6503746896845
 20
110.2617269176469
 30
0.0
 10
141.036974182965
 20
110.3173507699132
 30
0.0
 10
140.5209485123095
 20
110.3599064453019
 30
0.0
 10
139.9721203482893
 20
110.4070075247983
 30
0.0
 10
139.3511064713333
 20
110.4683031855872
 30
0.0
 10
138.7431294591414
 20
110.537797450755
 30
0.0
 10
138.2746886979574
 20
110.6022529087582
 30
0.0
 10
137.9980705694024
 20
110.6492021565441
 30
0.0
 10
137.8259306655999
 20
110.6832080247141
 30
0.0
 10
137.7449817695466
 20
110.7072552351567
 30
0.0
 10
137.7248560441016
 20
110.710500520024
 30
0.0
 10
137.722101988953
 20
110.7115294219877
 30
0.0
 10
137.7219334110572
 20
110.7115827124459
 30
0.0
  0
SPLINE
  5
2F8
330
40
100
AcDbEntity
  8
0007744
  6
Continuous
 62
     7
100
AcDbSpline
210
0.0
220
0.0
230
1.0
 70
     8
 71
     3
 72
    32
 73
    28
 74
     0
 42
0.0000000000711302
 43
0.0000000001
 12
1.0
 22
0.0
 32
0.0
 13
1.0
 23
0.0
 33
0.0
 40
0.4939160883920499
 40
0.4939160883920499
 40
0.4939160883920499
 40
0.4939160883920499
 40
0.495788078441617
 40
0.4982979172781419
 40
0.5000317457886565
 40
0.5010674486378426
 40
0.5021157109614562
 40
0.5029355062694193
 40
0.5039672332791159
 40
0.5066841697990025
 40
0.5096966892189605
 40
0.5133000619234456
 40
0.516796947472454
 40
0.5199578947771359
 40
0.5227711960871405
 40
0.5248747923343675
 40
0.5263788865250831
 40
0.5275346858388541
 40
0.5293457762012834
 40
0.5317988768409295
 40
0.5346101563678599
 40
0.5375770557620996
 40
0.540720738292515
 40
0.5441097200446168
 40
0.5475259630155487
 40
0.5498922065716652
 40
0.55057597836046
 40
0.55057597836046
 40
0.55057597836046
 40
0.55057597836046
 10
144.0153076560822
 20
111.2156881930268
 30
0.0
 10
144.0871461546539
 20
111.2279351447456
 30
0.0
 10
144.2409615500572
 20
111.2565735164973
 30
0.0
 10
144.4084751819017
 20
111.2988288432347
 30
0.0
 10
144.5100300312992
 20
111.3415161775448
 30
0.0
 10
144.5848214962234
 20
111.3924700226909
 30
0.0
 10
144.6550863688334
 20
111.4789134123897
 30
0.0
 10
144.6688620979331
 20
111.5979970943816
 30
0.0
 10
144.6223667621845
 20
111.7370107479618
 30
0.0
 10
144.4690278446024
 20
111.8329696241177
 30
0.0
 10
144.2415260624867
 20
111.900133971662
 30
0.0
 10
143.8617819768605
 20
111.9675498206594
 30
0.0
 10
143.3611288325855
 20
112.0275989443829
 30
0.0
 10
142.8018236451691
 20
112.0920436771418
 30
0.0
 10
142.2729549263502
 20
112.1460770859764
 30
0.0
 10
141.8268382568059
 20
112.189945234264
 30
0.0
 10
141.4879943413513
 20
112.2213352218041
 30
0.0
 10
141.1662062969779
 20
112.2504484937056
 30
0.0
 10
140.7743757428431
 20
112.2844656177796
 30
0.0
 10
140.2662769647549
 20
112.3258355352263
 30
0.0
 10
139.6973836750914
 20
112.3782538174746
 30
0.0
 10
139.1248458658239
 20
112.4385024096909
 30
0.0
 10
138.5907410220299
 20
112.5021912463634
 30
0.0
 10
138.1327461461948
 20
112.5698890937861
 30
0.0
 10
137.8470762148694
 20
112.6207772457078
 30
0.0
 10
137.7349346984897
 20
112.655312756104
 30
0.0
 10
137.723879943715
 20
112.6579454274143
 30
0.0
 10
137.7232252008571
 20
112.6573025827877
 30
0.0
  0
SPLINE
  5
2F9
330
40
100
AcDbEntity
  8
0007744
  6
Continuous
 62
     7
100
AcDbSpline
210
0.0
220
0.0
230
1.0
 70
     8
 71
     3
 72
    33
 73
    29
 74
     0
 42
0.0000000000715197
 43
0.0000000001
 12
1.0
 22
0.0
 32
0.0
 13
1.0
 23
0.0
 33
0.0
 40
0.5947244127893819
 40
0.5947244127893819
 40
0.5947244127893819
 40
0.5947244127893819
 40
0.5948511900029715
 40
0.5982877879737412
 40
0.6008134226514742
 40
0.602145507056399
 40
0.6028630925256548
 40
0.603765498150255
 40
0.604606138269669
 40
0.6059060637229501
 40
0.6075776107228168
 40
0.6091929324953596
 40
0.6106708027420301
 40
0.6119926599320205
 40
0.6144507910686283
 40
0.6177415694136845
 40
0.6214588478925904
 40
0.6246191158994464
 40
0.6271691935873422
 40
0.6294463158602015
 40
0.6318521966636423
 40
0.6354835820751741
 40
0.6388942505600574
 40
0.6423786929656318
 40
0.6456026089527679
 40
0.6484410072061697
 40
0.6506943202731192
 40
0.6517353049396232
 40
0.6517353049396232
 40
0.6517353049396232
 40
0.6517353049396232
 10
144.0191279239191
 20
113.161692499445
 30
0.0
 10
144.0241040119253
 20
113.1625503270992
 30
0.0
 10
144.1632821218882
 20
113.1866651425255
 30
0.0
 10
144.3681249023755
 20
113.2280530793619
 30
0.0
 10
144.5358261762086
 20
113.3021831607561
 30
0.0
 10
144.6039893631342
 20
113.3584714884813
 30
0.0
 10
144.6451064553184
 20
113.4206646284339
 30
0.0
 10
144.6771069577423
 20
113.5271834415459
 30
0.0
 10
144.6288859640516
 20
113.651543868559
 30
0.0
 10
144.5663271770664
 20
113.7150562337462
 30
0.0
 10
144.4800554223455
 20
113.7660627623064
 30
0.0
 10
144.3540666360246
 20
113.8119621392931
 30
0.0
 10
144.2256491600365
 20
113.8437899187304
 30
0.0
 10
144.0537840330479
 20
113.8794980345677
 30
0.0
 10
143.7703688343959
 20
113.9227265783346
 30
0.0
 10
143.2987626171939
 20
113.9807014541488
 30
0.0
 10
142.6878134852986
 20
114.0491218259289
 30
0.0
 10
142.0536680339125
 20
114.1133141422158
 30
0.0
 10
141.4875118962551
 20
114.1666237087632
 30
0.0
 10
140.9647238858998
 20
114.2136243790272
 30
0.0
 10
140.3650489445266
 20
114.2624223451511
 30
0.0
 10
139.7048831181571
 20
114.3218540093056
 30
0.0
 10
139.0370503374415
 20
114.3928786162294
 30
0.0
 10
138.4852878140504
 20
114.4616895633493
 30
0.0
 10
138.0814724473902
 20
114.5230650945053
 30
0.0
 10
137.8337388692966
 20
114.5705784919877
 30
0.0
 10
137.734556137505
 20
114.5981208101492
 30
0.0
 10
137.7084705120716
 20
114.6117373267456
 30
0.0
 10
137.7089131828609
 20
114.6107259647387
 30
0.0
  0
SPLINE
  5
2FA
330
40
100
AcDbEntity
  8
0007744
  6
Continuous
 62
     7
100
AcDbSpline
210
0.0
220
0.0
230
1.0
 70
     8
 71
     3
 72
    33
 73
    29
 74
     0
 42
0.0000000000714877
 43
0.0000000001
 12
1.0
 22
0.0
 32
0.0
 13
1.0
 23
0.0
 33
0.0
 40
0.6955822859507887
 40
0.6955822859507887
 40
0.6955822859507887
 40
0.6955822859507887
 40
0.6967168907737371
 40
0.698096049707862
 40
0.6998094468619886
 40
0.7020419549024566
 40
0.7033204169040196
 40
0.7041251412952749
 40
0.7051706416666401
 40
0.7059439537445756
 40
0.7074788503099239
 40
0.7098529320201887
 40
0.7117946720557982
 40
0.7135075541532574
 40
0.7160802647274245
 40
0.7197159514522515
 40
0.7239961854716177
 40
0.72725070663773
 40
0.7297028323887403
 40
0.7311084909330439
 40
0.732864799114777
 40
0.7357993167117416
 40
0.7398417505267738
 40
0.7437727107918839
 40
0.7471229529159303
 40
0.7498657907609843
 40
0.7518582282075588
 40
0.7525811781377177
 40
0.7525811781377177
 40
0.7525811781377177
 40
0.7525811781377177
 10
144.0151238597278
 20
115.1055942405004
 30
0.0
 10
144.0579021786193
 20
115.1128985222524
 30
0.0
 10
144.1473353177668
 20
115.1288939873408
 30
0.0
 10
144.2765626571196
 20
115.154893573364
 30
0.0
 10
144.4280553643873
 20
115.193717448485
 30
0.0
 10
144.5459271466065
 20
115.2512291478077
 30
0.0
 10
144.6102052799066
 20
115.3082128143207
 30
0.0
 10
144.6733702815883
 20
115.4180619375318
 30
0.0
 10
144.6551803053622
 20
115.5459231065784
 30
0.0
 10
144.6010063312974
 20
115.6280930508886
 30
0.0
 10
144.5291541447028
 20
115.6871608131593
 30
0.0
 10
144.3805740663503
 20
115.7519554087681
 30
0.0
 10
144.2004131741867
 20
115.7947826763746
 30
0.0
 10
143.9856688332594
 20
115.8366016639987
 30
0.0
 10
143.6473297591144
 20
115.8833448795388
 30
0.0
 10
143.0928817044667
 20
115.9499751423433
 30
0.0
 10
142.3813988881495
 20
116.0261192942328
 30
0.0
 10
141.6843821320426
 20
116.0936902644049
 30
0.0
 10
141.1715059815488
 20
116.1400424509006
 30
0.0
 10
140.7659861926705
 20
116.1750741913739
 30
0.0
 10
140.3282552170712
 20
116.2107293562184
 30
0.0
 10
139.7185484760168
 20
116.265658249433
 30
0.0
 10
139.0187173454912
 20
116.3393441120316
 30
0.0
 10
138.4156733662184
 20
116.4158325405879
 30
0.0
 10
138.0161585507639
 20
116.4795290716118
 30
0.0
 10
137.8031300317637
 20
116.5219298413743
 30
0.0
 10
137.7256540957781
 20
116.5475048609543
 30
0.0
 10
137.7118366865482
 20
116.5547571694681
 30
0.0
 10
137.7118166575767
 20
116.5540789009368
 30
0.0
  0
SPLINE
  5
2FB
330
40
100
AcDbEntity
  8
0007744
  6
Continuous
 62
     7
100
AcDbSpline
210
0.0
220
0.0
230
1.0
 70
     8
 71
     3
 72
    28
 73
    24
 74
     0
 42
0.0000000000712253
 43
0.0000000001
 12
1.0
 22
0.0
 32
0.0
 13
1.0
 23
0.0
 33
0.0
 40
0.7963736915862467
 40
0.7963736915862467
 40
0.7963736915862467
 40
0.7963736915862467
 40
0.7983510314729564
 40
0.8012648547368828
 40
0.8029254677660367
 40
0.8045816949965059
 40
0.8054649067599084
 40
0.8067346556373484
 40
0.809717424307612
 40
0.8141604022220894
 40
0.8183679478578743
 40
0.8225394300454227
 40
0.826499251737415
 40
0.829564614663959
 40
0.8314149690600855
 40
0.8333637946176564
 40
0.8360818087036892
 40
0.8391791186345408
 40
0.8428983749627111
 40
0.8465578643921485
 40
0.8494058196002314
 40
0.8519548272996866
 40
0.8532227327842336
 40
0.8532227327842336
 40
0.8532227327842336
 40
0.8532227327842336
 10
144.0148347673683
 20
117.0505664063847
 30
0.0
 10
144.0906275344506
 20
117.0637022041937
 30
0.0
 10
144.2621818234696
 20
117.0962084574399
 30
0.0
 10
144.4256056700736
 20
117.1350435465069
 30
0.0
 10
144.565807199926
 20
117.2089291813614
 30
0.0
 10
144.6486031637476
 20
117.2944084215002
 30
0.0
 10
144.6734849117456
 20
117.4448330838091
 30
0.0
 10
144.5921518019765
 20
117.6038860281236
 30
0.0
 10
144.4101796492875
 20
117.691752909138
 30
0.0
 10
144.0761914489393
 20
117.7717632964692
 30
0.0
 10
143.4828093379515
 20
117.8495494780572
 30
0.0
 10
142.7692903374339
 20
117.9306918181506
 30
0.0
 10
142.0130063063402
 20
118.007714505027
 30
0.0
 10
141.3801933892982
 20
118.0664455671111
 30
0.0
 10
140.8832630813936
 20
118.1103510779975
 30
0.0
 10
140.4142770052795
 20
118.1485497062318
 30
0.0
 10
139.8688869532389
 20
118.1967367265522
 30
0.0
 10
139.2414452334467
 20
118.2599549054602
 30
0.0
 10
138.6351475345877
 20
118.331500665127
 30
0.0
 10
138.1669576242724
 20
118.3983198961513
 30
0.0
 10
137.8728593148247
 20
118.4525982855912
 30
0.0
 10
137.7430223456926
 20
118.4831677977033
 30
0.0
 10
137.7166623364705
 20
118.4989368322231
 30
0.0
 10
137.715967427018
 20
118.4975892620158
 30
0.0
  0
SPLINE
  5
2FC
330
40
100
AcDbEntity
  8
0007744
  6
Continuous
 62
     7
100
AcDbSpline
210
0.0
220
0.0
230
1.0
 70
     8
 71
     3
 72
    31
 73
    27
 74
     0
 42
0.0000000000714741
 43
0.0000000001
 12
1.0
 22
0.0
 32
0.0
 13
1.0
 23
0.0
 33
0.0
 40
0.8971427302111363
 40
0.8971427302111363
 40
0.8971427302111363
 40
0.8971427302111363
 40
0.8988293656872068
 40
0.9014756528429677
 40
0.9034514881474544
 40
0.9047037324590929
 40
0.9064496971329942
 40
0.9082424691663786
 40
0.910543228635877
 40
0.9127780714448143
 40
0.9163639165540703
 40
0.9195822937564572
 40
0.923095836315019
 40
0.9261929906102226
 40
0.9298408336317481
 40
0.9322397802169738
 40
0.9344921442720966
 40
0.9373560671404436
 40
0.9407574309857264
 40
0.9445229266414888
 40
0.9476173618819344
 40
0.949964495928124
 40
0.9510326069132797
 40
0.9524189084742508
 40
0.9540102012302503
 40
0.9542200200090499
 40
0.9542200200090499
 40
0.9542200200090499
 40
0.9542200200090499
 10
144.0144954719424
 20
118.9954352974858
 30
0.0
 10
144.0777895207043
 20
119.0062220323245
 30
0.0
 10
144.2278097065737
 20
119.0337249958963
 30
0.0
 10
144.4095214135914
 20
119.0762905302448
 30
0.0
 10
144.5173070696452
 20
119.1268606644534
 30
0.0
 10
144.6357006550214
 20
119.2050987049006
 30
0.0
 10
144.6878598299805
 20
119.4181143661175
 30
0.0
 10
144.5571151888003
 20
119.5666605360097
 30
0.0
 10
144.4312589946973
 20
119.6217556741188
 30
0.0
 10
144.2116090263783
 20
119.6874393395273
 30
0.0
 10
143.8878488953192
 20
119.7421484375671
 30
0.0
 10
143.3866016766028
 20
119.8054616809195
 30
0.0
 10
142.8137761418357
 20
119.8703974135665
 30
0.0
 10
142.1366719223097
 20
119.9404676029113
 30
0.0
 10
141.4886403326155
 20
120.001806906197
 30
0.0
 10
140.8878323373618
 20
120.055108498856
 30
0.0
 10
140.3472049662778
 20
120.0990198309395
 30
0.0
 10
139.753070769984
 20
120.1526867784504
 30
0.0
 10
139.105796061361
 20
120.2197801299918
 30
0.0
 10
138.5358120009726
 20
120.2898945069258
 30
0.0
 10
138.1335644386051
 20
120.3495342941756
 30
0.0
 10
137.9199257693436
 20
120.3895008579308
 30
0.0
 10
137.802963862698
 20
120.4141472682954
 30
0.0
 10
137.7455657786298
 20
120.4328907215165
 30
0.0
 10
137.7249501041896
 20
120.4344611405946
 30
0.0
 10
137.7218222908283
 20
120.4366629153122
 30
0.0
 10
137.7216011021311
 20
120.4368403939653
 30
0.0
  0
SPLINE
  5
2FD
330
40
100
AcDbEntity
  8
0007744
  6
Continuous
 62
     7
100
AcDbSpline
210
0.0
220
0.0
230
1.0
 70
     8
 71
     3
 72
     8
 73
     4
 74
     0
 42
0.0000000000956905
 43
0.0000000001
 12
1.0
 22
0.0
 32
0.0
 13
1.0
 23
0.0
 33
0.0
 40
0.9979869511555367
 40
0.9979869511555367
 40
0.9979869511555367
 40
0.9979869511555367
 40
1.0
 40
1.0
 40
1.0
 40
1.0
 10
144.010956132127
 20
120.9402379527098
 30
0.0
 10
144.082884731553
 20
120.9526844239363
 30
0.0
 10
144.1500324802784
 20
120.9652539672273
 30
0.0
 10
144.2177751463842
 20
120.9786748415993
 30
0.0
  0
LINE
  5
2FF
330
40
100
AcDbEntity
  8
0008128
  6
Continuous
 62
     7
100
AcDbLine
 10
131.9968117352
 20
181.4286182707
 30
0.0
 11
150.0293780204
 21
181.4286182707
 31
0.0
  0
LINE
  5
300
330
40
100
AcDbEntity
  8
0008128
  6
Continuous
 62
     7
100
AcDbLine
 10
152.0130948778
 20
179.7565238899
 30
0.0
 11
152.0130948778
 21
180.1101137284
 31
0.0
  0
LINE
  5
301
330
40
100
AcDbEntity
  8
0008128
  6
Continuous
 62
     7
100
AcDbLine
 10
130.0130948778
 20
180.1101137284
 30
0.0
 11
130.0130948778
 21
179.7565238899
 31
0.0
  0
LINE
  5
302
330
40
100
AcDbEntity
  8
0008128
  6
Continuous
 62
     7
100
AcDbLine
 10
130.1630948778
 20
179.4967162687
 30
0.0
 11
131.8130948778
 21
178.5440883246
 31
0.0
  0
LINE
  5
303
330
40
100
AcDbEntity
  8
0008128
  6
Continuous
 62
     7
100
AcDbLine
 10
150.2130948778
 20
178.5440883246
 30
0.0
 11
151.8630948778
 21
179.4967162687
 31
0.0
  0
LINE
  5
304
330
40
100
AcDbEntity
  8
0008128
  6
Continuous
 62
     7
100
AcDbLine
 10
150.0130948778
 20
177.2286182707
 30
0.0
 11
150.0130948778
 21
178.1976781631
 31
0.0
  0
LINE
  5
305
330
40
100
AcDbEntity
  8
0008128
  6
Continuous
 62
     7
100
AcDbLine
 10
132.0130948778
 20
178.1976781631
 30
0.0
 11
132.0130948778
 21
177.2286182707
 31
0.0
  0
ARC
  5
306
330
40
100
AcDbEntity
  8
0008128
  6
Continuous
 62
     7
100
AcDbCircle
 10
150.4130948778
 20
178.1976781631
 30
0.0
 40
0.400000000000001
100
AcDbArc
 50
120.0
 51
180.0
  0
ARC
  5
307
330
40
100
AcDbEntity
  8
0008128
  6
Continuous
 62
     7
100
AcDbCircle
 10
131.6130948778
 20
178.1976781631
 30
0.0
 40
0.3999999999999981
100
AcDbArc
 50
0.0
 51
60.0
  0
ARC
  5
308
330
40
100
AcDbEntity
  8
0008128
  6
Continuous
 62
     7
100
AcDbCircle
 10
149.7130948778
 20
177.2286182707
 30
0.0
 40
0.3000000000000017
100
AcDbArc
 50
270.0
 51
0.0
  0
ARC
  5
309
330
40
100
AcDbEntity
  8
0008128
  6
Continuous
 62
     7
100
AcDbCircle
 10
132.3130948778
 20
177.2286182707
 30
0.0
 40
0.2999999999999999
100
AcDbArc
 50
180.0
 51
270.0
  0
ARC
  5
30A
330
40
100
AcDbEntity
  8
0008128
  6
Continuous
 62
     7
100
AcDbCircle
 10
130.3130948778
 20
179.7565238899
 30
0.0
 40
0.2999999999999999
100
AcDbArc
 50
180.0
 51
240.0
  0
ARC
  5
30B
330
40
100
AcDbEntity
  8
0008128
  6
Continuous
 62
     7
100
AcDbCircle
 10
151.7130948778
 20
179.7565238899
 30
0.0
 40
0.2999999999999926
100
AcDbArc
 50
300.0
 51
0.0
  0
LINE
  5
30C
330
40
100
AcDbEntity
  8
0008128
  6
Continuous
 62
     7
100
AcDbLine
 10
151.8630948778
 20
180.3699213495
 30
0.0
 11
150.0293780204
 21
181.4286182707
 31
0.0
  0
LINE
  5
30D
330
40
100
AcDbEntity
  8
0008128
  6
Continuous
 62
     7
100
AcDbLine
 10
131.9968117352
 20
181.4286182707
 30
0.0
 11
130.1630948778
 21
180.3699213495
 31
0.0
  0
ARC
  5
30E
330
40
100
AcDbEntity
  8
0008128
  6
Continuous
 62
     7
100
AcDbCircle
 10
151.7130948778
 20
180.1101137284
 30
0.0
 40
0.2999999999999999
100
AcDbArc
 50
0.0
 51
60.0
  0
ARC
  5
30F
330
40
100
AcDbEntity
  8
0008128
  6
Continuous
 62
     7
100
AcDbCircle
 10
130.3130948778
 20
180.1101137284
 30
0.0
 40
0.3000000000000046
100
AcDbArc
 50
120.0
 51
180.0
  0
LINE
  5
311
330
40
100
AcDbEntity
  8
0007697
  6
Continuous
 62
     7
100
AcDbLine
 10
138.7630948778
 20
127.1286182707
 30
0.0
 11
143.2630948778
 21
127.1286182707
 31
0.0
  0
LINE
  5
312
330
40
100
AcDbEntity
  8
0007697
  6
Continuous
 62
     7
100
AcDbLine
 10
143.2630948778
 20
127.1286182707
 30
0.0
 11
143.2630948778
 21
131.9286182707
 31
0.0
  0
LINE
  5
313
330
40
100
AcDbEntity
  8
0007697
  6
Continuous
 62
     7
100
AcDbLine
 10
138.7630948778
 20
131.9286182707
 30
0.0
 11
138.7630948778
 21
127.1286182707
 31
0.0
  0
LINE
  5
314
330
40
100
AcDbEntity
  8
0007697
  6
Continuous
 62
     7
100
AcDbLine
 10
144.0130948778
 20
102.2135026861
 30
0.0
 11
144.0130948778
 21
103.7547574253
 31
0.0
  0
LINE
  5
315
330
40
100
AcDbEntity
  8
0007697
  6
Continuous
 62
     7
100
AcDbLine
 10
144.0130948778
 20
104.1592842302
 30
0.0
 11
144.0130948778
 21
105.6998597312
 31
0.0
  0
LINE
  5
316
330
40
100
AcDbEntity
  8
0007697
  6
Continuous
 62
     7
100
AcDbLine
 10
144.0130948778
 20
106.103670946
 30
0.0
 11
144.0130948778
 21
107.6445852111
 31
0.0
  0
LINE
  5
317
330
40
100
AcDbEntity
  8
0007697
  6
Continuous
 62
     7
100
AcDbLine
 10
144.0130948778
 20
108.0480815872
 30
0.0
 11
144.0130948778
 21
109.5897768895
 31
0.0
  0
LINE
  5
318
330
40
100
AcDbEntity
  8
0007697
  6
Continuous
 62
     7
100
AcDbLine
 10
144.0130948778
 20
109.9942906312
 30
0.0
 11
144.0130948778
 21
111.5349792672
 31
0.0
  0
LINE
  5
319
330
40
100
AcDbEntity
  8
0007697
  6
Continuous
 62
     7
100
AcDbLine
 10
144.0130948778
 20
111.9386125849
 30
0.0
 11
144.0130948778
 21
113.4795455056
 31
0.0
  0
LINE
  5
31A
330
40
100
AcDbEntity
  8
0007697
  6
Continuous
 62
     7
100
AcDbLine
 10
144.0130948778
 20
113.8841035678
 30
0.0
 11
144.0130948778
 21
115.4247561314
 31
0.0
  0
LINE
  5
31B
330
40
100
AcDbEntity
  8
0007697
  6
Continuous
 62
     7
100
AcDbLine
 10
144.0130948778
 20
115.8293479768
 30
0.0
 11
144.0130948778
 21
117.3690392162
 31
0.0
  0
LINE
  5
31C
330
40
100
AcDbEntity
  8
0007697
  6
Continuous
 62
     7
100
AcDbLine
 10
144.0130948778
 20
117.7736541069
 30
0.0
 11
144.0130948778
 21
119.3145918596
 31
0.0
  0
LINE
  5
31D
330
40
100
AcDbEntity
  8
0007697
  6
Continuous
 62
     7
100
AcDbLine
 10
144.0130948778
 20
119.7186869277
 30
0.0
 11
144.0130948778
 21
121.3786182707
 31
0.0
  0
LINE
  5
31E
330
40
100
AcDbEntity
  8
0007697
  6
Continuous
 62
     7
100
AcDbLine
 10
138.0130948778
 20
121.3786182707
 30
0.0
 11
138.0130948778
 21
120.3725672687
 31
0.0
  0
LINE
  5
31F
330
40
100
AcDbEntity
  8
0007697
  6
Continuous
 62
     7
100
AcDbLine
 10
138.0130948778
 20
119.9681166642
 30
0.0
 11
138.0130948778
 21
118.4274109147
 31
0.0
  0
LINE
  5
320
330
40
100
AcDbEntity
  8
0007697
  6
Continuous
 62
     7
100
AcDbLine
 10
138.0130948778
 20
118.0233662015
 30
0.0
 11
138.0130948778
 21
116.4823092806
 31
0.0
  0
LINE
  5
321
330
40
100
AcDbEntity
  8
0007697
  6
Continuous
 62
     7
100
AcDbLine
 10
138.0130948778
 20
116.0784135449
 30
0.0
 11
138.0130948778
 21
114.5373382944
 31
0.0
  0
LINE
  5
322
330
40
100
AcDbEntity
  8
0007697
  6
Continuous
 62
     7
100
AcDbLine
 10
138.0130948778
 20
114.1330513355
 30
0.0
 11
138.0130948778
 21
112.592823736
 31
0.0
  0
LINE
  5
323
330
40
100
AcDbEntity
  8
0007697
  6
Continuous
 62
     7
100
AcDbLine
 10
138.0130948778
 20
112.1885386432
 30
0.0
 11
138.0130948778
 21
110.6473435617
 31
0.0
  0
LINE
  5
324
330
40
100
AcDbEntity
  8
0007697
  6
Continuous
 62
     7
100
AcDbLine
 10
138.0130948778
 20
110.2437918302
 30
0.0
 11
138.0130948778
 21
108.7021219863
 31
0.0
  0
LINE
  5
325
330
40
100
AcDbEntity
  8
0007697
  6
Continuous
 62
     7
100
AcDbLine
 10
138.0130948778
 20
108.2982594435
 30
0.0
 11
138.0130948778
 21
106.7570731049
 31
0.0
  0
LINE
  5
326
330
40
100
AcDbEntity
  8
0007697
  6
Continuous
 62
     7
100
AcDbLine
 10
138.0130948778
 20
106.3530640628
 30
0.0
 11
138.0130948778
 21
104.8124050262
 31
0.0
  0
LINE
  5
327
330
40
100
AcDbEntity
  8
0007697
  6
Continuous
 62
     7
100
AcDbLine
 10
138.0130948778
 20
104.4080454858
 30
0.0
 11
138.0130948778
 21
102.867700323
 31
0.0
  0
LINE
  5
328
330
40
100
AcDbEntity
  8
0007697
  6
Continuous
 62
     7
100
AcDbLine
 10
138.0130948778
 20
102.4630753746
 30
0.0
 11
138.0130948778
 21
101.9286182707
 31
0.0
  0
LINE
  5
329
330
40
100
AcDbEntity
  8
0007697
  6
Continuous
 62
     7
100
AcDbLine
 10
144.0130948778
 20
126.3786182707
 30
0.0
 11
143.2630948778
 21
127.1286182707
 31
0.0
  0
LINE
  5
32A
330
40
100
AcDbEntity
  8
0007697
  6
Continuous
 62
     7
100
AcDbLine
 10
138.7630948778
 20
127.1286182707
 30
0.0
 11
138.0130948778
 21
126.3786182707
 31
0.0
  0
ENDBLK
  5
32C
330
40
100
AcDbEntity
  8
0
100
AcDbBlockEnd
  0
BLOCK
  5
32F
330
32E
100
AcDbEntity
  8
0
100
AcDbBlockBegin
  2
_OBLIQUE
 70
     0
 10
0.0
 20
0.0
 30
0.0
  3
_OBLIQUE
  1

  0
LINE
  5
331
330
32E
100
AcDbEntity
  8
0
  6
ByBlock
 62
     0
370
    -2
100
AcDbLine
 10
-0.5
 20
-0.5
 30
0.0
 11
0.5
 21
0.5
 31
0.0
  0
ENDBLK
  5
330
330
32E
100
AcDbEntity
  8
0
100
AcDbBlockEnd
  0
BLOCK
  5
333
330
332
100
AcDbEntity
  8
0
100
AcDbBlockBegin
  2
_DOT
 70
     0
 10
0.0
 20
0.0
 30
0.0
  3
_DOT
  1

  0
POLYLINE
  5
335
330
332
100
AcDbEntity
  8
0
  6
ByBlock
 62
     0
100
AcDb2dPolyline
 66
     1
 10
0.0
 20
0.0
 30
0.0
 70
     1
 40
0.5
 41
0.5
  0
VERTEX
  5
337
330
335
100
AcDbEntity
  8
0
  6
ByBlock
 62
     0
100
AcDbVertex
100
AcDb2dVertex
 10
-0.25
 20
0.0
 30
0.0
 42
1.0
  0
VERTEX
  5
338
330
335
100
AcDbEntity
  8
0
  6
ByBlock
 62
     0
100
AcDbVertex
100
AcDb2dVertex
 10
0.25
 20
0.0
 30
0.0
 42
1.0
  0
SEQEND
  5
339
330
335
100
AcDbEntity
  8
0
  6
ByBlock
 62
     0
  0
LINE
  5
336
330
332
100
AcDbEntity
  8
0
  6
ByBlock
 62
     0
370
    -2
100
AcDbLine
 10
-0.5
 20
0.0
 30
0.0
 11
-1.0
 21
0.0
 31
0.0
  0
ENDBLK
  5
334
330
332
100
AcDbEntity
  8
0
100
AcDbBlockEnd
  0
BLOCK
  5
33D
330
33A
100
AcDbEntity
  8
0
100
AcDbBlockBegin
  2
_SE_FILLED
 70
     0
 10
0.0
 20
0.0
 30
0.0
  3
_SE_FILLED
  1

  0
SOLID
  5
33B
330
33A
100
AcDbEntity
  8
0
 62
     0
100
AcDbTrace
 10
0.0
 20
0.0
 30
0.0
 11
-1.0
 21
-0.1665
 31
0.0
 12
-1.0
 22
0.1665
 32
0.0
 13
0.0
 23
0.0
 33
0.0
  0
LINE
  5
33C
330
33A
100
AcDbEntity
  8
0
 62
     0
100
AcDbLine
 10
0.0
 20
0.0
 30
0.0
 11
-1.0
 21
0.0
 31
0.0
  0
ENDBLK
  5
33E
330
33A
100
AcDbEntity
  8
0
100
AcDbBlockEnd
  0
BLOCK
  5
349
330
342
100
AcDbEntity
  8
0
100
AcDbBlockBegin
  2
DMBLK371
 70
     0
 10
0.0
 20
0.0
 30
0.0
  3
DMBLK371
  1

  0
HATCH
  5
343
330
342
100
AcDbEntity
  8
Default
  6
Continuous
 62
     7
100
AcDbHatch
 10
0.0
 20
0.0
 30
0.0
210
0.0
220
0.0
230
1.0
  2
SOLID
 70
     1
 71
     0
 91
        1
 92
        1
 93
        3
 72
     1
 10
166.0778866232528
 20
60.42861837876701
 11
164.911219920575
 21
60.42861837876701
 72
     1
 10
164.911219920575
 20
60.42861837876701
 11
165.4945532719139
 21
56.92861827073359
 72
     1
 10
165.4945532719139
 20
56.92861827073359
 11
166.0778866232528
 21
60.42861837876701
 97
        0
 75
     0
 76
     1
 98
        0
  0
HATCH
  5
344
330
342
100
AcDbEntity
  8
Default
  6
Continuous
 62
     7
100
AcDbHatch
 10
0.0
 20
0.0
 30
0.0
210
0.0
220
0.0
230
1.0
  2
SOLID
 70
     1
 71
     0
 91
        1
 92
        1
 93
        3
 72
     1
 10
166.0778866232528
 20
173.4286154804911
 11
165.4945532719139
 21
176.9286155885246
 72
     1
 10
165.4945532719139
 20
176.9286155885246
 11
164.911219920575
 21
173.4286154804911
 72
     1
 10
164.911219920575
 20
173.4286154804911
 11
166.0778866232528
 21
173.4286154804911
 97
        0
 75
     0
 76
     1
 98
        0
  0
LINE
  5
345
330
342
100
AcDbEntity
  8
Default
  6
Continuous
 62
     7
100
AcDbLine
 10
147.3655770461
 20
56.9286182707
 30
0.0
 11
167.2445533259
 21
56.9286182707
 31
0.0
  0
LINE
  5
346
330
342
100
AcDbEntity
  8
Default
  6
Continuous
 62
     7
100
AcDbLine
 10
141.0130948778
 20
176.9286182707
 30
0.0
 11
167.2445533259
 21
176.9286182707
 31
0.0
  0
LINE
  5
347
330
342
100
AcDbEntity
  8
Default
  6
Continuous
 62
     7
100
AcDbLine
 10
165.4945532719
 20
56.9286182707
 30
0.0
 11
165.4945532719
 21
176.9286155885
 31
0.0
  0
TEXT
  5
348
330
342
100
AcDbEntity
  8
Default
  6
Continuous
 62
     7
100
AcDbText
 10
164.6195532719
 20
114.1047532933
 30
0.0
 40
3.5
  1
120
 50
90.0
  7
SEACAD_Solid_Edge_ISO
 11
161.1195532719
 21
114.1047532933
 31
0.0
100
AcDbText
 73
     3
  0
ENDBLK
  5
34A
330
342
100
AcDbEntity
  8
0
100
AcDbBlockEnd
  0
BLOCK
  5
353
330
34C
100
AcDbEntity
  8
0
100
AcDbBlockBegin
  2
DMBLK372
 70
     0
 10
0.0
 20
0.0
 30
0.0
  3
DMBLK372
  1

  0
HATCH
  5
34D
330
34C
100
AcDbEntity
  8
Default
  6
Continuous
 62
     7
100
AcDbHatch
 10
0.0
 20
0.0
 30
0.0
210
0.0
220
0.0
230
1.0
  2
SOLID
 70
     1
 71
     0
 91
        1
 92
        1
 93
        3
 72
     1
 10
166.0778861733932
 20
184.928618378767
 11
164.9112194707154
 21
184.928618378767
 72
     1
 10
164.9112194707154
 20
184.928618378767
 11
165.4945528220543
 21
181.4286182707336
 72
     1
 10
165.4945528220543
 20
181.4286182707336
 11
166.0778861733932
 21
184.928618378767
 97
        0
 75
     0
 76
     1
 98
        0
  0
HATCH
  5
34E
330
34C
100
AcDbEntity
  8
Default
  6
Continuous
 62
     7
100
AcDbHatch
 10
0.0
 20
0.0
 30
0.0
210
0.0
220
0.0
230
1.0
  2
SOLID
 70
     1
 71
     0
 91
        1
 92
        1
 93
        3
 72
     1
 10
166.0778861733932
 20
173.4286181627002
 11
165.4945528220543
 21
176.9286182707336
 72
     1
 10
165.4945528220543
 20
176.9286182707336
 11
164.9112194707154
 21
173.4286181627002
 72
     1
 10
164.9112194707154
 20
173.4286181627002
 11
166.0778861733932
 21
173.4286181627002
 97
        0
 75
     0
 76
     1
 98
        0
  0
LINE
  5
34F
330
34C
100
AcDbEntity
  8
Default
  6
Continuous
 62
     7
100
AcDbLine
 10
150.0293780204
 20
181.4286182707
 30
0.0
 11
167.2445528761
 21
181.4286182707
 31
0.0
  0
LINE
  5
350
330
34C
100
AcDbEntity
  8
Default
  6
Continuous
 62
     7
100
AcDbLine
 10
141.0130948778
 20
176.9286182707
 30
0.0
 11
167.2445528761
 21
176.9286182707
 31
0.0
  0
LINE
  5
351
330
34C
100
AcDbEntity
  8
Default
  6
Continuous
 62
     7
100
AcDbLine
 10
165.4945528221
 20
195.6313266492
 30
0.0
 11
165.4945528221
 21
169.9286182484
 31
0.0
  0
TEXT
  5
352
330
34C
100
AcDbEntity
  8
Default
  6
Continuous
 62
     7
100
AcDbText
 10
164.6195528221
 20
189.7131444348
 30
0.0
 40
3.5
  1
4,5
 50
90.0
  7
SEACAD_Solid_Edge_ISO
 11
161.1195528221
 21
189.7131444348
 31
0.0
100
AcDbText
 73
     3
  0
ENDBLK
  5
354
330
34C
100
AcDbEntity
  8
0
100
AcDbBlockEnd
  0
BLOCK
  5
35F
330
357
100
AcDbEntity
  8
0
100
AcDbBlockBegin
  2
DMBLK373
 70
     0
 10
0.0
 20
0.0
 30
0.0
  3
DMBLK373
  1

  0
HATCH
  5
358
330
357
100
AcDbEntity
  8
Default
  6
Continuous
 62
     7
100
AcDbHatch
 10
0.0
 20
0.0
 30
0.0
210
0.0
220
0.0
230
1.0
  2
SOLID
 70
     1
 71
     0
 91
        1
 92
        1
 93
        3
 72
     1
 10
133.5130949858486
 20
190.1506478453046
 11
130.0130948778152
 21
189.5673144939657
 72
     1
 10
130.0130948778152
 20
189.5673144939657
 11
133.5130949858486
 21
188.9839811426268
 72
     1
 10
133.5130949858486
 20
188.9839811426268
 11
133.5130949858486
 21
190.1506478453046
 97
        0
 75
     0
 76
     1
 98
        0
  0
HATCH
  5
359
330
357
100
AcDbEntity
  8
Default
  6
Continuous
 62
     7
100
AcDbHatch
 10
0.0
 20
0.0
 30
0.0
210
0.0
220
0.0
230
1.0
  2
SOLID
 70
     1
 71
     0
 91
        1
 92
        1
 93
        3
 72
     1
 10
148.5130946505725
 20
190.1506478453046
 11
148.5130946505725
 21
188.9839811426268
 72
     1
 10
148.5130946505725
 20
188.9839811426268
 11
152.0130947586059
 21
189.5673144939657
 72
     1
 10
152.0130947586059
 20
189.5673144939657
 11
148.5130946505725
 21
190.1506478453046
 97
        0
 75
     0
 76
     1
 98
        0
  0
LINE
  5
35A
330
357
100
AcDbEntity
  8
Default
  6
Continuous
 62
     7
100
AcDbLine
 10
130.0130948778
 20
180.1101137284
 30
0.0
 11
130.0130948778
 21
191.317314548
 31
0.0
  0
LINE
  5
35B
330
357
100
AcDbEntity
  8
Default
  6
Continuous
 62
     7
100
AcDbLine
 10
152.0130948778
 20
179.9333188091
 30
0.0
 11
152.0130948778
 21
191.317314548
 31
0.0
  0
LINE
  5
35C
330
357
100
AcDbEntity
  8
Default
  6
Continuous
 62
     7
100
AcDbLine
 10
130.0130948778
 20
189.567314494
 30
0.0
 11
152.0130947586
 21
189.567314494
 31
0.0
  0
TEXT
  5
35D
330
357
100
AcDbEntity
  8
Default
  6
Continuous
 62
     7
100
AcDbText
 10
141.3859815806
 20
190.442314494
 30
0.0
 40
3.5
  1
22
  7
SEACAD_Solid_Edge_ISO
 11
141.3859815806
 21
193.942314494
 31
0.0
100
AcDbText
 73
     3
  0
TEXT
  5
35E
330
357
100
AcDbEntity
  8
Default
  6
Continuous
 62
     7
100
AcDbText
 10
136.3447535104
 20
190.442314494
 30
0.0
 40
3.5
  1
O
  7
SEACAD_Solid_Edge_ISO1_Symbols
 11
136.3447535104
 21
193.942314494
 31
0.0
100
AcDbText
 73
     3
  0
ENDBLK
  5
360
330
357
100
AcDbEntity
  8
0
100
AcDbBlockEnd
  0
BLOCK
  5
36A
330
362
100
AcDbEntity
  8
0
100
AcDbBlockBegin
  2
DMBLK374
 70
     0
 10
0.0
 20
0.0
 30
0.0
  3
DMBLK374
  1

  0
HATCH
  5
363
330
362
100
AcDbEntity
  8
Default
  6
Continuous
 62
     7
100
AcDbHatch
 10
0.0
 20
0.0
 30
0.0
210
0.0
220
0.0
230
1.0
  2
SOLID
 70
     1
 71
     0
 91
        1
 92
        1
 93
        3
 72
     1
 10
133.5130949858486
 20
45.98460451806945
 11
133.5130949858486
 21
47.15127122074725
 72
     1
 10
133.5130949858486
 20
47.15127122074725
 11
130.0130948778152
 21
46.56793786940835
 72
     1
 10
130.0130948778152
 20
46.56793786940835
 11
133.5130949858486
 21
45.98460451806945
 97
        0
 75
     0
 76
     1
 98
        0
  0
HATCH
  5
364
330
362
100
AcDbEntity
  8
Default
  6
Continuous
 62
     7
100
AcDbHatch
 10
0.0
 20
0.0
 30
0.0
210
0.0
220
0.0
230
1.0
  2
SOLID
 70
     1
 71
     0
 91
        1
 92
        1
 93
        3
 72
     1
 10
148.5130946505725
 20
45.98460451806945
 11
152.0130947586059
 21
46.56793786940835
 72
     1
 10
152.0130947586059
 20
46.56793786940835
 11
148.5130946505725
 21
47.15127122074725
 72
     1
 10
148.5130946505725
 20
47.15127122074725
 11
148.5130946505725
 21
45.98460451806945
 97
        0
 75
     0
 76
     1
 98
        0
  0
LINE
  5
365
330
362
100
AcDbEntity
  8
Default
  6
Continuous
 62
     7
100
AcDbLine
 10
130.0130948778
 20
78.9286182707
 30
0.0
 11
130.0130948778
 21
44.8179378154
 31
0.0
  0
LINE
  5
366
330
362
100
AcDbEntity
  8
Default
  6
Continuous
 62
     7
100
AcDbLine
 10
152.0130948778
 20
78.9286182707
 30
0.0
 11
152.0130948778
 21
44.8179378154
 31
0.0
  0
LINE
  5
367
330
362
100
AcDbEntity
  8
Default
  6
Continuous
 62
     7
100
AcDbLine
 10
130.0130948778
 20
46.5679378694
 30
0.0
 11
152.0130947586
 21
46.5679378694
 31
0.0
  0
TEXT
  5
368
330
362
100
AcDbEntity
  8
Default
  6
Continuous
 62
     7
100
AcDbText
 10
141.3859815806
 20
47.4429378694
 30
0.0
 40
3.5
  1
22
  7
SEACAD_Solid_Edge_ISO
 11
141.3859815806
 21
50.9429378694
 31
0.0
100
AcDbText
 73
     3
  0
TEXT
  5
369
330
362
100
AcDbEntity
  8
Default
  6
Continuous
 62
     7
100
AcDbText
 10
136.3447535104
 20
47.4429378694
 30
0.0
 40
3.5
  1
O
  7
SEACAD_Solid_Edge_ISO1_Symbols
 11
136.3447535104
 21
50.9429378694
 31
0.0
100
AcDbText
 73
     3
  0
ENDBLK
  5
36B
330
362
100
AcDbEntity
  8
0
100
AcDbBlockEnd
  0
BLOCK
  5
36F
330
36C
100
AcDbEntity
  8
0
100
AcDbBlockBegin
  2
SEANNOT_GROUP
 70
     0
 10
0.0
 20
0.0
 30
0.0
  3
SEANNOT_GROUP
  1

  0
TEXT
  5
36E
330
36C
100
AcDbEntity
  8
Default
  6
Continuous
 62
     7
100
AcDbText
 10
243.1483969886
 20
25.7525109624
 30
0.0
 40
3.5
  1
761915000
  7
SEACAD_Solid_Edge_ANSIB
 11
243.1483969886
 21
29.2525109624
 31
0.0
100
AcDbText
 73
     3
  0
ENDBLK
  5
370
330
36C
100
AcDbEntity
  8
0
100
AcDbBlockEnd
  0
BLOCK
  5
374
330
371
100
AcDbEntity
  8
0
100
AcDbBlockBegin
  2
SEANNOT_GROUP1
 70
     0
 10
0.0
 20
0.0
 30
0.0
  3
SEANNOT_GROUP1
  1

  0
TEXT
  5
373
330
371
100
AcDbEntity
  8
Default
  6
Continuous
 62
     7
100
AcDbText
 10
243.1477357349
 20
20.0537100543
 30
0.0
 40
3.5
  1
24.08.2016
  7
SEACAD_Solid_Edge_ANSI
 11
243.1477357349
 21
23.5537100543
 31
0.0
100
AcDbText
 73
     3
  0
ENDBLK
  5
375
330
371
100
AcDbEntity
  8
0
100
AcDbBlockEnd
  0
BLOCK
  5
378
330
376
100
AcDbEntity
  8
0
100
AcDbBlockBegin
  2
SEANNOT_GROUP2
 70
     0
 10
0.0
 20
0.0
 30
0.0
  3
SEANNOT_GROUP2
  1

  0
TEXT
  5
377
330
376
100
AcDbEntity
  8
Default
  6
Continuous
 62
     7
100
AcDbText
 10
243.1795282745
 20
31.5598894014
 30
0.0
 40
3.5
  1
VEW 15
  7
SEACAD_Solid_Edge_ANSIB
 11
243.1795282745
 21
35.0598894014
 31
0.0
100
AcDbText
 73
     3
  0
ENDBLK
  5
379
330
376
100
AcDbEntity
  8
0
100
AcDbBlockEnd
  0
BLOCK
  5
37C
330
37A
100
AcDbEntity
  8
0
100
AcDbBlockBegin
  2
SEANNOT_GROUP3
 70
     0
 10
0.0
 20
0.0
 30
0.0
  3
SEANNOT_GROUP3
  1

  0
TEXT
  5
37B
330
37A
100
AcDbEntity
  8
Default
  6
Continuous
 62
     7
100
AcDbText
 10
243.2357917511
 20
14.1955389783
 30
0.0
 40
3.5
  1
1:1
  7
SEACAD_Solid_Edge_ANSI
 11
243.2357917511
 21
17.6955389783
 31
0.0
100
AcDbText
 73
     3
  0
ENDBLK
  5
37D
330
37A
100
AcDbEntity
  8
0
100
AcDbBlockEnd
  0
BLOCK
  5
3CB
330
37E
100
AcDbEntity
  8
0
100
AcDbBlockBegin
  2
RF-Massblatt_2016
 70
     0
 10
0.0
 20
0.0
 30
0.0
  3
RF-Massblatt_2016
  1

  0
MTEXT
  5
37F
102
{ACAD_XDICTIONARY
360
3D5
102
}
330
37E
100
AcDbEntity
  8
Default
100
AcDbMText
 10
15.2206856049
 20
34.8070876502
 30
0.0
 40
2.5
 41
48.9706096033
 71
     1
 72
     1
  3
{\fVectora Com 45 Light|b1||i0||c0|p34;\C7;\H2.5;\W1.;REGO-FIX AG\P}{\fVectora Com 45 Light|b0||i0||c0|p34;\C7;\H2.5;\W1.;Obermattweg 60\P}{\fVectora Com 45 Light|b0||i0||c0|p34;\C7;\H2.5;\W1.;4456 Tenniken / Switzerland\P}{\fVectora Com 45 Light|b0
  3
||i0||c0|p34;\C7;\H2.5;\W1.;\P}{\fVectora Com 45 Light|b0||i0||c0|p34;\C7;\H2.5;\W1.;P +41 61 976 14 66\P}{\fVectora Com 45 Light|b0||i0||c0|p34;\C7;\H2.5;\W1.;F +41 61 976 14 14\P}{\fVectora Com 45 Light|b1||i0||c0|p34;\C7;\H2.5;\W1.;www.rego-fix.c
  1
om}
 73
     1
 44
1.0
1001
ACAD
1000
ACAD_MTEXT_DEFINED_HEIGHT_BEGIN
1070
    46
1040
31.3191355437
1000
ACAD_MTEXT_DEFINED_HEIGHT_END
  0
MTEXT
  5
380
102
{ACAD_XDICTIONARY
360
3D7
102
}
330
37E
100
AcDbEntity
  8
Default
100
AcDbMText
 10
90.3836341545
 20
34.4892285804
 30
0.0
 40
2.5
 41
104.0282149141
 71
     1
 72
     1
  3
{\fSolid Edge ISO|b0||i0||c0|p34;\C7;\H2.;\W1.;This is a non-controlled copy. All information given herein is subject to change without notice\P}{\fSolid Edge ISO|b0||i0||c0|p34;\C7;\H2.;\W1.;\P}{\fSolid Edge ISO|b0||i0||c0|p34;\C7;\H2.;\W1.;The inf
  3
ormation given herein has been carefully checked and is believed to be correct. REGO-FIX,\P}{\fSolid Edge ISO|b0||i0||c0|p34;\C7;\H2.;\W1.;however, assumes no responsibility or liability for any errors, inaccuracies or omissions that may appear\P}{\
  3
fSolid Edge ISO|b0||i0||c0|p34;\C7;\H2.;\W1.;in this drawing\P}{\fSolid Edge ISO|b0||i0||c0|p34;\C7;\H2.;\W1.;\P}{\fSolid Edge ISO|b0||i0||c0|p34;\C7;\H2.;\W1.;This document is subject to copyright laws. No part of this document may be reproduced or
  3
 transmitted\P}{\fSolid Edge ISO|b0||i0||c0|p34;\C7;\H2.;\W1.;in any form or any means, electronic or mechanic, for any purpose, without the express written permission\P}{\fSolid Edge ISO|b0||i0||c0|p34;\C7;\H2.;\W1.;of REGO-FIX\P}{\fSolid Edge ISO|
  1
b0||i0||c0|p34;\C7;\H1.5;\W1.;\P}
 73
     1
 44
1.0
1001
ACAD
1000
ACAD_MTEXT_DEFINED_HEIGHT_BEGIN
1070
    46
1040
38.4545554545
1000
ACAD_MTEXT_DEFINED_HEIGHT_END
  0
INSERT
  5
381
330
37E
100
AcDbEntity
  8
Default
100
AcDbBlockReference
  2
SEANNOT_GROUP
 10
0.0
 20
0.0
 30
0.0
  0
INSERT
  5
382
330
37E
100
AcDbEntity
  8
Default
100
AcDbBlockReference
  2
SEANNOT_GROUP1
 10
0.0
 20
0.0
 30
0.0
  0
MTEXT
  5
383
102
{ACAD_XDICTIONARY
360
3D9
102
}
330
37E
100
AcDbEntity
  8
Default
100
AcDbMText
 10
219.0323311835
 20
34.8066733186
 30
0.0
 40
2.5
 41
20.1335141444
 71
     1
 72
     1
  3
{\fVectora Com 45 Light|b0||i0||c0|p34;\C7;\H3.5;\W1.;Type :\P}{\fVectora Com 45 Light|b0||i0||c0|p34;\C7;\H3.5;\W1.;Part No. :\P}{\fVectora Com 45 Light|b0||i0||c0|p34;\C7;\H3.5;\W1.;Date : \P}{\fVectora Com 45 Light|b0||i0||c0|p34;\C7;\H3.5;\W1.;S
  1
cale :}
 73
     1
 44
1.0
1001
ACAD
1000
ACAD_MTEXT_DEFINED_HEIGHT_BEGIN
1070
    46
1040
23.6666666667
1000
ACAD_MTEXT_DEFINED_HEIGHT_END
  0
INSERT
  5
384
330
37E
100
AcDbEntity
  8
Default
100
AcDbBlockReference
  2
SEANNOT_GROUP2
 10
0.0
 20
0.0
 30
0.0
  0
INSERT
  5
385
330
37E
100
AcDbEntity
  8
Default
100
AcDbBlockReference
  2
SEANNOT_GROUP3
 10
0.0
 20
0.0
 30
0.0
  0
LINE
  5
386
330
37E
100
AcDbEntity
  8
Default
  6
Continuous
 62
     7
100
AcDbLine
 10
269.3420202893
 20
189.711288453
 30
0.0
 11
267.226096305
 21
186.6436606679
 31
0.0
  0
LINE
  5
387
330
37E
100
AcDbEntity
  8
Default
  6
Continuous
 62
     7
100
AcDbLine
 10
267.226096305
 20
186.6436606679
 30
0.0
 11
268.2886782185
 21
185.1144666968
 31
0.0
  0
LINE
  5
388
330
37E
100
AcDbEntity
  8
Default
  6
Continuous
 62
     7
100
AcDbLine
 10
268.2886782185
 20
185.1144666968
 30
0.0
 11
267.2561257939
 21
183.6453317033
 31
0.0
  0
LINE
  5
389
330
37E
100
AcDbEntity
  8
Default
  6
Continuous
 62
     7
100
AcDbLine
 10
267.2561257939
 20
183.6453317033
 30
0.0
 11
266.2235733692
 21
185.2646141411
 31
0.0
  0
LINE
  5
38A
330
37E
100
AcDbEntity
  8
Default
  6
Continuous
 62
     7
100
AcDbLine
 10
266.2235733692
 20
185.2646141411
 30
0.0
 11
264.7036192408
 21
183.1186606679
 31
0.0
  0
LINE
  5
38B
330
37E
100
AcDbEntity
  8
Default
  6
Continuous
 62
     7
100
AcDbLine
 10
264.7036192408
 20
183.1186606679
 30
0.0
 11
262.6269645881
 21
183.1186606679
 31
0.0
  0
LINE
  5
38C
330
37E
100
AcDbEntity
  8
Default
  6
Continuous
 62
     7
100
AcDbLine
 10
262.6269645881
 20
183.1186606679
 30
0.0
 11
265.20950063
 21
186.6436606679
 31
0.0
  0
LINE
  5
38D
330
37E
100
AcDbEntity
  8
Default
  6
Continuous
 62
     7
100
AcDbLine
 10
265.20950063
 20
186.6436606679
 30
0.0
 11
263.1051264492
 21
189.711288453
 31
0.0
  0
LINE
  5
38E
330
37E
100
AcDbEntity
  8
Default
  6
Continuous
 62
     7
100
AcDbLine
 10
263.1051264492
 20
189.711288453
 30
0.0
 11
265.20950063
 21
189.711288453
 31
0.0
  0
LINE
  5
38F
330
37E
100
AcDbEntity
  8
Default
  6
Continuous
 62
     7
100
AcDbLine
 10
265.20950063
 20
189.711288453
 30
0.0
 11
266.2235733692
 21
188.0042275094
 31
0.0
  0
LINE
  5
390
330
37E
100
AcDbEntity
  8
Default
  6
Continuous
 62
     7
100
AcDbLine
 10
266.2235733692
 20
188.0042275094
 30
0.0
 11
267.226096305
 21
189.711288453
 31
0.0
  0
LINE
  5
391
330
37E
100
AcDbEntity
  8
Default
  6
Continuous
 62
     7
100
AcDbLine
 10
267.226096305
 20
189.711288453
 30
0.0
 11
269.3420202893
 21
189.711288453
 31
0.0
  0
SPLINE
  5
392
330
37E
100
AcDbEntity
  8
Default
  6
Continuous
 62
     7
100
AcDbSpline
210
0.0
220
0.0
230
1.0
 70
     8
 71
     3
 72
    13
 73
     9
 74
     0
 42
0.0000000012369638
 43
0.0000000001
 12
1.0
 22
0.0
 32
0.0
 13
1.0
 23
0.0
 33
0.0
 40
0.0
 40
0.0
 40
0.0
 40
0.0
 40
0.9091644120227717
 40
0.9091644120227717
 40
0.9091644120227717
 40
0.9554905618911577
 40
0.9554905618911577
 40
1.0
 40
1.0
 40
1.0
 40
1.0
 10
267.8844350992403
 20
183.5460033940301
 30
0.0
 10
269.2912011542862
 20
185.5418094228636
 30
0.0
 10
270.697967209332
 20
187.5376154516972
 30
0.0
 10
272.1047332643779
 20
189.5334214805307
 30
0.0
 10
272.1870447473536
 20
189.6501983627819
 30
0.0
 10
272.2849101975365
 20
189.7112884530078
 30
0.0
 10
272.5159062656886
 20
189.7112884530078
 30
0.0
 10
272.6198544963569
 20
189.6512294752883
 30
0.0
 10
272.7122529236178
 20
189.5334214805307
 30
0.0
  0
SPLINE
  5
393
330
37E
100
AcDbEntity
  8
Default
  6
Continuous
 62
     7
100
AcDbSpline
210
0.0
220
0.0
230
1.0
 70
     8
 71
     3
 72
    16
 73
    12
 74
     0
 42
0.0000000006014133
 43
0.0000000001
 12
1.0
 22
0.0
 32
0.0
 13
1.0
 23
0.0
 33
0.0
 40
0.0
 40
0.0
 40
0.0
 40
0.0
 40
0.4418652593848311
 40
0.4418652593848311
 40
0.4418652593848311
 40
0.455090010411123
 40
0.455090010411123
 40
0.4811129075918901
 40
0.4811129075918901
 40
0.4811129075918901
 40
1.0
 40
1.0
 40
1.0
 40
1.0
 10
272.7122529236178
 20
189.5334214805307
 30
0.0
 10
274.1190189786636
 20
187.5376154516972
 30
0.0
 10
275.5257850337095
 20
185.5418094228636
 30
0.0
 10
276.9325510887554
 20
183.5460033940301
 30
0.0
 10
276.9849943017649
 20
183.4716012002038
 30
0.0
 10
277.0133997126086
 20
183.4004758710943
 30
0.0
 10
277.0133997126086
 20
183.1879594883945
 30
0.0
 10
276.9140714033032
 20
183.1186606679488
 30
0.0
 10
276.7154147846925
 20
183.1186606679488
 30
0.0
 10
273.8479835920319
 20
183.1186606679488
 30
0.0
 10
270.9805523993713
 20
183.1186606679488
 30
0.0
 10
268.1131212067108
 20
183.1186606679488
 30
0.0
  0
SPLINE
  5
394
330
37E
100
AcDbEntity
  8
Default
  6
Continuous
 62
     7
100
AcDbSpline
210
0.0
220
0.0
230
1.0
 70
     8
 71
     3
 72
    11
 73
     7
 74
     0
 42
0.0000000141737466
 43
0.0000000001
 12
1.0
 22
0.0
 32
0.0
 13
1.0
 23
0.0
 33
0.0
 40
0.0
 40
0.0
 40
0.0
 40
0.0
 40
0.6560933575639865
 40
0.6560933575639865
 40
0.6560933575639865
 40
1.0
 40
1.0
 40
1.0
 40
1.0
 10
268.1131212067108
 20
183.1186606679488
 30
0.0
 10
267.9075347060556
 20
183.1186606679488
 30
0.0
 10
267.8058964360686
 20
183.1925794097575
 30
0.0
 10
267.8035864753871
 20
183.3381069326933
 30
0.0
 10
267.8027439506852
 20
183.3911859889177
 30
0.0
 10
267.8313060035653
 20
183.4605348488138
 30
0.0
 10
267.8844350992403
 20
183.5460033940301
 30
0.0
  0
LINE
  5
395
330
37E
100
AcDbEntity
  8
Default
  6
Continuous
 62
     7
100
AcDbLine
 10
262.1857620979
 20
189.7274581778
 30
0.0
 11
262.1857620979
 21
183.1186606679
 31
0.0
  0
SPLINE
  5
396
330
37E
100
AcDbEntity
  8
Default
  6
Continuous
 62
     7
100
AcDbSpline
210
0.0
220
0.0
230
1.0
 70
     8
 71
     3
 72
    14
 73
    10
 74
     0
 42
0.0000000052950889
 43
0.0000000001
 12
1.0
 22
0.0
 32
0.0
 13
1.0
 23
0.0
 33
0.0
 40
0.0
 40
0.0
 40
0.0
 40
0.0
 40
0.1210177131110554
 40
0.1210177131110554
 40
0.1210177131110554
 40
0.2419901306838391
 40
0.2419901306838391
 40
0.2419901306838391
 40
1.0
 40
1.0
 40
1.0
 40
1.0
 10
260.4740812329231
 20
189.4387130925884
 30
0.0
 10
260.4740812329231
 20
189.5195617164416
 30
0.0
 10
260.5018007611014
 20
189.5865505762057
 30
0.0
 10
260.5595497781394
 20
189.6419896325622
 30
0.0
 10
260.6172507110666
 20
189.6973825281723
 30
0.0
 10
260.68197769426
 20
189.7274581777785
 30
0.0
 10
260.7628263181132
 20
189.7274581777785
 30
0.0
 10
261.2371382447187
 20
189.7274581777785
 30
0.0
 10
261.7114501713242
 20
189.7274581777785
 30
0.0
 10
262.1857620979297
 20
189.7274581777785
 30
0.0
  0
LINE
  5
397
330
37E
100
AcDbEntity
  8
Default
  6
Continuous
 62
     7
100
AcDbLine
 10
260.4740812329
 20
183.1186606679
 30
0.0
 11
260.4740812329
 21
189.4387130926
 31
0.0
  0
LINE
  5
398
330
37E
100
AcDbEntity
  8
Default
  6
Continuous
 62
     7
100
AcDbLine
 10
262.1857620979
 20
183.1186606679
 30
0.0
 11
260.4740812329
 21
183.1186606679
 31
0.0
  0
SPLINE
  5
399
330
37E
100
AcDbEntity
  8
Default
  6
Continuous
 62
     7
100
AcDbSpline
210
0.0
220
0.0
230
1.0
 70
     8
 71
     3
 72
    16
 73
    12
 74
     0
 42
0.0000000009758823
 43
0.0000000001
 12
1.0
 22
0.0
 32
0.0
 13
1.0
 23
0.0
 33
0.0
 40
0.0
 40
0.0
 40
0.0
 40
0.0
 40
0.6159054655977501
 40
0.6159054655977501
 40
0.6159054655977501
 40
0.6376683166669079
 40
0.6376683166669079
 40
0.6603379531972834
 40
0.6603379531972834
 40
0.6603379531972834
 40
1.0
 40
1.0
 40
1.0
 40
1.0
 10
255.8218204203412
 20
183.1186606679488
 30
0.0
 10
255.8218204203412
 20
185.2199549012385
 30
0.0
 10
255.8218204203412
 20
187.3212491345281
 30
0.0
 10
255.8218204203412
 20
189.4225433678178
 30
0.0
 10
255.8218204203412
 20
189.503391991671
 30
0.0
 10
255.8495399485194
 20
189.5703808514351
 30
0.0
 10
255.962728021914
 20
189.6835689248296
 30
0.0
 10
256.0297168816781
 20
189.7112884530078
 30
0.0
 10
256.1105655055312
 20
189.7112884530078
 30
0.0
 10
257.2693957807606
 20
189.7112884530078
 30
0.0
 10
258.42822605599
 20
189.7112884530078
 30
0.0
 10
259.5870563312193
 20
189.7112884530078
 30
0.0
  0
LINE
  5
39A
330
37E
100
AcDbEntity
  8
Default
  6
Continuous
 62
     7
100
AcDbLine
 10
257.5404311674
 20
183.1186606679
 30
0.0
 11
255.8218204203
 21
183.1186606679
 31
0.0
  0
LINE
  5
39B
330
37E
100
AcDbEntity
  8
Default
  6
Continuous
 62
     7
100
AcDbLine
 10
257.5404311674
 20
185.7035066706
 30
0.0
 11
257.5404311674
 21
183.1186606679
 31
0.0
  0
LINE
  5
39C
330
37E
100
AcDbEntity
  8
Default
  6
Continuous
 62
     7
100
AcDbLine
 10
259.4877280219
 20
185.7035066706
 30
0.0
 11
257.5404311674
 21
185.7035066706
 31
0.0
  0
LINE
  5
39D
330
37E
100
AcDbEntity
  8
Default
  6
Continuous
 62
     7
100
AcDbLine
 10
259.4877280219
 20
187.1610918606
 30
0.0
 11
259.4877280219
 21
185.7035066706
 31
0.0
  0
LINE
  5
39E
330
37E
100
AcDbEntity
  8
Default
  6
Continuous
 62
     7
100
AcDbLine
 10
257.5404311674
 20
187.1610918606
 30
0.0
 11
259.4877280219
 21
187.1610918606
 31
0.0
  0
LINE
  5
39F
330
37E
100
AcDbEntity
  8
Default
  6
Continuous
 62
     7
100
AcDbLine
 10
257.5404311674
 20
188.260633145
 30
0.0
 11
257.5404311674
 21
187.1610918606
 31
0.0
  0
LINE
  5
3A0
330
37E
100
AcDbEntity
  8
Default
  6
Continuous
 62
     7
100
AcDbLine
 10
259.5870563312
 20
188.260633145
 30
0.0
 11
257.5404311674
 21
188.260633145
 31
0.0
  0
LINE
  5
3A1
330
37E
100
AcDbEntity
  8
Default
  6
Continuous
 62
     7
100
AcDbLine
 10
259.5870563312
 20
189.711288453
 30
0.0
 11
259.5870563312
 21
188.260633145
 31
0.0
  0
LINE
  5
3A2
330
37E
100
AcDbEntity
  8
Default
  6
Continuous
 62
     7
100
AcDbLine
 10
255.0710831988
 20
187.1610918606
 30
0.0
 11
255.0710831988
 21
185.7035066706
 31
0.0
  0
LINE
  5
3A3
330
37E
100
AcDbEntity
  8
Default
  6
Continuous
 62
     7
100
AcDbLine
 10
252.9366795291
 20
187.1610918606
 30
0.0
 11
255.0710831988
 21
187.1610918606
 31
0.0
  0
LINE
  5
3A4
330
37E
100
AcDbEntity
  8
Default
  6
Continuous
 62
     7
100
AcDbLine
 10
252.9366795291
 20
185.7035066706
 30
0.0
 11
252.9366795291
 21
187.1610918606
 31
0.0
  0
LINE
  5
3A5
330
37E
100
AcDbEntity
  8
Default
  6
Continuous
 62
     7
100
AcDbLine
 10
255.0710831988
 20
185.7035066706
 30
0.0
 11
252.9366795291
 21
185.7035066706
 31
0.0
  0
SPLINE
  5
3A6
330
37E
100
AcDbEntity
  8
Default
  6
Continuous
 62
     7
100
AcDbSpline
210
0.0
220
0.0
230
1.0
 70
    11
 71
     3
 72
    47
 73
    43
 74
     0
 42
0.0000000008494054
 43
0.0000000001
 12
1.0
 22
0.0
 32
0.0
 13
1.0
 23
0.0
 33
0.0
 40
0.0
 40
0.0
 40
0.0
 40
0.0
 40
0.0637917384076936
 40
0.0637917384076936
 40
0.0637917384076936
 40
0.1265834997779105
 40
0.1265834997779105
 40
0.1893752611481286
 40
0.1893752611481286
 40
0.1893752611481286
 40
0.2604081010642026
 40
0.2604081010642026
 40
0.3159741129340349
 40
0.3159741129340349
 40
0.3159741129340349
 40
0.3751091105868484
 40
0.3751091105868484
 40
0.3751091105868484
 40
0.435995169879425
 40
0.435995169879425
 40
0.435995169879425
 40
0.4997689343159713
 40
0.4997689343159713
 40
0.5635426987525196
 40
0.5635426987525196
 40
0.5635426987525196
 40
0.624232315369434
 40
0.624232315369434
 40
0.624232315369434
 40
0.6835869381889372
 40
0.6835869381889372
 40
0.6835869381889372
 40
0.7357943705008892
 40
0.7357943705008892
 40
0.8025337685079206
 40
0.8025337685079206
 40
0.8692731665149518
 40
0.8692731665149518
 40
0.9360125645219831
 40
0.9360125645219831
 40
0.9360125645219831
 40
1.0
 40
1.0
 40
1.0
 40
1.0
 10
248.4438060035654
 20
184.5693159759436
 30
0.0
 10
248.7025215998956
 20
184.5693159759436
 30
0.0
 10
248.9450674714552
 20
184.620135110937
 30
0.0
 10
249.1691336575627
 20
184.7194634202424
 30
0.0
 10
249.3951304192655
 20
184.8196475517189
 30
0.0
 10
249.5941664229625
 20
184.9550794097575
 30
0.0
 10
249.9314206824644
 20
185.3061934333486
 30
0.0
 10
250.0653984019926
 20
185.5140898946854
 30
0.0
 10
250.160106789935
 20
185.752015844882
 30
0.0
 10
250.2551311293749
 20
185.9907355268896
 30
0.0
 10
250.3056343128707
 20
186.2509673520904
 30
0.0
 10
250.3056343128707
 20
186.7614686627064
 30
0.0
 10
250.2571251385588
 20
186.9809149274508
 30
0.0
 10
250.160106789935
 20
187.1934313101507
 30
0.0
 10
250.0643595068875
 20
187.4031634539689
 30
0.0
 10
249.9314206824644
 20
187.5907445473721
 30
0.0
 10
249.7627935527134
 20
187.7547517557601
 30
0.0
 10
249.5953209577949
 20
187.9176360604069
 30
0.0
 10
249.3955098043517
 20
188.0458068016317
 30
0.0
 10
249.1691336575627
 20
188.140515189574
 30
0.0
 10
248.9439009259591
 20
188.2347452099388
 30
0.0
 10
248.7025215998956
 20
188.2860427125098
 30
0.0
 10
248.1850904072351
 20
188.2860427125098
 30
0.0
 10
247.9425445356754
 20
188.2375335381978
 30
0.0
 10
247.7161683888864
 20
188.140515189574
 30
0.0
 10
247.4925801256786
 20
188.0446916481992
 30
0.0
 10
247.2934455841682
 20
187.9164490034665
 30
0.0
 10
247.1248184544172
 20
187.7547517557601
 30
0.0
 10
246.9550373605366
 20
187.5919479671074
 30
0.0
 10
246.8222136051381
 20
187.403637732169
 30
0.0
 10
246.7228852958327
 20
187.1934313101507
 30
0.0
 10
246.622664698655
 20
186.9813365579839
 30
0.0
 10
246.5727378515339
 20
186.7614686627064
 30
0.0
 10
246.5727378515339
 20
186.2509673520904
 30
0.0
 10
246.6235569865273
 20
185.9899417950786
 30
0.0
 10
246.8222136051381
 20
185.5140898946854
 30
0.0
 10
246.9561913246663
 20
185.3061934333486
 30
0.0
 10
247.2934455841682
 20
184.9550794097575
 30
0.0
 10
247.492102202779
 20
184.8187917295478
 30
0.0
 10
247.7161683888864
 20
184.7194634202424
 30
0.0
 10
247.9421651505893
 20
184.6192792887659
 30
0.0
 10
248.1850904072351
 20
184.5693159759436
 30
0.0
 10
248.4438060035654
 20
184.5693159759436
 30
0.0
  0
SPLINE
  5
3A7
330
37E
100
AcDbEntity
  8
Default
  6
Continuous
 62
     7
100
AcDbSpline
210
0.0
220
0.0
230
1.0
 70
    11
 71
     3
 72
    49
 73
    45
 74
     0
 42
0.0000000004385322
 43
0.0000000001
 12
1.0
 22
0.0
 32
0.0
 13
1.0
 23
0.0
 33
0.0
 40
0.0
 40
0.0
 40
0.0
 40
0.0
 40
0.0617996483207596
 40
0.0617996483207596
 40
0.0617996483207596
 40
0.1220737652654132
 40
0.1220737652654132
 40
0.1220737652654132
 40
0.1820249318660078
 40
0.1820249318660078
 40
0.1820249318660078
 40
0.2438982680995642
 40
0.2438982680995642
 40
0.3109516975991858
 40
0.3109516975991858
 40
0.3109516975991858
 40
0.3722543214771952
 40
0.3722543214771952
 40
0.3722543214771952
 40
0.4335172266527087
 40
0.4335172266527087
 40
0.4335172266527087
 40
0.4994898970728853
 40
0.4994898970728853
 40
0.5657506577569065
 40
0.5657506577569065
 40
0.5657506577569065
 40
0.626961718898901
 40
0.626961718898901
 40
0.6886100019061948
 40
0.6886100019061948
 40
0.6886100019061948
 40
0.7556907268882871
 40
0.7556907268882871
 40
0.8175892499404324
 40
0.8175892499404324
 40
0.8175892499404324
 40
0.8774725210786118
 40
0.8774725210786118
 40
0.8774725210786118
 40
0.9379094648157675
 40
0.9379094648157675
 40
0.9379094648157675
 40
1.0
 40
1.0
 40
1.0
 40
1.0
 10
248.4438060035654
 20
189.9492144032044
 30
0.0
 10
248.9196356399268
 20
189.9515130970999
 30
0.0
 10
249.3770301188996
 20
189.8637458579882
 30
0.0
 10
249.8136126877069
 20
189.6997386496002
 30
0.0
 10
250.2509557040483
 20
189.5354457704455
 30
0.0
 10
250.6382686510096
 20
189.3001154516972
 30
0.0
 10
250.9755229105116
 20
188.997510602418
 30
0.0
 10
251.3129086463213
 20
188.694787784671
 30
0.0
 10
251.585352530433
 20
188.3368618475032
 30
0.0
 10
251.7863191097253
 20
187.918758964148
 30
0.0
 10
251.9868172819147
 20
187.5016305829262
 30
0.0
 10
252.0889239590044
 20
187.0455938265333
 30
0.0
 10
252.0889239590044
 20
186.0107314412123
 30
0.0
 10
251.9988354924251
 20
185.52101977673
 30
0.0
 10
251.816348598585
 20
185.0775073258781
 30
0.0
 10
251.6330488643873
 20
184.6320193642835
 30
0.0
 10
251.3820759904592
 20
184.2482314412123
 30
0.0
 10
251.0609914557278
 20
183.9225269851179
 30
0.0
 10
250.7410617834882
 20
183.5979940082417
 30
0.0
 10
250.3564534478642
 20
183.3473467754193
 30
0.0
 10
249.9083210756492
 20
183.1671698422608
 30
0.0
 10
249.4629767181928
 20
182.9881138634896
 30
0.0
 10
248.9727869996335
 20
182.8992144032044
 30
0.0
 10
247.9125150468157
 20
182.8992144032044
 30
0.0
 10
247.4251133430149
 20
182.9893028697837
 30
0.0
 10
246.9792909314815
 20
183.1671698422608
 30
0.0
 10
246.530680710158
 20
183.3461490497318
 30
0.0
 10
246.1453951254526
 20
183.5991324897051
 30
0.0
 10
245.4962961739454
 20
184.2482314412123
 30
0.0
 10
245.2445104596597
 20
184.6316849143446
 30
0.0
 10
245.0620235658196
 20
185.0775073258781
 30
0.0
 10
244.8803465126443
 20
185.521351265914
 30
0.0
 10
244.7871382447187
 20
186.0107314412123
 30
0.0
 10
244.7871382447187
 20
187.0455938265333
 30
0.0
 10
244.8887765147056
 20
187.5029660414744
 30
0.0
 10
245.0920530546794
 20
187.918758964148
 30
0.0
 10
245.2957954536029
 20
188.335504780128
 30
0.0
 10
245.5632850337095
 20
188.6972157138204
 30
0.0
 10
245.9005392932115
 20
188.997510602418
 30
0.0
 10
246.2389407961124
 20
189.2988270091107
 30
0.0
 10
246.6281769078904
 20
189.5334214805307
 30
0.0
 10
247.0670694373792
 20
189.6997386496002
 30
0.0
 10
247.5072164315149
 20
189.8665311947464
 30
0.0
 10
247.9656441424906
 20
189.9469044425229
 30
0.0
 10
248.4438060035654
 20
189.9492144032044
 30
0.0
  0
LINE
  5
3A8
330
37E
100
AcDbEntity
  8
Default
  6
Continuous
 62
     7
100
AcDbLine
 10
242.3339600009
 20
185.4332412708
 30
0.0
 11
240.8347955186
 21
185.4332412708
 31
0.0
  0
SPLINE
  5
3A9
330
37E
100
AcDbEntity
  8
Default
  6
Continuous
 62
     7
100
AcDbSpline
210
0.0
220
0.0
230
1.0
 70
     8
 71
     3
 72
    43
 73
    39
 74
     0
 42
0.0000000009932047
 43
0.0000000001
 12
1.0
 22
0.0
 32
0.0
 13
1.0
 23
0.0
 33
0.0
 40
0.0
 40
0.0
 40
0.0
 40
0.0
 40
0.0949373847537602
 40
0.0949373847537602
 40
0.0949373847537602
 40
0.1911787086491429
 40
0.1911787086491429
 40
0.2677918678027036
 40
0.2677918678027036
 40
0.2677918678027036
 40
0.3406026976746725
 40
0.3406026976746725
 40
0.3406026976746725
 40
0.4151543081273698
 40
0.4151543081273698
 40
0.4151543081273698
 40
0.4895478942304584
 40
0.4895478942304584
 40
0.5659890102262922
 40
0.5659890102262922
 40
0.6424301262221261
 40
0.6424301262221261
 40
0.6424301262221261
 40
0.714798401889747
 40
0.714798401889747
 40
0.714798401889747
 40
0.7953127750919691
 40
0.7953127750919691
 40
0.8472575319966263
 40
0.8472575319966263
 40
0.8472575319966263
 40
0.898191982468852
 40
0.898191982468852
 40
0.898191982468852
 40
0.9471592991231073
 40
0.9471592991231073
 40
0.9471592991231073
 40
1.0
 40
1.0
 40
1.0
 40
1.0
 10
242.2554213377724
 20
187.3782281646723
 30
0.0
 10
242.1353033823333
 20
187.6970027387221
 30
0.0
 10
241.9551264491748
 20
187.9510984136893
 30
0.0
 10
241.7148905382967
 20
188.1428251502555
 30
0.0
 10
241.4721172585773
 20
188.3365769023392
 30
0.0
 10
241.1766696995024
 20
188.4315702354455
 30
0.0
 10
240.5460504334474
 20
188.4315702354455
 30
0.0
 10
240.3011946012062
 20
188.371511257726
 30
0.0
 10
240.0840582971433
 20
188.2490833416055
 30
0.0
 10
239.8686747464151
 20
188.1276436800246
 30
0.0
 10
239.6913649812849
 20
187.9649581777784
 30
0.0
 10
239.5481474190306
 20
187.7663015591677
 30
0.0
 10
239.4057198468884
 20
187.5687407332931
 30
0.0
 10
239.2986716654264
 20
187.345888715131
 30
0.0
 10
239.2270628842993
 20
187.0987229222083
 30
0.0
 10
239.1546578089098
 20
186.848808629735
 30
0.0
 10
239.1161847715863
 20
186.5997714149999
 30
0.0
 10
239.1161847715863
 20
186.089270104384
 30
0.0
 10
239.1554541031722
 20
185.8397943507798
 30
0.0
 10
239.3079115081525
 20
185.3500826862975
 30
0.0
 10
239.4187896208655
 20
185.1283264608715
 30
0.0
 10
239.5643171438012
 20
184.9342897636238
 30
0.0
 10
239.7109534478642
 20
184.7387746915399
 30
0.0
 10
239.8900215998956
 20
184.5808657793512
 30
0.0
 10
240.104847943277
 20
184.4630577845936
 30
0.0
 10
240.3206481660817
 20
184.3447157269266
 30
0.0
 10
240.5691500402626
 20
184.2851908121166
 30
0.0
 10
241.0403820192927
 20
184.2851908121166
 30
0.0
 10
241.2182489917698
 20
184.3082904189318
 30
0.0
 10
241.3914960428838
 20
184.3591095539252
 30
0.0
 10
241.5619922405099
 20
184.4091217718955
 30
0.0
 10
241.7148905382967
 20
184.4815374700458
 30
0.0
 10
241.8488682578248
 20
184.5762458579881
 30
0.0
 10
241.9813056983178
 20
184.6698654279918
 30
0.0
 10
242.089104168703
 20
184.7910722013695
 30
0.0
 10
242.1768826746007
 20
184.9342897636238
 30
0.0
 10
242.2630012238817
 20
185.0747989756085
 30
0.0
 10
242.315480315492
 20
185.241514534266
 30
0.0
 10
242.3339600009441
 20
185.4332412708322
 30
0.0
  0
LINE
  5
3AA
330
37E
100
AcDbEntity
  8
Default
  6
Continuous
 62
     7
100
AcDbLine
 10
243.8839436182
 20
188.0642864871
 30
0.0
 11
242.2554213378
 21
187.3782281647
 31
0.0
  0
SPLINE
  5
3AB
330
37E
100
AcDbEntity
  8
Default
  6
Continuous
 62
     7
100
AcDbSpline
210
0.0
220
0.0
230
1.0
 70
     8
 71
     3
 72
    51
 73
    47
 74
     0
 42
0.0000000004766382
 43
0.0000000001
 12
1.0
 22
0.0
 32
0.0
 13
1.0
 23
0.0
 33
0.0
 40
0.0
 40
0.0
 40
0.0
 40
0.0
 40
0.0095402040290222
 40
0.0095402040290222
 40
0.0095402040290222
 40
0.0400756007423482
 40
0.0400756007423482
 40
0.0400756007423482
 40
0.0693620114069116
 40
0.0693620114069116
 40
0.0986484220714753
 40
0.0986484220714753
 40
0.0986484220714753
 40
0.1302632519246672
 40
0.1302632519246672
 40
0.1302632519246672
 40
0.2055179711079718
 40
0.2055179711079718
 40
0.2055179711079718
 40
0.281182745691462
 40
0.281182745691462
 40
0.3511962093102096
 40
0.3511962093102096
 40
0.3511962093102096
 40
0.4149417185613706
 40
0.4149417185613706
 40
0.4149417185613706
 40
0.4786592191897758
 40
0.4786592191897758
 40
0.4786592191897758
 40
0.5478830793697405
 40
0.5478830793697405
 40
0.6199007276287178
 40
0.6199007276287178
 40
0.6199007276287178
 40
0.6846819262147057
 40
0.6846819262147057
 40
0.6846819262147057
 40
0.7494892886116509
 40
0.7494892886116509
 40
0.7494892886116509
 40
0.8193637744922013
 40
0.8193637744922013
 40
0.9096818872461009
 40
0.9096818872461009
 40
1.0
 40
1.0
 40
1.0
 40
1.0
 10
244.1426592145745
 20
186.777638387477
 30
0.0
 10
244.1426592145745
 20
186.7114195146068
 30
0.0
 10
244.1426592145745
 20
186.6452006417365
 30
0.0
 10
244.1426592145745
 20
186.5789817688662
 30
0.0
 10
244.1426592145745
 20
186.3618454648034
 30
0.0
 10
244.1287994504854
 20
186.1493290821035
 30
0.0
 10
244.1172496470778
 20
185.9437425814482
 30
0.0
 10
244.1057071113542
 20
185.738285445568
 30
0.0
 10
244.0849101975365
 20
185.5371895015006
 30
0.0
 10
244.0109914557279
 20
185.1398762642791
 30
0.0
 10
243.9578623600529
 20
184.9435296063499
 30
0.0
 10
243.8839436182442
 20
184.7518028697837
 30
0.0
 10
243.8103238022207
 20
184.5608514719727
 30
0.0
 10
243.7060766457672
 20
184.3683493966513
 30
0.0
 10
243.567479004876
 20
184.1766226600851
 30
0.0
 10
243.2385391943749
 20
183.7215892555586
 30
0.0
 10
242.8467712722416
 20
183.3866161070052
 30
0.0
 10
242.3801592145745
 20
183.1833395670314
 30
0.0
 10
241.9127013576763
 20
182.9796945600658
 30
0.0
 10
241.4007358856099
 20
182.8761147963892
 30
0.0
 10
240.3289141293845
 20
182.8761147963892
 30
0.0
 10
239.8530622289913
 20
182.9592733809239
 30
0.0
 10
239.4187896208655
 20
183.1279005106749
 30
0.0
 10
238.9865243210358
 20
183.2957482068854
 30
0.0
 10
238.6149233036964
 20
183.5344535906225
 30
0.0
 10
238.3076985330542
 20
183.8370584399017
 30
0.0
 10
237.9993189146371
 20
184.1408007708237
 30
0.0
 10
237.7625478122154
 20
184.5092569982241
 30
0.0
 10
237.5893007611014
 20
184.9412196456684
 30
0.0
 10
237.4171718734448
 20
185.3703943388921
 30
0.0
 10
237.3328951254526
 20
185.8444142721428
 30
0.0
 10
237.3328951254526
 20
186.8954463822346
 30
0.0
 10
237.4183636706689
 20
187.3828480860353
 30
0.0
 10
237.5893007611014
 20
187.8194306548426
 30
0.0
 10
237.760544896821
 20
188.2567974339103
 30
0.0
 10
238.005093683775
 20
188.6302268540563
 30
0.0
 10
238.3192483364618
 20
188.9420715460616
 30
0.0
 10
238.6322480402607
 20
189.2527697814501
 30
0.0
 10
239.0099265802364
 20
189.4918421882634
 30
0.0
 10
239.4488191097252
 20
189.6627792786959
 30
0.0
 10
239.8889361806183
 20
189.8341932957806
 30
0.0
 10
240.3751133430149
 20
189.9145649929816
 30
0.0
 10
241.587842700813
 20
189.9145649929816
 30
0.0
 10
242.1815025959638
 20
189.7621075880012
 30
0.0
 10
243.2025052171957
 20
189.1522779680799
 30
0.0
 10
243.5998184544173
 20
188.6879758710943
 30
0.0
 10
243.8839436182442
 20
188.0642864870838
 30
0.0
  0
LINE
  5
3AC
330
37E
100
AcDbEntity
  8
Default
  6
Continuous
 62
     7
100
AcDbLine
 10
240.8347955186
 20
186.7776383875
 30
0.0
 11
244.1426592146
 21
186.7776383875
 31
0.0
  0
LINE
  5
3AD
330
37E
100
AcDbEntity
  8
Default
  6
Continuous
 62
     7
100
AcDbLine
 10
240.8347955186
 20
185.4332412708
 30
0.0
 11
240.8347955186
 21
186.7776383875
 31
0.0
  0
SPLINE
  5
3AE
330
37E
100
AcDbEntity
  8
Default
  6
Continuous
 62
     7
100
AcDbSpline
210
0.0
220
0.0
230
1.0
 70
     8
 71
     3
 72
    16
 73
    12
 74
     0
 42
0.000000000976763
 43
0.0000000001
 12
1.0
 22
0.0
 32
0.0
 13
1.0
 23
0.0
 33
0.0
 40
0.0
 40
0.0
 40
0.0
 40
0.0
 40
0.6164577788718584
 40
0.6164577788718584
 40
0.6164577788718584
 40
0.6381328433885463
 40
0.6381328433885463
 40
0.6607110355934293
 40
0.6607110355934293
 40
0.6607110355934293
 40
1.0
 40
1.0
 40
1.0
 40
1.0
 10
233.0225084937357
 20
183.1186606679488
 30
0.0
 10
233.0225084937357
 20
185.2199549012385
 30
0.0
 10
233.0225084937357
 20
187.3212491345281
 30
0.0
 10
233.0225084937357
 20
189.4225433678178
 30
0.0
 10
233.0225084937357
 20
189.503391991671
 30
0.0
 10
233.050228021914
 20
189.5703808514351
 30
0.0
 10
233.1634160953085
 20
189.6835689248296
 30
0.0
 10
233.2304049550725
 20
189.7112884530078
 30
0.0
 10
233.3089436182443
 20
189.7112884530078
 30
0.0
 10
234.4654639327921
 20
189.7112884530078
 30
0.0
 10
235.6219842473399
 20
189.7112884530078
 30
0.0
 10
236.7785045618878
 20
189.7112884530078
 30
0.0
  0
LINE
  5
3AF
330
37E
100
AcDbEntity
  8
Default
  6
Continuous
 62
     7
100
AcDbLine
 10
236.7785045619
 20
183.1186606679
 30
0.0
 11
233.0225084937
 21
183.1186606679
 31
0.0
  0
LINE
  5
3B0
330
37E
100
AcDbEntity
  8
Default
  6
Continuous
 62
     7
100
AcDbLine
 10
236.7785045619
 20
184.5693159759
 30
0.0
 11
236.7785045619
 21
183.1186606679
 31
0.0
  0
LINE
  5
3B1
330
37E
100
AcDbEntity
  8
Default
  6
Continuous
 62
     7
100
AcDbLine
 10
234.7318793981
 20
184.5693159759
 30
0.0
 11
236.7785045619
 21
184.5693159759
 31
0.0
  0
LINE
  5
3B2
330
37E
100
AcDbEntity
  8
Default
  6
Continuous
 62
     7
100
AcDbLine
 10
234.7318793981
 20
185.7035066706
 30
0.0
 11
234.7318793981
 21
184.5693159759
 31
0.0
  0
LINE
  5
3B3
330
37E
100
AcDbEntity
  8
Default
  6
Continuous
 62
     7
100
AcDbLine
 10
236.6791762526
 20
185.7035066706
 30
0.0
 11
234.7318793981
 21
185.7035066706
 31
0.0
  0
LINE
  5
3B4
330
37E
100
AcDbEntity
  8
Default
  6
Continuous
 62
     7
100
AcDbLine
 10
236.6791762526
 20
187.1610918606
 30
0.0
 11
236.6791762526
 21
185.7035066706
 31
0.0
  0
LINE
  5
3B5
330
37E
100
AcDbEntity
  8
Default
  6
Continuous
 62
     7
100
AcDbLine
 10
234.7318793981
 20
187.1610918606
 30
0.0
 11
236.6791762526
 21
187.1610918606
 31
0.0
  0
LINE
  5
3B6
330
37E
100
AcDbEntity
  8
Default
  6
Continuous
 62
     7
100
AcDbLine
 10
234.7318793981
 20
188.260633145
 30
0.0
 11
234.7318793981
 21
187.1610918606
 31
0.0
  0
LINE
  5
3B7
330
37E
100
AcDbEntity
  8
Default
  6
Continuous
 62
     7
100
AcDbLine
 10
236.7785045619
 20
188.260633145
 30
0.0
 11
234.7318793981
 21
188.260633145
 31
0.0
  0
LINE
  5
3B8
330
37E
100
AcDbEntity
  8
Default
  6
Continuous
 62
     7
100
AcDbLine
 10
236.7785045619
 20
189.711288453
 30
0.0
 11
236.7785045619
 21
188.260633145
 31
0.0
  0
LINE
  5
3B9
330
37E
100
AcDbEntity
  8
Default
  6
Continuous
 62
     7
100
AcDbLine
 10
228.7098119013
 20
188.3992307859
 30
0.0
 11
228.7098119013
 21
186.7499188593
 31
0.0
  0
LINE
  5
3BA
330
37E
100
AcDbEntity
  8
Default
  6
Continuous
 62
     7
100
AcDbLine
 10
228.7098119013
 20
186.7499188593
 30
0.0
 11
228.8807489918
 21
186.7499188593
 31
0.0
  0
SPLINE
  5
3BB
330
37E
100
AcDbEntity
  8
Default
  6
Continuous
 62
     7
100
AcDbSpline
210
0.0
220
0.0
230
1.0
 70
     8
 71
     3
 72
    29
 73
    25
 74
     0
 42
0.0000000028633018
 43
0.0000000001
 12
1.0
 22
0.0
 32
0.0
 13
1.0
 23
0.0
 33
0.0
 40
0.0
 40
0.0
 40
0.0
 40
0.0
 40
0.1203556671631279
 40
0.1203556671631279
 40
0.1203556671631279
 40
0.2363519504887718
 40
0.2363519504887718
 40
0.2363519504887718
 40
0.3551316836966588
 40
0.3551316836966588
 40
0.4739114169045465
 40
0.4739114169045465
 40
0.5942337440501996
 40
0.5942337440501996
 40
0.7145560711958533
 40
0.7145560711958533
 40
0.7145560711958533
 40
0.8303426976884648
 40
0.8303426976884648
 40
0.8303426976884648
 40
0.9506957818555967
 40
0.9506957818555967
 40
0.9506957818555967
 40
1.0
 40
1.0
 40
1.0
 40
1.0
 10
228.8807489917698
 20
186.7499188592988
 30
0.0
 10
229.019346632661
 20
186.7499188592988
 30
0.0
 10
229.1579442735522
 20
186.7591587020248
 30
0.0
 10
229.2965419144435
 20
186.7799483481585
 30
0.0
 10
229.4373986855855
 20
186.8010768638298
 30
0.0
 10
229.5644973534998
 20
186.8376973651965
 30
0.0
 10
229.6799953875758
 20
186.8954463822346
 30
0.0
 10
229.7964174059245
 20
186.9536573914089
 30
0.0
 10
229.8902018095942
 20
187.0340440231258
 30
0.0
 10
230.0287994504854
 20
187.2511803271887
 30
0.0
 10
230.0634488607082
 20
187.3967078501244
 30
0.0
 10
230.0634488607082
 20
187.7547517557601
 30
0.0
 10
230.0287994504854
 20
187.8979693180144
 30
0.0
 10
229.8902018095942
 20
188.1151056220773
 30
0.0
 10
229.7978033823333
 20
188.198264206612
 30
0.0
 10
229.6799953875758
 20
188.25601322365
 30
0.0
 10
229.5649627826514
 20
188.3124017554757
 30
0.0
 10
229.4374495160162
 20
188.3484116509108
 30
0.0
 10
229.2965419144435
 20
188.3692012970445
 30
0.0
 10
229.1578950608181
 20
188.3896573902023
 30
0.0
 10
229.019346632661
 20
188.3992307859043
 30
0.0
 10
228.8807489917698
 20
188.3992307859043
 30
0.0
 10
228.8237699616256
 20
188.3992307859043
 30
0.0
 10
228.7667909314815
 20
188.3992307859043
 30
0.0
 10
228.7098119013373
 20
188.3992307859043
 30
0.0
  0
LINE
  5
3BC
330
37E
100
AcDbEntity
  8
Default
  6
Continuous
 62
     7
100
AcDbLine
 10
228.7098119013
 20
183.1186606679
 30
0.0
 11
227.000440997
 21
183.1186606679
 31
0.0
  0
LINE
  5
3BD
330
37E
100
AcDbEntity
  8
Default
  6
Continuous
 62
     7
100
AcDbLine
 10
228.7098119013
 20
185.6526875356
 30
0.0
 11
228.7098119013
 21
183.1186606679
 31
0.0
  0
LINE
  5
3BE
330
37E
100
AcDbEntity
  8
Default
  6
Continuous
 62
     7
100
AcDbLine
 10
230.3406441425
 20
183.1186606679
 30
0.0
 11
228.7098119013
 21
185.6526875356
 31
0.0
  0
LINE
  5
3BF
330
37E
100
AcDbEntity
  8
Default
  6
Continuous
 62
     7
100
AcDbLine
 10
232.4773577729
 20
183.1186606679
 30
0.0
 11
230.3406441425
 21
183.1186606679
 31
0.0
  0
LINE
  5
3C0
330
37E
100
AcDbEntity
  8
Default
  6
Continuous
 62
     7
100
AcDbLine
 10
230.4007031202
 20
185.8190047046
 30
0.0
 11
232.4773577729
 21
183.1186606679
 31
0.0
  0
SPLINE
  5
3C1
330
37E
100
AcDbEntity
  8
Default
  6
Continuous
 62
     7
100
AcDbSpline
210
0.0
220
0.0
230
1.0
 70
     8
 71
     3
 72
    39
 73
    35
 74
     0
 42
0.0000000006617465
 43
0.0000000001
 12
1.0
 22
0.0
 32
0.0
 13
1.0
 23
0.0
 33
0.0
 40
0.0
 40
0.0
 40
0.0
 40
0.0
 40
0.4184837171182216
 40
0.4184837171182216
 40
0.4184837171182216
 40
0.4329116956232541
 40
0.4329116956232541
 40
0.447940839899329
 40
0.447940839899329
 40
0.447940839899329
 40
0.5989875461512338
 40
0.5989875461512338
 40
0.5989875461512338
 40
0.65983019696195
 40
0.65983019696195
 40
0.65983019696195
 40
0.7141636694202442
 40
0.7141636694202442
 40
0.7141636694202442
 40
0.7672492360561214
 40
0.7672492360561214
 40
0.7672492360561214
 40
0.8311842098663922
 40
0.8311842098663922
 40
0.8732466926363075
 40
0.8732466926363075
 40
0.8732466926363075
 40
0.9147241024096695
 40
0.9147241024096695
 40
0.9147241024096695
 40
0.9560702513872078
 40
0.9560702513872078
 40
0.9560702513872078
 40
1.0
 40
1.0
 40
1.0
 40
1.0
 10
227.0004409970123
 20
183.1186606679488
 30
0.0
 10
227.0004409970123
 20
185.2199549012385
 30
0.0
 10
227.0004409970123
 20
187.3212491345281
 30
0.0
 10
227.0004409970123
 20
189.4225433678178
 30
0.0
 10
227.0004409970123
 20
189.503391991671
 30
0.0
 10
227.0281605251905
 20
189.5703808514351
 30
0.0
 10
227.141348598585
 20
189.6835689248296
 30
0.0
 10
227.2060274976676
 20
189.7112884530078
 30
0.0
 10
227.2776362787947
 20
189.7112884530078
 30
0.0
 10
228.0360733692272
 20
189.7112884530078
 30
0.0
 10
228.7945104596597
 20
189.7112884530078
 30
0.0
 10
229.5529475500922
 20
189.7112884530078
 30
0.0
 10
229.8786520061866
 20
189.7112884530078
 30
0.0
 10
230.1812568554658
 20
189.672019121422
 30
0.0
 10
230.4584521372482
 20
189.5911704975687
 30
0.0
 10
230.7371553613635
 20
189.5098820572018
 30
0.0
 10
230.9781932905902
 20
189.3902039182765
 30
0.0
 10
231.1837797912455
 20
189.223886749207
 30
0.0
 10
231.3882367819392
 20
189.0584833410054
 30
0.0
 10
231.5510635396073
 20
188.8496731188007
 30
0.0
 10
231.6665615736833
 20
188.5955774438335
 30
0.0
 10
231.782929798427
 20
188.3395673493973
 30
0.0
 10
231.8398086247973
 20
188.0365669589056
 30
0.0
 10
231.8398086247973
 20
187.4544568671624
 30
0.0
 10
231.8097791359376
 20
187.235010602418
 30
0.0
 10
231.745100236855
 20
187.0317340624443
 30
0.0
 10
231.679966279852
 20
186.827027340435
 30
0.0
 10
231.5903328711931
 20
186.6390407465858
 30
0.0
 10
231.4679049550726
 20
186.4750335381978
 30
0.0
 10
231.3443697291374
 20
186.3095429525111
 30
0.0
 10
231.1953295946532
 20
186.1678087675556
 30
0.0
 10
231.0151526614946
 20
186.0523107334796
 30
0.0
 10
230.8366129371881
 20
185.9378621922575
 30
0.0
 10
230.6316991883622
 20
185.8582740362319
 30
0.0
 10
230.4007031202102
 20
185.8190047046461
 30
0.0
  0
HATCH
  5
3C2
330
37E
100
AcDbEntity
  8
Default
  6
Continuous
 62
     7
100
AcDbHatch
 10
0.0
 20
0.0
 30
0.0
210
0.0
220
0.0
230
1.0
  2
SOLID
 70
     1
 71
     0
 91
        2
 92
        1
 93
        6
 72
     4
 94
        3
 73
     0
 74
     0
 95
       39
 96
       35
 40
0.0
 40
0.0
 40
0.0
 40
0.0
 40
0.0439297486127922
 40
0.0439297486127922
 40
0.0439297486127922
 40
0.0852758975903305
 40
0.0852758975903305
 40
0.0852758975903305
 40
0.1267533073636925
 40
0.1267533073636925
 40
0.1267533073636925
 40
0.1688157901336078
 40
0.1688157901336078
 40
0.2327507639438786
 40
0.2327507639438786
 40
0.2327507639438786
 40
0.2858363305797558
 40
0.2858363305797558
 40
0.2858363305797558
 40
0.34016980303805
 40
0.34016980303805
 40
0.34016980303805
 40
0.4010124538487662
 40
0.4010124538487662
 40
0.4010124538487662
 40
0.552059160100671
 40
0.552059160100671
 40
0.552059160100671
 40
0.5670883043767458
 40
0.5670883043767458
 40
0.5815162828817784
 40
0.5815162828817784
 40
0.5815162828817784
 40
1.0
 40
1.0
 40
1.0
 40
1.0
 10
230.4007031202102
 20
185.8190047046461
 10
230.6316991883622
 20
185.8582740362319
 10
230.8366129371881
 20
185.9378621922575
 10
231.0151526614946
 20
186.0523107334796
 10
231.1953295946532
 20
186.1678087675556
 10
231.3443697291374
 20
186.3095429525111
 10
231.4679049550726
 20
186.4750335381978
 10
231.5903328711931
 20
186.6390407465858
 10
231.679966279852
 20
186.827027340435
 10
231.745100236855
 20
187.0317340624443
 10
231.8097791359376
 20
187.235010602418
 10
231.8398086247973
 20
187.4544568671624
 10
231.8398086247973
 20
188.0365669589056
 10
231.782929798427
 20
188.3395673493973
 10
231.6665615736833
 20
188.5955774438335
 10
231.5510635396073
 20
188.8496731188007
 10
231.3882367819392
 20
189.0584833410054
 10
231.1837797912455
 20
189.223886749207
 10
230.9781932905902
 20
189.3902039182765
 10
230.7371553613635
 20
189.5098820572018
 10
230.4584521372482
 20
189.5911704975687
 10
230.1812568554658
 20
189.672019121422
 10
229.8786520061866
 20
189.7112884530078
 10
229.5529475500922
 20
189.7112884530078
 10
228.7945104596597
 20
189.7112884530078
 10
228.0360733692272
 20
189.7112884530078
 10
227.2776362787947
 20
189.7112884530078
 10
227.2060274976676
 20
189.7112884530078
 10
227.141348598585
 20
189.6835689248296
 10
227.0281605251905
 20
189.5703808514351
 10
227.0004409970123
 20
189.503391991671
 10
227.0004409970123
 20
189.4225433678178
 10
227.0004409970123
 20
187.3212491345281
 10
227.0004409970123
 20
185.2199549012385
 10
227.0004409970123
 20
183.1186606679488
 72
     1
 10
227.0004409970123
 20
183.1186606679488
 11
228.7098119013373
 21
183.1186606679488
 72
     1
 10
228.7098119013373
 20
183.1186606679488
 11
228.7098119013373
 21
185.6526875355766
 72
     1
 10
228.7098119013373
 20
185.6526875355766
 11
230.3406441424906
 21
183.1186606679488
 72
     1
 10
230.3406441424906
 20
183.1186606679488
 11
232.4773577728969
 21
183.1186606679488
 72
     1
 10
232.4773577728969
 20
183.1186606679488
 11
230.4007031202102
 21
185.8190047046461
 97
        0
 92
        1
 93
        3
 72
     1
 10
228.7098119013373
 20
188.3992307859043
 11
228.7098119013373
 21
186.7499188592988
 72
     1
 10
228.7098119013373
 20
186.7499188592988
 11
228.8807489917698
 21
186.7499188592988
 72
     4
 94
        3
 73
     0
 74
     0
 95
       29
 96
       25
 40
0.0
 40
0.0
 40
0.0
 40
0.0
 40
0.120355667163128
 40
0.120355667163128
 40
0.120355667163128
 40
0.2363519504887718
 40
0.2363519504887718
 40
0.2363519504887718
 40
0.3551316836966587
 40
0.3551316836966587
 40
0.4739114169045465
 40
0.4739114169045465
 40
0.5942337440501996
 40
0.5942337440501996
 40
0.7145560711958533
 40
0.7145560711958533
 40
0.7145560711958533
 40
0.8303426976884648
 40
0.8303426976884648
 40
0.8303426976884648
 40
0.9506957818555967
 40
0.9506957818555967
 40
0.9506957818555967
 40
1.0
 40
1.0
 40
1.0
 40
1.0
 10
228.8807489917698
 20
186.7499188592988
 10
229.019346632661
 20
186.7499188592988
 10
229.1579442735522
 20
186.7591587020248
 10
229.2965419144435
 20
186.7799483481585
 10
229.4373986855855
 20
186.8010768638298
 10
229.5644973534998
 20
186.8376973651965
 10
229.6799953875758
 20
186.8954463822346
 10
229.7964174059245
 20
186.9536573914089
 10
229.8902018095942
 20
187.0340440231258
 10
230.0287994504854
 20
187.2511803271887
 10
230.0634488607082
 20
187.3967078501244
 10
230.0634488607082
 20
187.7547517557601
 10
230.0287994504854
 20
187.8979693180144
 10
229.8902018095942
 20
188.1151056220773
 10
229.7978033823333
 20
188.198264206612
 10
229.6799953875758
 20
188.25601322365
 10
229.5649627826514
 20
188.3124017554757
 10
229.4374495160162
 20
188.3484116509108
 10
229.2965419144435
 20
188.3692012970445
 10
229.1578950608181
 20
188.3896573902023
 10
229.019346632661
 20
188.3992307859043
 10
228.8807489917698
 20
188.3992307859043
 10
228.8237699616256
 20
188.3992307859043
 10
228.7667909314815
 20
188.3992307859043
 10
228.7098119013373
 20
188.3992307859043
 97
        0
 75
     0
 76
     1
 98
        0
  0
HATCH
  5
3C3
330
37E
100
AcDbEntity
  8
Default
  6
Continuous
 62
     7
100
AcDbHatch
 10
0.0
 20
0.0
 30
0.0
210
0.0
220
0.0
230
1.0
  2
SOLID
 70
     1
 71
     0
 91
        1
 92
        1
 93
       11
 72
     4
 94
        3
 73
     0
 74
     0
 95
       16
 96
       12
 40
0.0
 40
0.0
 40
0.0
 40
0.0
 40
0.3392889644065707
 40
0.3392889644065707
 40
0.3392889644065707
 40
0.3618671566114537
 40
0.3618671566114537
 40
0.3835422211281416
 40
0.3835422211281416
 40
0.3835422211281416
 40
1.0
 40
1.0
 40
1.0
 40
1.0
 10
236.7785045618878
 20
189.7112884530078
 10
235.6219842473399
 20
189.7112884530078
 10
234.4654639327921
 20
189.7112884530078
 10
233.3089436182443
 20
189.7112884530078
 10
233.2304049550725
 20
189.7112884530078
 10
233.1634160953085
 20
189.6835689248296
 10
233.050228021914
 20
189.5703808514351
 10
233.0225084937357
 20
189.503391991671
 10
233.0225084937357
 20
189.4225433678178
 10
233.0225084937357
 20
187.3212491345281
 10
233.0225084937357
 20
185.2199549012385
 10
233.0225084937357
 20
183.1186606679488
 72
     1
 10
233.0225084937357
 20
183.1186606679488
 11
236.7785045618878
 21
183.1186606679488
 72
     1
 10
236.7785045618878
 20
183.1186606679488
 11
236.7785045618878
 21
184.5693159759436
 72
     1
 10
236.7785045618878
 20
184.5693159759436
 11
234.7318793980608
 21
184.5693159759436
 72
     1
 10
234.7318793980608
 20
184.5693159759436
 11
234.7318793980608
 21
185.7035066705701
 72
     1
 10
234.7318793980608
 20
185.7035066705701
 11
236.6791762525824
 21
185.7035066705701
 72
     1
 10
236.6791762525824
 20
185.7035066705701
 11
236.6791762525824
 21
187.1610918606094
 72
     1
 10
236.6791762525824
 20
187.1610918606094
 11
234.7318793980608
 21
187.1610918606094
 72
     1
 10
234.7318793980608
 20
187.1610918606094
 11
234.7318793980608
 21
188.260633145013
 72
     1
 10
234.7318793980608
 20
188.260633145013
 11
236.7785045618878
 21
188.260633145013
 72
     1
 10
236.7785045618878
 20
188.260633145013
 11
236.7785045618878
 21
189.7112884530078
 97
        0
 75
     0
 76
     1
 98
        0
  0
HATCH
  5
3C4
330
37E
100
AcDbEntity
  8
Default
  6
Continuous
 62
     7
100
AcDbHatch
 10
0.0
 20
0.0
 30
0.0
210
0.0
220
0.0
230
1.0
  2
SOLID
 70
     1
 71
     0
 91
        1
 92
        1
 93
        6
 72
     4
 94
        3
 73
     0
 74
     0
 95
       51
 96
       47
 40
0.0
 40
0.0
 40
0.0
 40
0.0
 40
0.0903181127538991
 40
0.0903181127538991
 40
0.1806362255077987
 40
0.1806362255077987
 40
0.2505107113883491
 40
0.2505107113883491
 40
0.2505107113883491
 40
0.3153180737852943
 40
0.3153180737852943
 40
0.3153180737852943
 40
0.3800992723712822
 40
0.3800992723712822
 40
0.3800992723712822
 40
0.4521169206302595
 40
0.4521169206302595
 40
0.5213407808102242
 40
0.5213407808102242
 40
0.5213407808102242
 40
0.5850582814386294
 40
0.5850582814386294
 40
0.5850582814386294
 40
0.6488037906897904
 40
0.6488037906897904
 40
0.6488037906897904
 40
0.718817254308538
 40
0.718817254308538
 40
0.7944820288920282
 40
0.7944820288920282
 40
0.7944820288920282
 40
0.8697367480753329
 40
0.8697367480753329
 40
0.8697367480753329
 40
0.9013515779285247
 40
0.9013515779285247
 40
0.9013515779285247
 40
0.9306379885930884
 40
0.9306379885930884
 40
0.9599243992576518
 40
0.9599243992576518
 40
0.9599243992576518
 40
0.9904597959709778
 40
0.9904597959709778
 40
0.9904597959709778
 40
1.0
 40
1.0
 40
1.0
 40
1.0
 10
243.8839436182442
 20
188.0642864870838
 10
243.5998184544173
 20
188.6879758710943
 10
243.2025052171957
 20
189.1522779680799
 10
242.1815025959638
 20
189.7621075880012
 10
241.587842700813
 20
189.9145649929816
 10
240.3751133430149
 20
189.9145649929816
 10
239.8889361806183
 20
189.8341932957806
 10
239.4488191097252
 20
189.6627792786959
 10
239.0099265802364
 20
189.4918421882634
 10
238.6322480402607
 20
189.2527697814501
 10
238.3192483364618
 20
188.9420715460616
 10
238.005093683775
 20
188.6302268540563
 10
237.760544896821
 20
188.2567974339103
 10
237.5893007611014
 20
187.8194306548426
 10
237.4183636706689
 20
187.3828480860353
 10
237.3328951254526
 20
186.8954463822346
 10
237.3328951254526
 20
185.8444142721428
 10
237.4171718734448
 20
185.3703943388921
 10
237.5893007611014
 20
184.9412196456684
 10
237.7625478122154
 20
184.5092569982241
 10
237.9993189146371
 20
184.1408007708237
 10
238.3076985330542
 20
183.8370584399017
 10
238.6149233036964
 20
183.5344535906225
 10
238.9865243210358
 20
183.2957482068854
 10
239.4187896208655
 20
183.1279005106749
 10
239.8530622289913
 20
182.9592733809239
 10
240.3289141293845
 20
182.8761147963892
 10
241.4007358856099
 20
182.8761147963892
 10
241.9127013576763
 20
182.9796945600658
 10
242.3801592145745
 20
183.1833395670314
 10
242.8467712722416
 20
183.3866161070052
 10
243.2385391943749
 20
183.7215892555586
 10
243.567479004876
 20
184.1766226600851
 10
243.7060766457672
 20
184.3683493966513
 10
243.8103238022207
 20
184.5608514719727
 10
243.8839436182442
 20
184.7518028697837
 10
243.9578623600529
 20
184.9435296063499
 10
244.0109914557279
 20
185.1398762642791
 10
244.0849101975365
 20
185.5371895015006
 10
244.1057071113542
 20
185.738285445568
 10
244.1172496470778
 20
185.9437425814482
 10
244.1287994504854
 20
186.1493290821035
 10
244.1426592145745
 20
186.3618454648034
 10
244.1426592145745
 20
186.5789817688662
 10
244.1426592145745
 20
186.6452006417365
 10
244.1426592145745
 20
186.7114195146068
 10
244.1426592145745
 20
186.777638387477
 72
     1
 10
244.1426592145745
 20
186.777638387477
 11
240.8347955186374
 21
186.777638387477
 72
     1
 10
240.8347955186374
 20
186.777638387477
 11
240.8347955186374
 21
185.4332412708322
 72
     1
 10
240.8347955186374
 20
185.4332412708322
 11
242.3339600009441
 21
185.4332412708322
 72
     4
 94
        3
 73
     0
 74
     0
 95
       43
 96
       39
 40
0.0
 40
0.0
 40
0.0
 40
0.0
 40
0.0528407008768927
 40
0.0528407008768927
 40
0.0528407008768927
 40
0.101808017531148
 40
0.101808017531148
 40
0.101808017531148
 40
0.1527424680033737
 40
0.1527424680033737
 40
0.1527424680033737
 40
0.2046872249080309
 40
0.2046872249080309
 40
0.285201598110253
 40
0.285201598110253
 40
0.285201598110253
 40
0.3575698737778739
 40
0.3575698737778739
 40
0.3575698737778739
 40
0.4340109897737078
 40
0.4340109897737078
 40
0.5104521057695417
 40
0.5104521057695417
 40
0.5848456918726302
 40
0.5848456918726302
 40
0.5848456918726302
 40
0.6593973023253275
 40
0.6593973023253275
 40
0.6593973023253275
 40
0.7322081321972964
 40
0.7322081321972964
 40
0.7322081321972964
 40
0.808821291350857
 40
0.808821291350857
 40
0.9050626152462398
 40
0.9050626152462398
 40
0.9050626152462398
 40
1.0
 40
1.0
 40
1.0
 40
1.0
 10
242.3339600009441
 20
185.4332412708322
 10
242.315480315492
 20
185.241514534266
 10
242.2630012238817
 20
185.0747989756085
 10
242.1768826746007
 20
184.9342897636238
 10
242.089104168703
 20
184.7910722013695
 10
241.9813056983178
 20
184.6698654279918
 10
241.8488682578248
 20
184.5762458579881
 10
241.7148905382967
 20
184.4815374700458
 10
241.5619922405099
 20
184.4091217718955
 10
241.3914960428838
 20
184.3591095539252
 10
241.2182489917698
 20
184.3082904189318
 10
241.0403820192927
 20
184.2851908121166
 10
240.5691500402626
 20
184.2851908121166
 10
240.3206481660817
 20
184.3447157269266
 10
240.104847943277
 20
184.4630577845936
 10
239.8900215998956
 20
184.5808657793512
 10
239.7109534478642
 20
184.7387746915399
 10
239.5643171438012
 20
184.9342897636238
 10
239.4187896208655
 20
185.1283264608715
 10
239.3079115081525
 20
185.3500826862975
 10
239.1554541031722
 20
185.8397943507798
 10
239.1161847715863
 20
186.089270104384
 10
239.1161847715863
 20
186.5997714149999
 10
239.1546578089098
 20
186.848808629735
 10
239.2270628842993
 20
187.0987229222083
 10
239.2986716654264
 20
187.345888715131
 10
239.4057198468884
 20
187.5687407332931
 10
239.5481474190306
 20
187.7663015591677
 10
239.6913649812849
 20
187.9649581777784
 10
239.8686747464151
 20
188.1276436800246
 10
240.0840582971433
 20
188.2490833416055
 10
240.3011946012062
 20
188.371511257726
 10
240.5460504334474
 20
188.4315702354455
 10
241.1766696995024
 20
188.4315702354455
 10
241.4721172585773
 20
188.3365769023392
 10
241.7148905382967
 20
188.1428251502555
 10
241.9551264491748
 20
187.9510984136893
 10
242.1353033823333
 20
187.6970027387221
 10
242.2554213377724
 20
187.3782281646723
 72
     1
 10
242.2554213377724
 20
187.3782281646723
 11
243.8839436182442
 21
188.0642864870838
 97
        0
 75
     0
 76
     1
 98
        0
  0
HATCH
  5
3C5
330
37E
100
AcDbEntity
  8
Default
  6
Continuous
 62
     7
100
AcDbHatch
 10
0.0
 20
0.0
 30
0.0
210
0.0
220
0.0
230
1.0
  2
SOLID
 70
     1
 71
     0
 91
        2
 92
        1
 93
        1
 72
     4
 94
        3
 73
     0
 74
     0
 95
       49
 96
       45
 40
0.0
 40
0.0
 40
0.0
 40
0.0
 40
0.0620905351842325
 40
0.0620905351842325
 40
0.0620905351842325
 40
0.1225274789213882
 40
0.1225274789213882
 40
0.1225274789213882
 40
0.1824107500595676
 40
0.1824107500595676
 40
0.1824107500595676
 40
0.2443092731117129
 40
0.2443092731117129
 40
0.3113899980938052
 40
0.3113899980938052
 40
0.3113899980938052
 40
0.373038281101099
 40
0.373038281101099
 40
0.4342493422430935
 40
0.4342493422430935
 40
0.4342493422430935
 40
0.5005101029271146
 40
0.5005101029271146
 40
0.5664827733472912
 40
0.5664827733472912
 40
0.5664827733472912
 40
0.6277456785228048
 40
0.6277456785228048
 40
0.6277456785228048
 40
0.6890483024008142
 40
0.6890483024008142
 40
0.6890483024008142
 40
0.7561017319004357
 40
0.7561017319004357
 40
0.8179750681339922
 40
0.8179750681339922
 40
0.8179750681339922
 40
0.8779262347345869
 40
0.8779262347345869
 40
0.8779262347345869
 40
0.9382003516792404
 40
0.9382003516792404
 40
0.9382003516792404
 40
1.0
 40
1.0
 40
1.0
 40
1.0
 10
248.4438060035654
 20
189.9492144032044
 10
247.9656441424906
 20
189.9469044425229
 10
247.5072164315149
 20
189.8665311947464
 10
247.0670694373792
 20
189.6997386496002
 10
246.6281769078904
 20
189.5334214805307
 10
246.2389407961124
 20
189.2988270091107
 10
245.9005392932115
 20
188.997510602418
 10
245.5632850337095
 20
188.6972157138204
 10
245.2957954536029
 20
188.335504780128
 10
245.0920530546794
 20
187.918758964148
 10
244.8887765147056
 20
187.5029660414744
 10
244.7871382447187
 20
187.0455938265333
 10
244.7871382447187
 20
186.0107314412123
 10
244.8803465126443
 20
185.521351265914
 10
245.0620235658196
 20
185.0775073258781
 10
245.2445104596597
 20
184.6316849143446
 10
245.4962961739454
 20
184.2482314412123
 10
246.1453951254526
 20
183.5991324897051
 10
246.530680710158
 20
183.3461490497318
 10
246.9792909314815
 20
183.1671698422608
 10
247.4251133430149
 20
182.9893028697837
 10
247.9125150468157
 20
182.8992144032044
 10
248.9727869996335
 20
182.8992144032044
 10
249.4629767181928
 20
182.9881138634896
 10
249.9083210756492
 20
183.1671698422608
 10
250.3564534478642
 20
183.3473467754193
 10
250.7410617834882
 20
183.5979940082417
 10
251.0609914557278
 20
183.9225269851179
 10
251.3820759904592
 20
184.2482314412123
 10
251.6330488643873
 20
184.6320193642835
 10
251.816348598585
 20
185.0775073258781
 10
251.9988354924251
 20
185.52101977673
 10
252.0889239590044
 20
186.0107314412123
 10
252.0889239590044
 20
187.0455938265333
 10
251.9868172819147
 20
187.5016305829262
 10
251.7863191097253
 20
187.918758964148
 10
251.585352530433
 20
188.3368618475032
 10
251.3129086463213
 20
188.694787784671
 10
250.9755229105116
 20
188.997510602418
 10
250.6382686510096
 20
189.3001154516972
 10
250.2509557040483
 20
189.5354457704455
 10
249.8136126877069
 20
189.6997386496002
 10
249.3770301188996
 20
189.8637458579882
 10
248.9196356399268
 20
189.9515130970999
 10
248.4438060035654
 20
189.9492144032044
 97
        0
 92
        1
 93
        1
 72
     4
 94
        3
 73
     0
 74
     0
 95
       47
 96
       43
 40
0.0
 40
0.0
 40
0.0
 40
0.0
 40
0.0637917384076936
 40
0.0637917384076936
 40
0.0637917384076936
 40
0.1265834997779105
 40
0.1265834997779105
 40
0.1893752611481285
 40
0.1893752611481285
 40
0.1893752611481285
 40
0.2604081010642026
 40
0.2604081010642026
 40
0.3159741129340349
 40
0.3159741129340349
 40
0.3159741129340349
 40
0.3751091105868485
 40
0.3751091105868485
 40
0.3751091105868485
 40
0.435995169879425
 40
0.435995169879425
 40
0.435995169879425
 40
0.4997689343159712
 40
0.4997689343159712
 40
0.5635426987525196
 40
0.5635426987525196
 40
0.5635426987525196
 40
0.624232315369434
 40
0.624232315369434
 40
0.624232315369434
 40
0.6835869381889372
 40
0.6835869381889372
 40
0.6835869381889372
 40
0.7357943705008892
 40
0.7357943705008892
 40
0.8025337685079206
 40
0.8025337685079206
 40
0.8692731665149518
 40
0.8692731665149518
 40
0.9360125645219831
 40
0.9360125645219831
 40
0.9360125645219831
 40
1.0
 40
1.0
 40
1.0
 40
1.0
 10
248.4438060035654
 20
184.5693159759436
 10
248.7025215998956
 20
184.5693159759436
 10
248.9450674714552
 20
184.620135110937
 10
249.1691336575627
 20
184.7194634202424
 10
249.3951304192655
 20
184.8196475517189
 10
249.5941664229625
 20
184.9550794097575
 10
249.9314206824644
 20
185.3061934333486
 10
250.0653984019926
 20
185.5140898946854
 10
250.160106789935
 20
185.752015844882
 10
250.2551311293749
 20
185.9907355268896
 10
250.3056343128707
 20
186.2509673520904
 10
250.3056343128707
 20
186.7614686627064
 10
250.2571251385588
 20
186.9809149274508
 10
250.160106789935
 20
187.1934313101507
 10
250.0643595068875
 20
187.4031634539689
 10
249.9314206824644
 20
187.5907445473721
 10
249.7627935527134
 20
187.7547517557601
 10
249.5953209577949
 20
187.9176360604069
 10
249.3955098043517
 20
188.0458068016317
 10
249.1691336575627
 20
188.140515189574
 10
248.9439009259591
 20
188.2347452099388
 10
248.7025215998956
 20
188.2860427125098
 10
248.1850904072351
 20
188.2860427125098
 10
247.9425445356754
 20
188.2375335381978
 10
247.7161683888864
 20
188.140515189574
 10
247.4925801256786
 20
188.0446916481992
 10
247.2934455841682
 20
187.9164490034665
 10
247.1248184544172
 20
187.7547517557601
 10
246.9550373605366
 20
187.5919479671074
 10
246.8222136051381
 20
187.403637732169
 10
246.7228852958327
 20
187.1934313101507
 10
246.622664698655
 20
186.9813365579839
 10
246.5727378515339
 20
186.7614686627064
 10
246.5727378515339
 20
186.2509673520904
 10
246.6235569865273
 20
185.9899417950786
 10
246.8222136051381
 20
185.5140898946854
 10
246.9561913246663
 20
185.3061934333486
 10
247.2934455841682
 20
184.9550794097575
 10
247.492102202779
 20
184.8187917295478
 10
247.7161683888864
 20
184.7194634202424
 10
247.9421651505893
 20
184.6192792887659
 10
248.1850904072351
 20
184.5693159759436
 10
248.4438060035654
 20
184.5693159759436
 97
        0
 75
     0
 76
     1
 98
        0
  0
HATCH
  5
3C6
330
37E
100
AcDbEntity
  8
Default
  6
Continuous
 62
     7
100
AcDbHatch
 10
0.0
 20
0.0
 30
0.0
210
0.0
220
0.0
230
1.0
  2
SOLID
 70
     1
 71
     0
 91
        1
 92
        1
 93
        4
 72
     1
 10
255.0710831988471
 20
185.7035066705701
 11
255.0710831988471
 21
187.1610918606094
 72
     1
 10
255.0710831988471
 20
187.1610918606094
 11
252.9366795291224
 21
187.1610918606094
 72
     1
 10
252.9366795291224
 20
187.1610918606094
 11
252.9366795291224
 21
185.70350667057
 72
     1
 10
252.9366795291224
 20
185.70350667057
 11
255.0710831988471
 21
185.7035066705701
 97
        0
 75
     0
 76
     1
 98
        0
  0
HATCH
  5
3C7
330
37E
100
AcDbEntity
  8
Default
  6
Continuous
 62
     7
100
AcDbHatch
 10
0.0
 20
0.0
 30
0.0
210
0.0
220
0.0
230
1.0
  2
SOLID
 70
     1
 71
     0
 91
        1
 92
        1
 93
        9
 72
     4
 94
        3
 73
     0
 74
     0
 95
       16
 96
       12
 40
0.0
 40
0.0
 40
0.0
 40
0.0
 40
0.3396620468027166
 40
0.3396620468027166
 40
0.3396620468027166
 40
0.3623316833330921
 40
0.3623316833330921
 40
0.3840945344022499
 40
0.3840945344022499
 40
0.3840945344022499
 40
1.0
 40
1.0
 40
1.0
 40
1.0
 10
259.5870563312193
 20
189.7112884530078
 10
258.42822605599
 20
189.7112884530078
 10
257.2693957807606
 20
189.7112884530078
 10
256.1105655055312
 20
189.7112884530078
 10
256.0297168816781
 20
189.7112884530078
 10
255.962728021914
 20
189.6835689248296
 10
255.8495399485194
 20
189.5703808514351
 10
255.8218204203412
 20
189.503391991671
 10
255.8218204203412
 20
189.4225433678178
 10
255.8218204203412
 20
187.3212491345281
 10
255.8218204203412
 20
185.2199549012385
 10
255.8218204203412
 20
183.1186606679488
 72
     1
 10
255.8218204203412
 20
183.1186606679488
 11
257.5404311673923
 21
183.1186606679488
 72
     1
 10
257.5404311673923
 20
183.1186606679488
 11
257.5404311673923
 21
185.7035066705701
 72
     1
 10
257.5404311673923
 20
185.7035066705701
 11
259.4877280219139
 21
185.7035066705701
 72
     1
 10
259.4877280219139
 20
185.7035066705701
 11
259.4877280219139
 21
187.1610918606094
 72
     1
 10
259.4877280219139
 20
187.1610918606094
 11
257.5404311673923
 21
187.1610918606094
 72
     1
 10
257.5404311673923
 20
187.1610918606094
 11
257.5404311673923
 21
188.260633145013
 72
     1
 10
257.5404311673923
 20
188.260633145013
 11
259.5870563312194
 21
188.260633145013
 72
     1
 10
259.5870563312193
 20
188.260633145013
 11
259.5870563312193
 21
189.7112884530078
 97
        0
 75
     0
 76
     1
 98
        0
  0
HATCH
  5
3C8
330
37E
100
AcDbEntity
  8
Default
  6
Continuous
 62
     7
100
AcDbHatch
 10
0.0
 20
0.0
 30
0.0
210
0.0
220
0.0
230
1.0
  2
SOLID
 70
     1
 71
     0
 91
        1
 92
        1
 93
        4
 72
     4
 94
        3
 73
     0
 74
     0
 95
       14
 96
       10
 40
0.0
 40
0.0
 40
0.0
 40
0.0
 40
0.7580098693161609
 40
0.7580098693161609
 40
0.7580098693161609
 40
0.8789822868889446
 40
0.8789822868889446
 40
0.8789822868889446
 40
1.0
 40
1.0
 40
1.0
 40
1.0
 10
262.1857620979297
 20
189.7274581777785
 10
261.7114501713242
 20
189.7274581777785
 10
261.2371382447187
 20
189.7274581777785
 10
260.7628263181132
 20
189.7274581777785
 10
260.68197769426
 20
189.7274581777785
 10
260.6172507110666
 20
189.6973825281723
 10
260.5595497781394
 20
189.6419896325622
 10
260.5018007611014
 20
189.5865505762057
 10
260.4740812329231
 20
189.5195617164416
 10
260.4740812329231
 20
189.4387130925884
 72
     1
 10
260.4740812329231
 20
189.4387130925884
 11
260.4740812329231
 21
183.1186606679488
 72
     1
 10
260.4740812329231
 20
183.1186606679488
 11
262.1857620979297
 21
183.1186606679488
 72
     1
 10
262.1857620979297
 20
183.1186606679488
 11
262.1857620979297
 21
189.7274581777785
 97
        0
 75
     0
 76
     1
 98
        0
  0
HATCH
  5
3C9
330
37E
100
AcDbEntity
  8
Default
  6
Continuous
 62
     7
100
AcDbHatch
 10
0.0
 20
0.0
 30
0.0
210
0.0
220
0.0
230
1.0
  2
SOLID
 70
     1
 71
     0
 91
        1
 92
        1
 93
       12
 72
     1
 10
266.2235733692272
 20
188.0042275093643
 11
265.2095006300398
 21
189.7112884530078
 72
     1
 10
265.2095006300398
 20
189.7112884530078
 11
263.1051264491747
 21
189.7112884530078
 72
     1
 10
263.1051264491747
 20
189.7112884530078
 11
265.2095006300398
 21
186.6436606679488
 72
     1
 10
265.2095006300398
 20
186.6436606679488
 11
262.6269645881001
 21
183.1186606679488
 72
     1
 10
262.6269645881001
 20
183.1186606679488
 11
264.7036192407868
 21
183.1186606679488
 72
     1
 10
264.7036192407868
 20
183.1186606679488
 11
266.2235733692272
 21
185.2646141410812
 72
     1
 10
266.2235733692272
 20
185.2646141410812
 11
267.2561257938668
 21
183.6453317033355
 72
     1
 10
267.2561257938668
 20
183.6453317033355
 11
268.2886782185064
 21
185.1144666967824
 72
     1
 10
268.2886782185064
 20
185.1144666967824
 11
267.226096305007
 21
186.6436606679488
 72
     1
 10
267.226096305007
 20
186.6436606679488
 11
269.3420202892797
 21
189.7112884530078
 72
     1
 10
269.3420202892797
 20
189.7112884530078
 11
267.226096305007
 21
189.7112884530078
 72
     1
 10
267.226096305007
 20
189.7112884530078
 11
266.2235733692272
 21
188.0042275093643
 97
        0
 75
     0
 76
     1
 98
        0
  0
HATCH
  5
3CA
330
37E
100
AcDbEntity
  8
Default
  6
Continuous
 62
     7
100
AcDbHatch
 10
0.0
 20
0.0
 30
0.0
210
0.0
220
0.0
230
1.0
  2
SOLID
 70
     1
 71
     0
 91
        1
 92
        1
 93
        3
 72
     4
 94
        3
 73
     0
 74
     0
 95
       13
 96
        9
 40
0.0
 40
0.0
 40
0.0
 40
0.0
 40
0.0445094381088423
 40
0.0445094381088423
 40
0.0908355879772283
 40
0.0908355879772283
 40
0.0908355879772283
 40
1.0
 40
1.0
 40
1.0
 40
1.0
 10
272.7122529236178
 20
189.5334214805307
 10
272.6198544963569
 20
189.6512294752883
 10
272.5159062656886
 20
189.7112884530078
 10
272.2849101975365
 20
189.7112884530078
 10
272.1870447473536
 20
189.6501983627819
 10
272.1047332643779
 20
189.5334214805307
 10
270.697967209332
 20
187.5376154516972
 10
269.2912011542862
 20
185.5418094228636
 10
267.8844350992403
 20
183.5460033940301
 72
     4
 94
        3
 73
     0
 74
     0
 95
       11
 96
        7
 40
0.0
 40
0.0
 40
0.0
 40
0.0
 40
0.3439066424360135
 40
0.3439066424360135
 40
0.3439066424360135
 40
1.0
 40
1.0
 40
1.0
 40
1.0
 10
267.8844350992403
 20
183.5460033940301
 10
267.8313060035653
 20
183.4605348488138
 10
267.8027439506852
 20
183.3911859889177
 10
267.8035864753871
 20
183.3381069326933
 10
267.8058964360686
 20
183.1925794097575
 10
267.9075347060556
 20
183.1186606679488
 10
268.1131212067108
 20
183.1186606679488
 72
     4
 94
        3
 73
     0
 74
     0
 95
       16
 96
       12
 40
0.0
 40
0.0
 40
0.0
 40
0.0
 40
0.5188870924081099
 40
0.5188870924081099
 40
0.5188870924081099
 40
0.544909989588877
 40
0.544909989588877
 40
0.5581347406151689
 40
0.5581347406151689
 40
0.5581347406151689
 40
1.0
 40
1.0
 40
1.0
 40
1.0
 10
268.1131212067108
 20
183.1186606679488
 10
270.9805523993713
 20
183.1186606679488
 10
273.8479835920319
 20
183.1186606679488
 10
276.7154147846925
 20
183.1186606679488
 10
276.9140714033032
 20
183.1186606679488
 10
277.0133997126086
 20
183.1879594883945
 10
277.0133997126086
 20
183.4004758710943
 10
276.9849943017649
 20
183.4716012002038
 10
276.9325510887554
 20
183.5460033940301
 10
275.5257850337095
 20
185.5418094228636
 10
274.1190189786636
 20
187.5376154516972
 10
272.7122529236178
 20
189.5334214805307
 97
        0
 75
     0
 76
     1
 98
        0
  0
ENDBLK
  5
3CC
330
37E
100
AcDbEntity
  8
0
100
AcDbBlockEnd
  0
ENDSEC
  0
SECTION
  2
ENTITIES
  0
INSERT
  5
41
330
1F
100
AcDbEntity
  8
Default
100
AcDbBlockReference
  2
SE
 10
0.0
 20
0.0
 30
0.0
  0
DIMENSION
  5
341
330
1F
100
AcDbEntity
  8
Default
  6
Continuous
 62
     7
100
AcDbDimension
  2
DMBLK371
 10
165.4945532719
 20
176.9286182707
 30
0.0
 11
165.4945532719
 21
116.9286169296
 31
0.0
 70
   160
  1
\A1;<>
 71
     5
 42
-1.0
  3
DIN
100
AcDbAlignedDimension
 13
147.3655770461
 23
56.9286182707
 33
0.0
 14
141.0130948778
 24
176.9286182707
 34
0.0
 50
90.0
100
AcDbRotatedDimension
  0
DIMENSION
  5
34B
330
1F
100
AcDbEntity
  8
Default
  6
Continuous
 62
     7
100
AcDbDimension
  2
DMBLK372
 10
165.4945528221
 20
176.9286182707
 30
0.0
 11
165.4945528221
 21
188.4881444348
 31
0.0
 70
   160
  1
\A1;<>
 71
     5
 42
-1.0
  3
DIN
100
AcDbAlignedDimension
 13
150.0293780204
 23
181.4286182707
 33
0.0
 14
141.0130948778
 24
176.9286182707
 34
0.0
 50
90.0
100
AcDbRotatedDimension
  0
DIMENSION
  5
355
330
1F
100
AcDbEntity
  8
Default
  6
Continuous
 62
     7
100
AcDbDimension
  2
DMBLK373
 10
152.0130948778
 20
189.567314494
 30
0.0
 11
141.0130948182
 21
189.567314494
 31
0.0
 70
   160
  1
\A1;%%C <>
 71
     5
 42
-1.0
  3
DIN
100
AcDbAlignedDimension
 13
130.0130948778
 23
180.1101137284
 33
0.0
 14
152.0130948778
 24
179.9333188091
 34
0.0
100
AcDbRotatedDimension
  0
DIMENSION
  5
361
330
1F
100
AcDbEntity
  8
Default
  6
Continuous
 62
     7
100
AcDbDimension
  2
DMBLK374
 10
130.0130948778
 20
46.5679378694
 30
0.0
 11
141.0130948182
 21
46.5679378694
 31
0.0
 70
   161
  1
\A1;%%C <>
 71
     5
 42
-1.0
  3
DIN
100
AcDbAlignedDimension
 13
130.0130948778
 23
78.9286182707
 33
0.0
 14
152.0130948778
 24
78.9286182707
 34
0.0
  0
INSERT
  5
3CD
330
1F
100
AcDbEntity
  8
Default
 62
     7
100
AcDbBlockReference
  2
RF-Massblatt_2016
 10
0.0
 20
0.0
 30
0.0
  0
ENDSEC
  0
SECTION
  2
OBJECTS
  0
DICTIONARY
  5
C
330
0
100
AcDbDictionary
281
     1
  3
ACAD_GROUP
350
D
  3
ACAD_LAYOUT
350
1A
  3
ACAD_MATERIAL
350
3B
  3
ACAD_MLEADERSTYLE
350
3D0
  3
ACAD_MLINESTYLE
350
17
  3
ACAD_PLOTSETTINGS
350
19
  3
ACAD_PLOTSTYLENAME
350
E
  3
ACAD_VISUALSTYLE
350
2A
  3
AcDbVariableDictionary
350
3CE
  0
DICTIONARY
  5
3D5
330
37F
100
AcDbDictionary
280
     1
281
     1
  3
ACAD_MTEXT_RT
360
3D6
  0
DICTIONARY
  5
3D7
330
380
100
AcDbDictionary
280
     1
281
     1
  3
ACAD_MTEXT_RT
360
3D8
  0
DICTIONARY
  5
3D9
330
383
100
AcDbDictionary
280
     1
281
     1
  3
ACAD_MTEXT_RT
360
3DA
  0
DICTIONARY
  5
D
102
{ACAD_REACTORS
330
C
102
}
330
C
100
AcDbDictionary
281
     1
  0
DICTIONARY
  5
1A
102
{ACAD_REACTORS
330
C
102
}
330
C
100
AcDbDictionary
281
     1
  3
Layout1
350
1E
  3
Model
350
22
  0
DICTIONARY
  5
3B
102
{ACAD_REACTORS
330
C
102
}
330
C
100
AcDbDictionary
281
     1
  3
ByBlock
350
3D
  3
ByLayer
350
3C
  3
Global
350
3E
  0
DICTIONARY
  5
3D0
102
{ACAD_REACTORS
330
C
102
}
330
C
100
AcDbDictionary
281
     1
  0
DICTIONARY
  5
17
102
{ACAD_REACTORS
330
C
102
}
330
C
100
AcDbDictionary
281
     1
  3
Standard
350
18
  0
DICTIONARY
  5
19
102
{ACAD_REACTORS
330
C
102
}
330
C
100
AcDbDictionary
281
     1
  0
ACDBDICTIONARYWDFLT
  5
E
102
{ACAD_REACTORS
330
C
102
}
330
C
100
AcDbDictionary
281
     1
  3
Normal
350
F
100
AcDbDictionaryWithDefault
340
F
  0
DICTIONARY
  5
2A
102
{ACAD_REACTORS
330
C
102
}
330
C
100
AcDbDictionary
281
     1
  3
2dWireframe
350
2F
  3
3D Hidden
350
31
  3
3dWireframe
350
30
  3
Basic
350
32
  3
Brighten
350
36
  3
ColorChange
350
3A
  3
Conceptual
350
34
  3
Dim
350
35
  3
Facepattern
350
39
  3
Flat
350
2B
  3
FlatWithEdges
350
2C
  3
Gouraud
350
2D
  3
GouraudWithEdges
350
2E
  3
Linepattern
350
38
  3
Realistic
350
33
  3
Thicken
350
37
  0
DICTIONARY
  5
3CE
102
{ACAD_REACTORS
330
C
102
}
330
C
100
AcDbDictionary
281
     1
  3
DIMASSOC
350
3D3
  3
HIDETEXT
350
3D4
  3
PSOLHEIGHT
350
3D2
  3
PSOLWIDTH
350
3D1
  0
XRECORD
  5
3D6
102
{ACAD_REACTORS
330
3D5
102
}
330
3D5
100
AcDbXrecord
280
     1
 40
10118767.0
  1
\pxsm1.;{\fVectora Com 45 Light|b1||i0||c0|p34;\C7;\H2.5;\W1.;REGO-FIX AG\P}{\fVectora Com 45 Light|b0||i0||c0|p34;\C7;\H2.5;\W1.;Obermattweg 60\P}{\fVectora Com 45 Light|b0||i0||c0|p34;\C7;\H2.5;\W1.;4456 Tenniken / Switzerland\P}{\fVectora Com 45 L
  1
ight|b0||i0||c0|p34;\C7;\H2.5;\W1.;\P}{\fVectora Com 45 Light|b0||i0||c0|p34;\C7;\H2.5;\W1.;P +41 61 976 14 66\P}{\fVectora Com 45 Light|b0||i0||c0|p34;\C7;\H2.5;\W1.;F +41 61 976 14 14\P}{\fVectora Com 45 Light|b1||i0||c0|p34;\C7;\H2.5;\W1.;www.rego
  1
-fix.com}
  0
XRECORD
  5
3D8
102
{ACAD_REACTORS
330
3D7
102
}
330
3D7
100
AcDbXrecord
280
     1
 40
47111022.0
  1
\pxsm1.;{\fSolid Edge ISO|b0||i0||c0|p34;\C7;\H2.;\W1.;This is a non-controlled copy. All information given herein is subject to change without notice\P}{\fSolid Edge ISO|b0||i0||c0|p34;\C7;\H2.;\W1.;\P}{\fSolid Edge ISO|b0||i0||c0|p34;\C7;\H2.;\W1.;
  1
The information given herein has been carefully checked and is believed to be correct. REGO-FIX,\P}{\fSolid Edge ISO|b0||i0||c0|p34;\C7;\H2.;\W1.;however, assumes no responsibility or liability for any errors, inaccuracies or omissions that may appea
  1
r\P}{\fSolid Edge ISO|b0||i0||c0|p34;\C7;\H2.;\W1.;in this drawing\P}{\fSolid Edge ISO|b0||i0||c0|p34;\C7;\H2.;\W1.;\P}{\fSolid Edge ISO|b0||i0||c0|p34;\C7;\H2.;\W1.;This document is subject to copyright laws. No part of this document may be reproduc
  1
ed or transmitted\P}{\fSolid Edge ISO|b0||i0||c0|p34;\C7;\H2.;\W1.;in any form or any means, electronic or mechanic, for any purpose, without the express written permission\P}{\fSolid Edge ISO|b0||i0||c0|p34;\C7;\H2.;\W1.;of REGO-FIX\P}{\fSolid Edge 
  1
ISO|b0||i0||c0|p34;\C7;\H1.5;\W1.;\P}
  0
XRECORD
  5
3DA
102
{ACAD_REACTORS
330
3D9
102
}
330
3D9
100
AcDbXrecord
280
     1
 40
2697483.0
  1
\pxsm1.;{\fVectora Com 45 Light|b0||i0||c0|p34;\C7;\H3.5;\W1.;Type :\P}{\fVectora Com 45 Light|b0||i0||c0|p34;\C7;\H3.5;\W1.;Part No. :\P}{\fVectora Com 45 Light|b0||i0||c0|p34;\C7;\H3.5;\W1.;Date : \P}{\fVectora Com 45 Light|b0||i0||c0|p34;\C7;\H3.5
  1
;\W1.;Scale :}
  0
LAYOUT
  5
1E
102
{ACAD_REACTORS
330
1A
102
}
330
1A
100
AcDbPlotSettings
  1

  2
none_device
  4

  6

 40
0.0
 41
0.0
 42
0.0
 43
0.0
 44
0.0
 45
0.0
 46
0.0
 47
0.0
 48
0.0
 49
0.0
140
0.0
141
0.0
142
1.0
143
1.0
 70
   688
 72
     0
 73
     0
 74
     5
  7

 75
    16
147
1.0
148
0.0
149
0.0
100
AcDbLayout
  1
Layout1
 70
     1
 71
     1
 10
0.0
 20
0.0
 11
297.0
 21
210.0
 12
0.0
 22
0.0
 32
0.0
 14
0.0
 24
0.0
 34
0.0
 15
297.0
 25
210.0
 35
0.0
146
0.0
 13
0.0
 23
0.0
 33
0.0
 16
1.0
 26
0.0
 36
0.0
 17
0.0
 27
1.0
 37
0.0
 76
     0
330
1B
  0
LAYOUT
  5
22
102
{ACAD_REACTORS
330
1A
102
}
330
1A
100
AcDbPlotSettings
  1

  2
none_device
  4

  6

 40
0.0
 41
0.0
 42
0.0
 43
0.0
 44
0.0
 45
0.0
 46
0.0
 47
0.0
 48
0.0
 49
0.0
140
0.0
141
0.0
142
1.0
143
1.0
 70
  1712
 72
     0
 73
     0
 74
     0
  7

 75
     0
147
1.0
148
0.0
149
0.0
100
AcDbLayout
  1
Model
 70
     1
 71
     0
 10
0.0
 20
0.0
 11
297.0
 21
210.0
 12
0.0
 22
0.0
 32
0.0
 14
0.0
 24
0.0
 34
0.0
 15
297.0
 25
210.0
 35
0.0
146
0.0
 13
0.0
 23
0.0
 33
0.0
 16
1.0
 26
0.0
 36
0.0
 17
0.0
 27
1.0
 37
0.0
 76
     0
330
1F
331
29
  0
MATERIAL
  5
3D
102
{ACAD_REACTORS
330
3B
102
}
102
{ACAD_XDICTIONARY
360
3FD
102
}
330
3B
100
AcDbMaterial
  1
ByBlock
  0
MATERIAL
  5
3C
102
{ACAD_REACTORS
330
3B
102
}
102
{ACAD_XDICTIONARY
360
3FB
102
}
330
3B
100
AcDbMaterial
  1
ByLayer
  0
MATERIAL
  5
3E
102
{ACAD_REACTORS
330
3B
102
}
102
{ACAD_XDICTIONARY
360
3FF
102
}
330
3B
100
AcDbMaterial
  1
Global
  0
MLINESTYLE
  5
18
102
{ACAD_REACTORS
330
17
102
}
330
17
100
AcDbMlineStyle
  2
Standard
 70
     0
  3

 62
   256
 51
90.0
 52
90.0
 71
     2
 49
0.5
 62
   256
  6
BYLAYER
 49
-0.5
 62
   256
  6
BYLAYER
  0
ACDBPLACEHOLDER
  5
F
102
{ACAD_REACTORS
330
E
102
}
330
E
  0
VISUALSTYLE
  5
2F
102
{ACAD_REACTORS
330
2A
102
}
102
{ACAD_XDICTIONARY
360
3E3
102
}
330
2A
100
AcDbVisualStyle
  2
2dWireframe
 70
     4
 71
     0
 72
     2
 73
     0
 90
        0
 40
-0.6
 41
-30.0
 62
     5
 63
     7
 74
     1
 91
        4
 64
     7
 65
   257
 75
     1
175
     1
 42
1.0
 92
        0
 66
   257
 43
1.0
 76
     1
 77
     6
 78
     2
 67
     7
 79
     5
170
     0
171
     0
290
     0
174
     0
 93
        1
 44
0.0
173
     0
291
     0
 45
0.0
1001
ACAD
1000
AcDbSavedByObjectVersion
1070
     0
  0
VISUALSTYLE
  5
31
102
{ACAD_REACTORS
330
2A
102
}
102
{ACAD_XDICTIONARY
360
3E7
102
}
330
2A
100
AcDbVisualStyle
  2
3D Hidden
 70
     6
 71
     1
 72
     2
 73
     2
 90
        0
 40
-0.6
 41
-30.0
 62
     5
 63
     7
 74
     2
 91
        2
 64
     7
 65
   257
 75
     2
175
     1
 42
40.0
 92
        0
 66
   257
 43
1.0
 76
     1
 77
     6
 78
     2
 67
     7
 79
     3
170
     0
171
     0
290
     0
174
     0
 93
        1
 44
0.0
173
     0
291
     0
 45
0.0
1001
ACAD
1000
AcDbSavedByObjectVersion
1070
     0
  0
VISUALSTYLE
  5
30
102
{ACAD_REACTORS
330
2A
102
}
102
{ACAD_XDICTIONARY
360
3E5
102
}
330
2A
100
AcDbVisualStyle
  2
3dWireframe
 70
     5
 71
     0
 72
     2
 73
     0
 90
        0
 40
-0.6
 41
-30.0
 62
     5
 63
     7
 74
     1
 91
        4
 64
     7
 65
   257
 75
     1
175
     1
 42
1.0
 92
        0
 66
   257
 43
1.0
 76
     1
 77
     6
 78
     2
 67
     7
 79
     5
170
     0
171
     0
290
     0
174
     0
 93
        1
 44
0.0
173
     0
291
     0
 45
0.0
1001
ACAD
1000
AcDbSavedByObjectVersion
1070
     0
  0
VISUALSTYLE
  5
32
102
{ACAD_REACTORS
330
2A
102
}
102
{ACAD_XDICTIONARY
360
3E9
102
}
330
2A
100
AcDbVisualStyle
  2
Basic
 70
     7
 71
     1
 72
     0
 73
     1
 90
        0
 40
-0.6
 41
-30.0
 62
     5
 63
     7
 74
     0
 91
        4
 64
     7
 65
   257
 75
     1
175
     1
 42
1.0
 92
        8
 66
     7
 43
1.0
 76
     1
 77
     6
 78
     2
 67
     7
 79
     5
170
     0
171
     0
290
     0
174
     0
 93
        1
 44
0.0
173
     0
291
     1
 45
0.0
1001
ACAD
1000
AcDbSavedByObjectVersion
1070
     0
  0
VISUALSTYLE
  5
36
102
{ACAD_REACTORS
330
2A
102
}
102
{ACAD_XDICTIONARY
360
3F1
102
}
330
2A
100
AcDbVisualStyle
  2
Brighten
 70
    12
 71
     2
 72
     2
 73
     0
 90
        0
 40
-0.6
 41
-30.0
 62
     5
 63
     7
 74
     1
 91
        4
 64
     7
 65
   257
 75
     1
175
     1
 42
1.0
 92
        8
 66
     7
 43
1.0
 76
     1
 77
     6
 78
     2
 67
     7
 79
     5
170
     0
171
     0
290
     0
174
     0
 93
        1
 44
50.0
173
     0
291
     1
 45
0.0
1001
ACAD
1000
AcDbSavedByObjectVersion
1070
     0
  0
VISUALSTYLE
  5
3A
102
{ACAD_REACTORS
330
2A
102
}
102
{ACAD_XDICTIONARY
360
3F9
102
}
330
2A
100
AcDbVisualStyle
  2
ColorChange
 70
    16
 71
     2
 72
     2
 73
     3
 90
        0
 40
-0.6
 41
-30.0
 62
     5
 63
     8
 74
     1
 91
        4
 64
     7
 65
   257
 75
     1
175
     1
 42
1.0
 92
        8
 66
     8
 43
1.0
 76
     1
 77
     6
 78
     2
 67
     7
 79
     5
170
     0
171
     0
290
     0
174
     0
 93
        1
 44
0.0
173
     0
291
     1
 45
0.0
1001
ACAD
1000
AcDbSavedByObjectVersion
1070
     0
  0
VISUALSTYLE
  5
34
102
{ACAD_REACTORS
330
2A
102
}
102
{ACAD_XDICTIONARY
360
3ED
102
}
330
2A
100
AcDbVisualStyle
  2
Conceptual
 70
     9
 71
     3
 72
     2
 73
     0
 90
        0
 40
-0.6
 41
-30.0
 62
     5
 63
     7
 74
     2
 91
        2
 64
     7
 65
   257
 75
     1
175
     1
 42
40.0
 92
        8
 66
     7
 43
1.0
 76
     1
 77
     6
 78
     2
 67
     7
 79
     3
170
     0
171
     0
290
     0
174
     0
 93
        1
 44
0.0
173
     0
291
     0
 45
0.0
1001
ACAD
1000
AcDbSavedByObjectVersion
1070
     0
  0
VISUALSTYLE
  5
35
102
{ACAD_REACTORS
330
2A
102
}
102
{ACAD_XDICTIONARY
360
3EF
102
}
330
2A
100
AcDbVisualStyle
  2
Dim
 70
    11
 71
     2
 72
     2
 73
     0
 90
        0
 40
-0.6
 41
-30.0
 62
     5
 63
     7
 74
     1
 91
        4
 64
     7
 65
   257
 75
     1
175
     1
 42
1.0
 92
        8
 66
     7
 43
1.0
 76
     1
 77
     6
 78
     2
 67
     7
 79
     5
170
     0
171
     0
290
     0
174
     0
 93
        1
 44
-50.0
173
     0
291
     1
 45
0.0
1001
ACAD
1000
AcDbSavedByObjectVersion
1070
     0
  0
VISUALSTYLE
  5
39
102
{ACAD_REACTORS
330
2A
102
}
102
{ACAD_XDICTIONARY
360
3F7
102
}
330
2A
100
AcDbVisualStyle
  2
Facepattern
 70
    15
 71
     2
 72
     2
 73
     0
 90
        0
 40
-0.6
 41
-30.0
 62
     5
 63
     7
 74
     1
 91
        4
 64
     7
 65
   257
 75
     1
175
     1
 42
1.0
 92
        8
 66
     7
 43
1.0
 76
     1
 77
     6
 78
     2
 67
     7
 79
     5
170
     0
171
     0
290
     0
174
     0
 93
        1
 44
0.0
173
     0
291
     1
 45
0.0
1001
ACAD
1000
AcDbSavedByObjectVersion
1070
     0
  0
VISUALSTYLE
  5
2B
102
{ACAD_REACTORS
330
2A
102
}
102
{ACAD_XDICTIONARY
360
3DB
102
}
330
2A
100
AcDbVisualStyle
  2
Flat
 70
     0
 71
     2
 72
     1
 73
     1
 90
        2
 40
-0.6
 41
30.0
 62
     5
 63
     7
 74
     0
 91
        4
 64
     7
 65
   257
 75
     1
175
     1
 42
1.0
 92
        8
 66
     7
 43
1.0
 76
     1
 77
     6
 78
     2
 67
     7
 79
     5
170
     0
171
     0
290
     0
174
     0
 93
       13
 44
0.0
173
     0
291
     1
 45
0.0
1001
ACAD
1000
AcDbSavedByObjectVersion
1070
     0
  0
VISUALSTYLE
  5
2C
102
{ACAD_REACTORS
330
2A
102
}
102
{ACAD_XDICTIONARY
360
3DD
102
}
330
2A
100
AcDbVisualStyle
  2
FlatWithEdges
 70
     1
 71
     2
 72
     1
 73
     1
 90
        2
 40
-0.6
 41
30.0
 62
     5
 63
     7
 74
     1
 91
        4
 64
     7
 65
   257
 75
     1
175
     1
 42
1.0
 92
        0
 66
   257
 43
1.0
 76
     1
 77
     6
 78
     2
 67
     7
 79
     5
170
     0
171
     0
290
     0
174
     0
 93
       13
 44
0.0
173
     0
291
     1
 45
0.0
1001
ACAD
1000
AcDbSavedByObjectVersion
1070
     0
  0
VISUALSTYLE
  5
2D
102
{ACAD_REACTORS
330
2A
102
}
102
{ACAD_XDICTIONARY
360
3DF
102
}
330
2A
100
AcDbVisualStyle
  2
Gouraud
 70
     2
 71
     2
 72
     2
 73
     1
 90
        2
 40
-0.6
 41
30.0
 62
     5
 63
     7
 74
     0
 91
        4
 64
     7
 65
   257
 75
     1
175
     1
 42
1.0
 92
        0
 66
     7
 43
1.0
 76
     1
 77
     6
 78
     2
 67
     7
 79
     5
170
     0
171
     0
290
     0
174
     0
 93
       13
 44
0.0
173
     0
291
     1
 45
0.0
1001
ACAD
1000
AcDbSavedByObjectVersion
1070
     0
  0
VISUALSTYLE
  5
2E
102
{ACAD_REACTORS
330
2A
102
}
102
{ACAD_XDICTIONARY
360
3E1
102
}
330
2A
100
AcDbVisualStyle
  2
GouraudWithEdges
 70
     3
 71
     2
 72
     2
 73
     1
 90
        2
 40
-0.6
 41
30.0
 62
     5
 63
     7
 74
     1
 91
        4
 64
     7
 65
   257
 75
     1
175
     1
 42
1.0
 92
        0
 66
   257
 43
1.0
 76
     1
 77
     6
 78
     2
 67
     7
 79
     5
170
     0
171
     0
290
     0
174
     0
 93
       13
 44
0.0
173
     0
291
     1
 45
0.0
1001
ACAD
1000
AcDbSavedByObjectVersion
1070
     0
  0
VISUALSTYLE
  5
38
102
{ACAD_REACTORS
330
2A
102
}
102
{ACAD_XDICTIONARY
360
3F5
102
}
330
2A
100
AcDbVisualStyle
  2
Linepattern
 70
    14
 71
     2
 72
     2
 73
     0
 90
        0
 40
-0.6
 41
-30.0
 62
     5
 63
     7
 74
     1
 91
        4
 64
     7
 65
   257
 75
     7
175
     7
 42
1.0
 92
        8
 66
     7
 43
1.0
 76
     1
 77
     6
 78
     2
 67
     7
 79
     5
170
     0
171
     0
290
     0
174
     0
 93
        1
 44
0.0
173
     0
291
     1
 45
0.0
1001
ACAD
1000
AcDbSavedByObjectVersion
1070
     0
  0
VISUALSTYLE
  5
33
102
{ACAD_REACTORS
330
2A
102
}
102
{ACAD_XDICTIONARY
360
3EB
102
}
330
2A
100
AcDbVisualStyle
  2
Realistic
 70
     8
 71
     2
 72
     2
 73
     0
 90
        0
 40
-0.6
 41
-30.0
 62
     5
 63
     7
 74
     1
 91
        0
 64
     7
 65
   257
 75
     1
175
     1
 42
1.0
 92
        8
 66
     8
 43
1.0
 76
     1
 77
     6
 78
     2
 67
     7
 79
     5
170
     0
171
     0
290
     0
174
     0
 93
       13
 44
0.0
173
     0
291
     0
 45
0.0
1001
ACAD
1000
AcDbSavedByObjectVersion
1070
     0
  0
VISUALSTYLE
  5
37
102
{ACAD_REACTORS
330
2A
102
}
102
{ACAD_XDICTIONARY
360
3F3
102
}
330
2A
100
AcDbVisualStyle
  2
Thicken
 70
    13
 71
     2
 72
     2
 73
     0
 90
        0
 40
-0.6
 41
-30.0
 62
     5
 63
     7
 74
     1
 91
        4
 64
     7
 65
   257
 75
     1
175
     1
 42
1.0
 92
       12
 66
     7
 43
1.0
 76
     1
 77
     6
 78
     2
 67
     7
 79
     5
170
     0
171
     0
290
     0
174
     0
 93
        1
 44
0.0
173
     0
291
     1
 45
0.0
1001
ACAD
1000
AcDbSavedByObjectVersion
1070
     0
  0
DICTIONARYVAR
  5
3D3
102
{ACAD_REACTORS
330
3CE
102
}
330
3CE
100
DictionaryVariables
280
     0
  1
2
  0
DICTIONARYVAR
  5
3D4
102
{ACAD_REACTORS
330
3CE
102
}
330
3CE
100
DictionaryVariables
280
     0
  1
1
  0
DICTIONARYVAR
  5
3D2
102
{ACAD_REACTORS
330
3CE
102
}
330
3CE
100
DictionaryVariables
280
     0
  1
80.000000
  0
DICTIONARYVAR
  5
3D1
102
{ACAD_REACTORS
330
3CE
102
}
330
3CE
100
DictionaryVariables
280
     0
  1
5.000000
  0
DICTIONARY
  5
3FD
330
3D
100
AcDbDictionary
280
     1
281
     1
  3
ACAD_XREC_ROUNDTRIP
360
3FE
  0
DICTIONARY
  5
3FB
330
3C
100
AcDbDictionary
280
     1
281
     1
  3
ACAD_XREC_ROUNDTRIP
360
3FC
  0
DICTIONARY
  5
3FF
330
3E
100
AcDbDictionary
280
     1
281
     1
  3
ACAD_XREC_ROUNDTRIP
360
400
  0
DICTIONARY
  5
3E3
330
2F
100
AcDbDictionary
280
     1
281
     1
  3
ACAD_XREC_ROUNDTRIP
360
3E4
  0
DICTIONARY
  5
3E7
330
31
100
AcDbDictionary
280
     1
281
     1
  3
ACAD_XREC_ROUNDTRIP
360
3E8
  0
DICTIONARY
  5
3E5
330
30
100
AcDbDictionary
280
     1
281
     1
  3
ACAD_XREC_ROUNDTRIP
360
3E6
  0
DICTIONARY
  5
3E9
330
32
100
AcDbDictionary
280
     1
281
     1
  3
ACAD_XREC_ROUNDTRIP
360
3EA
  0
DICTIONARY
  5
3F1
330
36
100
AcDbDictionary
280
     1
281
     1
  3
ACAD_XREC_ROUNDTRIP
360
3F2
  0
DICTIONARY
  5
3F9
330
3A
100
AcDbDictionary
280
     1
281
     1
  3
ACAD_XREC_ROUNDTRIP
360
3FA
  0
DICTIONARY
  5
3ED
330
34
100
AcDbDictionary
280
     1
281
     1
  3
ACAD_XREC_ROUNDTRIP
360
3EE
  0
DICTIONARY
  5
3EF
330
35
100
AcDbDictionary
280
     1
281
     1
  3
ACAD_XREC_ROUNDTRIP
360
3F0
  0
DICTIONARY
  5
3F7
330
39
100
AcDbDictionary
280
     1
281
     1
  3
ACAD_XREC_ROUNDTRIP
360
3F8
  0
DICTIONARY
  5
3DB
330
2B
100
AcDbDictionary
280
     1
281
     1
  3
ACAD_XREC_ROUNDTRIP
360
3DC
  0
DICTIONARY
  5
3DD
330
2C
100
AcDbDictionary
280
     1
281
     1
  3
ACAD_XREC_ROUNDTRIP
360
3DE
  0
DICTIONARY
  5
3DF
330
2D
100
AcDbDictionary
280
     1
281
     1
  3
ACAD_XREC_ROUNDTRIP
360
3E0
  0
DICTIONARY
  5
3E1
330
2E
100
AcDbDictionary
280
     1
281
     1
  3
ACAD_XREC_ROUNDTRIP
360
3E2
  0
DICTIONARY
  5
3F5
330
38
100
AcDbDictionary
280
     1
281
     1
  3
ACAD_XREC_ROUNDTRIP
360
3F6
  0
DICTIONARY
  5
3EB
330
33
100
AcDbDictionary
280
     1
281
     1
  3
ACAD_XREC_ROUNDTRIP
360
3EC
  0
DICTIONARY
  5
3F3
330
37
100
AcDbDictionary
280
     1
281
     1
  3
ACAD_XREC_ROUNDTRIP
360
3F4
  0
XRECORD
  5
3FE
102
{ACAD_REACTORS
330
3FD
102
}
330
3FD
100
AcDbXrecord
280
     1
102
MATERIAL
148
0.0
149
0.0
149
0.0
 93
        0
 94
      127
282
     0
 72
     1
 77
     1
171
     1
175
     1
179
     1
273
     0
  0
XRECORD
  5
3FC
102
{ACAD_REACTORS
330
3FB
102
}
330
3FB
100
AcDbXrecord
280
     1
102
MATERIAL
148
0.0
149
0.0
149
0.0
 93
        0
 94
      127
282
     0
 72
     1
 77
     1
171
     1
175
     1
179
     1
273
     0
  0
XRECORD
  5
400
102
{ACAD_REACTORS
330
3FF
102
}
330
3FF
100
AcDbXrecord
280
     1
102
MATERIAL
148
0.0
149
0.0
149
0.0
 93
        0
 94
      127
282
     0
 72
     1
 77
     1
171
     1
175
     1
179
     1
273
     0
  0
XRECORD
  5
3E4
102
{ACAD_REACTORS
330
3E3
102
}
330
3E3
100
AcDbXrecord
280
     1
102
RTVSPropertyOp0
 70
     1
102
RTVSPropertyOp1
 70
     1
102
RTVSPropertyOp2
 70
     1
102
RTVSPropertyOp3
 70
     1
102
RTVSPropertyOp4
 70
     1
102
RTVSPropertyOp5
 70
     1
102
RTVSPropertyOp6
 70
     1
102
RTVSPropertyOp7
 70
     1
102
RTVSPropertyOp8
 70
     1
102
RTVSPropertyOp9
 70
     1
102
RTVSPropertyOp10
 70
     1
102
RTVSPropertyOp11
 70
     1
102
RTVSPropertyOp12
 70
     1
102
RTVSPropertyOp13
 70
     1
102
RTVSPropertyOp14
 70
     1
102
RTVSPropertyOp15
 70
     1
102
RTVSPropertyOp16
 70
     1
102
RTVSPropertyOp17
 70
     1
102
RTVSPropertyOp18
 70
     1
102
RTVSPropertyOp19
 70
     1
102
RTVSPropertyOp20
 70
     1
102
RTVSPropertyOp21
 70
     1
102
RTVSPropertyOp22
 70
     1
102
RTVSPropertyOp23
 70
     1
102
RTVSPropertyOp24
 70
     1
102
RTVSPropertyOp25
 70
     1
102
RTVSPropertyOp26
 70
     1
102
RTVSPropertyOp27
 70
     1
102
RTVSPropertyOp28
 70
     1
102
RTVSPropertyOp29
 70
     1
102
RTVSPropertyOp30
 70
     1
102
RTVSPropertyOp31
 70
     1
102
RTVSPropertyOp32
 70
     1
  0
XRECORD
  5
3E8
102
{ACAD_REACTORS
330
3E7
102
}
330
3E7
100
AcDbXrecord
280
     1
102
RTVSPropertyOp0
 70
     1
102
RTVSPropertyOp1
 70
     1
102
RTVSPropertyOp2
 70
     1
102
RTVSPropertyOp3
 70
     1
102
RTVSPropertyOp4
 70
     1
102
RTVSPropertyOp5
 70
     1
102
RTVSPropertyOp6
 70
     1
102
RTVSPropertyOp7
 70
     1
102
RTVSPropertyOp8
 70
     1
102
RTVSPropertyOp9
 70
     1
102
RTVSPropertyOp10
 70
     1
102
RTVSPropertyOp11
 70
     1
102
RTVSPropertyOp12
 70
     1
102
RTVSPropertyOp13
 70
     1
102
RTVSPropertyOp14
 70
     1
102
RTVSPropertyOp15
 70
     1
102
RTVSPropertyOp16
 70
     1
102
RTVSPropertyOp17
 70
     1
102
RTVSPropertyOp18
 70
     1
102
RTVSPropertyOp19
 70
     1
102
RTVSPropertyOp20
 70
     1
102
RTVSPropertyOp21
 70
     1
102
RTVSPropertyOp22
 70
     1
102
RTVSPropertyOp23
 70
     1
102
RTVSPropertyOp24
 70
     1
102
RTVSPropertyOp25
 70
     1
102
RTVSPropertyOp26
 70
     1
102
RTVSPropertyOp27
 70
     1
102
RTVSPropertyOp28
 70
     1
102
RTVSPropertyOp29
 70
     1
102
RTVSPropertyOp30
 70
     1
102
RTVSPropertyOp31
 70
     1
102
RTVSPropertyOp32
 70
     1
  0
XRECORD
  5
3E6
102
{ACAD_REACTORS
330
3E5
102
}
330
3E5
100
AcDbXrecord
280
     1
102
RTVSPropertyOp0
 70
     1
102
RTVSPropertyOp1
 70
     1
102
RTVSPropertyOp2
 70
     1
102
RTVSPropertyOp3
 70
     1
102
RTVSPropertyOp4
 70
     1
102
RTVSPropertyOp5
 70
     1
102
RTVSPropertyOp6
 70
     1
102
RTVSPropertyOp7
 70
     1
102
RTVSPropertyOp8
 70
     1
102
RTVSPropertyOp9
 70
     1
102
RTVSPropertyOp10
 70
     1
102
RTVSPropertyOp11
 70
     1
102
RTVSPropertyOp12
 70
     1
102
RTVSPropertyOp13
 70
     1
102
RTVSPropertyOp14
 70
     1
102
RTVSPropertyOp15
 70
     1
102
RTVSPropertyOp16
 70
     1
102
RTVSPropertyOp17
 70
     1
102
RTVSPropertyOp18
 70
     1
102
RTVSPropertyOp19
 70
     1
102
RTVSPropertyOp20
 70
     1
102
RTVSPropertyOp21
 70
     1
102
RTVSPropertyOp22
 70
     1
102
RTVSPropertyOp23
 70
     1
102
RTVSPropertyOp24
 70
     1
102
RTVSPropertyOp25
 70
     1
102
RTVSPropertyOp26
 70
     1
102
RTVSPropertyOp27
 70
     1
102
RTVSPropertyOp28
 70
     1
102
RTVSPropertyOp29
 70
     1
102
RTVSPropertyOp30
 70
     1
102
RTVSPropertyOp31
 70
     1
102
RTVSPropertyOp32
 70
     1
  0
XRECORD
  5
3EA
102
{ACAD_REACTORS
330
3E9
102
}
330
3E9
100
AcDbXrecord
280
     1
102
RTVSPropertyOp0
 70
     1
102
RTVSPropertyOp1
 70
     1
102
RTVSPropertyOp2
 70
     1
102
RTVSPropertyOp3
 70
     1
102
RTVSPropertyOp4
 70
     1
102
RTVSPropertyOp5
 70
     1
102
RTVSPropertyOp6
 70
     1
102
RTVSPropertyOp7
 70
     1
102
RTVSPropertyOp8
 70
     1
102
RTVSPropertyOp9
 70
     1
102
RTVSPropertyOp10
 70
     1
102
RTVSPropertyOp11
 70
     1
102
RTVSPropertyOp12
 70
     1
102
RTVSPropertyOp13
 70
     1
102
RTVSPropertyOp14
 70
     1
102
RTVSPropertyOp15
 70
     1
102
RTVSPropertyOp16
 70
     1
102
RTVSPropertyOp17
 70
     1
102
RTVSPropertyOp18
 70
     1
102
RTVSPropertyOp19
 70
     1
102
RTVSPropertyOp20
 70
     1
102
RTVSPropertyOp21
 70
     1
102
RTVSPropertyOp22
 70
     1
102
RTVSPropertyOp23
 70
     1
102
RTVSPropertyOp24
 70
     1
102
RTVSPropertyOp25
 70
     1
102
RTVSPropertyOp26
 70
     1
102
RTVSPropertyOp27
 70
     1
102
RTVSPropertyOp28
 70
     1
102
RTVSPropertyOp29
 70
     1
102
RTVSPropertyOp30
 70
     1
102
RTVSPropertyOp31
 70
     1
102
RTVSPropertyOp32
 70
     1
  0
XRECORD
  5
3F2
102
{ACAD_REACTORS
330
3F1
102
}
330
3F1
100
AcDbXrecord
280
     1
102
RTVSPropertyOp0
 70
     1
102
RTVSPropertyOp1
 70
     1
102
RTVSPropertyOp2
 70
     1
102
RTVSPropertyOp3
 70
     1
102
RTVSPropertyOp4
 70
     1
102
RTVSPropertyOp5
 70
     1
102
RTVSPropertyOp6
 70
     1
102
RTVSPropertyOp7
 70
     1
102
RTVSPropertyOp8
 70
     1
102
RTVSPropertyOp9
 70
     1
102
RTVSPropertyOp10
 70
     1
102
RTVSPropertyOp11
 70
     1
102
RTVSPropertyOp12
 70
     1
102
RTVSPropertyOp13
 70
     1
102
RTVSPropertyOp14
 70
     1
102
RTVSPropertyOp15
 70
     1
102
RTVSPropertyOp16
 70
     1
102
RTVSPropertyOp17
 70
     1
102
RTVSPropertyOp18
 70
     1
102
RTVSPropertyOp19
 70
     1
102
RTVSPropertyOp20
 70
     1
102
RTVSPropertyOp21
 70
     1
102
RTVSPropertyOp22
 70
     1
102
RTVSPropertyOp23
 70
     1
102
RTVSPropertyOp24
 70
     1
102
RTVSPropertyOp25
 70
     1
102
RTVSPropertyOp26
 70
     1
102
RTVSPropertyOp27
 70
     1
102
RTVSPropertyOp28
 70
     1
102
RTVSPropertyOp29
 70
     1
102
RTVSPropertyOp30
 70
     1
102
RTVSPropertyOp31
 70
     1
102
RTVSPropertyOp32
 70
     1
  0
XRECORD
  5
3FA
102
{ACAD_REACTORS
330
3F9
102
}
330
3F9
100
AcDbXrecord
280
     1
102
RTVSPropertyOp0
 70
     1
102
RTVSPropertyOp1
 70
     1
102
RTVSPropertyOp2
 70
     1
102
RTVSPropertyOp3
 70
     1
102
RTVSPropertyOp4
 70
     1
102
RTVSPropertyOp5
 70
     1
102
RTVSPropertyOp6
 70
     1
102
RTVSPropertyOp7
 70
     1
102
RTVSPropertyOp8
 70
     1
102
RTVSPropertyOp9
 70
     1
102
RTVSPropertyOp10
 70
     1
102
RTVSPropertyOp11
 70
     1
102
RTVSPropertyOp12
 70
     1
102
RTVSPropertyOp13
 70
     1
102
RTVSPropertyOp14
 70
     1
102
RTVSPropertyOp15
 70
     1
102
RTVSPropertyOp16
 70
     1
102
RTVSPropertyOp17
 70
     1
102
RTVSPropertyOp18
 70
     1
102
RTVSPropertyOp19
 70
     1
102
RTVSPropertyOp20
 70
     1
102
RTVSPropertyOp21
 70
     1
102
RTVSPropertyOp22
 70
     1
102
RTVSPropertyOp23
 70
     1
102
RTVSPropertyOp24
 70
     1
102
RTVSPropertyOp25
 70
     1
102
RTVSPropertyOp26
 70
     1
102
RTVSPropertyOp27
 70
     1
102
RTVSPropertyOp28
 70
     1
102
RTVSPropertyOp29
 70
     1
102
RTVSPropertyOp30
 70
     1
102
RTVSPropertyOp31
 70
     1
102
RTVSPropertyOp32
 70
     1
  0
XRECORD
  5
3EE
102
{ACAD_REACTORS
330
3ED
102
}
330
3ED
100
AcDbXrecord
280
     1
102
RTVSPropertyOp0
 70
     1
102
RTVSPropertyOp1
 70
     1
102
RTVSPropertyOp2
 70
     1
102
RTVSPropertyOp3
 70
     1
102
RTVSPropertyOp4
 70
     1
102
RTVSPropertyOp5
 70
     1
102
RTVSPropertyOp6
 70
     1
102
RTVSPropertyOp7
 70
     1
102
RTVSPropertyOp8
 70
     1
102
RTVSPropertyOp9
 70
     1
102
RTVSPropertyOp10
 70
     1
102
RTVSPropertyOp11
 70
     1
102
RTVSPropertyOp12
 70
     1
102
RTVSPropertyOp13
 70
     1
102
RTVSPropertyOp14
 70
     1
102
RTVSPropertyOp15
 70
     1
102
RTVSPropertyOp16
 70
     1
102
RTVSPropertyOp17
 70
     1
102
RTVSPropertyOp18
 70
     1
102
RTVSPropertyOp19
 70
     1
102
RTVSPropertyOp20
 70
     1
102
RTVSPropertyOp21
 70
     1
102
RTVSPropertyOp22
 70
     1
102
RTVSPropertyOp23
 70
     1
102
RTVSPropertyOp24
 70
     1
102
RTVSPropertyOp25
 70
     1
102
RTVSPropertyOp26
 70
     1
102
RTVSPropertyOp27
 70
     1
102
RTVSPropertyOp28
 70
     1
102
RTVSPropertyOp29
 70
     1
102
RTVSPropertyOp30
 70
     1
102
RTVSPropertyOp31
 70
     1
102
RTVSPropertyOp32
 70
     1
  0
XRECORD
  5
3F0
102
{ACAD_REACTORS
330
3EF
102
}
330
3EF
100
AcDbXrecord
280
     1
102
RTVSPropertyOp0
 70
     1
102
RTVSPropertyOp1
 70
     1
102
RTVSPropertyOp2
 70
     1
102
RTVSPropertyOp3
 70
     1
102
RTVSPropertyOp4
 70
     1
102
RTVSPropertyOp5
 70
     1
102
RTVSPropertyOp6
 70
     1
102
RTVSPropertyOp7
 70
     1
102
RTVSPropertyOp8
 70
     1
102
RTVSPropertyOp9
 70
     1
102
RTVSPropertyOp10
 70
     1
102
RTVSPropertyOp11
 70
     1
102
RTVSPropertyOp12
 70
     1
102
RTVSPropertyOp13
 70
     1
102
RTVSPropertyOp14
 70
     1
102
RTVSPropertyOp15
 70
     1
102
RTVSPropertyOp16
 70
     1
102
RTVSPropertyOp17
 70
     1
102
RTVSPropertyOp18
 70
     1
102
RTVSPropertyOp19
 70
     1
102
RTVSPropertyOp20
 70
     1
102
RTVSPropertyOp21
 70
     1
102
RTVSPropertyOp22
 70
     1
102
RTVSPropertyOp23
 70
     1
102
RTVSPropertyOp24
 70
     1
102
RTVSPropertyOp25
 70
     1
102
RTVSPropertyOp26
 70
     1
102
RTVSPropertyOp27
 70
     1
102
RTVSPropertyOp28
 70
     1
102
RTVSPropertyOp29
 70
     1
102
RTVSPropertyOp30
 70
     1
102
RTVSPropertyOp31
 70
     1
102
RTVSPropertyOp32
 70
     1
  0
XRECORD
  5
3F8
102
{ACAD_REACTORS
330
3F7
102
}
330
3F7
100
AcDbXrecord
280
     1
102
RTVSPropertyOp0
 70
     1
102
RTVSPropertyOp1
 70
     1
102
RTVSPropertyOp2
 70
     1
102
RTVSPropertyOp3
 70
     1
102
RTVSPropertyOp4
 70
     1
102
RTVSPropertyOp5
 70
     1
102
RTVSPropertyOp6
 70
     1
102
RTVSPropertyOp7
 70
     1
102
RTVSPropertyOp8
 70
     1
102
RTVSPropertyOp9
 70
     1
102
RTVSPropertyOp10
 70
     1
102
RTVSPropertyOp11
 70
     1
102
RTVSPropertyOp12
 70
     1
102
RTVSPropertyOp13
 70
     1
102
RTVSPropertyOp14
 70
     1
102
RTVSPropertyOp15
 70
     1
102
RTVSPropertyOp16
 70
     1
102
RTVSPropertyOp17
 70
     1
102
RTVSPropertyOp18
 70
     1
102
RTVSPropertyOp19
 70
     1
102
RTVSPropertyOp20
 70
     1
102
RTVSPropertyOp21
 70
     1
102
RTVSPropertyOp22
 70
     1
102
RTVSPropertyOp23
 70
     1
102
RTVSPropertyOp24
 70
     1
102
RTVSPropertyOp25
 70
     1
102
RTVSPropertyOp26
 70
     1
102
RTVSPropertyOp27
 70
     1
102
RTVSPropertyOp28
 70
     1
102
RTVSPropertyOp29
 70
     1
102
RTVSPropertyOp30
 70
     1
102
RTVSPropertyOp31
 70
     1
102
RTVSPropertyOp32
 70
     1
  0
XRECORD
  5
3DC
102
{ACAD_REACTORS
330
3DB
102
}
330
3DB
100
AcDbXrecord
280
     1
102
RTVSPropertyOp0
 70
     1
102
RTVSPropertyOp1
 70
     1
102
RTVSPropertyOp2
 70
     1
102
RTVSPropertyOp3
 70
     1
102
RTVSPropertyOp4
 70
     1
102
RTVSPropertyOp5
 70
     1
102
RTVSPropertyOp6
 70
     1
102
RTVSPropertyOp7
 70
     1
102
RTVSPropertyOp8
 70
     1
102
RTVSPropertyOp9
 70
     1
102
RTVSPropertyOp10
 70
     1
102
RTVSPropertyOp11
 70
     1
102
RTVSPropertyOp12
 70
     1
102
RTVSPropertyOp13
 70
     1
102
RTVSPropertyOp14
 70
     1
102
RTVSPropertyOp15
 70
     1
102
RTVSPropertyOp16
 70
     1
102
RTVSPropertyOp17
 70
     1
102
RTVSPropertyOp18
 70
     1
102
RTVSPropertyOp19
 70
     1
102
RTVSPropertyOp20
 70
     1
102
RTVSPropertyOp21
 70
     1
102
RTVSPropertyOp22
 70
     1
102
RTVSPropertyOp23
 70
     1
102
RTVSPropertyOp24
 70
     1
102
RTVSPropertyOp25
 70
     1
102
RTVSPropertyOp26
 70
     1
102
RTVSPropertyOp27
 70
     1
102
RTVSPropertyOp28
 70
     1
102
RTVSPropertyOp29
 70
     1
102
RTVSPropertyOp30
 70
     1
102
RTVSPropertyOp31
 70
     1
102
RTVSPropertyOp32
 70
     1
  0
XRECORD
  5
3DE
102
{ACAD_REACTORS
330
3DD
102
}
330
3DD
100
AcDbXrecord
280
     1
102
RTVSPropertyOp0
 70
     1
102
RTVSPropertyOp1
 70
     1
102
RTVSPropertyOp2
 70
     1
102
RTVSPropertyOp3
 70
     1
102
RTVSPropertyOp4
 70
     1
102
RTVSPropertyOp5
 70
     1
102
RTVSPropertyOp6
 70
     1
102
RTVSPropertyOp7
 70
     1
102
RTVSPropertyOp8
 70
     1
102
RTVSPropertyOp9
 70
     1
102
RTVSPropertyOp10
 70
     1
102
RTVSPropertyOp11
 70
     1
102
RTVSPropertyOp12
 70
     1
102
RTVSPropertyOp13
 70
     1
102
RTVSPropertyOp14
 70
     1
102
RTVSPropertyOp15
 70
     1
102
RTVSPropertyOp16
 70
     1
102
RTVSPropertyOp17
 70
     1
102
RTVSPropertyOp18
 70
     1
102
RTVSPropertyOp19
 70
     1
102
RTVSPropertyOp20
 70
     1
102
RTVSPropertyOp21
 70
     1
102
RTVSPropertyOp22
 70
     1
102
RTVSPropertyOp23
 70
     1
102
RTVSPropertyOp24
 70
     1
102
RTVSPropertyOp25
 70
     1
102
RTVSPropertyOp26
 70
     1
102
RTVSPropertyOp27
 70
     1
102
RTVSPropertyOp28
 70
     1
102
RTVSPropertyOp29
 70
     1
102
RTVSPropertyOp30
 70
     1
102
RTVSPropertyOp31
 70
     1
102
RTVSPropertyOp32
 70
     1
  0
XRECORD
  5
3E0
102
{ACAD_REACTORS
330
3DF
102
}
330
3DF
100
AcDbXrecord
280
     1
102
RTVSPropertyOp0
 70
     1
102
RTVSPropertyOp1
 70
     1
102
RTVSPropertyOp2
 70
     1
102
RTVSPropertyOp3
 70
     1
102
RTVSPropertyOp4
 70
     1
102
RTVSPropertyOp5
 70
     1
102
RTVSPropertyOp6
 70
     1
102
RTVSPropertyOp7
 70
     1
102
RTVSPropertyOp8
 70
     1
102
RTVSPropertyOp9
 70
     1
102
RTVSPropertyOp10
 70
     1
102
RTVSPropertyOp11
 70
     1
102
RTVSPropertyOp12
 70
     1
102
RTVSPropertyOp13
 70
     1
102
RTVSPropertyOp14
 70
     1
102
RTVSPropertyOp15
 70
     1
102
RTVSPropertyOp16
 70
     1
102
RTVSPropertyOp17
 70
     1
102
RTVSPropertyOp18
 70
     1
102
RTVSPropertyOp19
 70
     1
102
RTVSPropertyOp20
 70
     1
102
RTVSPropertyOp21
 70
     1
102
RTVSPropertyOp22
 70
     1
102
RTVSPropertyOp23
 70
     1
102
RTVSPropertyOp24
 70
     1
102
RTVSPropertyOp25
 70
     1
102
RTVSPropertyOp26
 70
     1
102
RTVSPropertyOp27
 70
     1
102
RTVSPropertyOp28
 70
     1
102
RTVSPropertyOp29
 70
     1
102
RTVSPropertyOp30
 70
     1
102
RTVSPropertyOp31
 70
     1
102
RTVSPropertyOp32
 70
     1
  0
XRECORD
  5
3E2
102
{ACAD_REACTORS
330
3E1
102
}
330
3E1
100
AcDbXrecord
280
     1
102
RTVSPropertyOp0
 70
     1
102
RTVSPropertyOp1
 70
     1
102
RTVSPropertyOp2
 70
     1
102
RTVSPropertyOp3
 70
     1
102
RTVSPropertyOp4
 70
     1
102
RTVSPropertyOp5
 70
     1
102
RTVSPropertyOp6
 70
     1
102
RTVSPropertyOp7
 70
     1
102
RTVSPropertyOp8
 70
     1
102
RTVSPropertyOp9
 70
     1
102
RTVSPropertyOp10
 70
     1
102
RTVSPropertyOp11
 70
     1
102
RTVSPropertyOp12
 70
     1
102
RTVSPropertyOp13
 70
     1
102
RTVSPropertyOp14
 70
     1
102
RTVSPropertyOp15
 70
     1
102
RTVSPropertyOp16
 70
     1
102
RTVSPropertyOp17
 70
     1
102
RTVSPropertyOp18
 70
     1
102
RTVSPropertyOp19
 70
     1
102
RTVSPropertyOp20
 70
     1
102
RTVSPropertyOp21
 70
     1
102
RTVSPropertyOp22
 70
     1
102
RTVSPropertyOp23
 70
     1
102
RTVSPropertyOp24
 70
     1
102
RTVSPropertyOp25
 70
     1
102
RTVSPropertyOp26
 70
     1
102
RTVSPropertyOp27
 70
     1
102
RTVSPropertyOp28
 70
     1
102
RTVSPropertyOp29
 70
     1
102
RTVSPropertyOp30
 70
     1
102
RTVSPropertyOp31
 70
     1
102
RTVSPropertyOp32
 70
     1
  0
XRECORD
  5
3F6
102
{ACAD_REACTORS
330
3F5
102
}
330
3F5
100
AcDbXrecord
280
     1
102
RTVSPropertyOp0
 70
     1
102
RTVSPropertyOp1
 70
     1
102
RTVSPropertyOp2
 70
     1
102
RTVSPropertyOp3
 70
     1
102
RTVSPropertyOp4
 70
     1
102
RTVSPropertyOp5
 70
     1
102
RTVSPropertyOp6
 70
     1
102
RTVSPropertyOp7
 70
     1
102
RTVSPropertyOp8
 70
     1
102
RTVSPropertyOp9
 70
     1
102
RTVSPropertyOp10
 70
     1
102
RTVSPropertyOp11
 70
     1
102
RTVSPropertyOp12
 70
     1
102
RTVSPropertyOp13
 70
     1
102
RTVSPropertyOp14
 70
     1
102
RTVSPropertyOp15
 70
     1
102
RTVSPropertyOp16
 70
     1
102
RTVSPropertyOp17
 70
     1
102
RTVSPropertyOp18
 70
     1
102
RTVSPropertyOp19
 70
     1
102
RTVSPropertyOp20
 70
     1
102
RTVSPropertyOp21
 70
     1
102
RTVSPropertyOp22
 70
     1
102
RTVSPropertyOp23
 70
     1
102
RTVSPropertyOp24
 70
     1
102
RTVSPropertyOp25
 70
     1
102
RTVSPropertyOp26
 70
     1
102
RTVSPropertyOp27
 70
     1
102
RTVSPropertyOp28
 70
     1
102
RTVSPropertyOp29
 70
     1
102
RTVSPropertyOp30
 70
     1
102
RTVSPropertyOp31
 70
     1
102
RTVSPropertyOp32
 70
     1
  0
XRECORD
  5
3EC
102
{ACAD_REACTORS
330
3EB
102
}
330
3EB
100
AcDbXrecord
280
     1
102
RTVSPropertyOp0
 70
     1
102
RTVSPropertyOp1
 70
     1
102
RTVSPropertyOp2
 70
     1
102
RTVSPropertyOp3
 70
     1
102
RTVSPropertyOp4
 70
     1
102
RTVSPropertyOp5
 70
     1
102
RTVSPropertyOp6
 70
     1
102
RTVSPropertyOp7
 70
     1
102
RTVSPropertyOp8
 70
     1
102
RTVSPropertyOp9
 70
     1
102
RTVSPropertyOp10
 70
     1
102
RTVSPropertyOp11
 70
     1
102
RTVSPropertyOp12
 70
     1
102
RTVSPropertyOp13
 70
     1
102
RTVSPropertyOp14
 70
     1
102
RTVSPropertyOp15
 70
     1
102
RTVSPropertyOp16
 70
     1
102
RTVSPropertyOp17
 70
     1
102
RTVSPropertyOp18
 70
     1
102
RTVSPropertyOp19
 70
     1
102
RTVSPropertyOp20
 70
     1
102
RTVSPropertyOp21
 70
     1
102
RTVSPropertyOp22
 70
     1
102
RTVSPropertyOp23
 70
     1
102
RTVSPropertyOp24
 70
     1
102
RTVSPropertyOp25
 70
     1
102
RTVSPropertyOp26
 70
     1
102
RTVSPropertyOp27
 70
     1
102
RTVSPropertyOp28
 70
     1
102
RTVSPropertyOp29
 70
     1
102
RTVSPropertyOp30
 70
     1
102
RTVSPropertyOp31
 70
     1
102
RTVSPropertyOp32
 70
     1
  0
XRECORD
  5
3F4
102
{ACAD_REACTORS
330
3F3
102
}
330
3F3
100
AcDbXrecord
280
     1
102
RTVSPropertyOp0
 70
     1
102
RTVSPropertyOp1
 70
     1
102
RTVSPropertyOp2
 70
     1
102
RTVSPropertyOp3
 70
     1
102
RTVSPropertyOp4
 70
     1
102
RTVSPropertyOp5
 70
     1
102
RTVSPropertyOp6
 70
     1
102
RTVSPropertyOp7
 70
     1
102
RTVSPropertyOp8
 70
     1
102
RTVSPropertyOp9
 70
     1
102
RTVSPropertyOp10
 70
     1
102
RTVSPropertyOp11
 70
     1
102
RTVSPropertyOp12
 70
     1
102
RTVSPropertyOp13
 70
     1
102
RTVSPropertyOp14
 70
     1
102
RTVSPropertyOp15
 70
     1
102
RTVSPropertyOp16
 70
     1
102
RTVSPropertyOp17
 70
     1
102
RTVSPropertyOp18
 70
     1
102
RTVSPropertyOp19
 70
     1
102
RTVSPropertyOp20
 70
     1
102
RTVSPropertyOp21
 70
     1
102
RTVSPropertyOp22
 70
     1
102
RTVSPropertyOp23
 70
     1
102
RTVSPropertyOp24
 70
     1
102
RTVSPropertyOp25
 70
     1
102
RTVSPropertyOp26
 70
     1
102
RTVSPropertyOp27
 70
     1
102
RTVSPropertyOp28
 70
     1
102
RTVSPropertyOp29
 70
     1
102
RTVSPropertyOp30
 70
     1
102
RTVSPropertyOp31
 70
     1
102
RTVSPropertyOp32
 70
     1
  0
ENDSEC
  0
EOF
