  0
SECTION
  2
HEADER
  9
$ACADVER
  1
AC1015
  9
$ACADMAINTVER
 70
     6
  9
$DWGCODEPAGE
  3
ANSI_1252
  9
$INSBASE
 10
0.0
 20
0.0
 30
0.0
  9
$EXTMIN
 10
0.0
 20
0.0
 30
0.0
  9
$EXTMAX
 10
297.0
 20
210.0
 30
0.0
  9
$LIMMIN
 10
0.0
 20
0.0
  9
$LIMMAX
 10
297.0
 20
210.0
  9
$ORTHOMODE
 70
     0
  9
$REGENMODE
 70
     1
  9
$FILLMODE
 70
     1
  9
$QTEXTMODE
 70
     0
  9
$MIRRTEXT
 70
     1
  9
$LTSCALE
 40
1.0
  9
$ATTMODE
 70
     1
  9
$TEXTSIZE
 40
2.5
  9
$TRACEWID
 40
1.0
  9
$TEXTSTYLE
  7
Standard
  9
$CLAYER
  8
0
  9
$CELTYPE
  6
ByLayer
  9
$CECOLOR
 62
   256
  9
$CELTSCALE
 40
1.0
  9
$DISPSILH
 70
     0
  9
$DIMSCALE
 40
1.0
  9
$DIMASZ
 40
2.5
  9
$DIMEXO
 40
0.625
  9
$DIMDLI
 40
3.75
  9
$DIMRND
 40
0.0
  9
$DIMDLE
 40
0.0
  9
$DIMEXE
 40
1.25
  9
$DIMTP
 40
0.0
  9
$DIMTM
 40
0.0
  9
$DIMTXT
 40
2.5
  9
$DIMCEN
 40
2.5
  9
$DIMTSZ
 40
0.0
  9
$DIMTOL
 70
     0
  9
$DIMLIM
 70
     0
  9
$DIMTIH
 70
     0
  9
$DIMTOH
 70
     0
  9
$DIMSE1
 70
     0
  9
$DIMSE2
 70
     0
  9
$DIMTAD
 70
     1
  9
$DIMZIN
 70
     8
  9
$DIMBLK
  1

  9
$DIMASO
 70
     1
  9
$DIMSHO
 70
     1
  9
$DIMPOST
  1

  9
$DIMAPOST
  1

  9
$DIMALT
 70
     0
  9
$DIMALTD
 70
     3
  9
$DIMALTF
 40
0.0393700787
  9
$DIMLFAC
 40
1.0
  9
$DIMTOFL
 70
     1
  9
$DIMTVP
 40
0.0
  9
$DIMTIX
 70
     0
  9
$DIMSOXD
 70
     0
  9
$DIMSAH
 70
     0
  9
$DIMBLK1
  1

  9
$DIMBLK2
  1

  9
$DIMSTYLE
  2
ISO-25
  9
$DIMCLRD
 70
     0
  9
$DIMCLRE
 70
     0
  9
$DIMCLRT
 70
     0
  9
$DIMTFAC
 40
1.0
  9
$DIMGAP
 40
0.625
  9
$DIMJUST
 70
     0
  9
$DIMSD1
 70
     0
  9
$DIMSD2
 70
     0
  9
$DIMTOLJ
 70
     0
  9
$DIMTZIN
 70
     8
  9
$DIMALTZ
 70
     0
  9
$DIMALTTZ
 70
     0
  9
$DIMUPT
 70
     0
  9
$DIMDEC
 70
     2
  9
$DIMTDEC
 70
     2
  9
$DIMALTU
 70
     2
  9
$DIMALTTD
 70
     3
  9
$DIMTXSTY
  7
Standard
  9
$DIMAUNIT
 70
     0
  9
$DIMADEC
 70
     0
  9
$DIMALTRND
 40
0.0
  9
$DIMAZIN
 70
     0
  9
$DIMDSEP
 70
    44
  9
$DIMATFIT
 70
     3
  9
$DIMFRAC
 70
     0
  9
$DIMLDRBLK
  1

  9
$DIMLUNIT
 70
     2
  9
$DIMLWD
 70
    -2
  9
$DIMLWE
 70
    -2
  9
$DIMTMOVE
 70
     0
  9
$LUNITS
 70
     2
  9
$LUPREC
 70
     4
  9
$SKETCHINC
 40
1.0
  9
$FILLETRAD
 40
10.0
  9
$AUNITS
 70
     0
  9
$AUPREC
 70
     0
  9
$MENU
  1
.
  9
$ELEVATION
 40
0.0
  9
$PELEVATION
 40
0.0
  9
$THICKNESS
 40
0.0
  9
$LIMCHECK
 70
     0
  9
$CHAMFERA
 40
10.0
  9
$CHAMFERB
 40
10.0
  9
$CHAMFERC
 40
20.0
  9
$CHAMFERD
 40
0.0
  9
$SKPOLY
 70
     0
  9
$TDCREATE
 40
2457625.604251701
  9
$TDUCREATE
 40
2457625.520918368
  9
$TDUPDATE
 40
2457625.604252963
  9
$TDUUPDATE
 40
2457625.52091963
  9
$TDINDWG
 40
0.0000000116
  9
$TDUSRTIMER
 40
0.0000000116
  9
$USRTIMER
 70
     1
  9
$ANGBASE
 50
0.0
  9
$ANGDIR
 70
     0
  9
$PDMODE
 70
     0
  9
$PDSIZE
 40
0.0
  9
$PLINEWID
 40
0.0
  9
$SPLFRAME
 70
     0
  9
$SPLINETYPE
 70
     6
  9
$SPLINESEGS
 70
     8
  9
$HANDSEED
  5
3FC
  9
$SURFTAB1
 70
     6
  9
$SURFTAB2
 70
     6
  9
$SURFTYPE
 70
     6
  9
$SURFU
 70
     6
  9
$SURFV
 70
     6
  9
$UCSBASE
  2

  9
$UCSNAME
  2

  9
$UCSORG
 10
0.0
 20
0.0
 30
0.0
  9
$UCSXDIR
 10
1.0
 20
0.0
 30
0.0
  9
$UCSYDIR
 10
0.0
 20
1.0
 30
0.0
  9
$UCSORTHOREF
  2

  9
$UCSORTHOVIEW
 70
     0
  9
$UCSORGTOP
 10
0.0
 20
0.0
 30
0.0
  9
$UCSORGBOTTOM
 10
0.0
 20
0.0
 30
0.0
  9
$UCSORGLEFT
 10
0.0
 20
0.0
 30
0.0
  9
$UCSORGRIGHT
 10
0.0
 20
0.0
 30
0.0
  9
$UCSORGFRONT
 10
0.0
 20
0.0
 30
0.0
  9
$UCSORGBACK
 10
0.0
 20
0.0
 30
0.0
  9
$PUCSBASE
  2

  9
$PUCSNAME
  2

  9
$PUCSORG
 10
0.0
 20
0.0
 30
0.0
  9
$PUCSXDIR
 10
1.0
 20
0.0
 30
0.0
  9
$PUCSYDIR
 10
0.0
 20
1.0
 30
0.0
  9
$PUCSORTHOREF
  2

  9
$PUCSORTHOVIEW
 70
     0
  9
$PUCSORGTOP
 10
0.0
 20
0.0
 30
0.0
  9
$PUCSORGBOTTOM
 10
0.0
 20
0.0
 30
0.0
  9
$PUCSORGLEFT
 10
0.0
 20
0.0
 30
0.0
  9
$PUCSORGRIGHT
 10
0.0
 20
0.0
 30
0.0
  9
$PUCSORGFRONT
 10
0.0
 20
0.0
 30
0.0
  9
$PUCSORGBACK
 10
0.0
 20
0.0
 30
0.0
  9
$USERI1
 70
     0
  9
$USERI2
 70
     0
  9
$USERI3
 70
     0
  9
$USERI4
 70
     0
  9
$USERI5
 70
     0
  9
$USERR1
 40
0.0
  9
$USERR2
 40
0.0
  9
$USERR3
 40
0.0
  9
$USERR4
 40
0.0
  9
$USERR5
 40
0.0
  9
$WORLDVIEW
 70
     1
  9
$SHADEDGE
 70
     3
  9
$SHADEDIF
 70
    70
  9
$TILEMODE
 70
     1
  9
$MAXACTVP
 70
    64
  9
$PINSBASE
 10
0.0
 20
0.0
 30
0.0
  9
$PLIMCHECK
 70
     0
  9
$PEXTMIN
 10
0.0
 20
0.0
 30
0.0
  9
$PEXTMAX
 10
297.0
 20
210.0
 30
0.0
  9
$PLIMMIN
 10
0.0
 20
0.0
  9
$PLIMMAX
 10
297.0
 20
210.0
  9
$UNITMODE
 70
     0
  9
$VISRETAIN
 70
     1
  9
$PLINEGEN
 70
     0
  9
$PSLTSCALE
 70
     1
  9
$TREEDEPTH
 70
  3020
  9
$CMLSTYLE
  2
Standard
  9
$CMLJUST
 70
     0
  9
$CMLSCALE
 40
20.0
  9
$PROXYGRAPHICS
 70
     1
  9
$MEASUREMENT
 70
     1
  9
$CELWEIGHT
370
    -1
  9
$ENDCAPS
280
     0
  9
$JOINSTYLE
280
     0
  9
$LWDISPLAY
290
     0
  9
$INSUNITS
 70
     4
  9
$HYPERLINKBASE
  1

  9
$STYLESHEET
  1

  9
$XEDIT
290
     1
  9
$CEPSNTYPE
380
     0
  9
$PSTYLEMODE
290
     1
  9
$FINGERPRINTGUID
  2
{811F966B-3755-49E6-8DE7-9466B83CC279}
  9
$VERSIONGUID
  2
{FAEB1C32-E019-11D5-929B-00C0DF256EC4}
  9
$EXTNAMES
290
     1
  9
$PSVPSCALE
 40
0.0
  9
$OLESTARTUP
290
     0
  0
ENDSEC
  0
SECTION
  2
CLASSES
  0
CLASS
  1
ACDBDICTIONARYWDFLT
  2
AcDbDictionaryWithDefault
  3
ObjectDBX Classes
 90
        0
280
     0
281
     0
  0
CLASS
  1
VISUALSTYLE
  2
AcDbVisualStyle
  3
ObjectDBX Classes
 90
     4095
280
     0
281
     0
  0
CLASS
  1
MATERIAL
  2
AcDbMaterial
  3
ObjectDBX Classes
 90
     1153
280
     0
281
     0
  0
CLASS
  1
DICTIONARYVAR
  2
AcDbDictionaryVar
  3
ObjectDBX Classes
 90
        0
280
     0
281
     0
  0
CLASS
  1
ACDBPLACEHOLDER
  2
AcDbPlaceHolder
  3
ObjectDBX Classes
 90
        0
280
     0
281
     0
  0
CLASS
  1
LAYOUT
  2
AcDbLayout
  3
ObjectDBX Classes
 90
        0
280
     0
281
     0
  0
ENDSEC
  0
SECTION
  2
TABLES
  0
TABLE
  2
VPORT
  5
8
330
0
100
AcDbSymbolTable
 70
     1
  0
VPORT
  5
29
330
8
100
AcDbSymbolTableRecord
100
AcDbViewportTableRecord
  2
*Active
 70
     0
 10
0.0
 20
0.0
 11
1.0
 21
1.0
 12
344.1869158879
 22
148.5
 13
0.0
 23
0.0
 14
10.0
 24
10.0
 15
10.0
 25
10.0
 16
0.0
 26
0.0
 36
1.0
 17
0.0
 27
0.0
 37
0.0
 40
297.0
 41
1.9729729729
 42
50.0
 43
0.0
 44
0.0
 50
0.0
 51
0.0
 71
     0
 72
   100
 73
     1
 74
     3
 75
     0
 76
     0
 77
     0
 78
     0
281
     0
 65
     1
110
0.0
120
0.0
130
0.0
111
1.0
121
0.0
131
0.0
112
0.0
122
1.0
132
0.0
 79
     0
146
0.0
  0
ENDTAB
  0
TABLE
  2
LTYPE
  5
5
330
0
100
AcDbSymbolTable
 70
     1
  0
LTYPE
  5
14
330
5
100
AcDbSymbolTableRecord
100
AcDbLinetypeTableRecord
  2
ByBlock
 70
     0
  3

 72
    65
 73
     0
 40
0.0
  0
LTYPE
  5
15
330
5
100
AcDbSymbolTableRecord
100
AcDbLinetypeTableRecord
  2
ByLayer
 70
     0
  3

 72
    65
 73
     0
 40
0.0
  0
LTYPE
  5
16
330
5
100
AcDbSymbolTableRecord
100
AcDbLinetypeTableRecord
  2
Continuous
 70
     0
  3
Solid line
 72
    65
 73
     0
 40
0.0
  0
ENDTAB
  0
TABLE
  2
LAYER
  5
2
330
0
100
AcDbSymbolTable
 70
     7
  0
LAYER
  5
10
330
2
100
AcDbSymbolTableRecord
100
AcDbLayerTableRecord
  2
0
 70
     0
 62
     7
  6
Continuous
370
    -3
390
F
  0
LAYER
  5
3F
330
2
100
AcDbSymbolTableRecord
100
AcDbLayerTableRecord
  2
Default
 70
     0
 62
     7
  6
Continuous
370
    -3
390
F
  0
LAYER
  5
42
330
2
100
AcDbSymbolTableRecord
100
AcDbLayerTableRecord
  2
0003756
 70
     0
 62
     7
  6
Continuous
370
    -3
390
F
  0
LAYER
  5
69
330
2
100
AcDbSymbolTableRecord
100
AcDbLayerTableRecord
  2
0007712
 70
     0
 62
     7
  6
Continuous
370
    -3
390
F
  0
LAYER
  5
2E5
330
2
100
AcDbSymbolTableRecord
100
AcDbLayerTableRecord
  2
0007749
 70
     0
 62
     7
  6
Continuous
370
    -3
390
F
  0
LAYER
  5
2FE
330
2
100
AcDbSymbolTableRecord
100
AcDbLayerTableRecord
  2
0007697
 70
     0
 62
     7
  6
Continuous
370
    -3
390
F
  0
LAYER
  5
314
330
2
100
AcDbSymbolTableRecord
100
AcDbLayerTableRecord
  2
0011104
 70
     0
 62
     7
  6
Continuous
370
    -3
390
F
  0
ENDTAB
  0
TABLE
  2
STYLE
  5
3
330
0
100
AcDbSymbolTable
 70
     5
  0
STYLE
  5
11
330
3
100
AcDbSymbolTableRecord
100
AcDbTextStyleTableRecord
  2
Standard
 70
     0
 40
0.0
 41
1.0
 50
0.0
 71
     0
 42
2.5
  3
txt
  4

  0
STYLE
  5
33A
330
3
100
AcDbSymbolTableRecord
100
AcDbTextStyleTableRecord
  2
SEACAD_Solid_Edge_ISO
 70
     0
 40
0.0
 41
1.0
 50
0.0
 71
     0
 42
0.2
  3
seiso.ttf
  4

1001
ACAD
1000
Solid Edge ISO
1071
        0
  0
STYLE
  5
351
330
3
100
AcDbSymbolTableRecord
100
AcDbTextStyleTableRecord
  2
SEACAD_Solid_Edge_ISO1_Symbols
 70
     0
 40
0.0
 41
1.0
 50
0.0
 71
     0
 42
0.2
  3
semeci1.ttf
  4

1001
ACAD
1000
Solid Edge ISO1 Symbols
1071
        0
  0
STYLE
  5
368
330
3
100
AcDbSymbolTableRecord
100
AcDbTextStyleTableRecord
  2
SEACAD_Solid_Edge_ANSIB
 70
     0
 40
0.0
 41
1.0
 50
0.0
 71
     0
 42
0.2
  3
seansbd.ttf
  4

1001
ACAD
1000
Solid Edge ANSI
1071
 33554432
  0
STYLE
  5
36D
330
3
100
AcDbSymbolTableRecord
100
AcDbTextStyleTableRecord
  2
SEACAD_Solid_Edge_ANSI
 70
     0
 40
0.0
 41
1.0
 50
0.0
 71
     0
 42
0.2
  3
seans.ttf
  4

1001
ACAD
1000
Solid Edge ANSI
1071
        0
  0
ENDTAB
  0
TABLE
  2
VIEW
  5
6
330
0
100
AcDbSymbolTable
 70
     0
  0
ENDTAB
  0
TABLE
  2
UCS
  5
7
330
0
100
AcDbSymbolTable
 70
     0
  0
ENDTAB
  0
TABLE
  2
APPID
  5
9
330
0
100
AcDbSymbolTable
 70
     1
  0
APPID
  5
12
330
9
100
AcDbSymbolTableRecord
100
AcDbRegAppTableRecord
  2
ACAD
 70
     0
  0
ENDTAB
  0
TABLE
  2
DIMSTYLE
  5
A
330
0
100
AcDbSymbolTable
 70
     3
100
AcDbDimStyleTable
  0
DIMSTYLE
105
27
330
A
100
AcDbSymbolTableRecord
100
AcDbDimStyleTableRecord
  2
ISO-25
 70
     0
 41
2.5
 42
0.625
 43
3.75
 44
1.25
 73
     0
 74
     0
 77
     1
 78
     8
140
2.5
141
2.5
143
0.0393700787
147
0.625
171
     3
172
     1
178
     0
271
     2
272
     2
274
     3
278
    44
283
     0
284
     8
340
11
  0
DIMSTYLE
105
328
330
A
100
AcDbSymbolTableRecord
100
AcDbDimStyleTableRecord
  2
Standard
 70
     0
178
     0
340
11
  0
DIMSTYLE
105
33B
102
{ACAD_REACTORS
330
33C
330
346
330
350
330
35C
102
}
330
A
100
AcDbSymbolTableRecord
100
AcDbDimStyleTableRecord
  2
DIN
 70
     0
 41
3.5
 42
0.0
 44
1.75
 73
     0
 74
     0
 77
     1
 78
     8
140
3.5
141
1.75
147
1.75
172
     1
173
     1
178
     0
179
     3
271
     3
272
     3
278
    44
284
     8
340
33A
343
335
344
335
  0
ENDTAB
  0
TABLE
  2
BLOCK_RECORD
  5
1
330
0
100
AcDbSymbolTable
 70
    14
  0
BLOCK_RECORD
  5
1F
330
1
100
AcDbSymbolTableRecord
100
AcDbBlockTableRecord
  2
*Model_Space
340
22
  0
BLOCK_RECORD
  5
1B
330
1
100
AcDbSymbolTableRecord
100
AcDbBlockTableRecord
  2
*Paper_Space
340
1E
  0
BLOCK_RECORD
  5
40
330
1
100
AcDbSymbolTableRecord
100
AcDbBlockTableRecord
  2
SE
340
0
102
{BLKREFS
331
41
102
}
  0
BLOCK_RECORD
  5
329
330
1
100
AcDbSymbolTableRecord
100
AcDbBlockTableRecord
  2
_OBLIQUE
340
0
  0
BLOCK_RECORD
  5
32D
330
1
100
AcDbSymbolTableRecord
100
AcDbBlockTableRecord
  2
_DOT
340
0
  0
BLOCK_RECORD
  5
335
330
1
100
AcDbSymbolTableRecord
100
AcDbBlockTableRecord
  2
_SE_FILLED
340
0
  0
BLOCK_RECORD
  5
33D
330
1
100
AcDbSymbolTableRecord
100
AcDbBlockTableRecord
  2
DMBLK375
340
0
  0
BLOCK_RECORD
  5
347
330
1
100
AcDbSymbolTableRecord
100
AcDbBlockTableRecord
  2
DMBLK376
340
0
  0
BLOCK_RECORD
  5
352
330
1
100
AcDbSymbolTableRecord
100
AcDbBlockTableRecord
  2
DMBLK377
340
0
  0
BLOCK_RECORD
  5
35D
330
1
100
AcDbSymbolTableRecord
100
AcDbBlockTableRecord
  2
DMBLK378
340
0
  0
BLOCK_RECORD
  5
367
330
1
100
AcDbSymbolTableRecord
100
AcDbBlockTableRecord
  2
SEANNOT_GROUP
340
0
102
{BLKREFS
331
37C
102
}
  0
BLOCK_RECORD
  5
36C
330
1
100
AcDbSymbolTableRecord
100
AcDbBlockTableRecord
  2
SEANNOT_GROUP1
340
0
102
{BLKREFS
331
37D
102
}
  0
BLOCK_RECORD
  5
371
330
1
100
AcDbSymbolTableRecord
100
AcDbBlockTableRecord
  2
SEANNOT_GROUP2
340
0
102
{BLKREFS
331
37F
102
}
  0
BLOCK_RECORD
  5
375
330
1
100
AcDbSymbolTableRecord
100
AcDbBlockTableRecord
  2
SEANNOT_GROUP3
340
0
102
{BLKREFS
331
380
102
}
  0
BLOCK_RECORD
  5
379
330
1
100
AcDbSymbolTableRecord
100
AcDbBlockTableRecord
  2
RF-Massblatt_2016
340
0
102
{BLKREFS
331
3C8
102
}
  0
ENDTAB
  0
ENDSEC
  0
SECTION
  2
BLOCKS
  0
BLOCK
  5
20
330
1F
100
AcDbEntity
  8
0
100
AcDbBlockBegin
  2
*Model_Space
 70
     0
 10
0.0
 20
0.0
 30
0.0
  3
*Model_Space
  1

  0
ENDBLK
  5
21
330
1F
100
AcDbEntity
  8
0
100
AcDbBlockEnd
  0
BLOCK
  5
1C
330
1B
100
AcDbEntity
 67
     1
  8
0
100
AcDbBlockBegin
  2
*Paper_Space
 70
     0
 10
0.0
 20
0.0
 30
0.0
  3
*Paper_Space
  1

  0
ENDBLK
  5
1D
330
1B
100
AcDbEntity
 67
     1
  8
0
100
AcDbBlockEnd
  0
BLOCK
  5
326
330
40
100
AcDbEntity
  8
0
100
AcDbBlockBegin
  2
SE
 70
     0
 10
0.0
 20
0.0
 30
0.0
  3
SE
  1

  0
ARC
  5
43
330
40
100
AcDbEntity
  8
0003756
  6
Continuous
 62
     7
100
AcDbCircle
 10
149.0210486118
 20
101.7891799445
 30
0.0
 40
15.99999999999997
100
AcDbArc
 50
216.4235736423
 51
323.5764263577
  0
LINE
  5
44
330
40
100
AcDbEntity
  8
0003756
  6
Continuous
 62
     7
100
AcDbLine
 10
136.1466554222
 20
92.2891799445
 30
0.0
 11
136.1466554222
 21
116.2891799445
 31
0.0
  0
LINE
  5
45
330
40
100
AcDbEntity
  8
0003756
  6
Continuous
 62
     7
100
AcDbLine
 10
136.1466554222
 20
116.2891799445
 30
0.0
 11
136.9384729168
 21
116.2891799445
 31
0.0
  0
ARC
  5
46
330
40
100
AcDbEntity
  8
0003756
  6
Continuous
 62
     7
100
AcDbCircle
 10
149.0210486118
 20
106.7891799445
 30
0.0
 40
15.99999999999997
100
AcDbArc
 50
36.4235736423
 51
143.5764263577
  0
LINE
  5
47
330
40
100
AcDbEntity
  8
0003756
  6
Continuous
 62
     7
100
AcDbLine
 10
136.1466554222
 20
92.2891799445
 30
0.0
 11
136.9384729168
 21
92.2891799445
 31
0.0
  0
LINE
  5
48
330
40
100
AcDbEntity
  8
0003756
  6
Continuous
 62
     7
100
AcDbLine
 10
161.8954418013
 20
92.2891799445
 30
0.0
 11
161.8954418013
 21
116.2891799445
 31
0.0
  0
LINE
  5
49
330
40
100
AcDbEntity
  8
0003756
  6
Continuous
 62
     7
100
AcDbLine
 10
161.8954418013
 20
116.2891799445
 30
0.0
 11
161.1036243067
 21
116.2891799445
 31
0.0
  0
LINE
  5
4A
330
40
100
AcDbEntity
  8
0003756
  6
Continuous
 62
     7
100
AcDbLine
 10
161.1036243067
 20
92.2891799445
 30
0.0
 11
161.8954418013
 21
92.2891799445
 31
0.0
  0
ARC
  5
4B
330
40
100
AcDbEntity
  8
0003756
  6
Continuous
 62
     7
100
AcDbCircle
 10
141.5210486118
 20
114.2891799445
 30
0.0
 40
5.000000000000007
100
AcDbArc
 50
90.0
 51
156.4218215218
  0
LINE
  5
4C
330
40
100
AcDbEntity
  8
0003756
  6
Continuous
 62
     7
100
AcDbLine
 10
149.0210486118
 20
119.2891799445
 30
0.0
 11
141.5210486118
 21
119.2891799445
 31
0.0
  0
LINE
  5
4D
330
40
100
AcDbEntity
  8
0003756
  6
Continuous
 62
     7
100
AcDbLine
 10
156.5210486118
 20
119.2891799445
 30
0.0
 11
149.0210486118
 21
119.2891799445
 31
0.0
  0
ARC
  5
4E
330
40
100
AcDbEntity
  8
0003756
  6
Continuous
 62
     7
100
AcDbCircle
 10
156.5210486118
 20
114.2891799445
 30
0.0
 40
5.000000000000002
100
AcDbArc
 50
23.5781784782
 51
90.0
  0
ARC
  5
4F
330
40
100
AcDbEntity
  8
0003756
  6
Continuous
 62
     7
100
AcDbCircle
 10
156.5210486118
 20
114.2891799445
 30
0.0
 40
4.999999999999999
100
AcDbArc
 50
0.0
 51
23.5781784782
  0
ARC
  5
50
330
40
100
AcDbEntity
  8
0003756
  6
Continuous
 62
     7
100
AcDbCircle
 10
141.5210486118
 20
114.2891799445
 30
0.0
 40
5.000000000000003
100
AcDbArc
 50
156.4218215218
 51
180.0
  0
LINE
  5
51
330
40
100
AcDbEntity
  8
0003756
  6
Continuous
 62
     7
100
AcDbLine
 10
136.5210486118
 20
114.2891799445
 30
0.0
 11
136.5210486118
 21
94.2891799445
 31
0.0
  0
ARC
  5
52
330
40
100
AcDbEntity
  8
0003756
  6
Continuous
 62
     7
100
AcDbCircle
 10
141.5210486118
 20
94.2891799445
 30
0.0
 40
5.0
100
AcDbArc
 50
180.0
 51
203.5781784782
  0
ARC
  5
53
330
40
100
AcDbEntity
  8
0003756
  6
Continuous
 62
     7
100
AcDbCircle
 10
141.5210486118
 20
94.2891799445
 30
0.0
 40
5.000000000000009
100
AcDbArc
 50
203.5781784782
 51
270.0
  0
ARC
  5
54
330
40
100
AcDbEntity
  8
0003756
  6
Continuous
 62
     7
100
AcDbCircle
 10
156.5210486118
 20
94.2891799445
 30
0.0
 40
5.000000000000001
100
AcDbArc
 50
270.0
 51
336.4218215218
  0
ARC
  5
55
330
40
100
AcDbEntity
  8
0003756
  6
Continuous
 62
     7
100
AcDbCircle
 10
156.5210486118
 20
94.2891799445
 30
0.0
 40
5.000000000000006
100
AcDbArc
 50
336.4218215218
 51
0.0
  0
LINE
  5
56
330
40
100
AcDbEntity
  8
0003756
  6
Continuous
 62
     7
100
AcDbLine
 10
161.5210486118
 20
94.2891799445
 30
0.0
 11
161.5210486118
 21
114.2891799445
 31
0.0
  0
LINE
  5
57
330
40
100
AcDbEntity
  8
0003756
  6
Continuous
 62
     7
100
AcDbLine
 10
141.5210486118
 20
89.2891799445
 30
0.0
 11
156.5210486118
 21
89.2891799445
 31
0.0
  0
LINE
  5
58
330
40
100
AcDbEntity
  8
0003756
  6
Continuous
 62
     7
100
AcDbLine
 10
133.0210486118
 20
166.7942251055
 30
0.0
 11
165.0210486118
 21
166.7942251055
 31
0.0
  0
LINE
  5
59
330
40
100
AcDbEntity
  8
0003756
  6
Continuous
 62
     7
100
AcDbLine
 10
135.0210486118
 20
172.2891799445
 30
0.0
 11
163.0210486118
 21
172.2891799445
 31
0.0
  0
LINE
  5
5A
330
40
100
AcDbEntity
  8
0003756
  6
Continuous
 62
     7
100
AcDbLine
 10
135.0210486118
 20
72.2891799445
 30
0.0
 11
163.0210486118
 21
72.2891799445
 31
0.0
  0
LINE
  5
5B
330
40
100
AcDbEntity
  8
0003756
  6
Continuous
 62
     7
100
AcDbLine
 10
133.0210486118
 20
74.2891799445
 30
0.0
 11
165.0210486118
 21
74.2891799445
 31
0.0
  0
LINE
  5
5C
330
40
100
AcDbEntity
  8
0003756
  6
Continuous
 62
     7
100
AcDbLine
 10
137.6941307826
 20
52.2891799445
 30
0.0
 11
160.3479664409
 21
52.2891799445
 31
0.0
  0
LINE
  5
5D
330
40
100
AcDbEntity
  8
0003756
  6
Continuous
 62
     7
100
AcDbLine
 10
136.5967158461
 20
71.89127433
 30
0.0
 11
136.6941444903
 21
53.2839439806
 31
0.0
  0
LINE
  5
5E
330
40
100
AcDbEntity
  8
0003756
  6
Continuous
 62
     7
100
AcDbLine
 10
161.3479527332
 20
53.2839439806
 30
0.0
 11
161.4453813774
 21
71.89127433
 31
0.0
  0
LINE
  5
5F
330
40
100
AcDbEntity
  8
0003756
  6
Continuous
 62
     7
100
AcDbLine
 10
165.0210486118
 20
74.2891799445
 30
0.0
 11
165.0210486118
 21
166.7942251055
 31
0.0
  0
LINE
  5
60
330
40
100
AcDbEntity
  8
0003756
  6
Continuous
 62
     7
100
AcDbLine
 10
133.0210486118
 20
166.7942251055
 30
0.0
 11
133.0210486118
 21
74.2891799445
 31
0.0
  0
LINE
  5
61
330
40
100
AcDbEntity
  8
0003756
  6
Continuous
 62
     7
100
AcDbLine
 10
165.0210486118
 20
166.7942251055
 30
0.0
 11
163.0210486118
 21
172.2891799445
 31
0.0
  0
LINE
  5
62
330
40
100
AcDbEntity
  8
0003756
  6
Continuous
 62
     7
100
AcDbLine
 10
135.0210486118
 20
172.2891799445
 30
0.0
 11
133.0210486118
 21
166.7942251055
 31
0.0
  0
LINE
  5
63
330
40
100
AcDbEntity
  8
0003756
  6
Continuous
 62
     7
100
AcDbLine
 10
133.0210486118
 20
74.2891799445
 30
0.0
 11
135.0210486118
 21
72.2891799445
 31
0.0
  0
LINE
  5
64
330
40
100
AcDbEntity
  8
0003756
  6
Continuous
 62
     7
100
AcDbLine
 10
163.0210486118
 20
72.2891799445
 30
0.0
 11
165.0210486118
 21
74.2891799445
 31
0.0
  0
ARC
  5
65
330
40
100
AcDbEntity
  8
0003756
  6
Continuous
 62
     7
100
AcDbCircle
 10
136.1967213292
 20
71.8891799445
 30
0.0
 40
0.3999999999999976
100
AcDbArc
 50
0.3
 51
90.0
  0
ARC
  5
66
330
40
100
AcDbEntity
  8
0003756
  6
Continuous
 62
     7
100
AcDbCircle
 10
161.8453758943
 20
71.8891799445
 30
0.0
 40
0.3999999999999998
100
AcDbArc
 50
90.0
 51
179.7
  0
ARC
  5
67
330
40
100
AcDbEntity
  8
0003756
  6
Continuous
 62
     7
100
AcDbCircle
 10
137.6941307826
 20
53.2891799445
 30
0.0
 40
0.9999999999999987
100
AcDbArc
 50
180.3
 51
270.0
  0
ARC
  5
68
330
40
100
AcDbEntity
  8
0003756
  6
Continuous
 62
     7
100
AcDbCircle
 10
160.3479664409
 20
53.2891799445
 30
0.0
 40
1.000000000000001
100
AcDbArc
 50
270.0
 51
359.7
  0
LINE
  5
6A
330
40
100
AcDbEntity
  8
0007712
  6
Continuous
 62
     7
100
AcDbLine
 10
137.5210486118
 20
114.1891799445
 30
0.0
 11
160.5210486118
 21
114.1891799445
 31
0.0
  0
LINE
  5
6B
330
40
100
AcDbEntity
  8
0007712
  6
Continuous
 62
     7
100
AcDbLine
 10
137.5210486118
 20
109.1891799445
 30
0.0
 11
160.5210486118
 21
109.1891799445
 31
0.0
  0
LINE
  5
6C
330
40
100
AcDbEntity
  8
0007712
  6
Continuous
 62
     7
100
AcDbLine
 10
137.0210486115
 20
109.6891799445
 30
0.0
 11
137.0211252996
 21
109.6891799445
 31
0.0
  0
LINE
  5
6D
330
40
100
AcDbEntity
  8
0007712
  6
Continuous
 62
     7
100
AcDbLine
 10
137.0211252996
 20
113.6891799445
 30
0.0
 11
137.0210486115
 21
113.6891799445
 31
0.0
  0
LINE
  5
6E
330
40
100
AcDbEntity
  8
0007712
  6
Continuous
 62
     7
100
AcDbLine
 10
137.0298547605
 20
109.6891799445
 30
0.0
 11
137.0334477817
 21
109.6891799445
 31
0.0
  0
LINE
  5
6F
330
40
100
AcDbEntity
  8
0007712
  6
Continuous
 62
     7
100
AcDbLine
 10
137.0298547605
 20
109.6891799445
 30
0.0
 11
137.0298547605
 21
113.6891799445
 31
0.0
  0
LINE
  5
70
330
40
100
AcDbEntity
  8
0007712
  6
Continuous
 62
     7
100
AcDbLine
 10
137.0298547605
 20
113.6891799445
 30
0.0
 11
137.3863975544
 21
114.0519766561
 31
0.0
  0
LINE
  5
71
330
40
100
AcDbEntity
  8
0007712
  6
Continuous
 62
     7
100
AcDbLine
 10
137.0298547605
 20
109.6891799445
 30
0.0
 11
137.3863975544
 21
109.3263832328
 31
0.0
  0
LINE
  5
72
330
40
100
AcDbEntity
  8
0007712
  6
Continuous
 62
     7
100
AcDbLine
 10
137.0211252996
 20
113.6891799445
 30
0.0
 11
137.0211252996
 21
109.6891799445
 31
0.0
  0
LINE
  5
73
330
40
100
AcDbEntity
  8
0007712
  6
Continuous
 62
     7
100
AcDbLine
 10
137.3863975544
 20
109.3263832328
 30
0.0
 11
137.0211252996
 21
109.6891799445
 31
0.0
  0
LINE
  5
74
330
40
100
AcDbEntity
  8
0007712
  6
Continuous
 62
     7
100
AcDbLine
 10
137.3863975544
 20
114.0519766561
 30
0.0
 11
137.0211252996
 21
113.6891799445
 31
0.0
  0
LINE
  5
75
330
40
100
AcDbEntity
  8
0007712
  6
Continuous
 62
     7
100
AcDbLine
 10
137.0334477817
 20
113.6891799445
 30
0.0
 11
137.0298547605
 21
113.6891799445
 31
0.0
  0
LINE
  5
76
330
40
100
AcDbEntity
  8
0007712
  6
Continuous
 62
     7
100
AcDbLine
 10
137.0596208501
 20
109.6891799445
 30
0.0
 11
137.0668005892
 21
109.6891799445
 31
0.0
  0
LINE
  5
77
330
40
100
AcDbEntity
  8
0007712
  6
Continuous
 62
     7
100
AcDbLine
 10
137.0596208501
 20
109.6891799445
 30
0.0
 11
137.0596208501
 21
113.6891799445
 31
0.0
  0
LINE
  5
78
330
40
100
AcDbEntity
  8
0007712
  6
Continuous
 62
     7
100
AcDbLine
 10
137.0596208501
 20
113.6891799445
 30
0.0
 11
137.4068086858
 21
114.0519766561
 31
0.0
  0
LINE
  5
79
330
40
100
AcDbEntity
  8
0007712
  6
Continuous
 62
     7
100
AcDbLine
 10
137.0596208501
 20
109.6891799445
 30
0.0
 11
137.4068086858
 21
109.3263832328
 31
0.0
  0
LINE
  5
7A
330
40
100
AcDbEntity
  8
0007712
  6
Continuous
 62
     7
100
AcDbLine
 10
137.0334477817
 20
113.6891799445
 30
0.0
 11
137.0334477817
 21
109.6891799445
 31
0.0
  0
LINE
  5
7B
330
40
100
AcDbEntity
  8
0007712
  6
Continuous
 62
     7
100
AcDbLine
 10
137.4068086858
 20
109.3263832328
 30
0.0
 11
137.0334477817
 21
109.6891799445
 31
0.0
  0
LINE
  5
7C
330
40
100
AcDbEntity
  8
0007712
  6
Continuous
 62
     7
100
AcDbLine
 10
137.4068086858
 20
114.0519766561
 30
0.0
 11
137.0334477817
 21
113.6891799445
 31
0.0
  0
LINE
  5
7D
330
40
100
AcDbEntity
  8
0007712
  6
Continuous
 62
     7
100
AcDbLine
 10
137.0668005892
 20
113.6891799445
 30
0.0
 11
137.0596208501
 21
113.6891799445
 31
0.0
  0
LINE
  5
7E
330
40
100
AcDbEntity
  8
0007712
  6
Continuous
 62
     7
100
AcDbLine
 10
137.1103713485
 20
109.6891799445
 30
0.0
 11
137.1211252097
 21
109.6891799445
 31
0.0
  0
LINE
  5
7F
330
40
100
AcDbEntity
  8
0007712
  6
Continuous
 62
     7
100
AcDbLine
 10
137.1103713485
 20
109.6891799445
 30
0.0
 11
137.1103713485
 21
113.6891799445
 31
0.0
  0
LINE
  5
80
330
40
100
AcDbEntity
  8
0007712
  6
Continuous
 62
     7
100
AcDbLine
 10
137.1103713485
 20
113.6891799445
 30
0.0
 11
137.4475951406
 21
114.0519766561
 31
0.0
  0
LINE
  5
81
330
40
100
AcDbEntity
  8
0007712
  6
Continuous
 62
     7
100
AcDbLine
 10
137.1103713485
 20
109.6891799445
 30
0.0
 11
137.4475951406
 21
109.3263832328
 31
0.0
  0
LINE
  5
82
330
40
100
AcDbEntity
  8
0007712
  6
Continuous
 62
     7
100
AcDbLine
 10
137.0668005892
 20
113.6891799445
 30
0.0
 11
137.0668005892
 21
109.6891799445
 31
0.0
  0
LINE
  5
83
330
40
100
AcDbEntity
  8
0007712
  6
Continuous
 62
     7
100
AcDbLine
 10
137.4475951406
 20
109.3263832328
 30
0.0
 11
137.0668005892
 21
109.6891799445
 31
0.0
  0
LINE
  5
84
330
40
100
AcDbEntity
  8
0007712
  6
Continuous
 62
     7
100
AcDbLine
 10
137.4475951406
 20
114.0519766561
 30
0.0
 11
137.0668005892
 21
113.6891799445
 31
0.0
  0
LINE
  5
85
330
40
100
AcDbEntity
  8
0007712
  6
Continuous
 62
     7
100
AcDbLine
 10
137.1211252097
 20
113.6891799445
 30
0.0
 11
137.1103713485
 21
113.6891799445
 31
0.0
  0
LINE
  5
86
330
40
100
AcDbEntity
  8
0007712
  6
Continuous
 62
     7
100
AcDbLine
 10
137.1820172221
 20
109.6891799445
 30
0.0
 11
137.1963263395
 21
109.6891799445
 31
0.0
  0
LINE
  5
87
330
40
100
AcDbEntity
  8
0007712
  6
Continuous
 62
     7
100
AcDbLine
 10
137.1820172221
 20
109.6891799445
 30
0.0
 11
137.1820172221
 21
113.6891799445
 31
0.0
  0
LINE
  5
88
330
40
100
AcDbEntity
  8
0007712
  6
Continuous
 62
     7
100
AcDbLine
 10
137.1820172221
 20
113.6891799445
 30
0.0
 11
137.5086853655
 21
114.0519766561
 31
0.0
  0
LINE
  5
89
330
40
100
AcDbEntity
  8
0007712
  6
Continuous
 62
     7
100
AcDbLine
 10
137.1820172221
 20
109.6891799445
 30
0.0
 11
137.5086853655
 21
109.3263832328
 31
0.0
  0
LINE
  5
8A
330
40
100
AcDbEntity
  8
0007712
  6
Continuous
 62
     7
100
AcDbLine
 10
137.1211252097
 20
113.6891799445
 30
0.0
 11
137.1211252097
 21
109.6891799445
 31
0.0
  0
LINE
  5
8B
330
40
100
AcDbEntity
  8
0007712
  6
Continuous
 62
     7
100
AcDbLine
 10
137.5086853655
 20
109.3263832328
 30
0.0
 11
137.1211252097
 21
109.6891799445
 31
0.0
  0
LINE
  5
8C
330
40
100
AcDbEntity
  8
0007712
  6
Continuous
 62
     7
100
AcDbLine
 10
137.5086853655
 20
114.0519766561
 30
0.0
 11
137.1211252097
 21
113.6891799445
 31
0.0
  0
LINE
  5
8D
330
40
100
AcDbEntity
  8
0007712
  6
Continuous
 62
     7
100
AcDbLine
 10
137.1963263395
 20
113.6891799445
 30
0.0
 11
137.1820172221
 21
113.6891799445
 31
0.0
  0
LINE
  5
8E
330
40
100
AcDbEntity
  8
0007712
  6
Continuous
 62
     7
100
AcDbLine
 10
137.2744327797
 20
109.6891799445
 30
0.0
 11
137.2922720503
 21
109.6891799445
 31
0.0
  0
LINE
  5
8F
330
40
100
AcDbEntity
  8
0007712
  6
Continuous
 62
     7
100
AcDbLine
 10
137.2744327797
 20
109.6891799445
 30
0.0
 11
137.2744327797
 21
113.6891799445
 31
0.0
  0
LINE
  5
90
330
40
100
AcDbEntity
  8
0007712
  6
Continuous
 62
     7
100
AcDbLine
 10
137.2744327797
 20
113.6891799445
 30
0.0
 11
137.5899721875
 21
114.0519766561
 31
0.0
  0
LINE
  5
91
330
40
100
AcDbEntity
  8
0007712
  6
Continuous
 62
     7
100
AcDbLine
 10
137.2744327797
 20
109.6891799445
 30
0.0
 11
137.5899721875
 21
109.3263832328
 31
0.0
  0
LINE
  5
92
330
40
100
AcDbEntity
  8
0007712
  6
Continuous
 62
     7
100
AcDbLine
 10
137.1963263395
 20
113.6891799445
 30
0.0
 11
137.1963263395
 21
109.6891799445
 31
0.0
  0
LINE
  5
93
330
40
100
AcDbEntity
  8
0007712
  6
Continuous
 62
     7
100
AcDbLine
 10
137.5899721875
 20
109.3263832328
 30
0.0
 11
137.1963263395
 21
109.6891799445
 31
0.0
  0
LINE
  5
94
330
40
100
AcDbEntity
  8
0007712
  6
Continuous
 62
     7
100
AcDbLine
 10
137.5899721875
 20
114.0519766561
 30
0.0
 11
137.1963263395
 21
113.6891799445
 31
0.0
  0
LINE
  5
95
330
40
100
AcDbEntity
  8
0007712
  6
Continuous
 62
     7
100
AcDbLine
 10
137.2922720503
 20
113.6891799445
 30
0.0
 11
137.2744327797
 21
113.6891799445
 31
0.0
  0
LINE
  5
96
330
40
100
AcDbEntity
  8
0007712
  6
Continuous
 62
     7
100
AcDbLine
 10
137.387455893
 20
109.6891799445
 30
0.0
 11
137.4087940205
 21
109.6891799445
 31
0.0
  0
LINE
  5
97
330
40
100
AcDbEntity
  8
0007712
  6
Continuous
 62
     7
100
AcDbLine
 10
137.387455893
 20
109.6891799445
 30
0.0
 11
137.387455893
 21
113.6891799445
 31
0.0
  0
LINE
  5
98
330
40
100
AcDbEntity
  8
0007712
  6
Continuous
 62
     7
100
AcDbLine
 10
137.387455893
 20
113.6891799445
 30
0.0
 11
137.6913130018
 21
114.0519766561
 31
0.0
  0
LINE
  5
99
330
40
100
AcDbEntity
  8
0007712
  6
Continuous
 62
     7
100
AcDbLine
 10
137.387455893
 20
109.6891799445
 30
0.0
 11
137.6913130018
 21
109.3263832328
 31
0.0
  0
LINE
  5
9A
330
40
100
AcDbEntity
  8
0007712
  6
Continuous
 62
     7
100
AcDbLine
 10
137.2922720503
 20
113.6891799445
 30
0.0
 11
137.2922720503
 21
109.6891799445
 31
0.0
  0
LINE
  5
9B
330
40
100
AcDbEntity
  8
0007712
  6
Continuous
 62
     7
100
AcDbLine
 10
137.6913130018
 20
109.3263832328
 30
0.0
 11
137.2922720503
 21
109.6891799445
 31
0.0
  0
LINE
  5
9C
330
40
100
AcDbEntity
  8
0007712
  6
Continuous
 62
     7
100
AcDbLine
 10
137.6913130018
 20
114.0519766561
 30
0.0
 11
137.2922720503
 21
113.6891799445
 31
0.0
  0
LINE
  5
9D
330
40
100
AcDbEntity
  8
0007712
  6
Continuous
 62
     7
100
AcDbLine
 10
137.4087940205
 20
113.6891799445
 30
0.0
 11
137.387455893
 21
113.6891799445
 31
0.0
  0
LINE
  5
9E
330
40
100
AcDbEntity
  8
0007712
  6
Continuous
 62
     7
100
AcDbLine
 10
137.520888281
 20
109.6891799445
 30
0.0
 11
137.5456878313
 21
109.6891799445
 31
0.0
  0
LINE
  5
9F
330
40
100
AcDbEntity
  8
0007712
  6
Continuous
 62
     7
100
AcDbLine
 10
137.520888281
 20
109.6891799445
 30
0.0
 11
137.520888281
 21
113.6891799445
 31
0.0
  0
LINE
  5
A0
330
40
100
AcDbEntity
  8
0007712
  6
Continuous
 62
     7
100
AcDbLine
 10
137.520888281
 20
113.6891799445
 30
0.0
 11
137.8125300222
 21
114.0519766561
 31
0.0
  0
LINE
  5
A1
330
40
100
AcDbEntity
  8
0007712
  6
Continuous
 62
     7
100
AcDbLine
 10
137.520888281
 20
109.6891799445
 30
0.0
 11
137.8125300222
 21
109.3263832328
 31
0.0
  0
LINE
  5
A2
330
40
100
AcDbEntity
  8
0007712
  6
Continuous
 62
     7
100
AcDbLine
 10
137.4087940205
 20
113.6891799445
 30
0.0
 11
137.4087940205
 21
109.6891799445
 31
0.0
  0
LINE
  5
A3
330
40
100
AcDbEntity
  8
0007712
  6
Continuous
 62
     7
100
AcDbLine
 10
137.8125300222
 20
109.3263832328
 30
0.0
 11
137.4087940205
 21
109.6891799445
 31
0.0
  0
LINE
  5
A4
330
40
100
AcDbEntity
  8
0007712
  6
Continuous
 62
     7
100
AcDbLine
 10
137.8125300222
 20
114.0519766561
 30
0.0
 11
137.4087940205
 21
113.6891799445
 31
0.0
  0
LINE
  5
A5
330
40
100
AcDbEntity
  8
0007712
  6
Continuous
 62
     7
100
AcDbLine
 10
137.5456878313
 20
113.6891799445
 30
0.0
 11
137.520888281
 21
113.6891799445
 31
0.0
  0
LINE
  5
A6
330
40
100
AcDbEntity
  8
0007712
  6
Continuous
 62
     7
100
AcDbLine
 10
137.674495858
 20
109.6891799445
 30
0.0
 11
137.7027133241
 21
109.6891799445
 31
0.0
  0
LINE
  5
A7
330
40
100
AcDbEntity
  8
0007712
  6
Continuous
 62
     7
100
AcDbLine
 10
137.674495858
 20
109.6891799445
 30
0.0
 11
137.674495858
 21
113.6891799445
 31
0.0
  0
LINE
  5
A8
330
40
100
AcDbEntity
  8
0007712
  6
Continuous
 62
     7
100
AcDbLine
 10
137.674495858
 20
113.6891799445
 30
0.0
 11
137.9534105929
 21
114.0519766561
 31
0.0
  0
LINE
  5
A9
330
40
100
AcDbEntity
  8
0007712
  6
Continuous
 62
     7
100
AcDbLine
 10
137.674495858
 20
109.6891799445
 30
0.0
 11
137.9534105929
 21
109.3263832328
 31
0.0
  0
LINE
  5
AA
330
40
100
AcDbEntity
  8
0007712
  6
Continuous
 62
     7
100
AcDbLine
 10
137.5456878313
 20
113.6891799445
 30
0.0
 11
137.5456878313
 21
109.6891799445
 31
0.0
  0
LINE
  5
AB
330
40
100
AcDbEntity
  8
0007712
  6
Continuous
 62
     7
100
AcDbLine
 10
137.9534105929
 20
109.3263832328
 30
0.0
 11
137.5456878313
 21
109.6891799445
 31
0.0
  0
LINE
  5
AC
330
40
100
AcDbEntity
  8
0007712
  6
Continuous
 62
     7
100
AcDbLine
 10
137.9534105929
 20
114.0519766561
 30
0.0
 11
137.5456878313
 21
113.6891799445
 31
0.0
  0
LINE
  5
AD
330
40
100
AcDbEntity
  8
0007712
  6
Continuous
 62
     7
100
AcDbLine
 10
137.7027133241
 20
113.6891799445
 30
0.0
 11
137.674495858
 21
113.6891799445
 31
0.0
  0
LINE
  5
AE
330
40
100
AcDbEntity
  8
0007712
  6
Continuous
 62
     7
100
AcDbLine
 10
137.8480091442
 20
109.6891799445
 30
0.0
 11
137.8795950231
 21
109.6891799445
 31
0.0
  0
LINE
  5
AF
330
40
100
AcDbEntity
  8
0007712
  6
Continuous
 62
     7
100
AcDbLine
 10
137.8480091442
 20
109.6891799445
 30
0.0
 11
137.8480091442
 21
113.6891799445
 31
0.0
  0
LINE
  5
B0
330
40
100
AcDbEntity
  8
0007712
  6
Continuous
 62
     7
100
AcDbLine
 10
137.8480091442
 20
113.6891799445
 30
0.0
 11
138.1137075615
 21
114.0519766561
 31
0.0
  0
LINE
  5
B1
330
40
100
AcDbEntity
  8
0007712
  6
Continuous
 62
     7
100
AcDbLine
 10
137.8480091442
 20
109.6891799445
 30
0.0
 11
138.1137075615
 21
109.3263832328
 31
0.0
  0
LINE
  5
B2
330
40
100
AcDbEntity
  8
0007712
  6
Continuous
 62
     7
100
AcDbLine
 10
137.7027133241
 20
113.6891799445
 30
0.0
 11
137.7027133241
 21
109.6891799445
 31
0.0
  0
LINE
  5
B3
330
40
100
AcDbEntity
  8
0007712
  6
Continuous
 62
     7
100
AcDbLine
 10
138.1137075615
 20
109.3263832328
 30
0.0
 11
137.7027133241
 21
109.6891799445
 31
0.0
  0
LINE
  5
B4
330
40
100
AcDbEntity
  8
0007712
  6
Continuous
 62
     7
100
AcDbLine
 10
138.1137075615
 20
114.0519766561
 30
0.0
 11
137.7027133241
 21
113.6891799445
 31
0.0
  0
LINE
  5
B5
330
40
100
AcDbEntity
  8
0007712
  6
Continuous
 62
     7
100
AcDbLine
 10
137.8795950231
 20
113.6891799445
 30
0.0
 11
137.8480091442
 21
113.6891799445
 31
0.0
  0
LINE
  5
B6
330
40
100
AcDbEntity
  8
0007712
  6
Continuous
 62
     7
100
AcDbLine
 10
138.0411237382
 20
109.6891799445
 30
0.0
 11
138.0760226176
 21
109.6891799445
 31
0.0
  0
LINE
  5
B7
330
40
100
AcDbEntity
  8
0007712
  6
Continuous
 62
     7
100
AcDbLine
 10
138.0411237382
 20
109.6891799445
 30
0.0
 11
138.0411237382
 21
113.6891799445
 31
0.0
  0
LINE
  5
B8
330
40
100
AcDbEntity
  8
0007712
  6
Continuous
 62
     7
100
AcDbLine
 10
138.0411237382
 20
113.6891799445
 30
0.0
 11
138.2931397127
 21
114.0519766561
 31
0.0
  0
LINE
  5
B9
330
40
100
AcDbEntity
  8
0007712
  6
Continuous
 62
     7
100
AcDbLine
 10
138.0411237382
 20
109.6891799445
 30
0.0
 11
138.2931397127
 21
109.3263832328
 31
0.0
  0
LINE
  5
BA
330
40
100
AcDbEntity
  8
0007712
  6
Continuous
 62
     7
100
AcDbLine
 10
137.8795950231
 20
113.6891799445
 30
0.0
 11
137.8795950231
 21
109.6891799445
 31
0.0
  0
LINE
  5
BB
330
40
100
AcDbEntity
  8
0007712
  6
Continuous
 62
     7
100
AcDbLine
 10
138.2931397127
 20
109.3263832328
 30
0.0
 11
137.8795950231
 21
109.6891799445
 31
0.0
  0
LINE
  5
BC
330
40
100
AcDbEntity
  8
0007712
  6
Continuous
 62
     7
100
AcDbLine
 10
138.2931397127
 20
114.0519766561
 30
0.0
 11
137.8795950231
 21
113.6891799445
 31
0.0
  0
LINE
  5
BD
330
40
100
AcDbEntity
  8
0007712
  6
Continuous
 62
     7
100
AcDbLine
 10
138.0760226176
 20
113.6891799445
 30
0.0
 11
138.0411237382
 21
113.6891799445
 31
0.0
  0
LINE
  5
BE
330
40
100
AcDbEntity
  8
0007712
  6
Continuous
 62
     7
100
AcDbLine
 10
138.2535008514
 20
109.6891799445
 30
0.0
 11
138.2916515068
 21
109.6891799445
 31
0.0
  0
LINE
  5
BF
330
40
100
AcDbEntity
  8
0007712
  6
Continuous
 62
     7
100
AcDbLine
 10
138.2535008514
 20
109.6891799445
 30
0.0
 11
138.2535008514
 21
113.6891799445
 31
0.0
  0
LINE
  5
C0
330
40
100
AcDbEntity
  8
0007712
  6
Continuous
 62
     7
100
AcDbLine
 10
138.2535008514
 20
113.6891799445
 30
0.0
 11
138.4913922614
 21
114.0519766561
 31
0.0
  0
LINE
  5
C1
330
40
100
AcDbEntity
  8
0007712
  6
Continuous
 62
     7
100
AcDbLine
 10
138.2535008514
 20
109.6891799445
 30
0.0
 11
138.4913922614
 21
109.3263832328
 31
0.0
  0
LINE
  5
C2
330
40
100
AcDbEntity
  8
0007712
  6
Continuous
 62
     7
100
AcDbLine
 10
138.0760226176
 20
113.6891799445
 30
0.0
 11
138.0760226176
 21
109.6891799445
 31
0.0
  0
LINE
  5
C3
330
40
100
AcDbEntity
  8
0007712
  6
Continuous
 62
     7
100
AcDbLine
 10
138.4913922614
 20
109.3263832328
 30
0.0
 11
138.0760226176
 21
109.6891799445
 31
0.0
  0
LINE
  5
C4
330
40
100
AcDbEntity
  8
0007712
  6
Continuous
 62
     7
100
AcDbLine
 10
138.4913922614
 20
114.0519766561
 30
0.0
 11
138.0760226176
 21
113.6891799445
 31
0.0
  0
LINE
  5
C5
330
40
100
AcDbEntity
  8
0007712
  6
Continuous
 62
     7
100
AcDbLine
 10
138.2916515068
 20
113.6891799445
 30
0.0
 11
138.2535008514
 21
113.6891799445
 31
0.0
  0
LINE
  5
C6
330
40
100
AcDbEntity
  8
0007712
  6
Continuous
 62
     7
100
AcDbLine
 10
138.4847679022
 20
109.6891799445
 30
0.0
 11
138.5261034043
 21
109.6891799445
 31
0.0
  0
LINE
  5
C7
330
40
100
AcDbEntity
  8
0007712
  6
Continuous
 62
     7
100
AcDbLine
 10
138.4847679022
 20
109.6891799445
 30
0.0
 11
138.4847679022
 21
113.6891799445
 31
0.0
  0
LINE
  5
C8
330
40
100
AcDbEntity
  8
0007712
  6
Continuous
 62
     7
100
AcDbLine
 10
138.4847679022
 20
113.6891799445
 30
0.0
 11
138.7081174054
 21
114.0519766561
 31
0.0
  0
LINE
  5
C9
330
40
100
AcDbEntity
  8
0007712
  6
Continuous
 62
     7
100
AcDbLine
 10
138.4847679022
 20
109.6891799445
 30
0.0
 11
138.7081174054
 21
109.3263832328
 31
0.0
  0
LINE
  5
CA
330
40
100
AcDbEntity
  8
0007712
  6
Continuous
 62
     7
100
AcDbLine
 10
138.2916515068
 20
113.6891799445
 30
0.0
 11
138.2916515068
 21
109.6891799445
 31
0.0
  0
LINE
  5
CB
330
40
100
AcDbEntity
  8
0007712
  6
Continuous
 62
     7
100
AcDbLine
 10
138.7081174054
 20
109.3263832328
 30
0.0
 11
138.2916515068
 21
109.6891799445
 31
0.0
  0
LINE
  5
CC
330
40
100
AcDbEntity
  8
0007712
  6
Continuous
 62
     7
100
AcDbLine
 10
138.7081174054
 20
114.0519766561
 30
0.0
 11
138.2916515068
 21
113.6891799445
 31
0.0
  0
LINE
  5
CD
330
40
100
AcDbEntity
  8
0007712
  6
Continuous
 62
     7
100
AcDbLine
 10
138.5261034043
 20
113.6891799445
 30
0.0
 11
138.4847679022
 21
113.6891799445
 31
0.0
  0
LINE
  5
CE
330
40
100
AcDbEntity
  8
0007712
  6
Continuous
 62
     7
100
AcDbLine
 10
138.7345191697
 20
109.6891799445
 30
0.0
 11
138.778967002
 21
109.6891799445
 31
0.0
  0
LINE
  5
CF
330
40
100
AcDbEntity
  8
0007712
  6
Continuous
 62
     7
100
AcDbLine
 10
138.7345191697
 20
109.6891799445
 30
0.0
 11
138.7345191697
 21
113.6891799445
 31
0.0
  0
LINE
  5
D0
330
40
100
AcDbEntity
  8
0007712
  6
Continuous
 62
     7
100
AcDbLine
 10
138.7345191697
 20
113.6891799445
 30
0.0
 11
138.942934935
 21
114.0519766561
 31
0.0
  0
LINE
  5
D1
330
40
100
AcDbEntity
  8
0007712
  6
Continuous
 62
     7
100
AcDbLine
 10
138.7345191697
 20
109.6891799445
 30
0.0
 11
138.942934935
 21
109.3263832328
 31
0.0
  0
LINE
  5
D2
330
40
100
AcDbEntity
  8
0007712
  6
Continuous
 62
     7
100
AcDbLine
 10
138.5261034043
 20
113.6891799445
 30
0.0
 11
138.5261034043
 21
109.6891799445
 31
0.0
  0
LINE
  5
D3
330
40
100
AcDbEntity
  8
0007712
  6
Continuous
 62
     7
100
AcDbLine
 10
138.942934935
 20
109.3263832328
 30
0.0
 11
138.5261034043
 21
109.6891799445
 31
0.0
  0
LINE
  5
D4
330
40
100
AcDbEntity
  8
0007712
  6
Continuous
 62
     7
100
AcDbLine
 10
138.942934935
 20
114.0519766561
 30
0.0
 11
138.5261034043
 21
113.6891799445
 31
0.0
  0
LINE
  5
D5
330
40
100
AcDbEntity
  8
0007712
  6
Continuous
 62
     7
100
AcDbLine
 10
138.778967002
 20
113.6891799445
 30
0.0
 11
138.7345191697
 21
113.6891799445
 31
0.0
  0
LINE
  5
D6
330
40
100
AcDbEntity
  8
0007712
  6
Continuous
 62
     7
100
AcDbLine
 10
139.0023165052
 20
109.6891799445
 30
0.0
 11
139.0497986912
 21
109.6891799445
 31
0.0
  0
LINE
  5
D7
330
40
100
AcDbEntity
  8
0007712
  6
Continuous
 62
     7
100
AcDbLine
 10
139.0023165052
 20
109.6891799445
 30
0.0
 11
139.0023165052
 21
113.6891799445
 31
0.0
  0
LINE
  5
D8
330
40
100
AcDbEntity
  8
0007712
  6
Continuous
 62
     7
100
AcDbLine
 10
139.0023165052
 20
113.6891799445
 30
0.0
 11
139.1954329007
 21
114.0519766561
 31
0.0
  0
LINE
  5
D9
330
40
100
AcDbEntity
  8
0007712
  6
Continuous
 62
     7
100
AcDbLine
 10
139.0023165052
 20
109.6891799445
 30
0.0
 11
139.1954329007
 21
109.3263832328
 31
0.0
  0
LINE
  5
DA
330
40
100
AcDbEntity
  8
0007712
  6
Continuous
 62
     7
100
AcDbLine
 10
138.778967002
 20
113.6891799445
 30
0.0
 11
138.778967002
 21
109.6891799445
 31
0.0
  0
LINE
  5
DB
330
40
100
AcDbEntity
  8
0007712
  6
Continuous
 62
     7
100
AcDbLine
 10
139.1954329007
 20
109.3263832328
 30
0.0
 11
138.778967002
 21
109.6891799445
 31
0.0
  0
LINE
  5
DC
330
40
100
AcDbEntity
  8
0007712
  6
Continuous
 62
     7
100
AcDbLine
 10
139.1954329007
 20
114.0519766561
 30
0.0
 11
138.778967002
 21
113.6891799445
 31
0.0
  0
LINE
  5
DD
330
40
100
AcDbEntity
  8
0007712
  6
Continuous
 62
     7
100
AcDbLine
 10
139.0497986912
 20
113.6891799445
 30
0.0
 11
139.0023165052
 21
113.6891799445
 31
0.0
  0
LINE
  5
DE
330
40
100
AcDbEntity
  8
0007712
  6
Continuous
 62
     7
100
AcDbLine
 10
139.2876901012
 20
109.6891799445
 30
0.0
 11
139.3381233409
 21
109.6891799445
 31
0.0
  0
LINE
  5
DF
330
40
100
AcDbEntity
  8
0007712
  6
Continuous
 62
     7
100
AcDbLine
 10
139.2876901012
 20
109.6891799445
 30
0.0
 11
139.2876901012
 21
113.6891799445
 31
0.0
  0
LINE
  5
E0
330
40
100
AcDbEntity
  8
0007712
  6
Continuous
 62
     7
100
AcDbLine
 10
139.2876901012
 20
113.6891799445
 30
0.0
 11
139.465168335
 21
114.0519766561
 31
0.0
  0
LINE
  5
E1
330
40
100
AcDbEntity
  8
0007712
  6
Continuous
 62
     7
100
AcDbLine
 10
139.2876901012
 20
109.6891799445
 30
0.0
 11
139.465168335
 21
109.3263832328
 31
0.0
  0
LINE
  5
E2
330
40
100
AcDbEntity
  8
0007712
  6
Continuous
 62
     7
100
AcDbLine
 10
139.0497986912
 20
113.6891799445
 30
0.0
 11
139.0497986912
 21
109.6891799445
 31
0.0
  0
LINE
  5
E3
330
40
100
AcDbEntity
  8
0007712
  6
Continuous
 62
     7
100
AcDbLine
 10
139.465168335
 20
109.3263832328
 30
0.0
 11
139.0497986912
 21
109.6891799445
 31
0.0
  0
LINE
  5
E4
330
40
100
AcDbEntity
  8
0007712
  6
Continuous
 62
     7
100
AcDbLine
 10
139.465168335
 20
114.0519766561
 30
0.0
 11
139.0497986912
 21
113.6891799445
 31
0.0
  0
LINE
  5
E5
330
40
100
AcDbEntity
  8
0007712
  6
Continuous
 62
     7
100
AcDbLine
 10
139.3381233409
 20
113.6891799445
 30
0.0
 11
139.2876901012
 21
113.6891799445
 31
0.0
  0
LINE
  5
E6
330
40
100
AcDbEntity
  8
0007712
  6
Continuous
 62
     7
100
AcDbLine
 10
139.5901393154
 20
109.6891799445
 30
0.0
 11
139.6434351318
 21
109.6891799445
 31
0.0
  0
LINE
  5
E7
330
40
100
AcDbEntity
  8
0007712
  6
Continuous
 62
     7
100
AcDbLine
 10
139.5901393154
 20
109.6891799445
 30
0.0
 11
139.5901393154
 21
113.6891799445
 31
0.0
  0
LINE
  5
E8
330
40
100
AcDbEntity
  8
0007712
  6
Continuous
 62
     7
100
AcDbLine
 10
139.5901393154
 20
113.6891799445
 30
0.0
 11
139.7516680305
 21
114.0519766561
 31
0.0
  0
LINE
  5
E9
330
40
100
AcDbEntity
  8
0007712
  6
Continuous
 62
     7
100
AcDbLine
 10
139.5901393154
 20
109.6891799445
 30
0.0
 11
139.7516680305
 21
109.3263832328
 31
0.0
  0
LINE
  5
EA
330
40
100
AcDbEntity
  8
0007712
  6
Continuous
 62
     7
100
AcDbLine
 10
139.3381233409
 20
113.6891799445
 30
0.0
 11
139.3381233409
 21
109.6891799445
 31
0.0
  0
LINE
  5
EB
330
40
100
AcDbEntity
  8
0007712
  6
Continuous
 62
     7
100
AcDbLine
 10
139.7516680305
 20
109.3263832328
 30
0.0
 11
139.3381233409
 21
109.6891799445
 31
0.0
  0
LINE
  5
EC
330
40
100
AcDbEntity
  8
0007712
  6
Continuous
 62
     7
100
AcDbLine
 10
139.7516680305
 20
114.0519766561
 30
0.0
 11
139.3381233409
 21
113.6891799445
 31
0.0
  0
LINE
  5
ED
330
40
100
AcDbEntity
  8
0007712
  6
Continuous
 62
     7
100
AcDbLine
 10
139.6434351318
 20
113.6891799445
 30
0.0
 11
139.5901393154
 21
113.6891799445
 31
0.0
  0
LINE
  5
EE
330
40
100
AcDbEntity
  8
0007712
  6
Continuous
 62
     7
100
AcDbLine
 10
139.9091335492
 20
109.6891799445
 30
0.0
 11
139.9651984433
 21
109.6891799445
 31
0.0
  0
LINE
  5
EF
330
40
100
AcDbEntity
  8
0007712
  6
Continuous
 62
     7
100
AcDbLine
 10
139.9091335492
 20
109.6891799445
 30
0.0
 11
139.9091335492
 21
113.6891799445
 31
0.0
  0
LINE
  5
F0
330
40
100
AcDbEntity
  8
0007712
  6
Continuous
 62
     7
100
AcDbLine
 10
139.9091335492
 20
113.6891799445
 30
0.0
 11
140.0544293692
 21
114.0519766561
 31
0.0
  0
LINE
  5
F1
330
40
100
AcDbEntity
  8
0007712
  6
Continuous
 62
     7
100
AcDbLine
 10
139.9091335492
 20
109.6891799445
 30
0.0
 11
140.0544293692
 21
109.3263832328
 31
0.0
  0
LINE
  5
F2
330
40
100
AcDbEntity
  8
0007712
  6
Continuous
 62
     7
100
AcDbLine
 10
139.6434351318
 20
113.6891799445
 30
0.0
 11
139.6434351318
 21
109.6891799445
 31
0.0
  0
LINE
  5
F3
330
40
100
AcDbEntity
  8
0007712
  6
Continuous
 62
     7
100
AcDbLine
 10
140.0544293692
 20
109.3263832328
 30
0.0
 11
139.6434351318
 21
109.6891799445
 31
0.0
  0
LINE
  5
F4
330
40
100
AcDbEntity
  8
0007712
  6
Continuous
 62
     7
100
AcDbLine
 10
140.0544293692
 20
114.0519766561
 30
0.0
 11
139.6434351318
 21
113.6891799445
 31
0.0
  0
LINE
  5
F5
330
40
100
AcDbEntity
  8
0007712
  6
Continuous
 62
     7
100
AcDbLine
 10
139.9651984433
 20
113.6891799445
 30
0.0
 11
139.9091335492
 21
113.6891799445
 31
0.0
  0
LINE
  5
F6
330
40
100
AcDbEntity
  8
0007712
  6
Continuous
 62
     7
100
AcDbLine
 10
140.2441131782
 20
109.6891799445
 30
0.0
 11
140.3028487932
 21
109.6891799445
 31
0.0
  0
LINE
  5
F7
330
40
100
AcDbEntity
  8
0007712
  6
Continuous
 62
     7
100
AcDbLine
 10
140.2441131782
 20
109.6891799445
 30
0.0
 11
140.2441131782
 21
113.6891799445
 31
0.0
  0
LINE
  5
F8
330
40
100
AcDbEntity
  8
0007712
  6
Continuous
 62
     7
100
AcDbLine
 10
140.2441131782
 20
113.6891799445
 30
0.0
 11
140.372921205
 21
114.0519766561
 31
0.0
  0
LINE
  5
F9
330
40
100
AcDbEntity
  8
0007712
  6
Continuous
 62
     7
100
AcDbLine
 10
140.2441131782
 20
109.6891799445
 30
0.0
 11
140.372921205
 21
109.3263832328
 31
0.0
  0
LINE
  5
FA
330
40
100
AcDbEntity
  8
0007712
  6
Continuous
 62
     7
100
AcDbLine
 10
139.9651984433
 20
113.6891799445
 30
0.0
 11
139.9651984433
 21
109.6891799445
 31
0.0
  0
LINE
  5
FB
330
40
100
AcDbEntity
  8
0007712
  6
Continuous
 62
     7
100
AcDbLine
 10
140.372921205
 20
109.3263832328
 30
0.0
 11
139.9651984433
 21
109.6891799445
 31
0.0
  0
LINE
  5
FC
330
40
100
AcDbEntity
  8
0007712
  6
Continuous
 62
     7
100
AcDbLine
 10
140.372921205
 20
114.0519766561
 30
0.0
 11
139.9651984433
 21
113.6891799445
 31
0.0
  0
LINE
  5
FD
330
40
100
AcDbEntity
  8
0007712
  6
Continuous
 62
     7
100
AcDbLine
 10
140.3028487932
 20
113.6891799445
 30
0.0
 11
140.2441131782
 21
113.6891799445
 31
0.0
  0
LINE
  5
FE
330
40
100
AcDbEntity
  8
0007712
  6
Continuous
 62
     7
100
AcDbLine
 10
140.5944905344
 20
109.6891799445
 30
0.0
 11
140.6557938281
 21
109.6891799445
 31
0.0
  0
LINE
  5
FF
330
40
100
AcDbEntity
  8
0007712
  6
Continuous
 62
     7
100
AcDbLine
 10
140.5944905344
 20
109.6891799445
 30
0.0
 11
140.5944905344
 21
113.6891799445
 31
0.0
  0
LINE
  5
100
330
40
100
AcDbEntity
  8
0007712
  6
Continuous
 62
     7
100
AcDbLine
 10
140.5944905344
 20
113.6891799445
 30
0.0
 11
140.7065847949
 21
114.0519766561
 31
0.0
  0
LINE
  5
101
330
40
100
AcDbEntity
  8
0007712
  6
Continuous
 62
     7
100
AcDbLine
 10
140.5944905344
 20
109.6891799445
 30
0.0
 11
140.7065847949
 21
109.3263832328
 31
0.0
  0
LINE
  5
102
330
40
100
AcDbEntity
  8
0007712
  6
Continuous
 62
     7
100
AcDbLine
 10
140.3028487932
 20
113.6891799445
 30
0.0
 11
140.3028487932
 21
109.6891799445
 31
0.0
  0
LINE
  5
103
330
40
100
AcDbEntity
  8
0007712
  6
Continuous
 62
     7
100
AcDbLine
 10
140.7065847949
 20
109.3263832328
 30
0.0
 11
140.3028487932
 21
109.6891799445
 31
0.0
  0
LINE
  5
104
330
40
100
AcDbEntity
  8
0007712
  6
Continuous
 62
     7
100
AcDbLine
 10
140.7065847949
 20
114.0519766561
 30
0.0
 11
140.3028487932
 21
113.6891799445
 31
0.0
  0
LINE
  5
105
330
40
100
AcDbEntity
  8
0007712
  6
Continuous
 62
     7
100
AcDbLine
 10
140.6557938281
 20
113.6891799445
 30
0.0
 11
140.5944905344
 21
113.6891799445
 31
0.0
  0
LINE
  5
106
330
40
100
AcDbEntity
  8
0007712
  6
Continuous
 62
     7
100
AcDbLine
 10
140.9596509369
 20
109.6891799445
 30
0.0
 11
141.0234143624
 21
109.6891799445
 31
0.0
  0
LINE
  5
107
330
40
100
AcDbEntity
  8
0007712
  6
Continuous
 62
     7
100
AcDbLine
 10
140.9596509369
 20
109.6891799445
 30
0.0
 11
140.9596509369
 21
113.6891799445
 31
0.0
  0
LINE
  5
108
330
40
100
AcDbEntity
  8
0007712
  6
Continuous
 62
     7
100
AcDbLine
 10
140.9596509369
 20
113.6891799445
 30
0.0
 11
141.0548347796
 21
114.0519766561
 31
0.0
  0
LINE
  5
109
330
40
100
AcDbEntity
  8
0007712
  6
Continuous
 62
     7
100
AcDbLine
 10
140.9596509369
 20
109.6891799445
 30
0.0
 11
141.0548347796
 21
109.3263832328
 31
0.0
  0
LINE
  5
10A
330
40
100
AcDbEntity
  8
0007712
  6
Continuous
 62
     7
100
AcDbLine
 10
140.6557938281
 20
113.6891799445
 30
0.0
 11
140.6557938281
 21
109.6891799445
 31
0.0
  0
LINE
  5
10B
330
40
100
AcDbEntity
  8
0007712
  6
Continuous
 62
     7
100
AcDbLine
 10
141.0548347796
 20
109.3263832328
 30
0.0
 11
140.6557938281
 21
109.6891799445
 31
0.0
  0
LINE
  5
10C
330
40
100
AcDbEntity
  8
0007712
  6
Continuous
 62
     7
100
AcDbLine
 10
141.0548347796
 20
114.0519766561
 30
0.0
 11
140.6557938281
 21
113.6891799445
 31
0.0
  0
LINE
  5
10D
330
40
100
AcDbEntity
  8
0007712
  6
Continuous
 62
     7
100
AcDbLine
 10
141.0234143624
 20
113.6891799445
 30
0.0
 11
140.9596509369
 21
113.6891799445
 31
0.0
  0
LINE
  5
10E
330
40
100
AcDbEntity
  8
0007712
  6
Continuous
 62
     7
100
AcDbLine
 10
141.3389537701
 20
109.6891799445
 30
0.0
 11
141.4050654647
 21
109.6891799445
 31
0.0
  0
LINE
  5
10F
330
40
100
AcDbEntity
  8
0007712
  6
Continuous
 62
     7
100
AcDbLine
 10
141.3389537701
 20
109.6891799445
 30
0.0
 11
141.3389537701
 21
113.6891799445
 31
0.0
  0
LINE
  5
110
330
40
100
AcDbEntity
  8
0007712
  6
Continuous
 62
     7
100
AcDbLine
 10
141.3389537701
 20
113.6891799445
 30
0.0
 11
141.4170602103
 21
114.0519766561
 31
0.0
  0
LINE
  5
111
330
40
100
AcDbEntity
  8
0007712
  6
Continuous
 62
     7
100
AcDbLine
 10
141.3389537701
 20
109.6891799445
 30
0.0
 11
141.4170602103
 21
109.3263832328
 31
0.0
  0
LINE
  5
112
330
40
100
AcDbEntity
  8
0007712
  6
Continuous
 62
     7
100
AcDbLine
 10
141.0234143624
 20
113.6891799445
 30
0.0
 11
141.0234143624
 21
109.6891799445
 31
0.0
  0
LINE
  5
113
330
40
100
AcDbEntity
  8
0007712
  6
Continuous
 62
     7
100
AcDbLine
 10
141.4170602103
 20
109.3263832328
 30
0.0
 11
141.0234143624
 21
109.6891799445
 31
0.0
  0
LINE
  5
114
330
40
100
AcDbEntity
  8
0007712
  6
Continuous
 62
     7
100
AcDbLine
 10
141.4170602103
 20
114.0519766561
 30
0.0
 11
141.0234143624
 21
113.6891799445
 31
0.0
  0
LINE
  5
115
330
40
100
AcDbEntity
  8
0007712
  6
Continuous
 62
     7
100
AcDbLine
 10
141.4050654647
 20
113.6891799445
 30
0.0
 11
141.3389537701
 21
113.6891799445
 31
0.0
  0
LINE
  5
116
330
40
100
AcDbEntity
  8
0007712
  6
Continuous
 62
     7
100
AcDbLine
 10
141.7317336081
 20
109.6891799445
 30
0.0
 11
141.8000775895
 21
109.6891799445
 31
0.0
  0
LINE
  5
117
330
40
100
AcDbEntity
  8
0007712
  6
Continuous
 62
     7
100
AcDbLine
 10
141.7317336081
 20
109.6891799445
 30
0.0
 11
141.7317336081
 21
113.6891799445
 31
0.0
  0
LINE
  5
118
330
40
100
AcDbEntity
  8
0007712
  6
Continuous
 62
     7
100
AcDbLine
 10
141.7317336081
 20
113.6891799445
 30
0.0
 11
141.7926256206
 21
114.0519766561
 31
0.0
  0
LINE
  5
119
330
40
100
AcDbEntity
  8
0007712
  6
Continuous
 62
     7
100
AcDbLine
 10
141.7317336081
 20
109.6891799445
 30
0.0
 11
141.7926256206
 21
109.3263832328
 31
0.0
  0
LINE
  5
11A
330
40
100
AcDbEntity
  8
0007712
  6
Continuous
 62
     7
100
AcDbLine
 10
141.4050654647
 20
113.6891799445
 30
0.0
 11
141.4050654647
 21
109.6891799445
 31
0.0
  0
LINE
  5
11B
330
40
100
AcDbEntity
  8
0007712
  6
Continuous
 62
     7
100
AcDbLine
 10
141.7926256206
 20
109.3263832328
 30
0.0
 11
141.4050654647
 21
109.6891799445
 31
0.0
  0
LINE
  5
11C
330
40
100
AcDbEntity
  8
0007712
  6
Continuous
 62
     7
100
AcDbLine
 10
141.7926256206
 20
114.0519766561
 30
0.0
 11
141.4050654647
 21
113.6891799445
 31
0.0
  0
LINE
  5
11D
330
40
100
AcDbEntity
  8
0007712
  6
Continuous
 62
     7
100
AcDbLine
 10
141.8000775895
 20
113.6891799445
 30
0.0
 11
141.7317336081
 21
113.6891799445
 31
0.0
  0
LINE
  5
11E
330
40
100
AcDbEntity
  8
0007712
  6
Continuous
 62
     7
100
AcDbLine
 10
142.1373013816
 20
109.6891799445
 30
0.0
 11
142.2077577511
 21
109.6891799445
 31
0.0
  0
LINE
  5
11F
330
40
100
AcDbEntity
  8
0007712
  6
Continuous
 62
     7
100
AcDbLine
 10
142.1373013816
 20
109.6891799445
 30
0.0
 11
142.1373013816
 21
113.6891799445
 31
0.0
  0
LINE
  5
120
330
40
100
AcDbEntity
  8
0007712
  6
Continuous
 62
     7
100
AcDbLine
 10
142.1373013816
 20
113.6891799445
 30
0.0
 11
142.1808721409
 21
114.0519766561
 31
0.0
  0
LINE
  5
121
330
40
100
AcDbEntity
  8
0007712
  6
Continuous
 62
     7
100
AcDbLine
 10
142.1373013816
 20
109.6891799445
 30
0.0
 11
142.1808721409
 21
109.3263832328
 31
0.0
  0
LINE
  5
122
330
40
100
AcDbEntity
  8
0007712
  6
Continuous
 62
     7
100
AcDbLine
 10
141.8000775895
 20
113.6891799445
 30
0.0
 11
141.8000775895
 21
109.6891799445
 31
0.0
  0
LINE
  5
123
330
40
100
AcDbEntity
  8
0007712
  6
Continuous
 62
     7
100
AcDbLine
 10
142.1808721409
 20
109.3263832328
 30
0.0
 11
141.8000775895
 21
109.6891799445
 31
0.0
  0
LINE
  5
124
330
40
100
AcDbEntity
  8
0007712
  6
Continuous
 62
     7
100
AcDbLine
 10
142.1808721409
 20
114.0519766561
 30
0.0
 11
141.8000775895
 21
113.6891799445
 31
0.0
  0
LINE
  5
125
330
40
100
AcDbEntity
  8
0007712
  6
Continuous
 62
     7
100
AcDbLine
 10
142.2077577511
 20
113.6891799445
 30
0.0
 11
142.1373013816
 21
113.6891799445
 31
0.0
  0
LINE
  5
126
330
40
100
AcDbEntity
  8
0007712
  6
Continuous
 62
     7
100
AcDbLine
 10
142.5549455868
 20
109.6891799445
 30
0.0
 11
142.62739074
 21
109.6891799445
 31
0.0
  0
LINE
  5
127
330
40
100
AcDbEntity
  8
0007712
  6
Continuous
 62
     7
100
AcDbLine
 10
142.5549455868
 20
109.6891799445
 30
0.0
 11
142.5549455868
 21
113.6891799445
 31
0.0
  0
LINE
  5
128
330
40
100
AcDbEntity
  8
0007712
  6
Continuous
 62
     7
100
AcDbLine
 10
142.5549455868
 20
113.6891799445
 30
0.0
 11
142.5811186552
 21
114.0519766561
 31
0.0
  0
LINE
  5
129
330
40
100
AcDbEntity
  8
0007712
  6
Continuous
 62
     7
100
AcDbLine
 10
142.5549455868
 20
109.6891799445
 30
0.0
 11
142.5811186552
 21
109.3263832328
 31
0.0
  0
LINE
  5
12A
330
40
100
AcDbEntity
  8
0007712
  6
Continuous
 62
     7
100
AcDbLine
 10
142.2077577511
 20
113.6891799445
 30
0.0
 11
142.2077577511
 21
109.6891799445
 31
0.0
  0
LINE
  5
12B
330
40
100
AcDbEntity
  8
0007712
  6
Continuous
 62
     7
100
AcDbLine
 10
142.5811186552
 20
109.3263832328
 30
0.0
 11
142.2077577511
 21
109.6891799445
 31
0.0
  0
LINE
  5
12C
330
40
100
AcDbEntity
  8
0007712
  6
Continuous
 62
     7
100
AcDbLine
 10
142.5811186552
 20
114.0519766561
 30
0.0
 11
142.2077577511
 21
113.6891799445
 31
0.0
  0
LINE
  5
12D
330
40
100
AcDbEntity
  8
0007712
  6
Continuous
 62
     7
100
AcDbLine
 10
142.62739074
 20
113.6891799445
 30
0.0
 11
142.5549455868
 21
113.6891799445
 31
0.0
  0
LINE
  5
12E
330
40
100
AcDbEntity
  8
0007712
  6
Continuous
 62
     7
100
AcDbLine
 10
142.9839335339
 20
109.6891799445
 30
0.0
 11
143.0582403775
 21
109.6891799445
 31
0.0
  0
LINE
  5
12F
330
40
100
AcDbEntity
  8
0007712
  6
Continuous
 62
     7
100
AcDbLine
 10
142.9839335339
 20
109.6891799445
 30
0.0
 11
142.9839335339
 21
113.6891799445
 31
0.0
  0
LINE
  5
130
330
40
100
AcDbEntity
  8
0007712
  6
Continuous
 62
     7
100
AcDbLine
 10
142.9839335339
 20
113.6891799445
 30
0.0
 11
142.9926629948
 21
114.0519766561
 31
0.0
  0
LINE
  5
131
330
40
100
AcDbEntity
  8
0007712
  6
Continuous
 62
     7
100
AcDbLine
 10
142.9839335339
 20
109.6891799445
 30
0.0
 11
142.9926629948
 21
109.3263832328
 31
0.0
  0
LINE
  5
132
330
40
100
AcDbEntity
  8
0007712
  6
Continuous
 62
     7
100
AcDbLine
 10
142.62739074
 20
113.6891799445
 30
0.0
 11
142.62739074
 21
109.6891799445
 31
0.0
  0
LINE
  5
133
330
40
100
AcDbEntity
  8
0007712
  6
Continuous
 62
     7
100
AcDbLine
 10
142.9926629948
 20
109.3263832328
 30
0.0
 11
142.62739074
 21
109.6891799445
 31
0.0
  0
LINE
  5
134
330
40
100
AcDbEntity
  8
0007712
  6
Continuous
 62
     7
100
AcDbLine
 10
142.9926629948
 20
114.0519766561
 30
0.0
 11
142.62739074
 21
113.6891799445
 31
0.0
  0
LINE
  5
135
330
40
100
AcDbEntity
  8
0007712
  6
Continuous
 62
     7
100
AcDbLine
 10
143.0582403775
 20
113.6891799445
 30
0.0
 11
142.9839335339
 21
113.6891799445
 31
0.0
  0
LINE
  5
136
330
40
100
AcDbEntity
  8
0007712
  6
Continuous
 62
     7
100
AcDbLine
 10
143.4235126323
 20
109.6891799445
 30
0.0
 11
143.4995508067
 21
109.6891799445
 31
0.0
  0
LINE
  5
137
330
40
100
AcDbEntity
  8
0007712
  6
Continuous
 62
     7
100
AcDbLine
 10
143.4235126323
 20
109.6891799445
 30
0.0
 11
143.4235126323
 21
113.6891799445
 31
0.0
  0
LINE
  5
138
330
40
100
AcDbEntity
  8
0007712
  6
Continuous
 62
     7
100
AcDbLine
 10
143.4235126323
 20
113.6891799445
 30
0.0
 11
143.4147831713
 21
114.0519766561
 31
0.0
  0
LINE
  5
139
330
40
100
AcDbEntity
  8
0007712
  6
Continuous
 62
     7
100
AcDbLine
 10
143.4147831713
 20
109.3263832328
 30
0.0
 11
143.4147831713
 21
114.0519766561
 31
0.0
  0
LINE
  5
13A
330
40
100
AcDbEntity
  8
0007712
  6
Continuous
 62
     7
100
AcDbLine
 10
143.4235126323
 20
109.6891799445
 30
0.0
 11
143.4147831713
 21
109.3263832328
 31
0.0
  0
LINE
  5
13B
330
40
100
AcDbEntity
  8
0007712
  6
Continuous
 62
     7
100
AcDbLine
 10
143.0582403775
 20
113.6891799445
 30
0.0
 11
143.0582403775
 21
109.6891799445
 31
0.0
  0
LINE
  5
13C
330
40
100
AcDbEntity
  8
0007712
  6
Continuous
 62
     7
100
AcDbLine
 10
143.4147831713
 20
109.3263832328
 30
0.0
 11
143.0582403775
 21
109.6891799445
 31
0.0
  0
LINE
  5
13D
330
40
100
AcDbEntity
  8
0007712
  6
Continuous
 62
     7
100
AcDbLine
 10
143.4147831713
 20
114.0519766561
 30
0.0
 11
143.0582403775
 21
113.6891799445
 31
0.0
  0
LINE
  5
13E
330
40
100
AcDbEntity
  8
0007712
  6
Continuous
 62
     7
100
AcDbLine
 10
143.4995508067
 20
113.6891799445
 30
0.0
 11
143.4235126323
 21
113.6891799445
 31
0.0
  0
LINE
  5
13F
330
40
100
AcDbEntity
  8
0007712
  6
Continuous
 62
     7
100
AcDbLine
 10
143.8729117108
 20
109.6891799445
 30
0.0
 11
143.9505478193
 21
109.6891799445
 31
0.0
  0
LINE
  5
140
330
40
100
AcDbEntity
  8
0007712
  6
Continuous
 62
     7
100
AcDbLine
 10
143.8729117108
 20
109.6891799445
 30
0.0
 11
143.8729117108
 21
113.6891799445
 31
0.0
  0
LINE
  5
141
330
40
100
AcDbEntity
  8
0007712
  6
Continuous
 62
     7
100
AcDbLine
 10
143.8729117108
 20
113.6891799445
 30
0.0
 11
143.8467386424
 21
114.0519766561
 31
0.0
  0
LINE
  5
142
330
40
100
AcDbEntity
  8
0007712
  6
Continuous
 62
     7
100
AcDbLine
 10
143.8467386424
 20
109.3263832328
 30
0.0
 11
143.8467386424
 21
114.0519766561
 31
0.0
  0
LINE
  5
143
330
40
100
AcDbEntity
  8
0007712
  6
Continuous
 62
     7
100
AcDbLine
 10
143.8729117108
 20
109.6891799445
 30
0.0
 11
143.8467386424
 21
109.3263832328
 31
0.0
  0
LINE
  5
144
330
40
100
AcDbEntity
  8
0007712
  6
Continuous
 62
     7
100
AcDbLine
 10
143.4995508067
 20
113.6891799445
 30
0.0
 11
143.4995508067
 21
109.6891799445
 31
0.0
  0
LINE
  5
145
330
40
100
AcDbEntity
  8
0007712
  6
Continuous
 62
     7
100
AcDbLine
 10
143.8467386424
 20
109.3263832328
 30
0.0
 11
143.4995508067
 21
109.6891799445
 31
0.0
  0
LINE
  5
146
330
40
100
AcDbEntity
  8
0007712
  6
Continuous
 62
     7
100
AcDbLine
 10
143.8467386424
 20
114.0519766561
 30
0.0
 11
143.4995508067
 21
113.6891799445
 31
0.0
  0
LINE
  5
147
330
40
100
AcDbEntity
  8
0007712
  6
Continuous
 62
     7
100
AcDbLine
 10
143.9505478193
 20
113.6891799445
 30
0.0
 11
143.8729117108
 21
113.6891799445
 31
0.0
  0
LINE
  5
148
330
40
100
AcDbEntity
  8
0007712
  6
Continuous
 62
     7
100
AcDbLine
 10
144.3313423708
 20
109.6891799445
 30
0.0
 11
144.4104402133
 21
109.6891799445
 31
0.0
  0
LINE
  5
149
330
40
100
AcDbEntity
  8
0007712
  6
Continuous
 62
     7
100
AcDbLine
 10
144.3313423708
 20
109.6891799445
 30
0.0
 11
144.3313423708
 21
113.6891799445
 31
0.0
  0
LINE
  5
14A
330
40
100
AcDbEntity
  8
0007712
  6
Continuous
 62
     7
100
AcDbLine
 10
144.3313423708
 20
113.6891799445
 30
0.0
 11
144.2877716115
 21
114.0519766561
 31
0.0
  0
LINE
  5
14B
330
40
100
AcDbEntity
  8
0007712
  6
Continuous
 62
     7
100
AcDbLine
 10
144.2877716115
 20
109.3263832328
 30
0.0
 11
144.2877716115
 21
114.0519766561
 31
0.0
  0
LINE
  5
14C
330
40
100
AcDbEntity
  8
0007712
  6
Continuous
 62
     7
100
AcDbLine
 10
144.3313423708
 20
109.6891799445
 30
0.0
 11
144.2877716115
 21
109.3263832328
 31
0.0
  0
LINE
  5
14D
330
40
100
AcDbEntity
  8
0007712
  6
Continuous
 62
     7
100
AcDbLine
 10
143.9505478193
 20
113.6891799445
 30
0.0
 11
143.9505478193
 21
109.6891799445
 31
0.0
  0
LINE
  5
14E
330
40
100
AcDbEntity
  8
0007712
  6
Continuous
 62
     7
100
AcDbLine
 10
144.2877716115
 20
109.3263832328
 30
0.0
 11
143.9505478193
 21
109.6891799445
 31
0.0
  0
LINE
  5
14F
330
40
100
AcDbEntity
  8
0007712
  6
Continuous
 62
     7
100
AcDbLine
 10
144.2877716115
 20
114.0519766561
 30
0.0
 11
143.9505478193
 21
113.6891799445
 31
0.0
  0
LINE
  5
150
330
40
100
AcDbEntity
  8
0007712
  6
Continuous
 62
     7
100
AcDbLine
 10
144.4104402133
 20
113.6891799445
 30
0.0
 11
144.3313423708
 21
113.6891799445
 31
0.0
  0
LINE
  5
151
330
40
100
AcDbEntity
  8
0007712
  6
Continuous
 62
     7
100
AcDbLine
 10
144.7980003691
 20
109.6891799445
 30
0.0
 11
144.8784211811
 21
109.6891799445
 31
0.0
  0
LINE
  5
152
330
40
100
AcDbEntity
  8
0007712
  6
Continuous
 62
     7
100
AcDbLine
 10
144.7980003691
 20
109.6891799445
 30
0.0
 11
144.7980003691
 21
113.6891799445
 31
0.0
  0
LINE
  5
153
330
40
100
AcDbEntity
  8
0007712
  6
Continuous
 62
     7
100
AcDbLine
 10
144.7980003691
 20
113.6891799445
 30
0.0
 11
144.7371083567
 21
114.0519766561
 31
0.0
  0
LINE
  5
154
330
40
100
AcDbEntity
  8
0007712
  6
Continuous
 62
     7
100
AcDbLine
 10
144.7371083567
 20
109.3263832328
 30
0.0
 11
144.7371083567
 21
114.0519766561
 31
0.0
  0
LINE
  5
155
330
40
100
AcDbEntity
  8
0007712
  6
Continuous
 62
     7
100
AcDbLine
 10
144.7980003691
 20
109.6891799445
 30
0.0
 11
144.7371083567
 21
109.3263832328
 31
0.0
  0
LINE
  5
156
330
40
100
AcDbEntity
  8
0007712
  6
Continuous
 62
     7
100
AcDbLine
 10
144.4104402133
 20
113.6891799445
 30
0.0
 11
144.4104402133
 21
109.6891799445
 31
0.0
  0
LINE
  5
157
330
40
100
AcDbEntity
  8
0007712
  6
Continuous
 62
     7
100
AcDbLine
 10
144.7371083567
 20
109.3263832328
 30
0.0
 11
144.4104402133
 21
109.6891799445
 31
0.0
  0
LINE
  5
158
330
40
100
AcDbEntity
  8
0007712
  6
Continuous
 62
     7
100
AcDbLine
 10
144.7371083567
 20
114.0519766561
 30
0.0
 11
144.4104402133
 21
113.6891799445
 31
0.0
  0
LINE
  5
159
330
40
100
AcDbEntity
  8
0007712
  6
Continuous
 62
     7
100
AcDbLine
 10
144.8784211811
 20
113.6891799445
 30
0.0
 11
144.7980003691
 21
113.6891799445
 31
0.0
  0
LINE
  5
15A
330
40
100
AcDbEntity
  8
0007712
  6
Continuous
 62
     7
100
AcDbLine
 10
145.2720670291
 20
109.6891799445
 30
0.0
 11
145.3536697251
 21
109.6891799445
 31
0.0
  0
LINE
  5
15B
330
40
100
AcDbEntity
  8
0007712
  6
Continuous
 62
     7
100
AcDbLine
 10
145.2720670291
 20
109.6891799445
 30
0.0
 11
145.2720670291
 21
113.6891799445
 31
0.0
  0
LINE
  5
15C
330
40
100
AcDbEntity
  8
0007712
  6
Continuous
 62
     7
100
AcDbLine
 10
145.2720670291
 20
113.6891799445
 30
0.0
 11
145.1939605889
 21
114.0519766561
 31
0.0
  0
LINE
  5
15D
330
40
100
AcDbEntity
  8
0007712
  6
Continuous
 62
     7
100
AcDbLine
 10
145.1939605889
 20
109.3263832328
 30
0.0
 11
145.1939605889
 21
114.0519766561
 31
0.0
  0
LINE
  5
15E
330
40
100
AcDbEntity
  8
0007712
  6
Continuous
 62
     7
100
AcDbLine
 10
145.2720670291
 20
109.6891799445
 30
0.0
 11
145.1939605889
 21
109.3263832328
 31
0.0
  0
LINE
  5
15F
330
40
100
AcDbEntity
  8
0007712
  6
Continuous
 62
     7
100
AcDbLine
 10
144.8784211811
 20
113.6891799445
 30
0.0
 11
144.8784211811
 21
109.6891799445
 31
0.0
  0
LINE
  5
160
330
40
100
AcDbEntity
  8
0007712
  6
Continuous
 62
     7
100
AcDbLine
 10
145.1939605889
 20
109.3263832328
 30
0.0
 11
144.8784211811
 21
109.6891799445
 31
0.0
  0
LINE
  5
161
330
40
100
AcDbEntity
  8
0007712
  6
Continuous
 62
     7
100
AcDbLine
 10
145.1939605889
 20
114.0519766561
 30
0.0
 11
144.8784211811
 21
113.6891799445
 31
0.0
  0
LINE
  5
162
330
40
100
AcDbEntity
  8
0007712
  6
Continuous
 62
     7
100
AcDbLine
 10
145.3536697251
 20
113.6891799445
 30
0.0
 11
145.2720670291
 21
113.6891799445
 31
0.0
  0
LINE
  5
163
330
40
100
AcDbEntity
  8
0007712
  6
Continuous
 62
     7
100
AcDbLine
 10
145.7527106766
 20
109.6891799445
 30
0.0
 11
145.8353520979
 21
109.6891799445
 31
0.0
  0
LINE
  5
164
330
40
100
AcDbEntity
  8
0007712
  6
Continuous
 62
     7
100
AcDbLine
 10
145.7527106766
 20
109.6891799445
 30
0.0
 11
145.7527106766
 21
113.6891799445
 31
0.0
  0
LINE
  5
165
330
40
100
AcDbEntity
  8
0007712
  6
Continuous
 62
     7
100
AcDbLine
 10
145.7527106766
 20
113.6891799445
 30
0.0
 11
145.6575268339
 21
114.0519766561
 31
0.0
  0
LINE
  5
166
330
40
100
AcDbEntity
  8
0007712
  6
Continuous
 62
     7
100
AcDbLine
 10
145.6575268339
 20
109.3263832328
 30
0.0
 11
145.6575268339
 21
114.0519766561
 31
0.0
  0
LINE
  5
167
330
40
100
AcDbEntity
  8
0007712
  6
Continuous
 62
     7
100
AcDbLine
 10
145.7527106766
 20
109.6891799445
 30
0.0
 11
145.6575268339
 21
109.3263832328
 31
0.0
  0
LINE
  5
168
330
40
100
AcDbEntity
  8
0007712
  6
Continuous
 62
     7
100
AcDbLine
 10
145.3536697251
 20
113.6891799445
 30
0.0
 11
145.3536697251
 21
109.6891799445
 31
0.0
  0
LINE
  5
169
330
40
100
AcDbEntity
  8
0007712
  6
Continuous
 62
     7
100
AcDbLine
 10
145.6575268339
 20
109.3263832328
 30
0.0
 11
145.3536697251
 21
109.6891799445
 31
0.0
  0
LINE
  5
16A
330
40
100
AcDbEntity
  8
0007712
  6
Continuous
 62
     7
100
AcDbLine
 10
145.6575268339
 20
114.0519766561
 30
0.0
 11
145.3536697251
 21
113.6891799445
 31
0.0
  0
LINE
  5
16B
330
40
100
AcDbEntity
  8
0007712
  6
Continuous
 62
     7
100
AcDbLine
 10
145.8353520979
 20
113.6891799445
 30
0.0
 11
145.7527106766
 21
113.6891799445
 31
0.0
  0
LINE
  5
16C
330
40
100
AcDbEntity
  8
0007712
  6
Continuous
 62
     7
100
AcDbLine
 10
146.2390880995
 20
109.6891799445
 30
0.0
 11
146.3226232648
 21
109.6891799445
 31
0.0
  0
LINE
  5
16D
330
40
100
AcDbEntity
  8
0007712
  6
Continuous
 62
     7
100
AcDbLine
 10
146.2390880995
 20
109.6891799445
 30
0.0
 11
146.2390880995
 21
113.6891799445
 31
0.0
  0
LINE
  5
16E
330
40
100
AcDbEntity
  8
0007712
  6
Continuous
 62
     7
100
AcDbLine
 10
146.2390880995
 20
113.6891799445
 30
0.0
 11
146.1269938391
 21
114.0519766561
 31
0.0
  0
LINE
  5
16F
330
40
100
AcDbEntity
  8
0007712
  6
Continuous
 62
     7
100
AcDbLine
 10
146.1269938391
 20
109.3263832328
 30
0.0
 11
146.1269938391
 21
114.0519766561
 31
0.0
  0
LINE
  5
170
330
40
100
AcDbEntity
  8
0007712
  6
Continuous
 62
     7
100
AcDbLine
 10
146.2390880995
 20
109.6891799445
 30
0.0
 11
146.1269938391
 21
109.3263832328
 31
0.0
  0
LINE
  5
171
330
40
100
AcDbEntity
  8
0007712
  6
Continuous
 62
     7
100
AcDbLine
 10
145.8353520979
 20
113.6891799445
 30
0.0
 11
145.8353520979
 21
109.6891799445
 31
0.0
  0
LINE
  5
172
330
40
100
AcDbEntity
  8
0007712
  6
Continuous
 62
     7
100
AcDbLine
 10
146.1269938391
 20
109.3263832328
 30
0.0
 11
145.8353520979
 21
109.6891799445
 31
0.0
  0
LINE
  5
173
330
40
100
AcDbEntity
  8
0007712
  6
Continuous
 62
     7
100
AcDbLine
 10
146.1269938391
 20
114.0519766561
 30
0.0
 11
145.8353520979
 21
113.6891799445
 31
0.0
  0
LINE
  5
174
330
40
100
AcDbEntity
  8
0007712
  6
Continuous
 62
     7
100
AcDbLine
 10
146.3226232648
 20
113.6891799445
 30
0.0
 11
146.2390880995
 21
113.6891799445
 31
0.0
  0
LINE
  5
175
330
40
100
AcDbEntity
  8
0007712
  6
Continuous
 62
     7
100
AcDbLine
 10
146.7303460265
 20
109.6891799445
 30
0.0
 11
146.8146283867
 21
109.6891799445
 31
0.0
  0
LINE
  5
176
330
40
100
AcDbEntity
  8
0007712
  6
Continuous
 62
     7
100
AcDbLine
 10
146.7303460265
 20
109.6891799445
 30
0.0
 11
146.7303460265
 21
113.6891799445
 31
0.0
  0
LINE
  5
177
330
40
100
AcDbEntity
  8
0007712
  6
Continuous
 62
     7
100
AcDbLine
 10
146.7303460265
 20
113.6891799445
 30
0.0
 11
146.6015379997
 21
114.0519766561
 31
0.0
  0
LINE
  5
178
330
40
100
AcDbEntity
  8
0007712
  6
Continuous
 62
     7
100
AcDbLine
 10
146.6015379997
 20
109.3263832328
 30
0.0
 11
146.6015379997
 21
114.0519766561
 31
0.0
  0
LINE
  5
179
330
40
100
AcDbEntity
  8
0007712
  6
Continuous
 62
     7
100
AcDbLine
 10
146.7303460265
 20
109.6891799445
 30
0.0
 11
146.6015379997
 21
109.3263832328
 31
0.0
  0
LINE
  5
17A
330
40
100
AcDbEntity
  8
0007712
  6
Continuous
 62
     7
100
AcDbLine
 10
146.3226232648
 20
113.6891799445
 30
0.0
 11
146.3226232648
 21
109.6891799445
 31
0.0
  0
LINE
  5
17B
330
40
100
AcDbEntity
  8
0007712
  6
Continuous
 62
     7
100
AcDbLine
 10
146.6015379997
 20
109.3263832328
 30
0.0
 11
146.3226232648
 21
109.6891799445
 31
0.0
  0
LINE
  5
17C
330
40
100
AcDbEntity
  8
0007712
  6
Continuous
 62
     7
100
AcDbLine
 10
146.6015379997
 20
114.0519766561
 30
0.0
 11
146.3226232648
 21
113.6891799445
 31
0.0
  0
LINE
  5
17D
330
40
100
AcDbEntity
  8
0007712
  6
Continuous
 62
     7
100
AcDbLine
 10
146.8146283867
 20
113.6891799445
 30
0.0
 11
146.7303460265
 21
113.6891799445
 31
0.0
  0
LINE
  5
17E
330
40
100
AcDbEntity
  8
0007712
  6
Continuous
 62
     7
100
AcDbLine
 10
147.2256226241
 20
109.6891799445
 30
0.0
 11
147.3105043195
 21
109.6891799445
 31
0.0
  0
LINE
  5
17F
330
40
100
AcDbEntity
  8
0007712
  6
Continuous
 62
     7
100
AcDbLine
 10
147.2256226241
 20
109.6891799445
 30
0.0
 11
147.2256226241
 21
113.6891799445
 31
0.0
  0
LINE
  5
180
330
40
100
AcDbEntity
  8
0007712
  6
Continuous
 62
     7
100
AcDbLine
 10
147.2256226241
 20
113.6891799445
 30
0.0
 11
147.0803268041
 21
114.0519766561
 31
0.0
  0
LINE
  5
181
330
40
100
AcDbEntity
  8
0007712
  6
Continuous
 62
     7
100
AcDbLine
 10
147.0803268041
 20
109.3263832328
 30
0.0
 11
147.0803268041
 21
114.0519766561
 31
0.0
  0
LINE
  5
182
330
40
100
AcDbEntity
  8
0007712
  6
Continuous
 62
     7
100
AcDbLine
 10
147.2256226241
 20
109.6891799445
 30
0.0
 11
147.0803268041
 21
109.3263832328
 31
0.0
  0
LINE
  5
183
330
40
100
AcDbEntity
  8
0007712
  6
Continuous
 62
     7
100
AcDbLine
 10
146.8146283867
 20
113.6891799445
 30
0.0
 11
146.8146283867
 21
109.6891799445
 31
0.0
  0
LINE
  5
184
330
40
100
AcDbEntity
  8
0007712
  6
Continuous
 62
     7
100
AcDbLine
 10
147.0803268041
 20
109.3263832328
 30
0.0
 11
146.8146283867
 21
109.6891799445
 31
0.0
  0
LINE
  5
185
330
40
100
AcDbEntity
  8
0007712
  6
Continuous
 62
     7
100
AcDbLine
 10
147.0803268041
 20
114.0519766561
 30
0.0
 11
146.8146283867
 21
113.6891799445
 31
0.0
  0
LINE
  5
186
330
40
100
AcDbEntity
  8
0007712
  6
Continuous
 62
     7
100
AcDbLine
 10
147.3105043195
 20
113.6891799445
 30
0.0
 11
147.2256226241
 21
113.6891799445
 31
0.0
  0
LINE
  5
187
330
40
100
AcDbEntity
  8
0007712
  6
Continuous
 62
     7
100
AcDbLine
 10
147.7240490091
 20
109.6891799445
 30
0.0
 11
147.8093811282
 21
109.6891799445
 31
0.0
  0
LINE
  5
188
330
40
100
AcDbEntity
  8
0007712
  6
Continuous
 62
     7
100
AcDbLine
 10
147.7240490091
 20
109.6891799445
 30
0.0
 11
147.7240490091
 21
113.6891799445
 31
0.0
  0
LINE
  5
189
330
40
100
AcDbEntity
  8
0007712
  6
Continuous
 62
     7
100
AcDbLine
 10
147.7240490091
 20
113.6891799445
 30
0.0
 11
147.562520294
 21
114.0519766561
 31
0.0
  0
LINE
  5
18A
330
40
100
AcDbEntity
  8
0007712
  6
Continuous
 62
     7
100
AcDbLine
 10
147.562520294
 20
109.3263832328
 30
0.0
 11
147.562520294
 21
114.0519766561
 31
0.0
  0
LINE
  5
18B
330
40
100
AcDbEntity
  8
0007712
  6
Continuous
 62
     7
100
AcDbLine
 10
147.7240490091
 20
109.6891799445
 30
0.0
 11
147.562520294
 21
109.3263832328
 31
0.0
  0
LINE
  5
18C
330
40
100
AcDbEntity
  8
0007712
  6
Continuous
 62
     7
100
AcDbLine
 10
147.3105043195
 20
113.6891799445
 30
0.0
 11
147.3105043195
 21
109.6891799445
 31
0.0
  0
LINE
  5
18D
330
40
100
AcDbEntity
  8
0007712
  6
Continuous
 62
     7
100
AcDbLine
 10
147.562520294
 20
109.3263832328
 30
0.0
 11
147.3105043195
 21
109.6891799445
 31
0.0
  0
LINE
  5
18E
330
40
100
AcDbEntity
  8
0007712
  6
Continuous
 62
     7
100
AcDbLine
 10
147.562520294
 20
114.0519766561
 30
0.0
 11
147.3105043195
 21
113.6891799445
 31
0.0
  0
LINE
  5
18F
330
40
100
AcDbEntity
  8
0007712
  6
Continuous
 62
     7
100
AcDbLine
 10
147.8093811282
 20
113.6891799445
 30
0.0
 11
147.7240490091
 21
113.6891799445
 31
0.0
  0
LINE
  5
190
330
40
100
AcDbEntity
  8
0007712
  6
Continuous
 62
     7
100
AcDbLine
 10
148.224750772
 20
109.6891799445
 30
0.0
 11
148.3103836133
 21
109.6891799445
 31
0.0
  0
LINE
  5
191
330
40
100
AcDbEntity
  8
0007712
  6
Continuous
 62
     7
100
AcDbLine
 10
148.224750772
 20
109.6891799445
 30
0.0
 11
148.224750772
 21
113.6891799445
 31
0.0
  0
LINE
  5
192
330
40
100
AcDbEntity
  8
0007712
  6
Continuous
 62
     7
100
AcDbLine
 10
148.224750772
 20
113.6891799445
 30
0.0
 11
148.0472725382
 21
114.0519766561
 31
0.0
  0
LINE
  5
193
330
40
100
AcDbEntity
  8
0007712
  6
Continuous
 62
     7
100
AcDbLine
 10
148.0472725382
 20
109.3263832328
 30
0.0
 11
148.0472725382
 21
114.0519766561
 31
0.0
  0
LINE
  5
194
330
40
100
AcDbEntity
  8
0007712
  6
Continuous
 62
     7
100
AcDbLine
 10
148.224750772
 20
109.6891799445
 30
0.0
 11
148.0472725382
 21
109.3263832328
 31
0.0
  0
LINE
  5
195
330
40
100
AcDbEntity
  8
0007712
  6
Continuous
 62
     7
100
AcDbLine
 10
147.8093811282
 20
113.6891799445
 30
0.0
 11
147.8093811282
 21
109.6891799445
 31
0.0
  0
LINE
  5
196
330
40
100
AcDbEntity
  8
0007712
  6
Continuous
 62
     7
100
AcDbLine
 10
148.0472725382
 20
109.3263832328
 30
0.0
 11
147.8093811282
 21
109.6891799445
 31
0.0
  0
LINE
  5
197
330
40
100
AcDbEntity
  8
0007712
  6
Continuous
 62
     7
100
AcDbLine
 10
148.0472725382
 20
114.0519766561
 30
0.0
 11
147.8093811282
 21
113.6891799445
 31
0.0
  0
LINE
  5
198
330
40
100
AcDbEntity
  8
0007712
  6
Continuous
 62
     7
100
AcDbLine
 10
148.3103836133
 20
113.6891799445
 30
0.0
 11
148.224750772
 21
113.6891799445
 31
0.0
  0
LINE
  5
199
330
40
100
AcDbEntity
  8
0007712
  6
Continuous
 62
     7
100
AcDbLine
 10
148.726849512
 20
109.6891799445
 30
0.0
 11
148.8126328464
 21
109.6891799445
 31
0.0
  0
LINE
  5
19A
330
40
100
AcDbEntity
  8
0007712
  6
Continuous
 62
     7
100
AcDbLine
 10
148.726849512
 20
109.6891799445
 30
0.0
 11
148.726849512
 21
113.6891799445
 31
0.0
  0
LINE
  5
19B
330
40
100
AcDbEntity
  8
0007712
  6
Continuous
 62
     7
100
AcDbLine
 10
148.726849512
 20
113.6891799445
 30
0.0
 11
148.5337331165
 21
114.0519766561
 31
0.0
  0
LINE
  5
19C
330
40
100
AcDbEntity
  8
0007712
  6
Continuous
 62
     7
100
AcDbLine
 10
148.5337331165
 20
109.3263832328
 30
0.0
 11
148.5337331165
 21
114.0519766561
 31
0.0
  0
LINE
  5
19D
330
40
100
AcDbEntity
  8
0007712
  6
Continuous
 62
     7
100
AcDbLine
 10
148.726849512
 20
109.6891799445
 30
0.0
 11
148.5337331165
 21
109.3263832328
 31
0.0
  0
LINE
  5
19E
330
40
100
AcDbEntity
  8
0007712
  6
Continuous
 62
     7
100
AcDbLine
 10
148.3103836133
 20
113.6891799445
 30
0.0
 11
148.3103836133
 21
109.6891799445
 31
0.0
  0
LINE
  5
19F
330
40
100
AcDbEntity
  8
0007712
  6
Continuous
 62
     7
100
AcDbLine
 10
148.5337331165
 20
109.3263832328
 30
0.0
 11
148.3103836133
 21
109.6891799445
 31
0.0
  0
LINE
  5
1A0
330
40
100
AcDbEntity
  8
0007712
  6
Continuous
 62
     7
100
AcDbLine
 10
148.5337331165
 20
114.0519766561
 30
0.0
 11
148.3103836133
 21
113.6891799445
 31
0.0
  0
LINE
  5
1A1
330
40
100
AcDbEntity
  8
0007712
  6
Continuous
 62
     7
100
AcDbLine
 10
148.8126328464
 20
113.6891799445
 30
0.0
 11
148.726849512
 21
113.6891799445
 31
0.0
  0
LINE
  5
1A2
330
40
100
AcDbEntity
  8
0007712
  6
Continuous
 62
     7
100
AcDbLine
 10
149.2294643771
 20
109.6891799445
 30
0.0
 11
149.3152477115
 21
109.6891799445
 31
0.0
  0
LINE
  5
1A3
330
40
100
AcDbEntity
  8
0007712
  6
Continuous
 62
     7
100
AcDbLine
 10
149.2294643771
 20
109.6891799445
 30
0.0
 11
149.2294643771
 21
113.6891799445
 31
0.0
  0
LINE
  5
1A4
330
40
100
AcDbEntity
  8
0007712
  6
Continuous
 62
     7
100
AcDbLine
 10
149.2294643771
 20
113.6891799445
 30
0.0
 11
149.0210486118
 21
114.0519766561
 31
0.0
  0
LINE
  5
1A5
330
40
100
AcDbEntity
  8
0007712
  6
Continuous
 62
     7
100
AcDbLine
 10
149.0210486118
 20
109.3263832328
 30
0.0
 11
149.0210486118
 21
114.0519766561
 31
0.0
  0
LINE
  5
1A6
330
40
100
AcDbEntity
  8
0007712
  6
Continuous
 62
     7
100
AcDbLine
 10
149.2294643771
 20
109.6891799445
 30
0.0
 11
149.0210486118
 21
109.3263832328
 31
0.0
  0
LINE
  5
1A7
330
40
100
AcDbEntity
  8
0007712
  6
Continuous
 62
     7
100
AcDbLine
 10
148.8126328464
 20
113.6891799445
 30
0.0
 11
148.8126328464
 21
109.6891799445
 31
0.0
  0
LINE
  5
1A8
330
40
100
AcDbEntity
  8
0007712
  6
Continuous
 62
     7
100
AcDbLine
 10
149.0210486118
 20
109.3263832328
 30
0.0
 11
148.8126328464
 21
109.6891799445
 31
0.0
  0
LINE
  5
1A9
330
40
100
AcDbEntity
  8
0007712
  6
Continuous
 62
     7
100
AcDbLine
 10
149.0210486118
 20
114.0519766561
 30
0.0
 11
148.8126328464
 21
113.6891799445
 31
0.0
  0
LINE
  5
1AA
330
40
100
AcDbEntity
  8
0007712
  6
Continuous
 62
     7
100
AcDbLine
 10
149.3152477115
 20
113.6891799445
 30
0.0
 11
149.2294643771
 21
113.6891799445
 31
0.0
  0
LINE
  5
1AB
330
40
100
AcDbEntity
  8
0007712
  6
Continuous
 62
     7
100
AcDbLine
 10
149.7317136102
 20
109.6891799445
 30
0.0
 11
149.8173464515
 21
109.6891799445
 31
0.0
  0
LINE
  5
1AC
330
40
100
AcDbEntity
  8
0007712
  6
Continuous
 62
     7
100
AcDbLine
 10
149.7317136102
 20
109.6891799445
 30
0.0
 11
149.7317136102
 21
113.6891799445
 31
0.0
  0
LINE
  5
1AD
330
40
100
AcDbEntity
  8
0007712
  6
Continuous
 62
     7
100
AcDbLine
 10
149.7317136102
 20
113.6891799445
 30
0.0
 11
149.508364107
 21
114.0519766561
 31
0.0
  0
LINE
  5
1AE
330
40
100
AcDbEntity
  8
0007712
  6
Continuous
 62
     7
100
AcDbLine
 10
149.508364107
 20
109.3263832328
 30
0.0
 11
149.508364107
 21
114.0519766561
 31
0.0
  0
LINE
  5
1AF
330
40
100
AcDbEntity
  8
0007712
  6
Continuous
 62
     7
100
AcDbLine
 10
149.7317136102
 20
109.6891799445
 30
0.0
 11
149.508364107
 21
109.3263832328
 31
0.0
  0
LINE
  5
1B0
330
40
100
AcDbEntity
  8
0007712
  6
Continuous
 62
     7
100
AcDbLine
 10
149.3152477115
 20
113.6891799445
 30
0.0
 11
149.3152477115
 21
109.6891799445
 31
0.0
  0
LINE
  5
1B1
330
40
100
AcDbEntity
  8
0007712
  6
Continuous
 62
     7
100
AcDbLine
 10
149.508364107
 20
109.3263832328
 30
0.0
 11
149.3152477115
 21
109.6891799445
 31
0.0
  0
LINE
  5
1B2
330
40
100
AcDbEntity
  8
0007712
  6
Continuous
 62
     7
100
AcDbLine
 10
149.508364107
 20
114.0519766561
 30
0.0
 11
149.3152477115
 21
113.6891799445
 31
0.0
  0
LINE
  5
1B3
330
40
100
AcDbEntity
  8
0007712
  6
Continuous
 62
     7
100
AcDbLine
 10
149.8173464515
 20
113.6891799445
 30
0.0
 11
149.7317136102
 21
113.6891799445
 31
0.0
  0
LINE
  5
1B4
330
40
100
AcDbEntity
  8
0007712
  6
Continuous
 62
     7
100
AcDbLine
 10
150.2327160954
 20
109.6891799445
 30
0.0
 11
150.3180482145
 21
109.6891799445
 31
0.0
  0
LINE
  5
1B5
330
40
100
AcDbEntity
  8
0007712
  6
Continuous
 62
     7
100
AcDbLine
 10
150.2327160954
 20
109.6891799445
 30
0.0
 11
150.2327160954
 21
113.6891799445
 31
0.0
  0
LINE
  5
1B6
330
40
100
AcDbEntity
  8
0007712
  6
Continuous
 62
     7
100
AcDbLine
 10
150.2327160954
 20
113.6891799445
 30
0.0
 11
149.9948246853
 21
114.0519766561
 31
0.0
  0
LINE
  5
1B7
330
40
100
AcDbEntity
  8
0007712
  6
Continuous
 62
     7
100
AcDbLine
 10
149.9948246853
 20
109.3263832328
 30
0.0
 11
149.9948246853
 21
114.0519766561
 31
0.0
  0
LINE
  5
1B8
330
40
100
AcDbEntity
  8
0007712
  6
Continuous
 62
     7
100
AcDbLine
 10
150.2327160954
 20
109.6891799445
 30
0.0
 11
149.9948246853
 21
109.3263832328
 31
0.0
  0
LINE
  5
1B9
330
40
100
AcDbEntity
  8
0007712
  6
Continuous
 62
     7
100
AcDbLine
 10
149.8173464515
 20
113.6891799445
 30
0.0
 11
149.8173464515
 21
109.6891799445
 31
0.0
  0
LINE
  5
1BA
330
40
100
AcDbEntity
  8
0007712
  6
Continuous
 62
     7
100
AcDbLine
 10
149.9948246853
 20
109.3263832328
 30
0.0
 11
149.8173464515
 21
109.6891799445
 31
0.0
  0
LINE
  5
1BB
330
40
100
AcDbEntity
  8
0007712
  6
Continuous
 62
     7
100
AcDbLine
 10
149.9948246853
 20
114.0519766561
 30
0.0
 11
149.8173464515
 21
113.6891799445
 31
0.0
  0
LINE
  5
1BC
330
40
100
AcDbEntity
  8
0007712
  6
Continuous
 62
     7
100
AcDbLine
 10
150.3180482145
 20
113.6891799445
 30
0.0
 11
150.2327160954
 21
113.6891799445
 31
0.0
  0
LINE
  5
1BD
330
40
100
AcDbEntity
  8
0007712
  6
Continuous
 62
     7
100
AcDbLine
 10
150.731592904
 20
109.6891799445
 30
0.0
 11
150.8164745994
 21
109.6891799445
 31
0.0
  0
LINE
  5
1BE
330
40
100
AcDbEntity
  8
0007712
  6
Continuous
 62
     7
100
AcDbLine
 10
150.731592904
 20
109.6891799445
 30
0.0
 11
150.731592904
 21
113.6891799445
 31
0.0
  0
LINE
  5
1BF
330
40
100
AcDbEntity
  8
0007712
  6
Continuous
 62
     7
100
AcDbLine
 10
150.731592904
 20
113.6891799445
 30
0.0
 11
150.4795769295
 21
114.0519766561
 31
0.0
  0
LINE
  5
1C0
330
40
100
AcDbEntity
  8
0007712
  6
Continuous
 62
     7
100
AcDbLine
 10
150.4795769295
 20
109.3263832328
 30
0.0
 11
150.4795769295
 21
114.0519766561
 31
0.0
  0
LINE
  5
1C1
330
40
100
AcDbEntity
  8
0007712
  6
Continuous
 62
     7
100
AcDbLine
 10
150.731592904
 20
109.6891799445
 30
0.0
 11
150.4795769295
 21
109.3263832328
 31
0.0
  0
LINE
  5
1C2
330
40
100
AcDbEntity
  8
0007712
  6
Continuous
 62
     7
100
AcDbLine
 10
150.3180482145
 20
113.6891799445
 30
0.0
 11
150.3180482145
 21
109.6891799445
 31
0.0
  0
LINE
  5
1C3
330
40
100
AcDbEntity
  8
0007712
  6
Continuous
 62
     7
100
AcDbLine
 10
150.4795769295
 20
109.3263832328
 30
0.0
 11
150.3180482145
 21
109.6891799445
 31
0.0
  0
LINE
  5
1C4
330
40
100
AcDbEntity
  8
0007712
  6
Continuous
 62
     7
100
AcDbLine
 10
150.4795769295
 20
114.0519766561
 30
0.0
 11
150.3180482145
 21
113.6891799445
 31
0.0
  0
LINE
  5
1C5
330
40
100
AcDbEntity
  8
0007712
  6
Continuous
 62
     7
100
AcDbLine
 10
150.8164745994
 20
113.6891799445
 30
0.0
 11
150.731592904
 21
113.6891799445
 31
0.0
  0
LINE
  5
1C6
330
40
100
AcDbEntity
  8
0007712
  6
Continuous
 62
     7
100
AcDbLine
 10
151.2274688368
 20
109.6891799445
 30
0.0
 11
151.311751197
 21
109.6891799445
 31
0.0
  0
LINE
  5
1C7
330
40
100
AcDbEntity
  8
0007712
  6
Continuous
 62
     7
100
AcDbLine
 10
151.2274688368
 20
109.6891799445
 30
0.0
 11
151.2274688368
 21
113.6891799445
 31
0.0
  0
LINE
  5
1C8
330
40
100
AcDbEntity
  8
0007712
  6
Continuous
 62
     7
100
AcDbLine
 10
151.2274688368
 20
113.6891799445
 30
0.0
 11
150.9617704194
 21
114.0519766561
 31
0.0
  0
LINE
  5
1C9
330
40
100
AcDbEntity
  8
0007712
  6
Continuous
 62
     7
100
AcDbLine
 10
150.9617704194
 20
109.3263832328
 30
0.0
 11
150.9617704194
 21
114.0519766561
 31
0.0
  0
LINE
  5
1CA
330
40
100
AcDbEntity
  8
0007712
  6
Continuous
 62
     7
100
AcDbLine
 10
151.2274688368
 20
109.6891799445
 30
0.0
 11
150.9617704194
 21
109.3263832328
 31
0.0
  0
LINE
  5
1CB
330
40
100
AcDbEntity
  8
0007712
  6
Continuous
 62
     7
100
AcDbLine
 10
150.8164745994
 20
113.6891799445
 30
0.0
 11
150.8164745994
 21
109.6891799445
 31
0.0
  0
LINE
  5
1CC
330
40
100
AcDbEntity
  8
0007712
  6
Continuous
 62
     7
100
AcDbLine
 10
150.9617704194
 20
109.3263832328
 30
0.0
 11
150.8164745994
 21
109.6891799445
 31
0.0
  0
LINE
  5
1CD
330
40
100
AcDbEntity
  8
0007712
  6
Continuous
 62
     7
100
AcDbLine
 10
150.9617704194
 20
114.0519766561
 30
0.0
 11
150.8164745994
 21
113.6891799445
 31
0.0
  0
LINE
  5
1CE
330
40
100
AcDbEntity
  8
0007712
  6
Continuous
 62
     7
100
AcDbLine
 10
151.311751197
 20
113.6891799445
 30
0.0
 11
151.2274688368
 21
113.6891799445
 31
0.0
  0
LINE
  5
1CF
330
40
100
AcDbEntity
  8
0007712
  6
Continuous
 62
     7
100
AcDbLine
 10
151.7194739587
 20
109.6891799445
 30
0.0
 11
151.803009124
 21
109.6891799445
 31
0.0
  0
LINE
  5
1D0
330
40
100
AcDbEntity
  8
0007712
  6
Continuous
 62
     7
100
AcDbLine
 10
151.7194739587
 20
109.6891799445
 30
0.0
 11
151.7194739587
 21
113.6891799445
 31
0.0
  0
LINE
  5
1D1
330
40
100
AcDbEntity
  8
0007712
  6
Continuous
 62
     7
100
AcDbLine
 10
151.7194739587
 20
113.6891799445
 30
0.0
 11
151.4405592238
 21
114.0519766561
 31
0.0
  0
LINE
  5
1D2
330
40
100
AcDbEntity
  8
0007712
  6
Continuous
 62
     7
100
AcDbLine
 10
151.4405592238
 20
109.3263832328
 30
0.0
 11
151.4405592238
 21
114.0519766561
 31
0.0
  0
LINE
  5
1D3
330
40
100
AcDbEntity
  8
0007712
  6
Continuous
 62
     7
100
AcDbLine
 10
151.7194739587
 20
109.6891799445
 30
0.0
 11
151.4405592238
 21
109.3263832328
 31
0.0
  0
LINE
  5
1D4
330
40
100
AcDbEntity
  8
0007712
  6
Continuous
 62
     7
100
AcDbLine
 10
151.311751197
 20
113.6891799445
 30
0.0
 11
151.311751197
 21
109.6891799445
 31
0.0
  0
LINE
  5
1D5
330
40
100
AcDbEntity
  8
0007712
  6
Continuous
 62
     7
100
AcDbLine
 10
151.4405592238
 20
109.3263832328
 30
0.0
 11
151.311751197
 21
109.6891799445
 31
0.0
  0
LINE
  5
1D6
330
40
100
AcDbEntity
  8
0007712
  6
Continuous
 62
     7
100
AcDbLine
 10
151.4405592238
 20
114.0519766561
 30
0.0
 11
151.311751197
 21
113.6891799445
 31
0.0
  0
LINE
  5
1D7
330
40
100
AcDbEntity
  8
0007712
  6
Continuous
 62
     7
100
AcDbLine
 10
151.803009124
 20
113.6891799445
 30
0.0
 11
151.7194739587
 21
113.6891799445
 31
0.0
  0
LINE
  5
1D8
330
40
100
AcDbEntity
  8
0007712
  6
Continuous
 62
     7
100
AcDbLine
 10
152.2067451256
 20
109.6891799445
 30
0.0
 11
152.2893865469
 21
109.6891799445
 31
0.0
  0
LINE
  5
1D9
330
40
100
AcDbEntity
  8
0007712
  6
Continuous
 62
     7
100
AcDbLine
 10
152.2067451256
 20
109.6891799445
 30
0.0
 11
152.2067451256
 21
113.6891799445
 31
0.0
  0
LINE
  5
1DA
330
40
100
AcDbEntity
  8
0007712
  6
Continuous
 62
     7
100
AcDbLine
 10
152.2067451256
 20
113.6891799445
 30
0.0
 11
151.9151033844
 21
114.0519766561
 31
0.0
  0
LINE
  5
1DB
330
40
100
AcDbEntity
  8
0007712
  6
Continuous
 62
     7
100
AcDbLine
 10
151.9151033844
 20
109.3263832328
 30
0.0
 11
151.9151033844
 21
114.0519766561
 31
0.0
  0
LINE
  5
1DC
330
40
100
AcDbEntity
  8
0007712
  6
Continuous
 62
     7
100
AcDbLine
 10
152.2067451256
 20
109.6891799445
 30
0.0
 11
151.9151033844
 21
109.3263832328
 31
0.0
  0
LINE
  5
1DD
330
40
100
AcDbEntity
  8
0007712
  6
Continuous
 62
     7
100
AcDbLine
 10
151.803009124
 20
113.6891799445
 30
0.0
 11
151.803009124
 21
109.6891799445
 31
0.0
  0
LINE
  5
1DE
330
40
100
AcDbEntity
  8
0007712
  6
Continuous
 62
     7
100
AcDbLine
 10
151.9151033844
 20
109.3263832328
 30
0.0
 11
151.803009124
 21
109.6891799445
 31
0.0
  0
LINE
  5
1DF
330
40
100
AcDbEntity
  8
0007712
  6
Continuous
 62
     7
100
AcDbLine
 10
151.9151033844
 20
114.0519766561
 30
0.0
 11
151.803009124
 21
113.6891799445
 31
0.0
  0
LINE
  5
1E0
330
40
100
AcDbEntity
  8
0007712
  6
Continuous
 62
     7
100
AcDbLine
 10
152.2893865469
 20
113.6891799445
 30
0.0
 11
152.2067451256
 21
113.6891799445
 31
0.0
  0
LINE
  5
1E1
330
40
100
AcDbEntity
  8
0007712
  6
Continuous
 62
     7
100
AcDbLine
 10
152.6884274984
 20
109.6891799445
 30
0.0
 11
152.7700301944
 21
109.6891799445
 31
0.0
  0
LINE
  5
1E2
330
40
100
AcDbEntity
  8
0007712
  6
Continuous
 62
     7
100
AcDbLine
 10
152.6884274984
 20
109.6891799445
 30
0.0
 11
152.6884274984
 21
113.6891799445
 31
0.0
  0
LINE
  5
1E3
330
40
100
AcDbEntity
  8
0007712
  6
Continuous
 62
     7
100
AcDbLine
 10
152.6884274984
 20
113.6891799445
 30
0.0
 11
152.3845703896
 21
114.0519766561
 31
0.0
  0
LINE
  5
1E4
330
40
100
AcDbEntity
  8
0007712
  6
Continuous
 62
     7
100
AcDbLine
 10
152.3845703896
 20
109.3263832328
 30
0.0
 11
152.3845703896
 21
114.0519766561
 31
0.0
  0
LINE
  5
1E5
330
40
100
AcDbEntity
  8
0007712
  6
Continuous
 62
     7
100
AcDbLine
 10
152.6884274984
 20
109.6891799445
 30
0.0
 11
152.3845703896
 21
109.3263832328
 31
0.0
  0
LINE
  5
1E6
330
40
100
AcDbEntity
  8
0007712
  6
Continuous
 62
     7
100
AcDbLine
 10
152.2893865469
 20
113.6891799445
 30
0.0
 11
152.2893865469
 21
109.6891799445
 31
0.0
  0
LINE
  5
1E7
330
40
100
AcDbEntity
  8
0007712
  6
Continuous
 62
     7
100
AcDbLine
 10
152.3845703896
 20
109.3263832328
 30
0.0
 11
152.2893865469
 21
109.6891799445
 31
0.0
  0
LINE
  5
1E8
330
40
100
AcDbEntity
  8
0007712
  6
Continuous
 62
     7
100
AcDbLine
 10
152.3845703896
 20
114.0519766561
 30
0.0
 11
152.2893865469
 21
113.6891799445
 31
0.0
  0
LINE
  5
1E9
330
40
100
AcDbEntity
  8
0007712
  6
Continuous
 62
     7
100
AcDbLine
 10
152.7700301944
 20
113.6891799445
 30
0.0
 11
152.6884274984
 21
113.6891799445
 31
0.0
  0
LINE
  5
1EA
330
40
100
AcDbEntity
  8
0007712
  6
Continuous
 62
     7
100
AcDbLine
 10
153.1636760424
 20
109.6891799445
 30
0.0
 11
153.2440968544
 21
109.6891799445
 31
0.0
  0
LINE
  5
1EB
330
40
100
AcDbEntity
  8
0007712
  6
Continuous
 62
     7
100
AcDbLine
 10
153.1636760424
 20
109.6891799445
 30
0.0
 11
153.1636760424
 21
113.6891799445
 31
0.0
  0
LINE
  5
1EC
330
40
100
AcDbEntity
  8
0007712
  6
Continuous
 62
     7
100
AcDbLine
 10
153.1636760424
 20
113.6891799445
 30
0.0
 11
152.8481366346
 21
114.0519766561
 31
0.0
  0
LINE
  5
1ED
330
40
100
AcDbEntity
  8
0007712
  6
Continuous
 62
     7
100
AcDbLine
 10
152.8481366346
 20
109.3263832328
 30
0.0
 11
152.8481366346
 21
114.0519766561
 31
0.0
  0
LINE
  5
1EE
330
40
100
AcDbEntity
  8
0007712
  6
Continuous
 62
     7
100
AcDbLine
 10
153.1636760424
 20
109.6891799445
 30
0.0
 11
152.8481366346
 21
109.3263832328
 31
0.0
  0
LINE
  5
1EF
330
40
100
AcDbEntity
  8
0007712
  6
Continuous
 62
     7
100
AcDbLine
 10
152.7700301944
 20
113.6891799445
 30
0.0
 11
152.7700301944
 21
109.6891799445
 31
0.0
  0
LINE
  5
1F0
330
40
100
AcDbEntity
  8
0007712
  6
Continuous
 62
     7
100
AcDbLine
 10
152.8481366346
 20
109.3263832328
 30
0.0
 11
152.7700301944
 21
109.6891799445
 31
0.0
  0
LINE
  5
1F1
330
40
100
AcDbEntity
  8
0007712
  6
Continuous
 62
     7
100
AcDbLine
 10
152.8481366346
 20
114.0519766561
 30
0.0
 11
152.7700301944
 21
113.6891799445
 31
0.0
  0
LINE
  5
1F2
330
40
100
AcDbEntity
  8
0007712
  6
Continuous
 62
     7
100
AcDbLine
 10
153.2440968544
 20
113.6891799445
 30
0.0
 11
153.1636760424
 21
113.6891799445
 31
0.0
  0
LINE
  5
1F3
330
40
100
AcDbEntity
  8
0007712
  6
Continuous
 62
     7
100
AcDbLine
 10
153.6316570102
 20
109.6891799445
 30
0.0
 11
153.7107548527
 21
109.6891799445
 31
0.0
  0
LINE
  5
1F4
330
40
100
AcDbEntity
  8
0007712
  6
Continuous
 62
     7
100
AcDbLine
 10
153.6316570102
 20
109.6891799445
 30
0.0
 11
153.6316570102
 21
113.6891799445
 31
0.0
  0
LINE
  5
1F5
330
40
100
AcDbEntity
  8
0007712
  6
Continuous
 62
     7
100
AcDbLine
 10
153.6316570102
 20
113.6891799445
 30
0.0
 11
153.3049888668
 21
114.0519766561
 31
0.0
  0
LINE
  5
1F6
330
40
100
AcDbEntity
  8
0007712
  6
Continuous
 62
     7
100
AcDbLine
 10
153.3049888668
 20
109.3263832328
 30
0.0
 11
153.3049888668
 21
114.0519766561
 31
0.0
  0
LINE
  5
1F7
330
40
100
AcDbEntity
  8
0007712
  6
Continuous
 62
     7
100
AcDbLine
 10
153.6316570102
 20
109.6891799445
 30
0.0
 11
153.3049888668
 21
109.3263832328
 31
0.0
  0
LINE
  5
1F8
330
40
100
AcDbEntity
  8
0007712
  6
Continuous
 62
     7
100
AcDbLine
 10
153.2440968544
 20
113.6891799445
 30
0.0
 11
153.2440968544
 21
109.6891799445
 31
0.0
  0
LINE
  5
1F9
330
40
100
AcDbEntity
  8
0007712
  6
Continuous
 62
     7
100
AcDbLine
 10
153.3049888668
 20
109.3263832328
 30
0.0
 11
153.2440968544
 21
109.6891799445
 31
0.0
  0
LINE
  5
1FA
330
40
100
AcDbEntity
  8
0007712
  6
Continuous
 62
     7
100
AcDbLine
 10
153.3049888668
 20
114.0519766561
 30
0.0
 11
153.2440968544
 21
113.6891799445
 31
0.0
  0
LINE
  5
1FB
330
40
100
AcDbEntity
  8
0007712
  6
Continuous
 62
     7
100
AcDbLine
 10
153.7107548527
 20
113.6891799445
 30
0.0
 11
153.6316570102
 21
113.6891799445
 31
0.0
  0
LINE
  5
1FC
330
40
100
AcDbEntity
  8
0007712
  6
Continuous
 62
     7
100
AcDbLine
 10
154.0915494042
 20
109.6891799445
 30
0.0
 11
154.1691855127
 21
109.6891799445
 31
0.0
  0
LINE
  5
1FD
330
40
100
AcDbEntity
  8
0007712
  6
Continuous
 62
     7
100
AcDbLine
 10
154.0915494042
 20
109.6891799445
 30
0.0
 11
154.0915494042
 21
113.6891799445
 31
0.0
  0
LINE
  5
1FE
330
40
100
AcDbEntity
  8
0007712
  6
Continuous
 62
     7
100
AcDbLine
 10
154.0915494042
 20
113.6891799445
 30
0.0
 11
153.754325612
 21
114.0519766561
 31
0.0
  0
LINE
  5
1FF
330
40
100
AcDbEntity
  8
0007712
  6
Continuous
 62
     7
100
AcDbLine
 10
153.754325612
 20
109.3263832328
 30
0.0
 11
153.754325612
 21
114.0519766561
 31
0.0
  0
LINE
  5
200
330
40
100
AcDbEntity
  8
0007712
  6
Continuous
 62
     7
100
AcDbLine
 10
154.0915494042
 20
109.6891799445
 30
0.0
 11
153.754325612
 21
109.3263832328
 31
0.0
  0
LINE
  5
201
330
40
100
AcDbEntity
  8
0007712
  6
Continuous
 62
     7
100
AcDbLine
 10
153.7107548527
 20
113.6891799445
 30
0.0
 11
153.7107548527
 21
109.6891799445
 31
0.0
  0
LINE
  5
202
330
40
100
AcDbEntity
  8
0007712
  6
Continuous
 62
     7
100
AcDbLine
 10
153.754325612
 20
109.3263832328
 30
0.0
 11
153.7107548527
 21
109.6891799445
 31
0.0
  0
LINE
  5
203
330
40
100
AcDbEntity
  8
0007712
  6
Continuous
 62
     7
100
AcDbLine
 10
153.754325612
 20
114.0519766561
 30
0.0
 11
153.7107548527
 21
113.6891799445
 31
0.0
  0
LINE
  5
204
330
40
100
AcDbEntity
  8
0007712
  6
Continuous
 62
     7
100
AcDbLine
 10
154.1691855127
 20
113.6891799445
 30
0.0
 11
154.0915494042
 21
113.6891799445
 31
0.0
  0
LINE
  5
205
330
40
100
AcDbEntity
  8
0007712
  6
Continuous
 62
     7
100
AcDbLine
 10
154.5425464168
 20
109.6891799445
 30
0.0
 11
154.6185845912
 21
109.6891799445
 31
0.0
  0
LINE
  5
206
330
40
100
AcDbEntity
  8
0007712
  6
Continuous
 62
     7
100
AcDbLine
 10
154.5425464168
 20
109.6891799445
 30
0.0
 11
154.5425464168
 21
113.6891799445
 31
0.0
  0
LINE
  5
207
330
40
100
AcDbEntity
  8
0007712
  6
Continuous
 62
     7
100
AcDbLine
 10
154.5425464168
 20
113.6891799445
 30
0.0
 11
154.1953585811
 21
114.0519766561
 31
0.0
  0
LINE
  5
208
330
40
100
AcDbEntity
  8
0007712
  6
Continuous
 62
     7
100
AcDbLine
 10
154.1953585811
 20
109.3263832328
 30
0.0
 11
154.1953585811
 21
114.0519766561
 31
0.0
  0
LINE
  5
209
330
40
100
AcDbEntity
  8
0007712
  6
Continuous
 62
     7
100
AcDbLine
 10
154.5425464168
 20
109.6891799445
 30
0.0
 11
154.1953585811
 21
109.3263832328
 31
0.0
  0
LINE
  5
20A
330
40
100
AcDbEntity
  8
0007712
  6
Continuous
 62
     7
100
AcDbLine
 10
154.1691855127
 20
113.6891799445
 30
0.0
 11
154.1691855127
 21
109.6891799445
 31
0.0
  0
LINE
  5
20B
330
40
100
AcDbEntity
  8
0007712
  6
Continuous
 62
     7
100
AcDbLine
 10
154.1953585811
 20
109.3263832328
 30
0.0
 11
154.1691855127
 21
109.6891799445
 31
0.0
  0
LINE
  5
20C
330
40
100
AcDbEntity
  8
0007712
  6
Continuous
 62
     7
100
AcDbLine
 10
154.1953585811
 20
114.0519766561
 30
0.0
 11
154.1691855127
 21
113.6891799445
 31
0.0
  0
LINE
  5
20D
330
40
100
AcDbEntity
  8
0007712
  6
Continuous
 62
     7
100
AcDbLine
 10
154.6185845912
 20
113.6891799445
 30
0.0
 11
154.5425464168
 21
113.6891799445
 31
0.0
  0
LINE
  5
20E
330
40
100
AcDbEntity
  8
0007712
  6
Continuous
 62
     7
100
AcDbLine
 10
154.983856846
 20
109.6891799445
 30
0.0
 11
155.0581636896
 21
109.6891799445
 31
0.0
  0
LINE
  5
20F
330
40
100
AcDbEntity
  8
0007712
  6
Continuous
 62
     7
100
AcDbLine
 10
154.983856846
 20
109.6891799445
 30
0.0
 11
154.983856846
 21
113.6891799445
 31
0.0
  0
LINE
  5
210
330
40
100
AcDbEntity
  8
0007712
  6
Continuous
 62
     7
100
AcDbLine
 10
154.983856846
 20
113.6891799445
 30
0.0
 11
154.6273140522
 21
114.0519766561
 31
0.0
  0
LINE
  5
211
330
40
100
AcDbEntity
  8
0007712
  6
Continuous
 62
     7
100
AcDbLine
 10
154.6273140522
 20
109.3263832328
 30
0.0
 11
154.6273140522
 21
114.0519766561
 31
0.0
  0
LINE
  5
212
330
40
100
AcDbEntity
  8
0007712
  6
Continuous
 62
     7
100
AcDbLine
 10
154.983856846
 20
109.6891799445
 30
0.0
 11
154.6273140522
 21
109.3263832328
 31
0.0
  0
LINE
  5
213
330
40
100
AcDbEntity
  8
0007712
  6
Continuous
 62
     7
100
AcDbLine
 10
154.6185845912
 20
113.6891799445
 30
0.0
 11
154.6185845912
 21
109.6891799445
 31
0.0
  0
LINE
  5
214
330
40
100
AcDbEntity
  8
0007712
  6
Continuous
 62
     7
100
AcDbLine
 10
154.6273140522
 20
109.3263832328
 30
0.0
 11
154.6185845912
 21
109.6891799445
 31
0.0
  0
LINE
  5
215
330
40
100
AcDbEntity
  8
0007712
  6
Continuous
 62
     7
100
AcDbLine
 10
154.6273140522
 20
114.0519766561
 30
0.0
 11
154.6185845912
 21
113.6891799445
 31
0.0
  0
LINE
  5
216
330
40
100
AcDbEntity
  8
0007712
  6
Continuous
 62
     7
100
AcDbLine
 10
155.0581636896
 20
113.6891799445
 30
0.0
 11
154.983856846
 21
113.6891799445
 31
0.0
  0
LINE
  5
217
330
40
100
AcDbEntity
  8
0007712
  6
Continuous
 62
     7
100
AcDbLine
 10
155.4147064835
 20
109.6891799445
 30
0.0
 11
155.4871516367
 21
109.6891799445
 31
0.0
  0
LINE
  5
218
330
40
100
AcDbEntity
  8
0007712
  6
Continuous
 62
     7
100
AcDbLine
 10
155.4147064835
 20
109.6891799445
 30
0.0
 11
155.4147064835
 21
113.6891799445
 31
0.0
  0
LINE
  5
219
330
40
100
AcDbEntity
  8
0007712
  6
Continuous
 62
     7
100
AcDbLine
 10
155.4147064835
 20
113.6891799445
 30
0.0
 11
155.0494342287
 21
114.0519766561
 31
0.0
  0
LINE
  5
21A
330
40
100
AcDbEntity
  8
0007712
  6
Continuous
 62
     7
100
AcDbLine
 10
155.4147064835
 20
109.6891799445
 30
0.0
 11
155.0494342287
 21
109.3263832328
 31
0.0
  0
LINE
  5
21B
330
40
100
AcDbEntity
  8
0007712
  6
Continuous
 62
     7
100
AcDbLine
 10
155.0581636896
 20
113.6891799445
 30
0.0
 11
155.0581636896
 21
109.6891799445
 31
0.0
  0
LINE
  5
21C
330
40
100
AcDbEntity
  8
0007712
  6
Continuous
 62
     7
100
AcDbLine
 10
155.0494342287
 20
109.3263832328
 30
0.0
 11
155.0581636896
 21
109.6891799445
 31
0.0
  0
LINE
  5
21D
330
40
100
AcDbEntity
  8
0007712
  6
Continuous
 62
     7
100
AcDbLine
 10
155.0494342287
 20
114.0519766561
 30
0.0
 11
155.0581636896
 21
113.6891799445
 31
0.0
  0
LINE
  5
21E
330
40
100
AcDbEntity
  8
0007712
  6
Continuous
 62
     7
100
AcDbLine
 10
155.4871516367
 20
113.6891799445
 30
0.0
 11
155.4147064835
 21
113.6891799445
 31
0.0
  0
LINE
  5
21F
330
40
100
AcDbEntity
  8
0007712
  6
Continuous
 62
     7
100
AcDbLine
 10
155.8343394724
 20
109.6891799445
 30
0.0
 11
155.9047958419
 21
109.6891799445
 31
0.0
  0
LINE
  5
220
330
40
100
AcDbEntity
  8
0007712
  6
Continuous
 62
     7
100
AcDbLine
 10
155.8343394724
 20
109.6891799445
 30
0.0
 11
155.8343394724
 21
113.6891799445
 31
0.0
  0
LINE
  5
221
330
40
100
AcDbEntity
  8
0007712
  6
Continuous
 62
     7
100
AcDbLine
 10
155.8343394724
 20
113.6891799445
 30
0.0
 11
155.4609785683
 21
114.0519766561
 31
0.0
  0
LINE
  5
222
330
40
100
AcDbEntity
  8
0007712
  6
Continuous
 62
     7
100
AcDbLine
 10
155.8343394724
 20
109.6891799445
 30
0.0
 11
155.4609785683
 21
109.3263832328
 31
0.0
  0
LINE
  5
223
330
40
100
AcDbEntity
  8
0007712
  6
Continuous
 62
     7
100
AcDbLine
 10
155.4871516367
 20
113.6891799445
 30
0.0
 11
155.4871516367
 21
109.6891799445
 31
0.0
  0
LINE
  5
224
330
40
100
AcDbEntity
  8
0007712
  6
Continuous
 62
     7
100
AcDbLine
 10
155.4609785683
 20
109.3263832328
 30
0.0
 11
155.4871516367
 21
109.6891799445
 31
0.0
  0
LINE
  5
225
330
40
100
AcDbEntity
  8
0007712
  6
Continuous
 62
     7
100
AcDbLine
 10
155.4609785683
 20
114.0519766561
 30
0.0
 11
155.4871516367
 21
113.6891799445
 31
0.0
  0
LINE
  5
226
330
40
100
AcDbEntity
  8
0007712
  6
Continuous
 62
     7
100
AcDbLine
 10
155.9047958419
 20
113.6891799445
 30
0.0
 11
155.8343394724
 21
113.6891799445
 31
0.0
  0
LINE
  5
227
330
40
100
AcDbEntity
  8
0007712
  6
Continuous
 62
     7
100
AcDbLine
 10
156.242019634
 20
109.6891799445
 30
0.0
 11
156.3103636154
 21
109.6891799445
 31
0.0
  0
LINE
  5
228
330
40
100
AcDbEntity
  8
0007712
  6
Continuous
 62
     7
100
AcDbLine
 10
156.242019634
 20
109.6891799445
 30
0.0
 11
156.242019634
 21
113.6891799445
 31
0.0
  0
LINE
  5
229
330
40
100
AcDbEntity
  8
0007712
  6
Continuous
 62
     7
100
AcDbLine
 10
156.242019634
 20
113.6891799445
 30
0.0
 11
155.8612250826
 21
114.0519766561
 31
0.0
  0
LINE
  5
22A
330
40
100
AcDbEntity
  8
0007712
  6
Continuous
 62
     7
100
AcDbLine
 10
156.242019634
 20
109.6891799445
 30
0.0
 11
155.8612250826
 21
109.3263832328
 31
0.0
  0
LINE
  5
22B
330
40
100
AcDbEntity
  8
0007712
  6
Continuous
 62
     7
100
AcDbLine
 10
155.9047958419
 20
113.6891799445
 30
0.0
 11
155.9047958419
 21
109.6891799445
 31
0.0
  0
LINE
  5
22C
330
40
100
AcDbEntity
  8
0007712
  6
Continuous
 62
     7
100
AcDbLine
 10
155.8612250826
 20
109.3263832328
 30
0.0
 11
155.9047958419
 21
109.6891799445
 31
0.0
  0
LINE
  5
22D
330
40
100
AcDbEntity
  8
0007712
  6
Continuous
 62
     7
100
AcDbLine
 10
155.8612250826
 20
114.0519766561
 30
0.0
 11
155.9047958419
 21
113.6891799445
 31
0.0
  0
LINE
  5
22E
330
40
100
AcDbEntity
  8
0007712
  6
Continuous
 62
     7
100
AcDbLine
 10
156.3103636154
 20
113.6891799445
 30
0.0
 11
156.242019634
 21
113.6891799445
 31
0.0
  0
LINE
  5
22F
330
40
100
AcDbEntity
  8
0007712
  6
Continuous
 62
     7
100
AcDbLine
 10
156.6370317588
 20
109.6891799445
 30
0.0
 11
156.7031434534
 21
109.6891799445
 31
0.0
  0
LINE
  5
230
330
40
100
AcDbEntity
  8
0007712
  6
Continuous
 62
     7
100
AcDbLine
 10
156.6370317588
 20
109.6891799445
 30
0.0
 11
156.6370317588
 21
113.6891799445
 31
0.0
  0
LINE
  5
231
330
40
100
AcDbEntity
  8
0007712
  6
Continuous
 62
     7
100
AcDbLine
 10
156.6370317588
 20
113.6891799445
 30
0.0
 11
156.249471603
 21
114.0519766561
 31
0.0
  0
LINE
  5
232
330
40
100
AcDbEntity
  8
0007712
  6
Continuous
 62
     7
100
AcDbLine
 10
156.6370317588
 20
109.6891799445
 30
0.0
 11
156.249471603
 21
109.3263832328
 31
0.0
  0
LINE
  5
233
330
40
100
AcDbEntity
  8
0007712
  6
Continuous
 62
     7
100
AcDbLine
 10
156.3103636154
 20
113.6891799445
 30
0.0
 11
156.3103636154
 21
109.6891799445
 31
0.0
  0
LINE
  5
234
330
40
100
AcDbEntity
  8
0007712
  6
Continuous
 62
     7
100
AcDbLine
 10
156.249471603
 20
109.3263832328
 30
0.0
 11
156.3103636154
 21
109.6891799445
 31
0.0
  0
LINE
  5
235
330
40
100
AcDbEntity
  8
0007712
  6
Continuous
 62
     7
100
AcDbLine
 10
156.249471603
 20
114.0519766561
 30
0.0
 11
156.3103636154
 21
113.6891799445
 31
0.0
  0
LINE
  5
236
330
40
100
AcDbEntity
  8
0007712
  6
Continuous
 62
     7
100
AcDbLine
 10
156.7031434534
 20
113.6891799445
 30
0.0
 11
156.6370317588
 21
113.6891799445
 31
0.0
  0
LINE
  5
237
330
40
100
AcDbEntity
  8
0007712
  6
Continuous
 62
     7
100
AcDbLine
 10
157.0186828611
 20
109.6891799445
 30
0.0
 11
157.0824462866
 21
109.6891799445
 31
0.0
  0
LINE
  5
238
330
40
100
AcDbEntity
  8
0007712
  6
Continuous
 62
     7
100
AcDbLine
 10
157.0186828611
 20
109.6891799445
 30
0.0
 11
157.0186828611
 21
113.6891799445
 31
0.0
  0
LINE
  5
239
330
40
100
AcDbEntity
  8
0007712
  6
Continuous
 62
     7
100
AcDbLine
 10
157.0186828611
 20
113.6891799445
 30
0.0
 11
156.6250370132
 21
114.0519766561
 31
0.0
  0
LINE
  5
23A
330
40
100
AcDbEntity
  8
0007712
  6
Continuous
 62
     7
100
AcDbLine
 10
157.0186828611
 20
109.6891799445
 30
0.0
 11
156.6250370132
 21
109.3263832328
 31
0.0
  0
LINE
  5
23B
330
40
100
AcDbEntity
  8
0007712
  6
Continuous
 62
     7
100
AcDbLine
 10
156.7031434534
 20
113.6891799445
 30
0.0
 11
156.7031434534
 21
109.6891799445
 31
0.0
  0
LINE
  5
23C
330
40
100
AcDbEntity
  8
0007712
  6
Continuous
 62
     7
100
AcDbLine
 10
156.6250370132
 20
109.3263832328
 30
0.0
 11
156.7031434534
 21
109.6891799445
 31
0.0
  0
LINE
  5
23D
330
40
100
AcDbEntity
  8
0007712
  6
Continuous
 62
     7
100
AcDbLine
 10
156.6250370132
 20
114.0519766561
 30
0.0
 11
156.7031434534
 21
113.6891799445
 31
0.0
  0
LINE
  5
23E
330
40
100
AcDbEntity
  8
0007712
  6
Continuous
 62
     7
100
AcDbLine
 10
157.0824462866
 20
113.6891799445
 30
0.0
 11
157.0186828611
 21
113.6891799445
 31
0.0
  0
LINE
  5
23F
330
40
100
AcDbEntity
  8
0007712
  6
Continuous
 62
     7
100
AcDbLine
 10
157.3863033954
 20
109.6891799445
 30
0.0
 11
157.4476066891
 21
109.6891799445
 31
0.0
  0
LINE
  5
240
330
40
100
AcDbEntity
  8
0007712
  6
Continuous
 62
     7
100
AcDbLine
 10
157.3863033954
 20
109.6891799445
 30
0.0
 11
157.3863033954
 21
113.6891799445
 31
0.0
  0
LINE
  5
241
330
40
100
AcDbEntity
  8
0007712
  6
Continuous
 62
     7
100
AcDbLine
 10
157.3863033954
 20
113.6891799445
 30
0.0
 11
156.9872624439
 21
114.0519766561
 31
0.0
  0
LINE
  5
242
330
40
100
AcDbEntity
  8
0007712
  6
Continuous
 62
     7
100
AcDbLine
 10
157.3863033954
 20
109.6891799445
 30
0.0
 11
156.9872624439
 21
109.3263832328
 31
0.0
  0
LINE
  5
243
330
40
100
AcDbEntity
  8
0007712
  6
Continuous
 62
     7
100
AcDbLine
 10
157.0824462866
 20
113.6891799445
 30
0.0
 11
157.0824462866
 21
109.6891799445
 31
0.0
  0
LINE
  5
244
330
40
100
AcDbEntity
  8
0007712
  6
Continuous
 62
     7
100
AcDbLine
 10
156.9872624439
 20
109.3263832328
 30
0.0
 11
157.0824462866
 21
109.6891799445
 31
0.0
  0
LINE
  5
245
330
40
100
AcDbEntity
  8
0007712
  6
Continuous
 62
     7
100
AcDbLine
 10
156.9872624439
 20
114.0519766561
 30
0.0
 11
157.0824462866
 21
113.6891799445
 31
0.0
  0
LINE
  5
246
330
40
100
AcDbEntity
  8
0007712
  6
Continuous
 62
     7
100
AcDbLine
 10
157.4476066891
 20
113.6891799445
 30
0.0
 11
157.3863033954
 21
113.6891799445
 31
0.0
  0
LINE
  5
247
330
40
100
AcDbEntity
  8
0007712
  6
Continuous
 62
     7
100
AcDbLine
 10
157.7392484303
 20
109.6891799445
 30
0.0
 11
157.7979840453
 21
109.6891799445
 31
0.0
  0
LINE
  5
248
330
40
100
AcDbEntity
  8
0007712
  6
Continuous
 62
     7
100
AcDbLine
 10
157.7392484303
 20
109.6891799445
 30
0.0
 11
157.7392484303
 21
113.6891799445
 31
0.0
  0
LINE
  5
249
330
40
100
AcDbEntity
  8
0007712
  6
Continuous
 62
     7
100
AcDbLine
 10
157.7392484303
 20
113.6891799445
 30
0.0
 11
157.3355124286
 21
114.0519766561
 31
0.0
  0
LINE
  5
24A
330
40
100
AcDbEntity
  8
0007712
  6
Continuous
 62
     7
100
AcDbLine
 10
157.7392484303
 20
109.6891799445
 30
0.0
 11
157.3355124286
 21
109.3263832328
 31
0.0
  0
LINE
  5
24B
330
40
100
AcDbEntity
  8
0007712
  6
Continuous
 62
     7
100
AcDbLine
 10
157.4476066891
 20
113.6891799445
 30
0.0
 11
157.4476066891
 21
109.6891799445
 31
0.0
  0
LINE
  5
24C
330
40
100
AcDbEntity
  8
0007712
  6
Continuous
 62
     7
100
AcDbLine
 10
157.3355124286
 20
109.3263832328
 30
0.0
 11
157.4476066891
 21
109.6891799445
 31
0.0
  0
LINE
  5
24D
330
40
100
AcDbEntity
  8
0007712
  6
Continuous
 62
     7
100
AcDbLine
 10
157.3355124286
 20
114.0519766561
 30
0.0
 11
157.4476066891
 21
113.6891799445
 31
0.0
  0
LINE
  5
24E
330
40
100
AcDbEntity
  8
0007712
  6
Continuous
 62
     7
100
AcDbLine
 10
157.7979840453
 20
113.6891799445
 30
0.0
 11
157.7392484303
 21
113.6891799445
 31
0.0
  0
LINE
  5
24F
330
40
100
AcDbEntity
  8
0007712
  6
Continuous
 62
     7
100
AcDbLine
 10
158.0768987802
 20
109.6891799445
 30
0.0
 11
158.1329636743
 21
109.6891799445
 31
0.0
  0
LINE
  5
250
330
40
100
AcDbEntity
  8
0007712
  6
Continuous
 62
     7
100
AcDbLine
 10
158.0768987802
 20
109.6891799445
 30
0.0
 11
158.0768987802
 21
113.6891799445
 31
0.0
  0
LINE
  5
251
330
40
100
AcDbEntity
  8
0007712
  6
Continuous
 62
     7
100
AcDbLine
 10
158.0768987802
 20
113.6891799445
 30
0.0
 11
157.6691760185
 21
114.0519766561
 31
0.0
  0
LINE
  5
252
330
40
100
AcDbEntity
  8
0007712
  6
Continuous
 62
     7
100
AcDbLine
 10
158.0768987802
 20
109.6891799445
 30
0.0
 11
157.6691760185
 21
109.3263832328
 31
0.0
  0
LINE
  5
253
330
40
100
AcDbEntity
  8
0007712
  6
Continuous
 62
     7
100
AcDbLine
 10
157.7979840453
 20
113.6891799445
 30
0.0
 11
157.7979840453
 21
109.6891799445
 31
0.0
  0
LINE
  5
254
330
40
100
AcDbEntity
  8
0007712
  6
Continuous
 62
     7
100
AcDbLine
 10
157.6691760185
 20
109.3263832328
 30
0.0
 11
157.7979840453
 21
109.6891799445
 31
0.0
  0
LINE
  5
255
330
40
100
AcDbEntity
  8
0007712
  6
Continuous
 62
     7
100
AcDbLine
 10
157.6691760185
 20
114.0519766561
 30
0.0
 11
157.7979840453
 21
113.6891799445
 31
0.0
  0
LINE
  5
256
330
40
100
AcDbEntity
  8
0007712
  6
Continuous
 62
     7
100
AcDbLine
 10
158.1329636743
 20
113.6891799445
 30
0.0
 11
158.0768987802
 21
113.6891799445
 31
0.0
  0
LINE
  5
257
330
40
100
AcDbEntity
  8
0007712
  6
Continuous
 62
     7
100
AcDbLine
 10
158.3986620917
 20
109.6891799445
 30
0.0
 11
158.4519579081
 21
109.6891799445
 31
0.0
  0
LINE
  5
258
330
40
100
AcDbEntity
  8
0007712
  6
Continuous
 62
     7
100
AcDbLine
 10
158.3986620917
 20
109.6891799445
 30
0.0
 11
158.3986620917
 21
113.6891799445
 31
0.0
  0
LINE
  5
259
330
40
100
AcDbEntity
  8
0007712
  6
Continuous
 62
     7
100
AcDbLine
 10
158.3986620917
 20
113.6891799445
 30
0.0
 11
157.9876678543
 21
114.0519766561
 31
0.0
  0
LINE
  5
25A
330
40
100
AcDbEntity
  8
0007712
  6
Continuous
 62
     7
100
AcDbLine
 10
158.3986620917
 20
109.6891799445
 30
0.0
 11
157.9876678543
 21
109.3263832328
 31
0.0
  0
LINE
  5
25B
330
40
100
AcDbEntity
  8
0007712
  6
Continuous
 62
     7
100
AcDbLine
 10
158.1329636743
 20
113.6891799445
 30
0.0
 11
158.1329636743
 21
109.6891799445
 31
0.0
  0
LINE
  5
25C
330
40
100
AcDbEntity
  8
0007712
  6
Continuous
 62
     7
100
AcDbLine
 10
157.9876678543
 20
109.3263832328
 30
0.0
 11
158.1329636743
 21
109.6891799445
 31
0.0
  0
LINE
  5
25D
330
40
100
AcDbEntity
  8
0007712
  6
Continuous
 62
     7
100
AcDbLine
 10
157.9876678543
 20
114.0519766561
 30
0.0
 11
158.1329636743
 21
113.6891799445
 31
0.0
  0
LINE
  5
25E
330
40
100
AcDbEntity
  8
0007712
  6
Continuous
 62
     7
100
AcDbLine
 10
158.4519579081
 20
113.6891799445
 30
0.0
 11
158.3986620917
 21
113.6891799445
 31
0.0
  0
LINE
  5
25F
330
40
100
AcDbEntity
  8
0007712
  6
Continuous
 62
     7
100
AcDbLine
 10
158.7039738826
 20
109.6891799445
 30
0.0
 11
158.7544071223
 21
109.6891799445
 31
0.0
  0
LINE
  5
260
330
40
100
AcDbEntity
  8
0007712
  6
Continuous
 62
     7
100
AcDbLine
 10
158.7039738826
 20
109.6891799445
 30
0.0
 11
158.7039738826
 21
113.6891799445
 31
0.0
  0
LINE
  5
261
330
40
100
AcDbEntity
  8
0007712
  6
Continuous
 62
     7
100
AcDbLine
 10
158.7039738826
 20
113.6891799445
 30
0.0
 11
158.290429193
 21
114.0519766561
 31
0.0
  0
LINE
  5
262
330
40
100
AcDbEntity
  8
0007712
  6
Continuous
 62
     7
100
AcDbLine
 10
158.7039738826
 20
109.6891799445
 30
0.0
 11
158.290429193
 21
109.3263832328
 31
0.0
  0
LINE
  5
263
330
40
100
AcDbEntity
  8
0007712
  6
Continuous
 62
     7
100
AcDbLine
 10
158.4519579081
 20
113.6891799445
 30
0.0
 11
158.4519579081
 21
109.6891799445
 31
0.0
  0
LINE
  5
264
330
40
100
AcDbEntity
  8
0007712
  6
Continuous
 62
     7
100
AcDbLine
 10
158.290429193
 20
109.3263832328
 30
0.0
 11
158.4519579081
 21
109.6891799445
 31
0.0
  0
LINE
  5
265
330
40
100
AcDbEntity
  8
0007712
  6
Continuous
 62
     7
100
AcDbLine
 10
158.290429193
 20
114.0519766561
 30
0.0
 11
158.4519579081
 21
113.6891799445
 31
0.0
  0
LINE
  5
266
330
40
100
AcDbEntity
  8
0007712
  6
Continuous
 62
     7
100
AcDbLine
 10
158.7544071223
 20
113.6891799445
 30
0.0
 11
158.7039738826
 21
113.6891799445
 31
0.0
  0
LINE
  5
267
330
40
100
AcDbEntity
  8
0007712
  6
Continuous
 62
     7
100
AcDbLine
 10
158.9922985324
 20
109.6891799445
 30
0.0
 11
159.0397807183
 21
109.6891799445
 31
0.0
  0
LINE
  5
268
330
40
100
AcDbEntity
  8
0007712
  6
Continuous
 62
     7
100
AcDbLine
 10
158.9922985324
 20
109.6891799445
 30
0.0
 11
158.9922985324
 21
113.6891799445
 31
0.0
  0
LINE
  5
269
330
40
100
AcDbEntity
  8
0007712
  6
Continuous
 62
     7
100
AcDbLine
 10
158.9922985324
 20
113.6891799445
 30
0.0
 11
158.5769288885
 21
114.0519766561
 31
0.0
  0
LINE
  5
26A
330
40
100
AcDbEntity
  8
0007712
  6
Continuous
 62
     7
100
AcDbLine
 10
158.9922985324
 20
109.6891799445
 30
0.0
 11
158.5769288885
 21
109.3263832328
 31
0.0
  0
LINE
  5
26B
330
40
100
AcDbEntity
  8
0007712
  6
Continuous
 62
     7
100
AcDbLine
 10
158.7544071223
 20
113.6891799445
 30
0.0
 11
158.7544071223
 21
109.6891799445
 31
0.0
  0
LINE
  5
26C
330
40
100
AcDbEntity
  8
0007712
  6
Continuous
 62
     7
100
AcDbLine
 10
158.5769288885
 20
109.3263832328
 30
0.0
 11
158.7544071223
 21
109.6891799445
 31
0.0
  0
LINE
  5
26D
330
40
100
AcDbEntity
  8
0007712
  6
Continuous
 62
     7
100
AcDbLine
 10
158.5769288885
 20
114.0519766561
 30
0.0
 11
158.7544071223
 21
113.6891799445
 31
0.0
  0
LINE
  5
26E
330
40
100
AcDbEntity
  8
0007712
  6
Continuous
 62
     7
100
AcDbLine
 10
159.0397807183
 20
113.6891799445
 30
0.0
 11
158.9922985324
 21
113.6891799445
 31
0.0
  0
LINE
  5
26F
330
40
100
AcDbEntity
  8
0007712
  6
Continuous
 62
     7
100
AcDbLine
 10
159.2631302215
 20
109.6891799445
 30
0.0
 11
159.3075780538
 21
109.6891799445
 31
0.0
  0
LINE
  5
270
330
40
100
AcDbEntity
  8
0007712
  6
Continuous
 62
     7
100
AcDbLine
 10
159.2631302215
 20
109.6891799445
 30
0.0
 11
159.2631302215
 21
113.6891799445
 31
0.0
  0
LINE
  5
271
330
40
100
AcDbEntity
  8
0007712
  6
Continuous
 62
     7
100
AcDbLine
 10
159.2631302215
 20
113.6891799445
 30
0.0
 11
158.8466643228
 21
114.0519766561
 31
0.0
  0
LINE
  5
272
330
40
100
AcDbEntity
  8
0007712
  6
Continuous
 62
     7
100
AcDbLine
 10
159.2631302215
 20
109.6891799445
 30
0.0
 11
158.8466643228
 21
109.3263832328
 31
0.0
  0
LINE
  5
273
330
40
100
AcDbEntity
  8
0007712
  6
Continuous
 62
     7
100
AcDbLine
 10
159.0397807183
 20
113.6891799445
 30
0.0
 11
159.0397807183
 21
109.6891799445
 31
0.0
  0
LINE
  5
274
330
40
100
AcDbEntity
  8
0007712
  6
Continuous
 62
     7
100
AcDbLine
 10
158.8466643228
 20
109.3263832328
 30
0.0
 11
159.0397807183
 21
109.6891799445
 31
0.0
  0
LINE
  5
275
330
40
100
AcDbEntity
  8
0007712
  6
Continuous
 62
     7
100
AcDbLine
 10
158.8466643228
 20
114.0519766561
 30
0.0
 11
159.0397807183
 21
113.6891799445
 31
0.0
  0
LINE
  5
276
330
40
100
AcDbEntity
  8
0007712
  6
Continuous
 62
     7
100
AcDbLine
 10
159.3075780538
 20
113.6891799445
 30
0.0
 11
159.2631302215
 21
113.6891799445
 31
0.0
  0
LINE
  5
277
330
40
100
AcDbEntity
  8
0007712
  6
Continuous
 62
     7
100
AcDbLine
 10
159.5159938192
 20
109.6891799445
 30
0.0
 11
159.5573293213
 21
109.6891799445
 31
0.0
  0
LINE
  5
278
330
40
100
AcDbEntity
  8
0007712
  6
Continuous
 62
     7
100
AcDbLine
 10
159.5159938192
 20
109.6891799445
 30
0.0
 11
159.5159938192
 21
113.6891799445
 31
0.0
  0
LINE
  5
279
330
40
100
AcDbEntity
  8
0007712
  6
Continuous
 62
     7
100
AcDbLine
 10
159.5159938192
 20
113.6891799445
 30
0.0
 11
159.0991622885
 21
114.0519766561
 31
0.0
  0
LINE
  5
27A
330
40
100
AcDbEntity
  8
0007712
  6
Continuous
 62
     7
100
AcDbLine
 10
159.5159938192
 20
109.6891799445
 30
0.0
 11
159.0991622885
 21
109.3263832328
 31
0.0
  0
LINE
  5
27B
330
40
100
AcDbEntity
  8
0007712
  6
Continuous
 62
     7
100
AcDbLine
 10
159.3075780538
 20
113.6891799445
 30
0.0
 11
159.3075780538
 21
109.6891799445
 31
0.0
  0
LINE
  5
27C
330
40
100
AcDbEntity
  8
0007712
  6
Continuous
 62
     7
100
AcDbLine
 10
159.0991622885
 20
109.3263832328
 30
0.0
 11
159.3075780538
 21
109.6891799445
 31
0.0
  0
LINE
  5
27D
330
40
100
AcDbEntity
  8
0007712
  6
Continuous
 62
     7
100
AcDbLine
 10
159.0991622885
 20
114.0519766561
 30
0.0
 11
159.3075780538
 21
113.6891799445
 31
0.0
  0
LINE
  5
27E
330
40
100
AcDbEntity
  8
0007712
  6
Continuous
 62
     7
100
AcDbLine
 10
159.5573293213
 20
113.6891799445
 30
0.0
 11
159.5159938192
 21
113.6891799445
 31
0.0
  0
LINE
  5
27F
330
40
100
AcDbEntity
  8
0007712
  6
Continuous
 62
     7
100
AcDbLine
 10
159.7504457167
 20
109.6891799445
 30
0.0
 11
159.7885963721
 21
109.6891799445
 31
0.0
  0
LINE
  5
280
330
40
100
AcDbEntity
  8
0007712
  6
Continuous
 62
     7
100
AcDbLine
 10
159.7504457167
 20
109.6891799445
 30
0.0
 11
159.7504457167
 21
113.6891799445
 31
0.0
  0
LINE
  5
281
330
40
100
AcDbEntity
  8
0007712
  6
Continuous
 62
     7
100
AcDbLine
 10
159.7504457167
 20
113.6891799445
 30
0.0
 11
159.3339798181
 21
114.0519766561
 31
0.0
  0
LINE
  5
282
330
40
100
AcDbEntity
  8
0007712
  6
Continuous
 62
     7
100
AcDbLine
 10
159.7504457167
 20
109.6891799445
 30
0.0
 11
159.3339798181
 21
109.3263832328
 31
0.0
  0
LINE
  5
283
330
40
100
AcDbEntity
  8
0007712
  6
Continuous
 62
     7
100
AcDbLine
 10
159.5573293213
 20
113.6891799445
 30
0.0
 11
159.5573293213
 21
109.6891799445
 31
0.0
  0
LINE
  5
284
330
40
100
AcDbEntity
  8
0007712
  6
Continuous
 62
     7
100
AcDbLine
 10
159.3339798181
 20
109.3263832328
 30
0.0
 11
159.5573293213
 21
109.6891799445
 31
0.0
  0
LINE
  5
285
330
40
100
AcDbEntity
  8
0007712
  6
Continuous
 62
     7
100
AcDbLine
 10
159.3339798181
 20
114.0519766561
 30
0.0
 11
159.5573293213
 21
113.6891799445
 31
0.0
  0
LINE
  5
286
330
40
100
AcDbEntity
  8
0007712
  6
Continuous
 62
     7
100
AcDbLine
 10
159.7885963721
 20
113.6891799445
 30
0.0
 11
159.7504457167
 21
113.6891799445
 31
0.0
  0
LINE
  5
287
330
40
100
AcDbEntity
  8
0007712
  6
Continuous
 62
     7
100
AcDbLine
 10
159.9660746059
 20
109.6891799445
 30
0.0
 11
160.0009734853
 21
109.6891799445
 31
0.0
  0
LINE
  5
288
330
40
100
AcDbEntity
  8
0007712
  6
Continuous
 62
     7
100
AcDbLine
 10
159.9660746059
 20
109.6891799445
 30
0.0
 11
159.9660746059
 21
113.6891799445
 31
0.0
  0
LINE
  5
289
330
40
100
AcDbEntity
  8
0007712
  6
Continuous
 62
     7
100
AcDbLine
 10
159.9660746059
 20
113.6891799445
 30
0.0
 11
159.5507049621
 21
114.0519766561
 31
0.0
  0
LINE
  5
28A
330
40
100
AcDbEntity
  8
0007712
  6
Continuous
 62
     7
100
AcDbLine
 10
159.9660746059
 20
109.6891799445
 30
0.0
 11
159.5507049621
 21
109.3263832328
 31
0.0
  0
LINE
  5
28B
330
40
100
AcDbEntity
  8
0007712
  6
Continuous
 62
     7
100
AcDbLine
 10
159.7885963721
 20
113.6891799445
 30
0.0
 11
159.7885963721
 21
109.6891799445
 31
0.0
  0
LINE
  5
28C
330
40
100
AcDbEntity
  8
0007712
  6
Continuous
 62
     7
100
AcDbLine
 10
159.5507049621
 20
109.3263832328
 30
0.0
 11
159.7885963721
 21
109.6891799445
 31
0.0
  0
LINE
  5
28D
330
40
100
AcDbEntity
  8
0007712
  6
Continuous
 62
     7
100
AcDbLine
 10
159.5507049621
 20
114.0519766561
 30
0.0
 11
159.7885963721
 21
113.6891799445
 31
0.0
  0
LINE
  5
28E
330
40
100
AcDbEntity
  8
0007712
  6
Continuous
 62
     7
100
AcDbLine
 10
160.0009734853
 20
113.6891799445
 30
0.0
 11
159.9660746059
 21
113.6891799445
 31
0.0
  0
LINE
  5
28F
330
40
100
AcDbEntity
  8
0007712
  6
Continuous
 62
     7
100
AcDbLine
 10
160.1625022004
 20
109.6891799445
 30
0.0
 11
160.1940880793
 21
109.6891799445
 31
0.0
  0
LINE
  5
290
330
40
100
AcDbEntity
  8
0007712
  6
Continuous
 62
     7
100
AcDbLine
 10
160.1625022004
 20
109.6891799445
 30
0.0
 11
160.1625022004
 21
113.6891799445
 31
0.0
  0
LINE
  5
291
330
40
100
AcDbEntity
  8
0007712
  6
Continuous
 62
     7
100
AcDbLine
 10
160.1625022004
 20
113.6891799445
 30
0.0
 11
159.7489575108
 21
114.0519766561
 31
0.0
  0
LINE
  5
292
330
40
100
AcDbEntity
  8
0007712
  6
Continuous
 62
     7
100
AcDbLine
 10
160.1625022004
 20
109.6891799445
 30
0.0
 11
159.7489575108
 21
109.3263832328
 31
0.0
  0
LINE
  5
293
330
40
100
AcDbEntity
  8
0007712
  6
Continuous
 62
     7
100
AcDbLine
 10
160.0009734853
 20
113.6891799445
 30
0.0
 11
160.0009734853
 21
109.6891799445
 31
0.0
  0
LINE
  5
294
330
40
100
AcDbEntity
  8
0007712
  6
Continuous
 62
     7
100
AcDbLine
 10
159.7489575108
 20
109.3263832328
 30
0.0
 11
160.0009734853
 21
109.6891799445
 31
0.0
  0
LINE
  5
295
330
40
100
AcDbEntity
  8
0007712
  6
Continuous
 62
     7
100
AcDbLine
 10
159.7489575108
 20
114.0519766561
 30
0.0
 11
160.0009734853
 21
113.6891799445
 31
0.0
  0
LINE
  5
296
330
40
100
AcDbEntity
  8
0007712
  6
Continuous
 62
     7
100
AcDbLine
 10
160.1940880793
 20
113.6891799445
 30
0.0
 11
160.1625022004
 21
113.6891799445
 31
0.0
  0
LINE
  5
297
330
40
100
AcDbEntity
  8
0007712
  6
Continuous
 62
     7
100
AcDbLine
 10
160.3393838994
 20
109.6891799445
 30
0.0
 11
160.3676013655
 21
109.6891799445
 31
0.0
  0
LINE
  5
298
330
40
100
AcDbEntity
  8
0007712
  6
Continuous
 62
     7
100
AcDbLine
 10
160.3393838994
 20
109.6891799445
 30
0.0
 11
160.3393838994
 21
113.6891799445
 31
0.0
  0
LINE
  5
299
330
40
100
AcDbEntity
  8
0007712
  6
Continuous
 62
     7
100
AcDbLine
 10
160.3393838994
 20
113.6891799445
 30
0.0
 11
159.928389662
 21
114.0519766561
 31
0.0
  0
LINE
  5
29A
330
40
100
AcDbEntity
  8
0007712
  6
Continuous
 62
     7
100
AcDbLine
 10
160.3393838994
 20
109.6891799445
 30
0.0
 11
159.928389662
 21
109.3263832328
 31
0.0
  0
LINE
  5
29B
330
40
100
AcDbEntity
  8
0007712
  6
Continuous
 62
     7
100
AcDbLine
 10
160.1940880793
 20
113.6891799445
 30
0.0
 11
160.1940880793
 21
109.6891799445
 31
0.0
  0
LINE
  5
29C
330
40
100
AcDbEntity
  8
0007712
  6
Continuous
 62
     7
100
AcDbLine
 10
159.928389662
 20
109.3263832328
 30
0.0
 11
160.1940880793
 21
109.6891799445
 31
0.0
  0
LINE
  5
29D
330
40
100
AcDbEntity
  8
0007712
  6
Continuous
 62
     7
100
AcDbLine
 10
159.928389662
 20
114.0519766561
 30
0.0
 11
160.1940880793
 21
113.6891799445
 31
0.0
  0
LINE
  5
29E
330
40
100
AcDbEntity
  8
0007712
  6
Continuous
 62
     7
100
AcDbLine
 10
160.3676013655
 20
113.6891799445
 30
0.0
 11
160.3393838994
 21
113.6891799445
 31
0.0
  0
LINE
  5
29F
330
40
100
AcDbEntity
  8
0007712
  6
Continuous
 62
     7
100
AcDbLine
 10
160.4964093922
 20
109.6891799445
 30
0.0
 11
160.5212089425
 21
109.6891799445
 31
0.0
  0
LINE
  5
2A0
330
40
100
AcDbEntity
  8
0007712
  6
Continuous
 62
     7
100
AcDbLine
 10
160.4964093922
 20
109.6891799445
 30
0.0
 11
160.4964093922
 21
113.6891799445
 31
0.0
  0
LINE
  5
2A1
330
40
100
AcDbEntity
  8
0007712
  6
Continuous
 62
     7
100
AcDbLine
 10
160.4964093922
 20
113.6891799445
 30
0.0
 11
160.0886866306
 21
114.0519766561
 31
0.0
  0
LINE
  5
2A2
330
40
100
AcDbEntity
  8
0007712
  6
Continuous
 62
     7
100
AcDbLine
 10
160.4964093922
 20
109.6891799445
 30
0.0
 11
160.0886866306
 21
109.3263832328
 31
0.0
  0
LINE
  5
2A3
330
40
100
AcDbEntity
  8
0007712
  6
Continuous
 62
     7
100
AcDbLine
 10
160.3676013655
 20
113.6891799445
 30
0.0
 11
160.3676013655
 21
109.6891799445
 31
0.0
  0
LINE
  5
2A4
330
40
100
AcDbEntity
  8
0007712
  6
Continuous
 62
     7
100
AcDbLine
 10
160.0886866306
 20
109.3263832328
 30
0.0
 11
160.3676013655
 21
109.6891799445
 31
0.0
  0
LINE
  5
2A5
330
40
100
AcDbEntity
  8
0007712
  6
Continuous
 62
     7
100
AcDbLine
 10
160.0886866306
 20
114.0519766561
 30
0.0
 11
160.3676013655
 21
113.6891799445
 31
0.0
  0
LINE
  5
2A6
330
40
100
AcDbEntity
  8
0007712
  6
Continuous
 62
     7
100
AcDbLine
 10
160.5212089425
 20
113.6891799445
 30
0.0
 11
160.4964093922
 21
113.6891799445
 31
0.0
  0
LINE
  5
2A7
330
40
100
AcDbEntity
  8
0007712
  6
Continuous
 62
     7
100
AcDbLine
 10
160.633303203
 20
109.6891799445
 30
0.0
 11
160.6546413305
 21
109.6891799445
 31
0.0
  0
LINE
  5
2A8
330
40
100
AcDbEntity
  8
0007712
  6
Continuous
 62
     7
100
AcDbLine
 10
160.633303203
 20
109.6891799445
 30
0.0
 11
160.633303203
 21
113.6891799445
 31
0.0
  0
LINE
  5
2A9
330
40
100
AcDbEntity
  8
0007712
  6
Continuous
 62
     7
100
AcDbLine
 10
160.633303203
 20
113.6891799445
 30
0.0
 11
160.2295672013
 21
114.0519766561
 31
0.0
  0
LINE
  5
2AA
330
40
100
AcDbEntity
  8
0007712
  6
Continuous
 62
     7
100
AcDbLine
 10
160.633303203
 20
109.6891799445
 30
0.0
 11
160.2295672013
 21
109.3263832328
 31
0.0
  0
LINE
  5
2AB
330
40
100
AcDbEntity
  8
0007712
  6
Continuous
 62
     7
100
AcDbLine
 10
160.5212089425
 20
113.6891799445
 30
0.0
 11
160.5212089425
 21
109.6891799445
 31
0.0
  0
LINE
  5
2AC
330
40
100
AcDbEntity
  8
0007712
  6
Continuous
 62
     7
100
AcDbLine
 10
160.2295672013
 20
109.3263832328
 30
0.0
 11
160.5212089425
 21
109.6891799445
 31
0.0
  0
LINE
  5
2AD
330
40
100
AcDbEntity
  8
0007712
  6
Continuous
 62
     7
100
AcDbLine
 10
160.2295672013
 20
114.0519766561
 30
0.0
 11
160.5212089425
 21
113.6891799445
 31
0.0
  0
LINE
  5
2AE
330
40
100
AcDbEntity
  8
0007712
  6
Continuous
 62
     7
100
AcDbLine
 10
160.6546413305
 20
113.6891799445
 30
0.0
 11
160.633303203
 21
113.6891799445
 31
0.0
  0
LINE
  5
2AF
330
40
100
AcDbEntity
  8
0007712
  6
Continuous
 62
     7
100
AcDbLine
 10
160.7498251733
 20
109.6891799445
 30
0.0
 11
160.7676644438
 21
109.6891799445
 31
0.0
  0
LINE
  5
2B0
330
40
100
AcDbEntity
  8
0007712
  6
Continuous
 62
     7
100
AcDbLine
 10
160.7498251733
 20
109.6891799445
 30
0.0
 11
160.7498251733
 21
113.6891799445
 31
0.0
  0
LINE
  5
2B1
330
40
100
AcDbEntity
  8
0007712
  6
Continuous
 62
     7
100
AcDbLine
 10
160.7498251733
 20
113.6891799445
 30
0.0
 11
160.3507842217
 21
114.0519766561
 31
0.0
  0
LINE
  5
2B2
330
40
100
AcDbEntity
  8
0007712
  6
Continuous
 62
     7
100
AcDbLine
 10
160.7498251733
 20
109.6891799445
 30
0.0
 11
160.3507842217
 21
109.3263832328
 31
0.0
  0
LINE
  5
2B3
330
40
100
AcDbEntity
  8
0007712
  6
Continuous
 62
     7
100
AcDbLine
 10
160.6546413305
 20
113.6891799445
 30
0.0
 11
160.6546413305
 21
109.6891799445
 31
0.0
  0
LINE
  5
2B4
330
40
100
AcDbEntity
  8
0007712
  6
Continuous
 62
     7
100
AcDbLine
 10
160.3507842217
 20
109.3263832328
 30
0.0
 11
160.6546413305
 21
109.6891799445
 31
0.0
  0
LINE
  5
2B5
330
40
100
AcDbEntity
  8
0007712
  6
Continuous
 62
     7
100
AcDbLine
 10
160.3507842217
 20
114.0519766561
 30
0.0
 11
160.6546413305
 21
113.6891799445
 31
0.0
  0
LINE
  5
2B6
330
40
100
AcDbEntity
  8
0007712
  6
Continuous
 62
     7
100
AcDbLine
 10
160.7676644438
 20
113.6891799445
 30
0.0
 11
160.7498251733
 21
113.6891799445
 31
0.0
  0
LINE
  5
2B7
330
40
100
AcDbEntity
  8
0007712
  6
Continuous
 62
     7
100
AcDbLine
 10
160.845770884
 20
109.6891799445
 30
0.0
 11
160.8600800014
 21
109.6891799445
 31
0.0
  0
LINE
  5
2B8
330
40
100
AcDbEntity
  8
0007712
  6
Continuous
 62
     7
100
AcDbLine
 10
160.845770884
 20
109.6891799445
 30
0.0
 11
160.845770884
 21
113.6891799445
 31
0.0
  0
LINE
  5
2B9
330
40
100
AcDbEntity
  8
0007712
  6
Continuous
 62
     7
100
AcDbLine
 10
160.845770884
 20
113.6891799445
 30
0.0
 11
160.452125036
 21
114.0519766561
 31
0.0
  0
LINE
  5
2BA
330
40
100
AcDbEntity
  8
0007712
  6
Continuous
 62
     7
100
AcDbLine
 10
160.845770884
 20
109.6891799445
 30
0.0
 11
160.452125036
 21
109.3263832328
 31
0.0
  0
LINE
  5
2BB
330
40
100
AcDbEntity
  8
0007712
  6
Continuous
 62
     7
100
AcDbLine
 10
160.7676644438
 20
113.6891799445
 30
0.0
 11
160.7676644438
 21
109.6891799445
 31
0.0
  0
LINE
  5
2BC
330
40
100
AcDbEntity
  8
0007712
  6
Continuous
 62
     7
100
AcDbLine
 10
160.452125036
 20
109.3263832328
 30
0.0
 11
160.7676644438
 21
109.6891799445
 31
0.0
  0
LINE
  5
2BD
330
40
100
AcDbEntity
  8
0007712
  6
Continuous
 62
     7
100
AcDbLine
 10
160.452125036
 20
114.0519766561
 30
0.0
 11
160.7676644438
 21
113.6891799445
 31
0.0
  0
LINE
  5
2BE
330
40
100
AcDbEntity
  8
0007712
  6
Continuous
 62
     7
100
AcDbLine
 10
160.8600800014
 20
113.6891799445
 30
0.0
 11
160.845770884
 21
113.6891799445
 31
0.0
  0
LINE
  5
2BF
330
40
100
AcDbEntity
  8
0007712
  6
Continuous
 62
     7
100
AcDbLine
 10
160.9209720138
 20
109.6891799445
 30
0.0
 11
160.931725875
 21
109.6891799445
 31
0.0
  0
LINE
  5
2C0
330
40
100
AcDbEntity
  8
0007712
  6
Continuous
 62
     7
100
AcDbLine
 10
160.9209720138
 20
109.6891799445
 30
0.0
 11
160.9209720138
 21
113.6891799445
 31
0.0
  0
LINE
  5
2C1
330
40
100
AcDbEntity
  8
0007712
  6
Continuous
 62
     7
100
AcDbLine
 10
160.9209720138
 20
113.6891799445
 30
0.0
 11
160.533411858
 21
114.0519766561
 31
0.0
  0
LINE
  5
2C2
330
40
100
AcDbEntity
  8
0007712
  6
Continuous
 62
     7
100
AcDbLine
 10
160.9209720138
 20
109.6891799445
 30
0.0
 11
160.533411858
 21
109.3263832328
 31
0.0
  0
LINE
  5
2C3
330
40
100
AcDbEntity
  8
0007712
  6
Continuous
 62
     7
100
AcDbLine
 10
160.8600800014
 20
113.6891799445
 30
0.0
 11
160.8600800014
 21
109.6891799445
 31
0.0
  0
LINE
  5
2C4
330
40
100
AcDbEntity
  8
0007712
  6
Continuous
 62
     7
100
AcDbLine
 10
160.533411858
 20
109.3263832328
 30
0.0
 11
160.8600800014
 21
109.6891799445
 31
0.0
  0
LINE
  5
2C5
330
40
100
AcDbEntity
  8
0007712
  6
Continuous
 62
     7
100
AcDbLine
 10
160.533411858
 20
114.0519766561
 30
0.0
 11
160.8600800014
 21
113.6891799445
 31
0.0
  0
LINE
  5
2C6
330
40
100
AcDbEntity
  8
0007712
  6
Continuous
 62
     7
100
AcDbLine
 10
160.931725875
 20
113.6891799445
 30
0.0
 11
160.9209720138
 21
113.6891799445
 31
0.0
  0
LINE
  5
2C7
330
40
100
AcDbEntity
  8
0007712
  6
Continuous
 62
     7
100
AcDbLine
 10
160.9752966343
 20
109.6891799445
 30
0.0
 11
160.9824763734
 21
109.6891799445
 31
0.0
  0
LINE
  5
2C8
330
40
100
AcDbEntity
  8
0007712
  6
Continuous
 62
     7
100
AcDbLine
 10
160.9752966343
 20
109.6891799445
 30
0.0
 11
160.9752966343
 21
113.6891799445
 31
0.0
  0
LINE
  5
2C9
330
40
100
AcDbEntity
  8
0007712
  6
Continuous
 62
     7
100
AcDbLine
 10
160.9752966343
 20
113.6891799445
 30
0.0
 11
160.5945020829
 21
114.0519766561
 31
0.0
  0
LINE
  5
2CA
330
40
100
AcDbEntity
  8
0007712
  6
Continuous
 62
     7
100
AcDbLine
 10
160.9752966343
 20
109.6891799445
 30
0.0
 11
160.5945020829
 21
109.3263832328
 31
0.0
  0
LINE
  5
2CB
330
40
100
AcDbEntity
  8
0007712
  6
Continuous
 62
     7
100
AcDbLine
 10
160.931725875
 20
113.6891799445
 30
0.0
 11
160.931725875
 21
109.6891799445
 31
0.0
  0
LINE
  5
2CC
330
40
100
AcDbEntity
  8
0007712
  6
Continuous
 62
     7
100
AcDbLine
 10
160.5945020829
 20
109.3263832328
 30
0.0
 11
160.931725875
 21
109.6891799445
 31
0.0
  0
LINE
  5
2CD
330
40
100
AcDbEntity
  8
0007712
  6
Continuous
 62
     7
100
AcDbLine
 10
160.5945020829
 20
114.0519766561
 30
0.0
 11
160.931725875
 21
113.6891799445
 31
0.0
  0
LINE
  5
2CE
330
40
100
AcDbEntity
  8
0007712
  6
Continuous
 62
     7
100
AcDbLine
 10
160.9824763734
 20
113.6891799445
 30
0.0
 11
160.9752966343
 21
113.6891799445
 31
0.0
  0
LINE
  5
2CF
330
40
100
AcDbEntity
  8
0007712
  6
Continuous
 62
     7
100
AcDbLine
 10
161.0086494418
 20
109.6891799445
 30
0.0
 11
161.012242463
 21
109.6891799445
 31
0.0
  0
LINE
  5
2D0
330
40
100
AcDbEntity
  8
0007712
  6
Continuous
 62
     7
100
AcDbLine
 10
161.0086494418
 20
109.6891799445
 30
0.0
 11
161.0086494418
 21
113.6891799445
 31
0.0
  0
LINE
  5
2D1
330
40
100
AcDbEntity
  8
0007712
  6
Continuous
 62
     7
100
AcDbLine
 10
161.0086494418
 20
113.6891799445
 30
0.0
 11
160.6352885377
 21
114.0519766561
 31
0.0
  0
LINE
  5
2D2
330
40
100
AcDbEntity
  8
0007712
  6
Continuous
 62
     7
100
AcDbLine
 10
161.0086494418
 20
109.6891799445
 30
0.0
 11
160.6352885377
 21
109.3263832328
 31
0.0
  0
LINE
  5
2D3
330
40
100
AcDbEntity
  8
0007712
  6
Continuous
 62
     7
100
AcDbLine
 10
160.9824763734
 20
113.6891799445
 30
0.0
 11
160.9824763734
 21
109.6891799445
 31
0.0
  0
LINE
  5
2D4
330
40
100
AcDbEntity
  8
0007712
  6
Continuous
 62
     7
100
AcDbLine
 10
160.6352885377
 20
109.3263832328
 30
0.0
 11
160.9824763734
 21
109.6891799445
 31
0.0
  0
LINE
  5
2D5
330
40
100
AcDbEntity
  8
0007712
  6
Continuous
 62
     7
100
AcDbLine
 10
160.6352885377
 20
114.0519766561
 30
0.0
 11
160.9824763734
 21
113.6891799445
 31
0.0
  0
LINE
  5
2D6
330
40
100
AcDbEntity
  8
0007712
  6
Continuous
 62
     7
100
AcDbLine
 10
161.012242463
 20
113.6891799445
 30
0.0
 11
161.0086494418
 21
113.6891799445
 31
0.0
  0
LINE
  5
2D7
330
40
100
AcDbEntity
  8
0007712
  6
Continuous
 62
     7
100
AcDbLine
 10
161.021048612
 20
109.6891799445
 30
0.0
 11
161.0209719239
 21
109.6891799445
 31
0.0
  0
LINE
  5
2D8
330
40
100
AcDbEntity
  8
0007712
  6
Continuous
 62
     7
100
AcDbLine
 10
161.0209719239
 20
109.6891799445
 30
0.0
 11
161.0209719239
 21
113.6891799445
 31
0.0
  0
LINE
  5
2D9
330
40
100
AcDbEntity
  8
0007712
  6
Continuous
 62
     7
100
AcDbLine
 10
161.0209719239
 20
113.6891799445
 30
0.0
 11
160.6556996691
 21
114.0519766561
 31
0.0
  0
LINE
  5
2DA
330
40
100
AcDbEntity
  8
0007712
  6
Continuous
 62
     7
100
AcDbLine
 10
161.0209719239
 20
109.6891799445
 30
0.0
 11
160.6556996691
 21
109.3263832328
 31
0.0
  0
LINE
  5
2DB
330
40
100
AcDbEntity
  8
0007712
  6
Continuous
 62
     7
100
AcDbLine
 10
161.012242463
 20
113.6891799445
 30
0.0
 11
161.012242463
 21
109.6891799445
 31
0.0
  0
LINE
  5
2DC
330
40
100
AcDbEntity
  8
0007712
  6
Continuous
 62
     7
100
AcDbLine
 10
160.6556996691
 20
109.3263832328
 30
0.0
 11
161.012242463
 21
109.6891799445
 31
0.0
  0
LINE
  5
2DD
330
40
100
AcDbEntity
  8
0007712
  6
Continuous
 62
     7
100
AcDbLine
 10
160.6556996691
 20
114.0519766561
 30
0.0
 11
161.012242463
 21
113.6891799445
 31
0.0
  0
LINE
  5
2DE
330
40
100
AcDbEntity
  8
0007712
  6
Continuous
 62
     7
100
AcDbLine
 10
161.0209719239
 20
113.6891799445
 30
0.0
 11
161.021048612
 21
113.6891799445
 31
0.0
  0
LINE
  5
2DF
330
40
100
AcDbEntity
  8
0007712
  6
Continuous
 62
     7
100
AcDbLine
 10
161.0210486118
 20
113.6891799445
 30
0.0
 11
160.5210486118
 21
114.1891799445
 31
0.0
  0
LINE
  5
2E0
330
40
100
AcDbEntity
  8
0007712
  6
Continuous
 62
     7
100
AcDbLine
 10
137.5210486118
 20
114.1891799445
 30
0.0
 11
137.0210486118
 21
113.6891799445
 31
0.0
  0
LINE
  5
2E1
330
40
100
AcDbEntity
  8
0007712
  6
Continuous
 62
     7
100
AcDbLine
 10
137.0210486118
 20
109.6891799445
 30
0.0
 11
137.5210486118
 21
109.1891799445
 31
0.0
  0
LINE
  5
2E2
330
40
100
AcDbEntity
  8
0007712
  6
Continuous
 62
     7
100
AcDbLine
 10
160.5210486118
 20
109.1891799445
 30
0.0
 11
161.0210486118
 21
109.6891799445
 31
0.0
  0
LINE
  5
2E3
330
40
100
AcDbEntity
  8
0007712
  6
Continuous
 62
     7
100
AcDbLine
 10
137.0210486118
 20
113.6891799445
 30
0.0
 11
137.0210486118
 21
109.6891799445
 31
0.0
  0
LINE
  5
2E4
330
40
100
AcDbEntity
  8
0007712
  6
Continuous
 62
     7
100
AcDbLine
 10
161.0210486118
 20
109.6891799445
 30
0.0
 11
161.0210486118
 21
113.6891799445
 31
0.0
  0
ELLIPSE
  5
2E6
330
40
100
AcDbEntity
  8
0007749
  6
Continuous
 62
     7
100
AcDbEllipse
 10
152.2558346863
 20
91.2391799445
 30
0.0
 11
8.673617379884035E-16
 21
0.2999999999999982
 31
0.0
210
0.0
220
0.0
230
1.0
 40
0.9242245927
 41
2.131679245849706
 42
3.377967711955469
  0
SPLINE
  5
2E7
330
40
100
AcDbEntity
  8
0007749
  6
Continuous
 62
     7
100
AcDbSpline
210
0.0
220
0.0
230
1.0
 70
     8
 71
     3
 72
    42
 73
    38
 74
     0
 42
0.0000000006661421
 43
0.0000000001
 12
1.0
 22
0.0
 32
0.0
 13
1.0
 23
0.0
 33
0.0
 40
0.0
 40
0.0
 40
0.0
 40
0.0
 40
0.0179830328698355
 40
0.033636229185855
 40
0.0466606279600504
 40
0.0568357446554765
 40
0.0640476267129773
 40
0.0688901884053578
 40
0.0800441852194569
 40
0.0939774893479855
 40
0.1088296023537124
 40
0.1245409528186196
 40
0.1407012654186774
 40
0.1589197532281144
 40
0.1733415542853598
 40
0.1891812143812061
 40
0.208807630342057
 40
0.2307065903661836
 40
0.2515948506309469
 40
0.2711907052525487
 40
0.2895164148362135
 40
0.3069263979313716
 40
0.3233709165219997
 40
0.3400947001628148
 40
0.3594972411725491
 40
0.3763641446881327
 40
0.3952615067678539
 40
0.4159727146185049
 40
0.4362772942210204
 40
0.4553513511476788
 40
0.4730679315855547
 40
0.4893554739530259
 40
0.5041899917658945
 40
0.5172241466506498
 40
0.5282574781118414
 40
0.5372225279791739
 40
0.5404412505337508
 40
0.5404412505337508
 40
0.5404412505337508
 40
0.5404412505337508
 10
152.3207096335309
 20
105.7600075021786
 30
0.0
 10
152.3905069059801
 20
105.7798970325334
 30
0.0
 10
152.4992533080879
 20
105.8125134116882
 30
0.0
 10
152.6323834778505
 20
105.8801475693684
 30
0.0
 10
152.7221981241567
 20
105.9524846733837
 30
0.0
 10
152.7786318827121
 20
106.0309369524971
 30
0.0
 10
152.8109139175737
 20
106.1048711618243
 30
0.0
 10
152.8287193360505
 20
106.2347894711385
 30
0.0
 10
152.7928803206931
 20
106.3617688391963
 30
0.0
 10
152.7094680356667
 20
106.4712551838038
 30
0.0
 10
152.5959914184795
 20
106.5511632204702
 30
0.0
 10
152.4662417855677
 20
106.6094312465669
 30
0.0
 10
152.3118732423362
 20
106.6595653064059
 30
0.0
 10
152.1287341182657
 20
106.7047226656429
 30
0.0
 10
151.9234181407553
 20
106.7450720972535
 30
0.0
 10
151.6885856378342
 20
106.7833567300543
 30
0.0
 10
151.3858262567816
 20
106.8298895333676
 30
0.0
 10
151.0176573866831
 20
106.8824743225831
 30
0.0
 10
150.6151240081537
 20
106.9365482057823
 30
0.0
 10
150.2113589883968
 20
106.987947788759
 30
0.0
 10
149.8154989015121
 20
107.0360111465597
 30
0.0
 10
149.4327651648937
 20
107.0804776342503
 30
0.0
 10
149.0574231473146
 20
107.1223255704994
 30
0.0
 10
148.666990119089
 20
107.1639301920454
 30
0.0
 10
148.277970088843
 20
107.2038661867679
 30
0.0
 10
147.8844324926554
 20
107.2487562027981
 30
0.0
 10
147.497710450125
 20
107.2962230687772
 30
0.0
 10
147.1125339553837
 20
107.3480060626316
 30
0.0
 10
146.7603071153223
 20
107.4002164065227
 30
0.0
 10
146.4631882871392
 20
107.4490542443014
 30
0.0
 10
146.2245729519938
 20
107.4927823659353
 30
0.0
 10
146.0410445482783
 20
107.5305337933143
 30
0.0
 10
145.9079232854
 20
107.5614917399958
 30
0.0
 10
145.8196099749186
 20
107.5847775720784
 30
0.0
 10
145.7684992751864
 20
107.6025454505197
 30
0.0
 10
145.7495658397513
 20
107.6106212538314
 30
0.0
 10
145.7461146931454
 20
107.6122323720994
 30
0.0
 10
145.745876071985
 20
107.6121951453632
 30
0.0
  0
SPLINE
  5
2E8
330
40
100
AcDbEntity
  8
0007749
  6
Continuous
 62
     7
100
AcDbSpline
210
0.0
220
0.0
230
1.0
 70
     8
 71
     3
 72
     9
 73
     5
 74
     0
 42
0.000000000920767
 43
0.0000000001
 12
1.0
 22
0.0
 32
0.0
 13
1.0
 23
0.0
 33
0.0
 40
0.9722161363782102
 40
0.9722161363782102
 40
0.9722161363782102
 40
0.9722161363782102
 40
0.9794759491845529
 40
1.0
 40
1.0
 40
1.0
 40
1.0
 10
152.0265685822257
 20
108.1616479931049
 30
0.0
 10
152.0562848806188
 20
108.1677005326215
 30
0.0
 10
152.1648279233034
 20
108.190475366472
 30
0.0
 10
152.2486991413581
 20
108.2109346826734
 30
0.0
 10
152.3207096335329
 20
108.2287575021791
 30
0.0
  0
SPLINE
  5
2E9
330
40
100
AcDbEntity
  8
0007749
  6
Continuous
 62
     7
100
AcDbSpline
210
0.0
220
0.0
230
1.0
 70
     8
 71
     3
 72
    42
 73
    38
 74
     0
 42
0.0000000006661421
 43
0.0000000001
 12
1.0
 22
0.0
 32
0.0
 13
1.0
 23
0.0
 33
0.0
 40
0.0
 40
0.0
 40
0.0
 40
0.0
 40
0.0179830328698355
 40
0.0336362291858547
 40
0.0466606279600505
 40
0.0568357446554764
 40
0.0640476267129772
 40
0.0688901884053576
 40
0.0800441852194565
 40
0.0939774893479847
 40
0.1088296023537125
 40
0.1245409528186193
 40
0.1407012654186778
 40
0.1589197532281146
 40
0.1733415542853596
 40
0.1891812143812059
 40
0.2088076303420567
 40
0.2307065903661836
 40
0.2515948506309469
 40
0.2711907052525484
 40
0.2895164148362137
 40
0.3069263979313714
 40
0.3233709165219998
 40
0.3400947001628145
 40
0.3594972411725489
 40
0.3763641446881322
 40
0.3952615067678537
 40
0.4159727146185049
 40
0.4362772942210197
 40
0.4553513511476781
 40
0.4730679315855545
 40
0.4893554739530254
 40
0.5041899917658946
 40
0.5172241466506496
 40
0.5282574781118411
 40
0.5372225279791738
 40
0.5404412505337509
 40
0.5404412505337509
 40
0.5404412505337509
 40
0.5404412505337509
 10
152.3207096335309
 20
103.2912575021786
 30
0.0
 10
152.3905069059801
 20
103.3111470325335
 30
0.0
 10
152.4992533080879
 20
103.3437634116882
 30
0.0
 10
152.6323834778505
 20
103.4113975693684
 30
0.0
 10
152.7221981241567
 20
103.4837346733837
 30
0.0
 10
152.7786318827121
 20
103.5621869524971
 30
0.0
 10
152.8109139175737
 20
103.6361211618243
 30
0.0
 10
152.8287193360505
 20
103.7660394711385
 30
0.0
 10
152.7928803206931
 20
103.8930188391963
 30
0.0
 10
152.7094680356667
 20
104.0025051838038
 30
0.0
 10
152.5959914184795
 20
104.0824132204702
 30
0.0
 10
152.4662417855677
 20
104.1406812465669
 30
0.0
 10
152.3118732423362
 20
104.1908153064059
 30
0.0
 10
152.1287341182657
 20
104.2359726656429
 30
0.0
 10
151.9234181407553
 20
104.2763220972535
 30
0.0
 10
151.6885856378342
 20
104.3146067300543
 30
0.0
 10
151.3858262567816
 20
104.3611395333676
 30
0.0
 10
151.0176573866831
 20
104.4137243225831
 30
0.0
 10
150.6151240081537
 20
104.4677982057823
 30
0.0
 10
150.2113589883968
 20
104.5191977887591
 30
0.0
 10
149.8154989015121
 20
104.5672611465597
 30
0.0
 10
149.4327651648937
 20
104.6117276342503
 30
0.0
 10
149.0574231473146
 20
104.6535755704995
 30
0.0
 10
148.666990119089
 20
104.6951801920454
 30
0.0
 10
148.277970088843
 20
104.7351161867679
 30
0.0
 10
147.8844324926554
 20
104.7800062027981
 30
0.0
 10
147.497710450125
 20
104.8274730687772
 30
0.0
 10
147.1125339553837
 20
104.8792560626317
 30
0.0
 10
146.7603071153223
 20
104.9314664065227
 30
0.0
 10
146.4631882871392
 20
104.9803042443014
 30
0.0
 10
146.2245729519938
 20
105.0240323659353
 30
0.0
 10
146.0410445482783
 20
105.0617837933143
 30
0.0
 10
145.9079232854
 20
105.0927417399958
 30
0.0
 10
145.8196099749186
 20
105.1160275720784
 30
0.0
 10
145.7684992751864
 20
105.1337954505197
 30
0.0
 10
145.7495658397513
 20
105.1418712538314
 30
0.0
 10
145.7461146931454
 20
105.1434823720994
 30
0.0
 10
145.745876071985
 20
105.1434451453632
 30
0.0
  0
SPLINE
  5
2EA
330
40
100
AcDbEntity
  8
0007749
  6
Continuous
 62
     7
100
AcDbSpline
210
0.0
220
0.0
230
1.0
 70
     8
 71
     3
 72
     9
 73
     5
 74
     0
 42
0.000000000920767
 43
0.0000000001
 12
1.0
 22
0.0
 32
0.0
 13
1.0
 23
0.0
 33
0.0
 40
0.9722161363782102
 40
0.9722161363782102
 40
0.9722161363782102
 40
0.9722161363782102
 40
0.9794759491845528
 40
1.0
 40
1.0
 40
1.0
 40
1.0
 10
152.0265685822257
 20
105.6928979931049
 30
0.0
 10
152.0562848806188
 20
105.6989505326215
 30
0.0
 10
152.1648279233034
 20
105.721725366472
 30
0.0
 10
152.2486991413581
 20
105.7421846826734
 30
0.0
 10
152.3207096335329
 20
105.7600075021791
 30
0.0
  0
SPLINE
  5
2EB
330
40
100
AcDbEntity
  8
0007749
  6
Continuous
 62
     7
100
AcDbSpline
210
0.0
220
0.0
230
1.0
 70
     8
 71
     3
 72
    42
 73
    38
 74
     0
 42
0.0000000006661421
 43
0.0000000001
 12
1.0
 22
0.0
 32
0.0
 13
1.0
 23
0.0
 33
0.0
 40
0.0
 40
0.0
 40
0.0
 40
0.0
 40
0.0179830328698355
 40
0.0336362291858547
 40
0.0466606279600505
 40
0.0568357446554768
 40
0.0640476267129772
 40
0.0688901884053573
 40
0.0800441852194567
 40
0.0939774893479853
 40
0.1088296023537127
 40
0.1245409528186194
 40
0.1407012654186774
 40
0.1589197532281147
 40
0.1733415542853597
 40
0.1891812143812068
 40
0.2088076303420572
 40
0.2307065903661837
 40
0.2515948506309474
 40
0.2711907052525494
 40
0.2895164148362138
 40
0.3069263979313715
 40
0.3233709165219995
 40
0.3400947001628146
 40
0.3594972411725491
 40
0.3763641446881323
 40
0.3952615067678538
 40
0.415972714618505
 40
0.4362772942210202
 40
0.4553513511476783
 40
0.4730679315855542
 40
0.489355473953026
 40
0.5041899917658944
 40
0.5172241466506502
 40
0.5282574781118416
 40
0.5372225279791739
 40
0.5404412505337507
 40
0.5404412505337507
 40
0.5404412505337507
 40
0.5404412505337507
 10
152.3207096335309
 20
100.8225075021786
 30
0.0
 10
152.3905069059801
 20
100.8423970325335
 30
0.0
 10
152.4992533080879
 20
100.8750134116882
 30
0.0
 10
152.6323834778505
 20
100.9426475693684
 30
0.0
 10
152.7221981241567
 20
101.0149846733837
 30
0.0
 10
152.7786318827121
 20
101.0934369524971
 30
0.0
 10
152.8109139175737
 20
101.1673711618243
 30
0.0
 10
152.8287193360505
 20
101.2972894711385
 30
0.0
 10
152.7928803206931
 20
101.4242688391963
 30
0.0
 10
152.7094680356667
 20
101.5337551838038
 30
0.0
 10
152.5959914184795
 20
101.6136632204702
 30
0.0
 10
152.4662417855677
 20
101.6719312465669
 30
0.0
 10
152.3118732423362
 20
101.7220653064059
 30
0.0
 10
152.1287341182657
 20
101.7672226656429
 30
0.0
 10
151.9234181407553
 20
101.8075720972535
 30
0.0
 10
151.6885856378342
 20
101.8458567300543
 30
0.0
 10
151.3858262567816
 20
101.8923895333676
 30
0.0
 10
151.0176573866831
 20
101.9449743225831
 30
0.0
 10
150.6151240081537
 20
101.9990482057823
 30
0.0
 10
150.2113589883968
 20
102.050447788759
 30
0.0
 10
149.8154989015121
 20
102.0985111465597
 30
0.0
 10
149.4327651648937
 20
102.1429776342503
 30
0.0
 10
149.0574231473146
 20
102.1848255704994
 30
0.0
 10
148.666990119089
 20
102.2264301920454
 30
0.0
 10
148.277970088843
 20
102.2663661867679
 30
0.0
 10
147.8844324926554
 20
102.3112562027982
 30
0.0
 10
147.497710450125
 20
102.3587230687772
 30
0.0
 10
147.1125339553837
 20
102.4105060626317
 30
0.0
 10
146.7603071153223
 20
102.4627164065227
 30
0.0
 10
146.4631882871392
 20
102.5115542443014
 30
0.0
 10
146.2245729519938
 20
102.5552823659353
 30
0.0
 10
146.0410445482783
 20
102.5930337933143
 30
0.0
 10
145.9079232854
 20
102.6239917399958
 30
0.0
 10
145.8196099749186
 20
102.6472775720783
 30
0.0
 10
145.7684992751864
 20
102.6650454505197
 30
0.0
 10
145.7495658397513
 20
102.6731212538314
 30
0.0
 10
145.7461146931454
 20
102.6747323720994
 30
0.0
 10
145.745876071985
 20
102.6746951453632
 30
0.0
  0
SPLINE
  5
2EC
330
40
100
AcDbEntity
  8
0007749
  6
Continuous
 62
     7
100
AcDbSpline
210
0.0
220
0.0
230
1.0
 70
     8
 71
     3
 72
     9
 73
     5
 74
     0
 42
0.000000000920767
 43
0.0000000001
 12
1.0
 22
0.0
 32
0.0
 13
1.0
 23
0.0
 33
0.0
 40
0.9722161363782101
 40
0.9722161363782101
 40
0.9722161363782101
 40
0.9722161363782101
 40
0.9794759491845528
 40
1.0
 40
1.0
 40
1.0
 40
1.0
 10
152.0265685822257
 20
103.2241479931049
 30
0.0
 10
152.0562848806188
 20
103.2302005326215
 30
0.0
 10
152.1648279233034
 20
103.252975366472
 30
0.0
 10
152.2486991413581
 20
103.2734346826734
 30
0.0
 10
152.3207096335329
 20
103.2912575021791
 30
0.0
  0
SPLINE
  5
2ED
330
40
100
AcDbEntity
  8
0007749
  6
Continuous
 62
     7
100
AcDbSpline
210
0.0
220
0.0
230
1.0
 70
     8
 71
     3
 72
    42
 73
    38
 74
     0
 42
0.0000000006661421
 43
0.0000000001
 12
1.0
 22
0.0
 32
0.0
 13
1.0
 23
0.0
 33
0.0
 40
0.0
 40
0.0
 40
0.0
 40
0.0
 40
0.0179830328698355
 40
0.0336362291858555
 40
0.0466606279600504
 40
0.0568357446554767
 40
0.0640476267129769
 40
0.068890188405358
 40
0.0800441852194572
 40
0.0939774893479853
 40
0.1088296023537122
 40
0.1245409528186194
 40
0.1407012654186768
 40
0.1589197532281132
 40
0.173341554285359
 40
0.1891812143812062
 40
0.2088076303420558
 40
0.2307065903661842
 40
0.2515948506309471
 40
0.2711907052525492
 40
0.2895164148362141
 40
0.3069263979313715
 40
0.3233709165220005
 40
0.3400947001628148
 40
0.3594972411725493
 40
0.3763641446881334
 40
0.3952615067678539
 40
0.4159727146185051
 40
0.4362772942210203
 40
0.4553513511476792
 40
0.4730679315855547
 40
0.4893554739530251
 40
0.5041899917658939
 40
0.51722414665065
 40
0.5282574781118415
 40
0.5372225279791745
 40
0.5404412505337505
 40
0.5404412505337505
 40
0.5404412505337505
 40
0.5404412505337505
 10
152.3207096335309
 20
98.35375750217857
 30
0.0
 10
152.3905069059801
 20
98.37364703253346
 30
0.0
 10
152.4992533080879
 20
98.4062634116882
 30
0.0
 10
152.6323834778505
 20
98.47389756936839
 30
0.0
 10
152.7221981241567
 20
98.54623467338367
 30
0.0
 10
152.7786318827121
 20
98.62468695249709
 30
0.0
 10
152.8109139175737
 20
98.69862116182432
 30
0.0
 10
152.8287193360505
 20
98.82853947113853
 30
0.0
 10
152.7928803206931
 20
98.95551883919634
 30
0.0
 10
152.7094680356667
 20
99.06500518380385
 30
0.0
 10
152.5959914184795
 20
99.14491322047023
 30
0.0
 10
152.4662417855677
 20
99.20318124656688
 30
0.0
 10
152.3118732423362
 20
99.25331530640594
 30
0.0
 10
152.1287341182657
 20
99.29847266564292
 30
0.0
 10
151.9234181407553
 20
99.33882209725347
 30
0.0
 10
151.6885856378342
 20
99.37710673005427
 30
0.0
 10
151.3858262567816
 20
99.42363953336758
 30
0.0
 10
151.0176573866831
 20
99.47622432258308
 30
0.0
 10
150.6151240081537
 20
99.53029820578224
 30
0.0
 10
150.2113589883968
 20
99.58169778875906
 30
0.0
 10
149.8154989015121
 20
99.62976114655972
 30
0.0
 10
149.4327651648937
 20
99.67422763425036
 30
0.0
 10
149.0574231473146
 20
99.71607557049944
 30
0.0
 10
148.666990119089
 20
99.75768019204538
 30
0.0
 10
148.277970088843
 20
99.79761618676793
 30
0.0
 10
147.8844324926554
 20
99.84250620279815
 30
0.0
 10
147.497710450125
 20
99.88997306877717
 30
0.0
 10
147.1125339553837
 20
99.94175606263164
 30
0.0
 10
146.7603071153223
 20
99.9939664065227
 30
0.0
 10
146.4631882871392
 20
100.0428042443013
 30
0.0
 10
146.2245729519938
 20
100.0865323659354
 30
0.0
 10
146.0410445482783
 20
100.1242837933143
 30
0.0
 10
145.9079232854
 20
100.1552417399958
 30
0.0
 10
145.8196099749186
 20
100.1785275720784
 30
0.0
 10
145.7684992751864
 20
100.1962954505197
 30
0.0
 10
145.7495658397513
 20
100.2043712538314
 30
0.0
 10
145.7461146931454
 20
100.2059823720994
 30
0.0
 10
145.745876071985
 20
100.2059451453632
 30
0.0
  0
SPLINE
  5
2EE
330
40
100
AcDbEntity
  8
0007749
  6
Continuous
 62
     7
100
AcDbSpline
210
0.0
220
0.0
230
1.0
 70
     8
 71
     3
 72
     9
 73
     5
 74
     0
 42
0.000000000920767
 43
0.0000000001
 12
1.0
 22
0.0
 32
0.0
 13
1.0
 23
0.0
 33
0.0
 40
0.9722161363782101
 40
0.9722161363782101
 40
0.9722161363782101
 40
0.9722161363782101
 40
0.9794759491845529
 40
1.0
 40
1.0
 40
1.0
 40
1.0
 10
152.0265685822257
 20
100.7553979931049
 30
0.0
 10
152.0562848806188
 20
100.7614505326215
 30
0.0
 10
152.1648279233034
 20
100.784225366472
 30
0.0
 10
152.2486991413581
 20
100.8046846826734
 30
0.0
 10
152.3207096335329
 20
100.8225075021791
 30
0.0
  0
SPLINE
  5
2EF
330
40
100
AcDbEntity
  8
0007749
  6
Continuous
 62
     7
100
AcDbSpline
210
0.0
220
0.0
230
1.0
 70
     8
 71
     3
 72
    42
 73
    38
 74
     0
 42
0.0000000006661421
 43
0.0000000001
 12
1.0
 22
0.0
 32
0.0
 13
1.0
 23
0.0
 33
0.0
 40
0.0
 40
0.0
 40
0.0
 40
0.0
 40
0.0179830328698354
 40
0.0336362291858537
 40
0.0466606279600504
 40
0.0568357446554758
 40
0.0640476267129769
 40
0.068890188405358
 40
0.0800441852194564
 40
0.0939774893479854
 40
0.1088296023537123
 40
0.1245409528186195
 40
0.1407012654186769
 40
0.1589197532281141
 40
0.17334155428536
 40
0.1891812143812063
 40
0.2088076303420569
 40
0.2307065903661844
 40
0.2515948506309464
 40
0.2711907052525494
 40
0.2895164148362143
 40
0.3069263979313717
 40
0.3233709165219998
 40
0.3400947001628151
 40
0.3594972411725495
 40
0.3763641446881335
 40
0.3952615067678532
 40
0.4159727146185053
 40
0.4362772942210205
 40
0.4553513511476793
 40
0.473067931585554
 40
0.4893554739530253
 40
0.504189991765894
 40
0.5172241466506502
 40
0.5282574781118416
 40
0.5372225279791747
 40
0.540441250533751
 40
0.540441250533751
 40
0.540441250533751
 40
0.540441250533751
 10
152.3207096335309
 20
95.88500750217855
 30
0.0
 10
152.3905069059801
 20
95.90489703253346
 30
0.0
 10
152.4992533080879
 20
95.9375134116882
 30
0.0
 10
152.6323834778505
 20
96.0051475693684
 30
0.0
 10
152.7221981241567
 20
96.07748467338362
 30
0.0
 10
152.7786318827121
 20
96.15593695249714
 30
0.0
 10
152.8109139175737
 20
96.22987116182428
 30
0.0
 10
152.8287193360505
 20
96.35978947113854
 30
0.0
 10
152.7928803206931
 20
96.48676883919634
 30
0.0
 10
152.7094680356667
 20
96.59625518380382
 30
0.0
 10
152.5959914184795
 20
96.6761632204702
 30
0.0
 10
152.4662417855677
 20
96.73443124656688
 30
0.0
 10
152.3118732423362
 20
96.78456530640592
 30
0.0
 10
152.1287341182657
 20
96.82972266564293
 30
0.0
 10
151.9234181407553
 20
96.87007209725347
 30
0.0
 10
151.6885856378342
 20
96.90835673005424
 30
0.0
 10
151.3858262567816
 20
96.95488953336762
 30
0.0
 10
151.0176573866831
 20
97.00747432258304
 30
0.0
 10
150.6151240081537
 20
97.06154820578226
 30
0.0
 10
150.2113589883968
 20
97.11294778875903
 30
0.0
 10
149.8154989015121
 20
97.1610111465597
 30
0.0
 10
149.4327651648937
 20
97.20547763425036
 30
0.0
 10
149.0574231473146
 20
97.24732557049946
 30
0.0
 10
148.666990119089
 20
97.28893019204536
 30
0.0
 10
148.277970088843
 20
97.32886618676795
 30
0.0
 10
147.8844324926554
 20
97.37375620279815
 30
0.0
 10
147.497710450125
 20
97.42122306877715
 30
0.0
 10
147.1125339553837
 20
97.47300606263165
 30
0.0
 10
146.7603071153223
 20
97.5252164065227
 30
0.0
 10
146.4631882871392
 20
97.57405424430135
 30
0.0
 10
146.2245729519938
 20
97.61778236593533
 30
0.0
 10
146.0410445482783
 20
97.65553379331435
 30
0.0
 10
145.9079232854
 20
97.68649173999577
 30
0.0
 10
145.8196099749186
 20
97.70977757207835
 30
0.0
 10
145.7684992751864
 20
97.72754545051973
 30
0.0
 10
145.7495658397513
 20
97.73562125383135
 30
0.0
 10
145.7461146931454
 20
97.73723237209937
 30
0.0
 10
145.745876071985
 20
97.73719514536319
 30
0.0
  0
SPLINE
  5
2F0
330
40
100
AcDbEntity
  8
0007749
  6
Continuous
 62
     7
100
AcDbSpline
210
0.0
220
0.0
230
1.0
 70
     8
 71
     3
 72
     9
 73
     5
 74
     0
 42
0.000000000920767
 43
0.0000000001
 12
1.0
 22
0.0
 32
0.0
 13
1.0
 23
0.0
 33
0.0
 40
0.9722161363782104
 40
0.9722161363782104
 40
0.9722161363782104
 40
0.9722161363782104
 40
0.9794759491845529
 40
1.0
 40
1.0
 40
1.0
 40
1.0
 10
152.0265685822257
 20
98.28664799310488
 30
0.0
 10
152.0562848806188
 20
98.29270053262145
 30
0.0
 10
152.1648279233034
 20
98.31547536647196
 30
0.0
 10
152.2486991413581
 20
98.33593468267343
 30
0.0
 10
152.3207096335329
 20
98.35375750217908
 30
0.0
  0
SPLINE
  5
2F1
330
40
100
AcDbEntity
  8
0007749
  6
Continuous
 62
     7
100
AcDbSpline
210
0.0
220
0.0
230
1.0
 70
     8
 71
     3
 72
    42
 73
    38
 74
     0
 42
0.0000000006661421
 43
0.0000000001
 12
1.0
 22
0.0
 32
0.0
 13
1.0
 23
0.0
 33
0.0
 40
0.0
 40
0.0
 40
0.0
 40
0.0
 40
0.0179830328698346
 40
0.0336362291858537
 40
0.0466606279600513
 40
0.0568357446554768
 40
0.064047626712977
 40
0.0688901884053572
 40
0.0800441852194565
 40
0.0939774893479855
 40
0.1088296023537133
 40
0.1245409528186187
 40
0.1407012654186771
 40
0.1589197532281134
 40
0.1733415542853593
 40
0.1891812143812065
 40
0.2088076303420562
 40
0.2307065903661845
 40
0.2515948506309466
 40
0.2711907052525496
 40
0.2895164148362145
 40
0.3069263979313719
 40
0.323370916522
 40
0.3400947001628161
 40
0.3594972411725497
 40
0.3763641446881338
 40
0.3952615067678543
 40
0.4159727146185046
 40
0.4362772942210206
 40
0.4553513511476795
 40
0.4730679315855558
 40
0.4893554739530254
 40
0.5041899917658942
 40
0.5172241466506495
 40
0.5282574781118426
 40
0.537222527979174
 40
0.5404412505337505
 40
0.5404412505337505
 40
0.5404412505337505
 40
0.5404412505337505
 10
152.3207096335309
 20
93.41625750217855
 30
0.0
 10
152.3905069059801
 20
93.43614703253344
 30
0.0
 10
152.4992533080879
 20
93.46876341168819
 30
0.0
 10
152.6323834778505
 20
93.53639756936843
 30
0.0
 10
152.7221981241567
 20
93.60873467338362
 30
0.0
 10
152.7786318827121
 20
93.6871869524971
 30
0.0
 10
152.8109139175737
 20
93.76112116182432
 30
0.0
 10
152.8287193360505
 20
93.89103947113851
 30
0.0
 10
152.7928803206931
 20
94.01801883919636
 30
0.0
 10
152.7094680356667
 20
94.1275051838038
 30
0.0
 10
152.5959914184795
 20
94.20741322047024
 30
0.0
 10
152.4662417855677
 20
94.2656812465669
 30
0.0
 10
152.3118732423362
 20
94.31581530640594
 30
0.0
 10
152.1287341182657
 20
94.36097266564293
 30
0.0
 10
151.9234181407553
 20
94.40132209725347
 30
0.0
 10
151.6885856378342
 20
94.43960673005428
 30
0.0
 10
151.3858262567816
 20
94.48613953336759
 30
0.0
 10
151.0176573866831
 20
94.53872432258306
 30
0.0
 10
150.6151240081537
 20
94.59279820578226
 30
0.0
 10
150.2113589883968
 20
94.64419778875904
 30
0.0
 10
149.8154989015121
 20
94.69226114655972
 30
0.0
 10
149.4327651648937
 20
94.73672763425034
 30
0.0
 10
149.0574231473146
 20
94.77857557049944
 30
0.0
 10
148.666990119089
 20
94.82018019204538
 30
0.0
 10
148.277970088843
 20
94.86011618676794
 30
0.0
 10
147.8844324926554
 20
94.90500620279813
 30
0.0
 10
147.497710450125
 20
94.95247306877718
 30
0.0
 10
147.1125339553837
 20
95.00425606263165
 30
0.0
 10
146.7603071153223
 20
95.05646640652269
 30
0.0
 10
146.4631882871392
 20
95.10530424430135
 30
0.0
 10
146.2245729519938
 20
95.14903236593533
 30
0.0
 10
146.0410445482783
 20
95.18678379331436
 30
0.0
 10
145.9079232854
 20
95.21774173999579
 30
0.0
 10
145.8196099749186
 20
95.24102757207834
 30
0.0
 10
145.7684992751864
 20
95.25879545051973
 30
0.0
 10
145.7495658397513
 20
95.26687125383135
 30
0.0
 10
145.7461146931454
 20
95.26848237209937
 30
0.0
 10
145.745876071985
 20
95.2684451453632
 30
0.0
  0
SPLINE
  5
2F2
330
40
100
AcDbEntity
  8
0007749
  6
Continuous
 62
     7
100
AcDbSpline
210
0.0
220
0.0
230
1.0
 70
     8
 71
     3
 72
     9
 73
     5
 74
     0
 42
0.000000000920767
 43
0.0000000001
 12
1.0
 22
0.0
 32
0.0
 13
1.0
 23
0.0
 33
0.0
 40
0.9722161363782102
 40
0.9722161363782102
 40
0.9722161363782102
 40
0.9722161363782102
 40
0.9794759491845529
 40
1.0
 40
1.0
 40
1.0
 40
1.0
 10
152.0265685822257
 20
95.81789799310489
 30
0.0
 10
152.0562848806188
 20
95.82395053262147
 30
0.0
 10
152.1648279233034
 20
95.84672536647196
 30
0.0
 10
152.2486991413581
 20
95.86718468267344
 30
0.0
 10
152.3207096335329
 20
95.88500750217906
 30
0.0
  0
SPLINE
  5
2F3
330
40
100
AcDbEntity
  8
0007749
  6
Continuous
 62
     7
100
AcDbSpline
210
0.0
220
0.0
230
1.0
 70
     8
 71
     3
 72
    42
 73
    38
 74
     0
 42
0.0000000006661421
 43
0.0000000001
 12
1.0
 22
0.0
 32
0.0
 13
1.0
 23
0.0
 33
0.0
 40
0.0
 40
0.0
 40
0.0
 40
0.0
 40
0.0179830328696318
 40
0.0336362291856533
 40
0.0466606279598518
 40
0.0568357446552812
 40
0.0640476267127829
 40
0.0688901884051642
 40
0.0800441852192656
 40
0.0939774893477976
 40
0.1088296023535286
 40
0.1245409528184372
 40
0.1407012654184989
 40
0.158919753227939
 40
0.1733415542851878
 40
0.1891812143810374
 40
0.2088076303418929
 40
0.230706590366025
 40
0.2515948506307913
 40
0.2711907052523984
 40
0.289516414836067
 40
0.3069263979312281
 40
0.3233709165218597
 40
0.3400947001626783
 40
0.3594972411724168
 40
0.3763641446880044
 40
0.395261506767728
 40
0.4159727146183835
 40
0.4362772942209038
 40
0.4553513511475658
 40
0.4730679315854449
 40
0.4893554739529196
 40
0.5041899917657914
 40
0.5172241466505503
 40
0.5282574781117432
 40
0.537222527979078
 40
0.5404412505336561
 40
0.5404412505336561
 40
0.5404412505336561
 40
0.5404412505336561
 10
152.3207096335327
 20
90.94750750217904
 30
0.0
 10
152.3905069059813
 20
90.9673970325338
 30
0.0
 10
152.4992533080886
 20
91.00001341168851
 30
0.0
 10
152.6323834778505
 20
91.06764756936842
 30
0.0
 10
152.7221981241567
 20
91.13998467338364
 30
0.0
 10
152.7786318827121
 20
91.2184369524971
 30
0.0
 10
152.8109139175737
 20
91.29237116182432
 30
0.0
 10
152.8287193360505
 20
91.42228947113854
 30
0.0
 10
152.7928803206931
 20
91.54926883919632
 30
0.0
 10
152.7094680356667
 20
91.65875518380386
 30
0.0
 10
152.5959914184795
 20
91.73866322047022
 30
0.0
 10
152.4662417855677
 20
91.7969312465669
 30
0.0
 10
152.3118732423362
 20
91.84706530640594
 30
0.0
 10
152.1287341182657
 20
91.89222266564293
 30
0.0
 10
151.9234181407553
 20
91.93257209725346
 30
0.0
 10
151.6885856378342
 20
91.97085673005428
 30
0.0
 10
151.3858262567816
 20
92.01738953336758
 30
0.0
 10
151.0176573866831
 20
92.06997432258309
 30
0.0
 10
150.6151240081537
 20
92.12404820578224
 30
0.0
 10
150.2113589883968
 20
92.17544778875907
 30
0.0
 10
149.8154989015121
 20
92.2235111465597
 30
0.0
 10
149.4327651648937
 20
92.26797763425034
 30
0.0
 10
149.0574231473146
 20
92.30982557049946
 30
0.0
 10
148.666990119089
 20
92.35143019204538
 30
0.0
 10
148.277970088843
 20
92.39136618676793
 30
0.0
 10
147.8844324926554
 20
92.43625620279816
 30
0.0
 10
147.497710450125
 20
92.48372306877714
 30
0.0
 10
147.1125339553837
 20
92.53550606263168
 30
0.0
 10
146.7603071153223
 20
92.58771640652266
 30
0.0
 10
146.4631882871392
 20
92.63655424430134
 30
0.0
 10
146.2245729519938
 20
92.68028236593531
 30
0.0
 10
146.0410445482783
 20
92.71803379331436
 30
0.0
 10
145.9079232854
 20
92.74899173999576
 30
0.0
 10
145.8196099749186
 20
92.77227757207837
 30
0.0
 10
145.7684992751864
 20
92.79004545051973
 30
0.0
 10
145.7495658397513
 20
92.79812125383135
 30
0.0
 10
145.7461146931454
 20
92.79973237209937
 30
0.0
 10
145.745876071985
 20
92.7996951453632
 30
0.0
  0
SPLINE
  5
2F4
330
40
100
AcDbEntity
  8
0007749
  6
Continuous
 62
     7
100
AcDbSpline
210
0.0
220
0.0
230
1.0
 70
     8
 71
     3
 72
     9
 73
     5
 74
     0
 42
0.000000000920767
 43
0.0000000001
 12
1.0
 22
0.0
 32
0.0
 13
1.0
 23
0.0
 33
0.0
 40
0.9722161363782047
 40
0.9722161363782047
 40
0.9722161363782047
 40
0.9722161363782047
 40
0.9794759491845487
 40
1.0
 40
1.0
 40
1.0
 40
1.0
 10
152.0265685822257
 20
93.34914799310488
 30
0.0
 10
152.0562848806188
 20
93.35520053262147
 30
0.0
 10
152.1648279233034
 20
93.37797536647194
 30
0.0
 10
152.2486991413581
 20
93.39843468267344
 30
0.0
 10
152.3207096335329
 20
93.41625750217906
 30
0.0
  0
SPLINE
  5
2F5
330
40
100
AcDbEntity
  8
0007749
  6
Continuous
 62
     7
100
AcDbSpline
210
0.0
220
0.0
230
1.0
 70
     8
 71
     3
 72
    45
 73
    41
 74
     0
 42
0.0000000006780995
 43
0.0000000001
 12
1.0
 22
0.0
 32
0.0
 13
1.0
 23
0.0
 33
0.0
 40
0.3427982589308114
 40
0.3427982589308114
 40
0.3427982589308114
 40
0.3427982589308114
 40
0.3447438470881865
 40
0.3664722201946847
 40
0.3888789226018348
 40
0.4042286473707256
 40
0.4183099628457704
 40
0.4314423403390548
 40
0.4441429910459353
 40
0.455375819736406
 40
0.4643669216969197
 40
0.4693293295163281
 40
0.4757424525971315
 40
0.4847056363487784
 40
0.4961157544837238
 40
0.5098118099554335
 40
0.5257024100012396
 40
0.5468863474950151
 40
0.5627499109075728
 40
0.5785844945649659
 40
0.596863905137954
 40
0.6179923957039818
 40
0.6401608075928412
 40
0.6614517942956059
 40
0.6817797318810429
 40
0.6961557663867967
 40
0.7093003578213191
 40
0.7211250775743011
 40
0.7342534126529674
 40
0.7505951748460707
 40
0.7700887269621075
 40
0.7924331705756246
 40
0.81421874649545
 40
0.8338935545512148
 40
0.8517041902212709
 40
0.8683224914129803
 40
0.883458289443309
 40
0.8965057882864129
 40
0.9073545112785283
 40
0.9142307684002285
 40
0.9142307684002285
 40
0.9142307684002285
 40
0.9142307684002285
 10
146.019282533113
 20
107.9594229936313
 30
0.0
 10
146.0109577850072
 20
107.9577867936689
 30
0.0
 10
145.9104401828824
 20
107.937763444821
 30
0.0
 10
145.7334551759129
 20
107.8957912126672
 30
0.0
 10
145.5531269756704
 20
107.8364177314089
 30
0.0
 10
145.4131235950546
 20
107.7656441501226
 30
0.0
 10
145.3083295988078
 20
107.680476363738
 30
0.0
 10
145.2292790019379
 20
107.5551020080192
 30
0.0
 10
145.2110631922274
 20
107.392377525129
 30
0.0
 10
145.2657968608956
 20
107.2527605836763
 30
0.0
 10
145.3316238179177
 20
107.1778632324949
 30
0.0
 10
145.3863062755202
 20
107.133316760276
 30
0.0
 10
145.4324501727791
 20
107.1034208597749
 30
0.0
 10
145.4955195853377
 20
107.0705890130294
 30
0.0
 10
145.5847819565402
 20
107.0347743127037
 30
0.0
 10
145.7099184693467
 20
106.996830368324
 30
0.0
 10
145.8913627578459
 20
106.9526334869701
 30
0.0
 10
146.1165611241627
 20
106.9061111602809
 30
0.0
 10
146.3735242152912
 20
106.8598791104372
 30
0.0
 10
146.636664156545
 20
106.8166012080624
 30
0.0
 10
146.9575903276455
 20
106.7682175007842
 30
0.0
 10
147.3475779230006
 20
106.7145587536195
 30
0.0
 10
147.7872852877228
 20
106.6595925281274
 30
0.0
 10
148.2435493260866
 20
106.6072502268686
 30
0.0
 10
148.6559195816743
 20
106.5650547409739
 30
0.0
 10
149.0111196784711
 20
106.5272773383331
 30
0.0
 10
149.3028477413177
 20
106.4950096404716
 30
0.0
 10
149.5831426366061
 20
106.4629914044611
 30
0.0
 10
149.882769763451
 20
106.4276325195183
 30
0.0
 10
150.2293828774807
 20
106.3851278625995
 30
0.0
 10
150.6237641806468
 20
106.3343911014223
 30
0.0
 10
151.0259363197072
 20
106.2794954921904
 30
0.0
 10
151.3885281949299
 20
106.2263965286453
 30
0.0
 10
151.6817440783239
 20
106.1802532221577
 30
0.0
 10
151.9074645847115
 20
106.1416141450033
 30
0.0
 10
152.0750617118753
 20
106.1049172475045
 30
0.0
 10
152.1905102458755
 20
106.0731690686522
 30
0.0
 10
152.2604740673829
 20
106.0483192003025
 30
0.0
 10
152.2917900036205
 20
106.0336126740889
 30
0.0
 10
152.2983312660251
 20
106.0293706836741
 30
0.0
 10
152.2982974393768
 20
106.0293346552002
 30
0.0
  0
SPLINE
  5
2F6
330
40
100
AcDbEntity
  8
0007749
  6
Continuous
 62
     7
100
AcDbSpline
210
0.0
220
0.0
230
1.0
 70
     8
 71
     3
 72
    45
 73
    41
 74
     0
 42
0.0000000006780995
 43
0.0000000001
 12
1.0
 22
0.0
 32
0.0
 13
1.0
 23
0.0
 33
0.0
 40
0.3427982589308116
 40
0.3427982589308116
 40
0.3427982589308116
 40
0.3427982589308116
 40
0.3447438470881866
 40
0.3664722201946848
 40
0.3888789226018348
 40
0.4042286473707262
 40
0.4183099628457705
 40
0.431442340339055
 40
0.4441429910459357
 40
0.4553758197364061
 40
0.4643669216969197
 40
0.4693293295163283
 40
0.4757424525971318
 40
0.4847056363487787
 40
0.4961157544837241
 40
0.5098118099554341
 40
0.5257024100012399
 40
0.5468863474950152
 40
0.5627499109075733
 40
0.5785844945649664
 40
0.5968639051379545
 40
0.6179923957039827
 40
0.6401608075928417
 40
0.6614517942956066
 40
0.6817797318810438
 40
0.6961557663867977
 40
0.7093003578213198
 40
0.7211250775743012
 40
0.7342534126529677
 40
0.7505951748460716
 40
0.7700887269621083
 40
0.7924331705756249
 40
0.8142187464954506
 40
0.8338935545512153
 40
0.8517041902212712
 40
0.8683224914129803
 40
0.8834582894433091
 40
0.8965057882864135
 40
0.9073545112785288
 40
0.9142307684002288
 40
0.9142307684002288
 40
0.9142307684002288
 40
0.9142307684002288
 10
146.019282533113
 20
105.4906729936313
 30
0.0
 10
146.0109577850072
 20
105.4890367936689
 30
0.0
 10
145.9104401828824
 20
105.469013444821
 30
0.0
 10
145.7334551759129
 20
105.4270412126672
 30
0.0
 10
145.5531269756704
 20
105.3676677314089
 30
0.0
 10
145.4131235950546
 20
105.2968941501226
 30
0.0
 10
145.3083295988078
 20
105.211726363738
 30
0.0
 10
145.2292790019379
 20
105.0863520080192
 30
0.0
 10
145.2110631922274
 20
104.923627525129
 30
0.0
 10
145.2657968608956
 20
104.7840105836763
 30
0.0
 10
145.3316238179177
 20
104.7091132324949
 30
0.0
 10
145.3863062755202
 20
104.664566760276
 30
0.0
 10
145.4324501727791
 20
104.6346708597749
 30
0.0
 10
145.4955195853377
 20
104.6018390130294
 30
0.0
 10
145.5847819565402
 20
104.5660243127037
 30
0.0
 10
145.7099184693467
 20
104.528080368324
 30
0.0
 10
145.8913627578459
 20
104.4838834869701
 30
0.0
 10
146.1165611241627
 20
104.4373611602809
 30
0.0
 10
146.3735242152912
 20
104.3911291104372
 30
0.0
 10
146.636664156545
 20
104.3478512080624
 30
0.0
 10
146.9575903276455
 20
104.2994675007842
 30
0.0
 10
147.3475779230006
 20
104.2458087536195
 30
0.0
 10
147.7872852877228
 20
104.1908425281274
 30
0.0
 10
148.2435493260866
 20
104.1385002268685
 30
0.0
 10
148.6559195816743
 20
104.0963047409738
 30
0.0
 10
149.0111196784711
 20
104.058527338333
 30
0.0
 10
149.3028477413177
 20
104.0262596404716
 30
0.0
 10
149.5831426366061
 20
103.9942414044611
 30
0.0
 10
149.882769763451
 20
103.9588825195183
 30
0.0
 10
150.2293828774807
 20
103.9163778625995
 30
0.0
 10
150.6237641806468
 20
103.8656411014223
 30
0.0
 10
151.0259363197072
 20
103.8107454921904
 30
0.0
 10
151.3885281949299
 20
103.7576465286453
 30
0.0
 10
151.6817440783239
 20
103.7115032221577
 30
0.0
 10
151.9074645847114
 20
103.6728641450033
 30
0.0
 10
152.0750617118753
 20
103.6361672475045
 30
0.0
 10
152.1905102458755
 20
103.6044190686522
 30
0.0
 10
152.2604740673829
 20
103.5795692003025
 30
0.0
 10
152.2917900036205
 20
103.5648626740889
 30
0.0
 10
152.2983312660251
 20
103.5606206836741
 30
0.0
 10
152.2982974393768
 20
103.5605846552002
 30
0.0
  0
SPLINE
  5
2F7
330
40
100
AcDbEntity
  8
0007749
  6
Continuous
 62
     7
100
AcDbSpline
210
0.0
220
0.0
230
1.0
 70
     8
 71
     3
 72
    45
 73
    41
 74
     0
 42
0.0000000006780995
 43
0.0000000001
 12
1.0
 22
0.0
 32
0.0
 13
1.0
 23
0.0
 33
0.0
 40
0.3427982589308115
 40
0.3427982589308115
 40
0.3427982589308115
 40
0.3427982589308115
 40
0.3447438470881865
 40
0.3664722201946847
 40
0.3888789226018346
 40
0.404228647370726
 40
0.4183099628457703
 40
0.4314423403390542
 40
0.444142991045935
 40
0.4553758197364061
 40
0.4643669216969197
 40
0.4693293295163284
 40
0.4757424525971318
 40
0.4847056363487783
 40
0.4961157544837241
 40
0.5098118099554333
 40
0.5257024100012394
 40
0.5468863474950153
 40
0.5627499109075733
 40
0.578584494564966
 40
0.596863905137954
 40
0.6179923957039821
 40
0.6401608075928412
 40
0.6614517942956061
 40
0.6817797318810432
 40
0.6961557663867972
 40
0.7093003578213193
 40
0.7211250775743007
 40
0.7342534126529672
 40
0.750595174846071
 40
0.7700887269621078
 40
0.7924331705756248
 40
0.8142187464954499
 40
0.8338935545512146
 40
0.8517041902212708
 40
0.8683224914129799
 40
0.8834582894433086
 40
0.896505788286413
 40
0.9073545112785284
 40
0.9142307684002279
 40
0.9142307684002279
 40
0.9142307684002279
 40
0.9142307684002279
 10
146.019282533113
 20
103.0219229936313
 30
0.0
 10
146.0109577850072
 20
103.0202867936689
 30
0.0
 10
145.9104401828824
 20
103.000263444821
 30
0.0
 10
145.7334551759129
 20
102.9582912126672
 30
0.0
 10
145.5531269756704
 20
102.8989177314089
 30
0.0
 10
145.4131235950546
 20
102.8281441501226
 30
0.0
 10
145.3083295988078
 20
102.742976363738
 30
0.0
 10
145.2292790019379
 20
102.6176020080192
 30
0.0
 10
145.2110631922274
 20
102.454877525129
 30
0.0
 10
145.2657968608956
 20
102.3152605836763
 30
0.0
 10
145.3316238179177
 20
102.2403632324949
 30
0.0
 10
145.3863062755202
 20
102.195816760276
 30
0.0
 10
145.4324501727791
 20
102.1659208597749
 30
0.0
 10
145.4955195853377
 20
102.1330890130294
 30
0.0
 10
145.5847819565402
 20
102.0972743127037
 30
0.0
 10
145.7099184693467
 20
102.059330368324
 30
0.0
 10
145.8913627578459
 20
102.0151334869701
 30
0.0
 10
146.1165611241627
 20
101.9686111602809
 30
0.0
 10
146.3735242152913
 20
101.9223791104372
 30
0.0
 10
146.636664156545
 20
101.8791012080624
 30
0.0
 10
146.9575903276455
 20
101.8307175007842
 30
0.0
 10
147.3475779230006
 20
101.7770587536195
 30
0.0
 10
147.7872852877228
 20
101.7220925281274
 30
0.0
 10
148.2435493260866
 20
101.6697502268686
 30
0.0
 10
148.6559195816743
 20
101.6275547409738
 30
0.0
 10
149.0111196784711
 20
101.589777338333
 30
0.0
 10
149.3028477413177
 20
101.5575096404716
 30
0.0
 10
149.5831426366061
 20
101.5254914044611
 30
0.0
 10
149.882769763451
 20
101.4901325195182
 30
0.0
 10
150.2293828774807
 20
101.4476278625995
 30
0.0
 10
150.6237641806468
 20
101.3968911014223
 30
0.0
 10
151.0259363197072
 20
101.3419954921905
 30
0.0
 10
151.3885281949299
 20
101.2888965286453
 30
0.0
 10
151.6817440783239
 20
101.2427532221577
 30
0.0
 10
151.9074645847114
 20
101.2041141450033
 30
0.0
 10
152.0750617118753
 20
101.1674172475045
 30
0.0
 10
152.1905102458755
 20
101.1356690686522
 30
0.0
 10
152.2604740673829
 20
101.1108192003025
 30
0.0
 10
152.2917900036205
 20
101.0961126740889
 30
0.0
 10
152.2983312660251
 20
101.0918706836741
 30
0.0
 10
152.2982974393768
 20
101.0918346552002
 30
0.0
  0
SPLINE
  5
2F8
330
40
100
AcDbEntity
  8
0007749
  6
Continuous
 62
     7
100
AcDbSpline
210
0.0
220
0.0
230
1.0
 70
     8
 71
     3
 72
    45
 73
    41
 74
     0
 42
0.0000000006780995
 43
0.0000000001
 12
1.0
 22
0.0
 32
0.0
 13
1.0
 23
0.0
 33
0.0
 40
0.3427982589308112
 40
0.3427982589308112
 40
0.3427982589308112
 40
0.3427982589308112
 40
0.3447438470881866
 40
0.3664722201946843
 40
0.3888789226018347
 40
0.4042286473707261
 40
0.4183099628457705
 40
0.4314423403390562
 40
0.4441429910459351
 40
0.4553758197364063
 40
0.4643669216969195
 40
0.4693293295163273
 40
0.4757424525971312
 40
0.4847056363487777
 40
0.4961157544837248
 40
0.5098118099554331
 40
0.5257024100012395
 40
0.5468863474950149
 40
0.5627499109075724
 40
0.5785844945649664
 40
0.596863905137954
 40
0.6179923957039816
 40
0.640160807592841
 40
0.6614517942956063
 40
0.6817797318810417
 40
0.6961557663867961
 40
0.7093003578213183
 40
0.7211250775743007
 40
0.7342534126529673
 40
0.7505951748460706
 40
0.7700887269621074
 40
0.7924331705756246
 40
0.8142187464954506
 40
0.8338935545512146
 40
0.8517041902212711
 40
0.8683224914129807
 40
0.8834582894433098
 40
0.8965057882864134
 40
0.907354511278528
 40
0.9142307684002281
 40
0.9142307684002281
 40
0.9142307684002281
 40
0.9142307684002281
 10
146.019282533113
 20
100.5531729936313
 30
0.0
 10
146.0109577850072
 20
100.5515367936689
 30
0.0
 10
145.9104401828824
 20
100.531513444821
 30
0.0
 10
145.7334551759129
 20
100.4895412126672
 30
0.0
 10
145.5531269756704
 20
100.4301677314089
 30
0.0
 10
145.4131235950546
 20
100.3593941501226
 30
0.0
 10
145.3083295988078
 20
100.274226363738
 30
0.0
 10
145.2292790019379
 20
100.1488520080192
 30
0.0
 10
145.2110631922274
 20
99.98612752512896
 30
0.0
 10
145.2657968608956
 20
99.8465105836763
 30
0.0
 10
145.3316238179177
 20
99.77161323249487
 30
0.0
 10
145.3863062755202
 20
99.72706676027599
 30
0.0
 10
145.4324501727791
 20
99.69717085977493
 30
0.0
 10
145.4955195853377
 20
99.66433901302939
 30
0.0
 10
145.5847819565402
 20
99.62852431270369
 30
0.0
 10
145.7099184693467
 20
99.590580368324
 30
0.0
 10
145.8913627578459
 20
99.54638348697006
 30
0.0
 10
146.1165611241627
 20
99.49986116028091
 30
0.0
 10
146.3735242152912
 20
99.4536291104372
 30
0.0
 10
146.636664156545
 20
99.4103512080624
 30
0.0
 10
146.9575903276455
 20
99.36196750078417
 30
0.0
 10
147.3475779230006
 20
99.30830875361949
 30
0.0
 10
147.7872852877228
 20
99.25334252812743
 30
0.0
 10
148.2435493260866
 20
99.20100022686853
 30
0.0
 10
148.6559195816743
 20
99.15880474097386
 30
0.0
 10
149.0111196784711
 20
99.12102733833302
 30
0.0
 10
149.3028477413176
 20
99.08875964047161
 30
0.0
 10
149.5831426366061
 20
99.05674140446114
 30
0.0
 10
149.882769763451
 20
99.02138251951824
 30
0.0
 10
150.2293828774807
 20
98.97887786259952
 30
0.0
 10
150.6237641806468
 20
98.92814110142226
 30
0.0
 10
151.0259363197072
 20
98.87324549219043
 30
0.0
 10
151.3885281949299
 20
98.82014652864527
 30
0.0
 10
151.6817440783239
 20
98.77400322215773
 30
0.0
 10
151.9074645847115
 20
98.7353641450033
 30
0.0
 10
152.0750617118753
 20
98.6986672475045
 30
0.0
 10
152.1905102458755
 20
98.6669190686522
 30
0.0
 10
152.2604740673829
 20
98.64206920030253
 30
0.0
 10
152.2917900036205
 20
98.62736267408893
 30
0.0
 10
152.2983312660251
 20
98.62312068367407
 30
0.0
 10
152.2982974393768
 20
98.62308465520023
 30
0.0
  0
SPLINE
  5
2F9
330
40
100
AcDbEntity
  8
0007749
  6
Continuous
 62
     7
100
AcDbSpline
210
0.0
220
0.0
230
1.0
 70
     8
 71
     3
 72
    45
 73
    41
 74
     0
 42
0.0000000006780995
 43
0.0000000001
 12
1.0
 22
0.0
 32
0.0
 13
1.0
 23
0.0
 33
0.0
 40
0.3427982589308115
 40
0.3427982589308115
 40
0.3427982589308115
 40
0.3427982589308115
 40
0.3447438470881876
 40
0.3664722201946846
 40
0.3888789226018348
 40
0.4042286473707263
 40
0.4183099628457714
 40
0.4314423403390563
 40
0.4441429910459352
 40
0.4553758197364056
 40
0.4643669216969197
 40
0.4693293295163284
 40
0.4757424525971313
 40
0.4847056363487786
 40
0.4961157544837249
 40
0.509811809955434
 40
0.5257024100012396
 40
0.546886347495015
 40
0.5627499109075725
 40
0.5785844945649665
 40
0.5968639051379541
 40
0.6179923957039827
 40
0.6401608075928411
 40
0.6614517942956055
 40
0.6817797318810418
 40
0.6961557663867971
 40
0.7093003578213193
 40
0.7211250775743007
 40
0.7342534126529682
 40
0.7505951748460707
 40
0.7700887269621075
 40
0.7924331705756248
 40
0.8142187464954499
 40
0.8338935545512147
 40
0.8517041902212712
 40
0.8683224914129799
 40
0.8834582894433081
 40
0.8965057882864134
 40
0.9073545112785287
 40
0.9142307684002278
 40
0.9142307684002278
 40
0.9142307684002278
 40
0.9142307684002278
 10
146.019282533113
 20
98.08442299363132
 30
0.0
 10
146.0109577850072
 20
98.08278679366887
 30
0.0
 10
145.9104401828824
 20
98.06276344482099
 30
0.0
 10
145.7334551759129
 20
98.02079121266718
 30
0.0
 10
145.5531269756704
 20
97.96141773140891
 30
0.0
 10
145.4131235950546
 20
97.89064415012258
 30
0.0
 10
145.3083295988078
 20
97.80547636373804
 30
0.0
 10
145.2292790019379
 20
97.68010200801922
 30
0.0
 10
145.2110631922274
 20
97.51737752512898
 30
0.0
 10
145.2657968608956
 20
97.37776058367628
 30
0.0
 10
145.3316238179177
 20
97.30286323249487
 30
0.0
 10
145.3863062755202
 20
97.25831676027597
 30
0.0
 10
145.4324501727791
 20
97.22842085977493
 30
0.0
 10
145.4955195853377
 20
97.19558901302938
 30
0.0
 10
145.5847819565402
 20
97.15977431270368
 30
0.0
 10
145.7099184693467
 20
97.121830368324
 30
0.0
 10
145.8913627578459
 20
97.07763348697007
 30
0.0
 10
146.1165611241627
 20
97.03111116028091
 30
0.0
 10
146.3735242152912
 20
96.98487911043718
 30
0.0
 10
146.636664156545
 20
96.94160120806242
 30
0.0
 10
146.9575903276455
 20
96.89321750078417
 30
0.0
 10
147.3475779230006
 20
96.83955875361949
 30
0.0
 10
147.7872852877228
 20
96.78459252812743
 30
0.0
 10
148.2435493260866
 20
96.73225022686854
 30
0.0
 10
148.6559195816743
 20
96.69005474097386
 30
0.0
 10
149.0111196784711
 20
96.65227733833301
 30
0.0
 10
149.3028477413177
 20
96.62000964047164
 30
0.0
 10
149.5831426366061
 20
96.58799140446112
 30
0.0
 10
149.882769763451
 20
96.55263251951826
 30
0.0
 10
150.2293828774807
 20
96.51012786259949
 30
0.0
 10
150.6237641806468
 20
96.45939110142227
 30
0.0
 10
151.0259363197072
 20
96.40449549219043
 30
0.0
 10
151.3885281949299
 20
96.35139652864525
 30
0.0
 10
151.6817440783239
 20
96.30525322215775
 30
0.0
 10
151.9074645847114
 20
96.26661414500332
 30
0.0
 10
152.0750617118753
 20
96.22991724750449
 30
0.0
 10
152.1905102458755
 20
96.19816906865219
 30
0.0
 10
152.2604740673829
 20
96.17331920030252
 30
0.0
 10
152.2917900036205
 20
96.15861267408894
 30
0.0
 10
152.2983312660251
 20
96.15437068367407
 30
0.0
 10
152.2982974393768
 20
96.15433465520023
 30
0.0
  0
SPLINE
  5
2FA
330
40
100
AcDbEntity
  8
0007749
  6
Continuous
 62
     7
100
AcDbSpline
210
0.0
220
0.0
230
1.0
 70
     8
 71
     3
 72
    45
 73
    41
 74
     0
 42
0.0000000006780995
 43
0.0000000001
 12
1.0
 22
0.0
 32
0.0
 13
1.0
 23
0.0
 33
0.0
 40
0.3427982589308115
 40
0.3427982589308115
 40
0.3427982589308115
 40
0.3427982589308115
 40
0.3447438470881876
 40
0.3664722201946845
 40
0.3888789226018348
 40
0.4042286473707262
 40
0.4183099628457714
 40
0.4314423403390562
 40
0.4441429910459351
 40
0.4553758197364063
 40
0.4643669216969196
 40
0.4693293295163291
 40
0.4757424525971312
 40
0.4847056363487784
 40
0.4961157544837247
 40
0.5098118099554321
 40
0.5257024100012395
 40
0.5468863474950157
 40
0.5627499109075724
 40
0.5785844945649663
 40
0.596863905137954
 40
0.6179923957039823
 40
0.6401608075928409
 40
0.6614517942956062
 40
0.6817797318810425
 40
0.6961557663867969
 40
0.7093003578213181
 40
0.7211250775743004
 40
0.7342534126529671
 40
0.7505951748460713
 40
0.7700887269621072
 40
0.7924331705756245
 40
0.8142187464954506
 40
0.8338935545512146
 40
0.8517041902212711
 40
0.8683224914129799
 40
0.8834582894433088
 40
0.8965057882864125
 40
0.9073545112785287
 40
0.9142307684002284
 40
0.9142307684002284
 40
0.9142307684002284
 40
0.9142307684002284
 10
146.019282533113
 20
95.61567299363134
 30
0.0
 10
146.0109577850072
 20
95.61403679366887
 30
0.0
 10
145.9104401828824
 20
95.59401344482099
 30
0.0
 10
145.7334551759129
 20
95.55204121266718
 30
0.0
 10
145.5531269756704
 20
95.49266773140891
 30
0.0
 10
145.4131235950546
 20
95.42189415012258
 30
0.0
 10
145.3083295988078
 20
95.33672636373802
 30
0.0
 10
145.2292790019379
 20
95.21135200801922
 30
0.0
 10
145.2110631922274
 20
95.04862752512898
 30
0.0
 10
145.2657968608956
 20
94.90901058367632
 30
0.0
 10
145.3316238179177
 20
94.83411323249486
 30
0.0
 10
145.3863062755202
 20
94.789566760276
 30
0.0
 10
145.4324501727791
 20
94.75967085977493
 30
0.0
 10
145.4955195853377
 20
94.7268390130294
 30
0.0
 10
145.5847819565402
 20
94.69102431270368
 30
0.0
 10
145.7099184693467
 20
94.653080368324
 30
0.0
 10
145.8913627578459
 20
94.60888348697006
 30
0.0
 10
146.1165611241627
 20
94.56236116028094
 30
0.0
 10
146.3735242152912
 20
94.51612911043716
 30
0.0
 10
146.636664156545
 20
94.47285120806241
 30
0.0
 10
146.9575903276455
 20
94.42446750078416
 30
0.0
 10
147.3475779230006
 20
94.37080875361949
 30
0.0
 10
147.7872852877228
 20
94.31584252812742
 30
0.0
 10
148.2435493260866
 20
94.26350022686856
 30
0.0
 10
148.6559195816743
 20
94.22130474097385
 30
0.0
 10
149.0111196784711
 20
94.18352733833305
 30
0.0
 10
149.3028477413177
 20
94.15125964047162
 30
0.0
 10
149.5831426366061
 20
94.1192414044611
 30
0.0
 10
149.882769763451
 20
94.08388251951828
 30
0.0
 10
150.2293828774807
 20
94.04137786259948
 30
0.0
 10
150.6237641806468
 20
93.99064110142227
 30
0.0
 10
151.0259363197072
 20
93.93574549219043
 30
0.0
 10
151.3885281949299
 20
93.88264652864527
 30
0.0
 10
151.6817440783239
 20
93.83650322215775
 30
0.0
 10
151.9074645847114
 20
93.79786414500332
 30
0.0
 10
152.0750617118753
 20
93.76116724750447
 30
0.0
 10
152.1905102458755
 20
93.7294190686522
 30
0.0
 10
152.2604740673829
 20
93.70456920030254
 30
0.0
 10
152.2917900036205
 20
93.68986267408897
 30
0.0
 10
152.2983312660251
 20
93.68562068367409
 30
0.0
 10
152.2982974393768
 20
93.68558465520023
 30
0.0
  0
SPLINE
  5
2FB
330
40
100
AcDbEntity
  8
0007749
  6
Continuous
 62
     7
100
AcDbSpline
210
0.0
220
0.0
230
1.0
 70
     8
 71
     3
 72
    45
 73
    41
 74
     0
 42
0.0000000006780995
 43
0.0000000001
 12
1.0
 22
0.0
 32
0.0
 13
1.0
 23
0.0
 33
0.0
 40
0.342798258930877
 40
0.342798258930877
 40
0.342798258930877
 40
0.342798258930877
 40
0.3447438470882527
 40
0.3664722201947548
 40
0.3888789226019093
 40
0.4042286473708037
 40
0.4183099628458516
 40
0.431442340339138
 40
0.4441429910460203
 40
0.4553758197364936
 40
0.4643669216970086
 40
0.4693293295164173
 40
0.4757424525972233
 40
0.4847056363488705
 40
0.4961157544838181
 40
0.5098118099555307
 40
0.5257024100013394
 40
0.5468863474951197
 40
0.5627499109076803
 40
0.5785844945650773
 40
0.5968639051380683
 40
0.6179923957041009
 40
0.6401608075929637
 40
0.6614517942957331
 40
0.6817797318811732
 40
0.6961557663869304
 40
0.7093003578214551
 40
0.7211250775744379
 40
0.7342534126531088
 40
0.7505951748462154
 40
0.770088726962255
 40
0.7924331705757764
 40
0.8142187464956067
 40
0.8338935545513744
 40
0.8517041902214344
 40
0.8683224914131472
 40
0.8834582894434793
 40
0.8965057882865853
 40
0.9073545112787027
 40
0.9142307684004031
 40
0.9142307684004031
 40
0.9142307684004031
 40
0.9142307684004031
 10
146.019282533113
 20
93.14692299363132
 30
0.0
 10
146.0109577850072
 20
93.14528679366886
 30
0.0
 10
145.9104401828824
 20
93.12526344482097
 30
0.0
 10
145.7334551759129
 20
93.08329121266715
 30
0.0
 10
145.5531269756704
 20
93.02391773140894
 30
0.0
 10
145.4131235950546
 20
92.95314415012254
 30
0.0
 10
145.3083295988078
 20
92.86797636373804
 30
0.0
 10
145.2292790019379
 20
92.74260200801922
 30
0.0
 10
145.2110631922274
 20
92.57987752512896
 30
0.0
 10
145.2657968608956
 20
92.44026058367632
 30
0.0
 10
145.3316238179177
 20
92.36536323249487
 30
0.0
 10
145.3863062755202
 20
92.32081676027597
 30
0.0
 10
145.4324501727791
 20
92.29092085977493
 30
0.0
 10
145.4955195853377
 20
92.2580890130294
 30
0.0
 10
145.5847819565402
 20
92.22227431270366
 30
0.0
 10
145.7099184693467
 20
92.184330368324
 30
0.0
 10
145.8913627578459
 20
92.14013348697006
 30
0.0
 10
146.1165611241627
 20
92.09361116028094
 30
0.0
 10
146.3735242152912
 20
92.0473791104372
 30
0.0
 10
146.636664156545
 20
92.00410120806241
 30
0.0
 10
146.9575903276455
 20
91.95571750078413
 30
0.0
 10
147.3475779230006
 20
91.90205875361954
 30
0.0
 10
147.7872852877228
 20
91.84709252812742
 30
0.0
 10
148.2435493260866
 20
91.79475022686854
 30
0.0
 10
148.6559195816743
 20
91.75255474097388
 30
0.0
 10
149.0111196784711
 20
91.71477733833302
 30
0.0
 10
149.3028477413177
 20
91.6825096404716
 30
0.0
 10
149.5831426366061
 20
91.65049140446115
 30
0.0
 10
149.882769763451
 20
91.61513251951827
 30
0.0
 10
150.2293828774807
 20
91.57262786259946
 30
0.0
 10
150.6237641806468
 20
91.52189110142227
 30
0.0
 10
151.0259363197072
 20
91.46699549219045
 30
0.0
 10
151.3885281949299
 20
91.41389652864525
 30
0.0
 10
151.6817440783239
 20
91.36775322215776
 30
0.0
 10
151.9074645847115
 20
91.32911414500332
 30
0.0
 10
152.0750617118753
 20
91.2924172475045
 30
0.0
 10
152.1905102458755
 20
91.26066906865216
 30
0.0
 10
152.2604740673829
 20
91.23581920030254
 30
0.0
 10
152.2917900036205
 20
91.22111267408896
 30
0.0
 10
152.2983312660251
 20
91.21687068367409
 30
0.0
 10
152.2982974393768
 20
91.21683465520024
 30
0.0
  0
SPLINE
  5
2FC
330
40
100
AcDbEntity
  8
0007749
  6
Continuous
 62
     7
100
AcDbSpline
210
0.0
220
0.0
230
1.0
 70
     8
 71
     3
 72
    26
 73
    22
 74
     0
 42
0.0000000007768203
 43
0.0000000001
 12
1.0
 22
0.0
 32
0.0
 13
1.0
 23
0.0
 33
0.0
 40
0.495586250641247
 40
0.495586250641247
 40
0.495586250641247
 40
0.495586250641247
 40
0.4979781237761544
 40
0.5271111242824069
 40
0.5550910413599116
 40
0.5818053508439043
 40
0.6006978643281244
 40
0.6179720556791464
 40
0.6335117149148645
 40
0.6507645426956965
 40
0.672240351095124
 40
0.6978581385357554
 40
0.7272224741664757
 40
0.7558523641867089
 40
0.7817083522440703
 40
0.8051145060359518
 40
0.8269537329259229
 40
0.8468447027387714
 40
0.863991298187609
 40
0.8782483344609349
 40
0.8872848862541777
 40
0.8872848862541777
 40
0.8872848862541777
 40
0.8872848862541777
 10
147.3101475298353
 20
109.1891335521728
 30
0.0
 10
147.322022907287
 20
109.1875626026276
 30
0.0
 10
147.4790275788459
 20
109.1668767081189
 30
0.0
 10
147.7872852877228
 20
109.1283425281274
 30
0.0
 10
148.2435493260866
 20
109.0760002268685
 30
0.0
 10
148.6559195816743
 20
109.0338047409738
 30
0.0
 10
149.0111196784711
 20
108.996027338333
 30
0.0
 10
149.3028477413177
 20
108.9637596404716
 30
0.0
 10
149.5831426366061
 20
108.9317414044611
 30
0.0
 10
149.882769763451
 20
108.8963825195182
 30
0.0
 10
150.2293828774807
 20
108.8538778625995
 30
0.0
 10
150.6237641806468
 20
108.8031411014223
 30
0.0
 10
151.0259363197072
 20
108.7482454921904
 30
0.0
 10
151.3885281949299
 20
108.6951465286453
 30
0.0
 10
151.6817440783239
 20
108.6490032221577
 30
0.0
 10
151.9074645847115
 20
108.6103641450033
 30
0.0
 10
152.0750617118753
 20
108.5736672475045
 30
0.0
 10
152.1905102458755
 20
108.5419190686522
 30
0.0
 10
152.2604740673829
 20
108.5170692003025
 30
0.0
 10
152.2917900036205
 20
108.5023626740889
 30
0.0
 10
152.2983312660251
 20
108.4981206836741
 30
0.0
 10
152.2982974393768
 20
108.4980846552002
 30
0.0
  0
SPLINE
  5
2FD
330
40
100
AcDbEntity
  8
0007749
  6
Continuous
 62
     7
100
AcDbSpline
210
0.0
220
0.0
230
1.0
 70
     8
 71
     3
 72
    20
 73
    16
 74
     0
 42
0.0000000009435322
 43
0.0000000001
 12
1.0
 22
0.0
 32
0.0
 13
1.0
 23
0.0
 33
0.0
 40
0.0
 40
0.0
 40
0.0
 40
0.0
 40
0.0180449834193164
 40
0.0337521041272855
 40
0.0468213712318987
 40
0.0570315406392271
 40
0.064268267229877
 40
0.0691275112783377
 40
0.080319932991982
 40
0.0943012365793946
 40
0.1092045142895583
 40
0.124969989484228
 40
0.1411859734636692
 40
0.1594672229517771
 40
0.1647252198681246
 40
0.1647252198681246
 40
0.1647252198681246
 40
0.1647252198681246
 10
152.3207096335309
 20
108.2287575021786
 30
0.0
 10
152.3905069059801
 20
108.2486470325335
 30
0.0
 10
152.4992533080879
 20
108.2812634116882
 30
0.0
 10
152.6323834778505
 20
108.3488975693684
 30
0.0
 10
152.7221981241567
 20
108.4212346733837
 30
0.0
 10
152.7786318827121
 20
108.4996869524971
 30
0.0
 10
152.8109139175737
 20
108.5736211618243
 30
0.0
 10
152.8287193360505
 20
108.7035394711385
 30
0.0
 10
152.7928803206931
 20
108.8305188391963
 30
0.0
 10
152.7094680356667
 20
108.9400051838038
 30
0.0
 10
152.5959914184795
 20
109.0199132204702
 30
0.0
 10
152.4662417855677
 20
109.0781812465669
 30
0.0
 10
152.3118732423362
 20
109.1283153064059
 30
0.0
 10
152.1631918281339
 20
109.1649762878706
 30
0.0
 10
152.0670261700832
 20
109.1851145881681
 30
0.0
 10
152.0451315728279
 20
109.1895416870192
 30
0.0
  0
LINE
  5
2FF
330
40
100
AcDbEntity
  8
0007697
  6
Continuous
 62
     7
100
AcDbLine
 10
146.7710486118
 20
114.9391799445
 30
0.0
 11
151.2710486118
 21
114.9391799445
 31
0.0
  0
LINE
  5
300
330
40
100
AcDbEntity
  8
0007697
  6
Continuous
 62
     7
100
AcDbLine
 10
151.2710486118
 20
114.9391799445
 30
0.0
 11
151.2710486118
 21
119.2891799445
 31
0.0
  0
LINE
  5
301
330
40
100
AcDbEntity
  8
0007697
  6
Continuous
 62
     7
100
AcDbLine
 10
146.7710486118
 20
119.2891799445
 30
0.0
 11
146.7710486118
 21
114.9391799445
 31
0.0
  0
LINE
  5
302
330
40
100
AcDbEntity
  8
0007697
  6
Continuous
 62
     7
100
AcDbLine
 10
152.0210486118
 20
89.2891799445
 30
0.0
 11
152.0210486118
 21
91.3028817113
 31
0.0
  0
LINE
  5
303
330
40
100
AcDbEntity
  8
0007697
  6
Continuous
 62
     7
100
AcDbLine
 10
152.0210486118
 20
91.9122431987
 30
0.0
 11
152.0210486118
 21
93.7716317113
 31
0.0
  0
LINE
  5
304
330
40
100
AcDbEntity
  8
0007697
  6
Continuous
 62
     7
100
AcDbLine
 10
152.0210486118
 20
94.3809931987
 30
0.0
 11
152.0210486118
 21
96.2403817113
 31
0.0
  0
LINE
  5
305
330
40
100
AcDbEntity
  8
0007697
  6
Continuous
 62
     7
100
AcDbLine
 10
152.0210486118
 20
96.8497431987
 30
0.0
 11
152.0210486118
 21
98.7091317113
 31
0.0
  0
LINE
  5
306
330
40
100
AcDbEntity
  8
0007697
  6
Continuous
 62
     7
100
AcDbLine
 10
152.0210486118
 20
99.3184931987
 30
0.0
 11
152.0210486118
 21
101.1778817113
 31
0.0
  0
LINE
  5
307
330
40
100
AcDbEntity
  8
0007697
  6
Continuous
 62
     7
100
AcDbLine
 10
152.0210486118
 20
101.7872431987
 30
0.0
 11
152.0210486118
 21
103.6466317113
 31
0.0
  0
LINE
  5
308
330
40
100
AcDbEntity
  8
0007697
  6
Continuous
 62
     7
100
AcDbLine
 10
152.0210486118
 20
104.2559931987
 30
0.0
 11
152.0210486118
 21
106.1153817113
 31
0.0
  0
LINE
  5
309
330
40
100
AcDbEntity
  8
0007697
  6
Continuous
 62
     7
100
AcDbLine
 10
152.0210486118
 20
106.7247431987
 30
0.0
 11
152.0210486118
 21
108.5841317113
 31
0.0
  0
LINE
  5
30A
330
40
100
AcDbEntity
  8
0007697
  6
Continuous
 62
     7
100
AcDbLine
 10
146.0210486118
 20
109.1891799445
 30
0.0
 11
146.0210486118
 21
107.5358732123
 31
0.0
  0
LINE
  5
30B
330
40
100
AcDbEntity
  8
0007697
  6
Continuous
 62
     7
100
AcDbLine
 10
146.0210486118
 20
106.927426503
 30
0.0
 11
146.0210486118
 21
105.0671232123
 31
0.0
  0
LINE
  5
30C
330
40
100
AcDbEntity
  8
0007697
  6
Continuous
 62
     7
100
AcDbLine
 10
146.0210486118
 20
104.458676503
 30
0.0
 11
146.0210486118
 21
102.5983732123
 31
0.0
  0
LINE
  5
30D
330
40
100
AcDbEntity
  8
0007697
  6
Continuous
 62
     7
100
AcDbLine
 10
146.0210486118
 20
101.989926503
 30
0.0
 11
146.0210486118
 21
100.1296232123
 31
0.0
  0
LINE
  5
30E
330
40
100
AcDbEntity
  8
0007697
  6
Continuous
 62
     7
100
AcDbLine
 10
146.0210486118
 20
99.521176503
 30
0.0
 11
146.0210486118
 21
97.6608732123
 31
0.0
  0
LINE
  5
30F
330
40
100
AcDbEntity
  8
0007697
  6
Continuous
 62
     7
100
AcDbLine
 10
146.0210486118
 20
97.052426503
 30
0.0
 11
146.0210486118
 21
95.1921232123
 31
0.0
  0
LINE
  5
310
330
40
100
AcDbEntity
  8
0007697
  6
Continuous
 62
     7
100
AcDbLine
 10
146.0210486118
 20
94.583676503
 30
0.0
 11
146.0210486118
 21
92.7233732123
 31
0.0
  0
LINE
  5
311
330
40
100
AcDbEntity
  8
0007697
  6
Continuous
 62
     7
100
AcDbLine
 10
146.0210486118
 20
92.114926503
 30
0.0
 11
146.0210486118
 21
89.2891799445
 31
0.0
  0
LINE
  5
312
330
40
100
AcDbEntity
  8
0007697
  6
Continuous
 62
     7
100
AcDbLine
 10
152.0210486118
 20
114.1891799445
 30
0.0
 11
151.2710486118
 21
114.9391799445
 31
0.0
  0
LINE
  5
313
330
40
100
AcDbEntity
  8
0007697
  6
Continuous
 62
     7
100
AcDbLine
 10
146.7710486118
 20
114.9391799445
 30
0.0
 11
146.0210486118
 21
114.1891799445
 31
0.0
  0
LINE
  5
315
330
40
100
AcDbEntity
  8
0011104
  6
Continuous
 62
     7
100
AcDbLine
 10
162.9981012698
 20
178.2891799445
 30
0.0
 11
135.0439959537
 21
178.2891799445
 31
0.0
  0
LINE
  5
316
330
40
100
AcDbEntity
  8
0011104
  6
Continuous
 62
     7
100
AcDbLine
 10
165.5210486118
 20
175.9057606982
 30
0.0
 11
165.5210486118
 21
176.6593505367
 31
0.0
  0
LINE
  5
317
330
40
100
AcDbEntity
  8
0011104
  6
Continuous
 62
     7
100
AcDbLine
 10
132.5210486118
 20
176.6593505367
 30
0.0
 11
132.5210486118
 21
175.9057606982
 31
0.0
  0
LINE
  5
318
330
40
100
AcDbEntity
  8
0011104
  6
Continuous
 62
     7
100
AcDbLine
 10
132.6710486118
 20
175.6459530771
 30
0.0
 11
134.8210486118
 21
174.4046499983
 31
0.0
  0
LINE
  5
319
330
40
100
AcDbEntity
  8
0011104
  6
Continuous
 62
     7
100
AcDbLine
 10
163.2210486118
 20
174.4046499983
 30
0.0
 11
165.3710486118
 21
175.6459530771
 31
0.0
  0
LINE
  5
31A
330
40
100
AcDbEntity
  8
0011104
  6
Continuous
 62
     7
100
AcDbLine
 10
163.0210486118
 20
172.5891799445
 30
0.0
 11
163.0210486118
 21
174.0582398368
 31
0.0
  0
LINE
  5
31B
330
40
100
AcDbEntity
  8
0011104
  6
Continuous
 62
     7
100
AcDbLine
 10
135.0210486118
 20
174.0582398368
 30
0.0
 11
135.0210486118
 21
172.5891799445
 31
0.0
  0
ARC
  5
31C
330
40
100
AcDbEntity
  8
0011104
  6
Continuous
 62
     7
100
AcDbCircle
 10
163.4210486118
 20
174.0582398368
 30
0.0
 40
0.3999999999999993
100
AcDbArc
 50
120.0
 51
180.0
  0
ARC
  5
31D
330
40
100
AcDbEntity
  8
0011104
  6
Continuous
 62
     7
100
AcDbCircle
 10
134.6210486118
 20
174.0582398368
 30
0.0
 40
0.4000000000000033
100
AcDbArc
 50
0.0
 51
60.0
  0
ARC
  5
31E
330
40
100
AcDbEntity
  8
0011104
  6
Continuous
 62
     7
100
AcDbCircle
 10
132.8210486118
 20
175.9057606982
 30
0.0
 40
0.3000000000000017
100
AcDbArc
 50
180.0
 51
240.0
  0
ARC
  5
31F
330
40
100
AcDbEntity
  8
0011104
  6
Continuous
 62
     7
100
AcDbCircle
 10
165.2210486118
 20
175.9057606982
 30
0.0
 40
0.299999999999996
100
AcDbArc
 50
300.0
 51
0.0
  0
ARC
  5
320
330
40
100
AcDbEntity
  8
0011104
  6
Continuous
 62
     7
100
AcDbCircle
 10
162.7210486118
 20
172.5891799445
 30
0.0
 40
0.3000000000000017
100
AcDbArc
 50
270.0
 51
0.0
  0
ARC
  5
321
330
40
100
AcDbEntity
  8
0011104
  6
Continuous
 62
     7
100
AcDbCircle
 10
135.3210486118
 20
172.5891799445
 30
0.0
 40
0.2999999999999964
100
AcDbArc
 50
180.0
 51
270.0
  0
LINE
  5
322
330
40
100
AcDbEntity
  8
0011104
  6
Continuous
 62
     7
100
AcDbLine
 10
165.3710486118
 20
176.9191581578
 30
0.0
 11
162.9981012698
 21
178.2891799445
 31
0.0
  0
LINE
  5
323
330
40
100
AcDbEntity
  8
0011104
  6
Continuous
 62
     7
100
AcDbLine
 10
135.0439959537
 20
178.2891799445
 30
0.0
 11
132.6710486118
 21
176.9191581578
 31
0.0
  0
ARC
  5
324
330
40
100
AcDbEntity
  8
0011104
  6
Continuous
 62
     7
100
AcDbCircle
 10
165.2210486118
 20
176.6593505367
 30
0.0
 40
0.3000000000000017
100
AcDbArc
 50
0.0
 51
60.0
  0
ARC
  5
325
330
40
100
AcDbEntity
  8
0011104
  6
Continuous
 62
     7
100
AcDbCircle
 10
132.8210486118
 20
176.6593505367
 30
0.0
 40
0.2999999999999943
100
AcDbArc
 50
120.0
 51
180.0
  0
ENDBLK
  5
327
330
40
100
AcDbEntity
  8
0
100
AcDbBlockEnd
  0
BLOCK
  5
32A
330
329
100
AcDbEntity
  8
0
100
AcDbBlockBegin
  2
_OBLIQUE
 70
     0
 10
0.0
 20
0.0
 30
0.0
  3
_OBLIQUE
  1

  0
LINE
  5
32C
330
329
100
AcDbEntity
  8
0
  6
ByBlock
 62
     0
370
    -2
100
AcDbLine
 10
-0.5
 20
-0.5
 30
0.0
 11
0.5
 21
0.5
 31
0.0
  0
ENDBLK
  5
32B
330
329
100
AcDbEntity
  8
0
100
AcDbBlockEnd
  0
BLOCK
  5
32E
330
32D
100
AcDbEntity
  8
0
100
AcDbBlockBegin
  2
_DOT
 70
     0
 10
0.0
 20
0.0
 30
0.0
  3
_DOT
  1

  0
POLYLINE
  5
330
330
32D
100
AcDbEntity
  8
0
  6
ByBlock
 62
     0
100
AcDb2dPolyline
 66
     1
 10
0.0
 20
0.0
 30
0.0
 70
     1
 40
0.5
 41
0.5
  0
VERTEX
  5
332
330
330
100
AcDbEntity
  8
0
  6
ByBlock
 62
     0
100
AcDbVertex
100
AcDb2dVertex
 10
-0.25
 20
0.0
 30
0.0
 42
1.0
  0
VERTEX
  5
333
330
330
100
AcDbEntity
  8
0
  6
ByBlock
 62
     0
100
AcDbVertex
100
AcDb2dVertex
 10
0.25
 20
0.0
 30
0.0
 42
1.0
  0
SEQEND
  5
334
330
330
100
AcDbEntity
  8
0
  6
ByBlock
 62
     0
  0
LINE
  5
331
330
32D
100
AcDbEntity
  8
0
  6
ByBlock
 62
     0
370
    -2
100
AcDbLine
 10
-0.5
 20
0.0
 30
0.0
 11
-1.0
 21
0.0
 31
0.0
  0
ENDBLK
  5
32F
330
32D
100
AcDbEntity
  8
0
100
AcDbBlockEnd
  0
BLOCK
  5
338
330
335
100
AcDbEntity
  8
0
100
AcDbBlockBegin
  2
_SE_FILLED
 70
     0
 10
0.0
 20
0.0
 30
0.0
  3
_SE_FILLED
  1

  0
SOLID
  5
336
330
335
100
AcDbEntity
  8
0
 62
     0
100
AcDbTrace
 10
0.0
 20
0.0
 30
0.0
 11
-1.0
 21
-0.1665
 31
0.0
 12
-1.0
 22
0.1665
 32
0.0
 13
0.0
 23
0.0
 33
0.0
  0
LINE
  5
337
330
335
100
AcDbEntity
  8
0
 62
     0
100
AcDbLine
 10
0.0
 20
0.0
 30
0.0
 11
-1.0
 21
0.0
 31
0.0
  0
ENDBLK
  5
339
330
335
100
AcDbEntity
  8
0
100
AcDbBlockEnd
  0
BLOCK
  5
344
330
33D
100
AcDbEntity
  8
0
100
AcDbBlockBegin
  2
DMBLK375
 70
     0
 10
0.0
 20
0.0
 30
0.0
  3
DMBLK375
  1

  0
HATCH
  5
33E
330
33D
100
AcDbEntity
  8
Default
  6
Continuous
 62
     7
100
AcDbHatch
 10
0.0
 20
0.0
 30
0.0
210
0.0
220
0.0
230
1.0
  2
SOLID
 70
     1
 71
     0
 91
        1
 92
        1
 93
        3
 72
     1
 10
180.3545295292914
 20
75.78918005248843
 11
179.1878628266136
 21
75.78918005248843
 72
     1
 10
179.1878628266136
 20
75.78918005248843
 11
179.7711961779525
 21
72.28917994445501
 72
     1
 10
179.7711961779525
 20
72.28917994445501
 11
180.3545295292914
 21
75.78918005248843
 97
        0
 75
     0
 76
     1
 98
        0
  0
HATCH
  5
33F
330
33D
100
AcDbEntity
  8
Default
  6
Continuous
 62
     7
100
AcDbHatch
 10
0.0
 20
0.0
 30
0.0
210
0.0
220
0.0
230
1.0
  2
SOLID
 70
     1
 71
     0
 91
        1
 92
        1
 93
        3
 72
     1
 10
180.3545295292914
 20
168.7891813265377
 11
179.7711961779525
 21
172.2891814345711
 72
     1
 10
179.7711961779525
 20
172.2891814345711
 11
179.1878628266136
 21
168.7891813265377
 72
     1
 10
179.1878628266136
 20
168.7891813265377
 11
180.3545295292914
 21
168.7891813265377
 97
        0
 75
     0
 76
     1
 98
        0
  0
LINE
  5
340
330
33D
100
AcDbEntity
  8
Default
  6
Continuous
 62
     7
100
AcDbLine
 10
163.0210486118
 20
72.2891799445
 30
0.0
 11
181.521196232
 21
72.2891799445
 31
0.0
  0
LINE
  5
341
330
33D
100
AcDbEntity
  8
Default
  6
Continuous
 62
     7
100
AcDbLine
 10
163.0210486118
 20
172.2891799445
 30
0.0
 11
181.521196232
 21
172.2891799445
 31
0.0
  0
LINE
  5
342
330
33D
100
AcDbEntity
  8
Default
  6
Continuous
 62
     7
100
AcDbLine
 10
179.771196178
 20
72.2891799445
 30
0.0
 11
179.771196178
 21
172.2891814346
 31
0.0
  0
TEXT
  5
343
330
33D
100
AcDbEntity
  8
Default
  6
Continuous
 62
     7
100
AcDbText
 10
178.896196178
 20
119.5050897804
 30
0.0
 40
3.5
  1
100
 50
90.0
  7
SEACAD_Solid_Edge_ISO
 11
175.396196178
 21
119.5050897804
 31
0.0
100
AcDbText
 73
     3
  0
ENDBLK
  5
345
330
33D
100
AcDbEntity
  8
0
100
AcDbBlockEnd
  0
BLOCK
  5
34E
330
347
100
AcDbEntity
  8
0
100
AcDbBlockBegin
  2
DMBLK376
 70
     0
 10
0.0
 20
0.0
 30
0.0
  3
DMBLK376
  1

  0
HATCH
  5
348
330
347
100
AcDbEntity
  8
Default
  6
Continuous
 62
     7
100
AcDbHatch
 10
0.0
 20
0.0
 30
0.0
210
0.0
220
0.0
230
1.0
  2
SOLID
 70
     1
 71
     0
 91
        1
 92
        1
 93
        3
 72
     1
 10
180.3545299755804
 20
181.7891800524885
 11
179.1878632729026
 21
181.7891800524885
 72
     1
 10
179.1878632729026
 20
181.7891800524885
 11
179.7711966242415
 21
178.289179944455
 72
     1
 10
179.7711966242415
 20
178.289179944455
 11
180.3545299755804
 21
181.7891800524885
 97
        0
 75
     0
 76
     1
 98
        0
  0
HATCH
  5
349
330
347
100
AcDbEntity
  8
Default
  6
Continuous
 62
     7
100
AcDbHatch
 10
0.0
 20
0.0
 30
0.0
210
0.0
220
0.0
230
1.0
  2
SOLID
 70
     1
 71
     0
 91
        1
 92
        1
 93
        3
 72
     1
 10
180.3545299755804
 20
168.7891798364216
 11
179.7711966242415
 21
172.289179944455
 72
     1
 10
179.7711966242415
 20
172.289179944455
 11
179.1878632729026
 21
168.7891798364216
 72
     1
 10
179.1878632729026
 20
168.7891798364216
 11
180.3545299755804
 21
168.7891798364216
 97
        0
 75
     0
 76
     1
 98
        0
  0
LINE
  5
34A
330
347
100
AcDbEntity
  8
Default
  6
Continuous
 62
     7
100
AcDbLine
 10
162.9981012698
 20
178.2891799445
 30
0.0
 11
181.5211966783
 21
178.2891799445
 31
0.0
  0
LINE
  5
34B
330
347
100
AcDbEntity
  8
Default
  6
Continuous
 62
     7
100
AcDbLine
 10
149.0210486118
 20
172.2891799445
 30
0.0
 11
181.5211966783
 21
172.2891799445
 31
0.0
  0
LINE
  5
34C
330
347
100
AcDbEntity
  8
Default
  6
Continuous
 62
     7
100
AcDbLine
 10
179.7711966242
 20
190.3569002385
 30
0.0
 11
179.7711966242
 21
165.2891796762
 31
0.0
  0
TEXT
  5
34D
330
347
100
AcDbEntity
  8
Default
  6
Continuous
 62
     7
100
AcDbText
 10
178.8961966242
 20
186.9841730291
 30
0.0
 40
3.5
  1
6
 50
90.0
  7
SEACAD_Solid_Edge_ISO
 11
175.3961966242
 21
186.9841730291
 31
0.0
100
AcDbText
 73
     3
  0
ENDBLK
  5
34F
330
347
100
AcDbEntity
  8
0
100
AcDbBlockEnd
  0
BLOCK
  5
35A
330
352
100
AcDbEntity
  8
0
100
AcDbBlockBegin
  2
DMBLK377
 70
     0
 10
0.0
 20
0.0
 30
0.0
  3
DMBLK377
  1

  0
HATCH
  5
353
330
352
100
AcDbEntity
  8
Default
  6
Continuous
 62
     7
100
AcDbHatch
 10
0.0
 20
0.0
 30
0.0
210
0.0
220
0.0
230
1.0
  2
SOLID
 70
     1
 71
     0
 91
        1
 92
        1
 93
        3
 72
     1
 10
136.5210487197868
 20
41.93351246449786
 11
136.5210487197868
 21
43.10017916717566
 72
     1
 10
136.5210487197868
 20
43.10017916717566
 11
133.0210486117534
 21
42.51684581583676
 72
     1
 10
133.0210486117534
 20
42.51684581583676
 11
136.5210487197868
 21
41.93351246449786
 97
        0
 75
     0
 76
     1
 98
        0
  0
HATCH
  5
354
330
352
100
AcDbEntity
  8
Default
  6
Continuous
 62
     7
100
AcDbHatch
 10
0.0
 20
0.0
 30
0.0
210
0.0
220
0.0
230
1.0
  2
SOLID
 70
     1
 71
     0
 91
        1
 92
        1
 93
        3
 72
     1
 10
161.5210500236384
 20
41.93351246449786
 11
165.0210501316718
 21
42.51684581583676
 72
     1
 10
165.0210501316718
 20
42.51684581583676
 11
161.5210500236384
 21
43.10017916717566
 72
     1
 10
161.5210500236384
 20
43.10017916717566
 11
161.5210500236384
 21
41.93351246449786
 97
        0
 75
     0
 76
     1
 98
        0
  0
LINE
  5
355
330
352
100
AcDbEntity
  8
Default
  6
Continuous
 62
     7
100
AcDbLine
 10
133.0210486118
 20
74.2891799445
 30
0.0
 11
133.0210486118
 21
40.7668457618
 31
0.0
  0
LINE
  5
356
330
352
100
AcDbEntity
  8
Default
  6
Continuous
 62
     7
100
AcDbLine
 10
165.0210486118
 20
74.2891799445
 30
0.0
 11
165.0210486118
 21
40.7668457618
 31
0.0
  0
LINE
  5
357
330
352
100
AcDbEntity
  8
Default
  6
Continuous
 62
     7
100
AcDbLine
 10
133.0210486118
 20
42.5168458158
 30
0.0
 11
165.0210501317
 21
42.5168458158
 31
0.0
  0
TEXT
  5
358
330
352
100
AcDbEntity
  8
Default
  6
Continuous
 62
     7
100
AcDbText
 10
149.5530270432
 20
43.3918458158
 30
0.0
 40
3.5
  1
32
  7
SEACAD_Solid_Edge_ISO
 11
149.5530270432
 21
46.8918458158
 31
0.0
100
AcDbText
 73
     3
  0
TEXT
  5
359
330
352
100
AcDbEntity
  8
Default
  6
Continuous
 62
     7
100
AcDbText
 10
144.511798973
 20
43.3918458158
 30
0.0
 40
3.5
  1
O
  7
SEACAD_Solid_Edge_ISO1_Symbols
 11
144.511798973
 21
46.8918458158
 31
0.0
100
AcDbText
 73
     3
  0
ENDBLK
  5
35B
330
352
100
AcDbEntity
  8
0
100
AcDbBlockEnd
  0
BLOCK
  5
365
330
35D
100
AcDbEntity
  8
0
100
AcDbBlockBegin
  2
DMBLK378
 70
     0
 10
0.0
 20
0.0
 30
0.0
  3
DMBLK378
  1

  0
HATCH
  5
35E
330
35D
100
AcDbEntity
  8
Default
  6
Continuous
 62
     7
100
AcDbHatch
 10
0.0
 20
0.0
 30
0.0
210
0.0
220
0.0
230
1.0
  2
SOLID
 70
     1
 71
     0
 91
        1
 92
        1
 93
        3
 72
     1
 10
136.0210487197868
 20
188.8259563230391
 11
132.5210486117534
 21
188.2426229717002
 72
     1
 10
132.5210486117534
 20
188.2426229717002
 11
136.0210487197868
 21
187.6592896203613
 72
     1
 10
136.0210487197868
 20
187.6592896203613
 11
136.0210487197868
 21
188.8259563230391
 97
        0
 75
     0
 76
     1
 98
        0
  0
HATCH
  5
35F
330
35D
100
AcDbEntity
  8
Default
  6
Continuous
 62
     7
100
AcDbHatch
 10
0.0
 20
0.0
 30
0.0
210
0.0
220
0.0
230
1.0
  2
SOLID
 70
     1
 71
     0
 91
        1
 92
        1
 93
        3
 72
     1
 10
162.021048324906
 20
188.8259563230391
 11
162.021048324906
 21
187.6592896203613
 72
     1
 10
162.021048324906
 20
187.6592896203613
 11
165.5210484329394
 21
188.2426229717002
 72
     1
 10
165.5210484329394
 20
188.2426229717002
 11
162.021048324906
 21
188.8259563230391
 97
        0
 75
     0
 76
     1
 98
        0
  0
LINE
  5
360
330
35D
100
AcDbEntity
  8
Default
  6
Continuous
 62
     7
100
AcDbLine
 10
132.5210486118
 20
176.6593505458
 30
0.0
 11
132.5210486118
 21
189.9926230257
 31
0.0
  0
LINE
  5
361
330
35D
100
AcDbEntity
  8
Default
  6
Continuous
 62
     7
100
AcDbLine
 10
165.5210486118
 20
176.2825556174
 30
0.0
 11
165.5210486118
 21
189.9926230257
 31
0.0
  0
LINE
  5
362
330
35D
100
AcDbEntity
  8
Default
  6
Continuous
 62
     7
100
AcDbLine
 10
132.5210486118
 20
188.2426229717
 30
0.0
 11
165.5210484329
 21
188.2426229717
 31
0.0
  0
TEXT
  5
363
330
35D
100
AcDbEntity
  8
Default
  6
Continuous
 62
     7
100
AcDbText
 10
149.7121171029
 20
189.1176229717
 30
0.0
 40
3.5
  1
33
  7
SEACAD_Solid_Edge_ISO
 11
149.7121171029
 21
192.6176229717
 31
0.0
100
AcDbText
 73
     3
  0
TEXT
  5
364
330
35D
100
AcDbEntity
  8
Default
  6
Continuous
 62
     7
100
AcDbText
 10
144.6708890327
 20
189.1176229717
 30
0.0
 40
3.5
  1
O
  7
SEACAD_Solid_Edge_ISO1_Symbols
 11
144.6708890327
 21
192.6176229717
 31
0.0
100
AcDbText
 73
     3
  0
ENDBLK
  5
366
330
35D
100
AcDbEntity
  8
0
100
AcDbBlockEnd
  0
BLOCK
  5
36A
330
367
100
AcDbEntity
  8
0
100
AcDbBlockBegin
  2
SEANNOT_GROUP
 70
     0
 10
0.0
 20
0.0
 30
0.0
  3
SEANNOT_GROUP
  1

  0
TEXT
  5
369
330
367
100
AcDbEntity
  8
Default
  6
Continuous
 62
     7
100
AcDbText
 10
243.1483969886
 20
25.7525109624
 30
0.0
 40
3.5
  1
761925000
  7
SEACAD_Solid_Edge_ANSIB
 11
243.1483969886
 21
29.2525109624
 31
0.0
100
AcDbText
 73
     3
  0
ENDBLK
  5
36B
330
367
100
AcDbEntity
  8
0
100
AcDbBlockEnd
  0
BLOCK
  5
36F
330
36C
100
AcDbEntity
  8
0
100
AcDbBlockBegin
  2
SEANNOT_GROUP1
 70
     0
 10
0.0
 20
0.0
 30
0.0
  3
SEANNOT_GROUP1
  1

  0
TEXT
  5
36E
330
36C
100
AcDbEntity
  8
Default
  6
Continuous
 62
     7
100
AcDbText
 10
243.1477357349
 20
20.0537100543
 30
0.0
 40
3.5
  1
24.08.2016
  7
SEACAD_Solid_Edge_ANSI
 11
243.1477357349
 21
23.5537100543
 31
0.0
100
AcDbText
 73
     3
  0
ENDBLK
  5
370
330
36C
100
AcDbEntity
  8
0
100
AcDbBlockEnd
  0
BLOCK
  5
373
330
371
100
AcDbEntity
  8
0
100
AcDbBlockBegin
  2
SEANNOT_GROUP2
 70
     0
 10
0.0
 20
0.0
 30
0.0
  3
SEANNOT_GROUP2
  1

  0
TEXT
  5
372
330
371
100
AcDbEntity
  8
Default
  6
Continuous
 62
     7
100
AcDbText
 10
243.1795282745
 20
31.5598894014
 30
0.0
 40
3.5
  1
VEW 25
  7
SEACAD_Solid_Edge_ANSIB
 11
243.1795282745
 21
35.0598894014
 31
0.0
100
AcDbText
 73
     3
  0
ENDBLK
  5
374
330
371
100
AcDbEntity
  8
0
100
AcDbBlockEnd
  0
BLOCK
  5
377
330
375
100
AcDbEntity
  8
0
100
AcDbBlockBegin
  2
SEANNOT_GROUP3
 70
     0
 10
0.0
 20
0.0
 30
0.0
  3
SEANNOT_GROUP3
  1

  0
TEXT
  5
376
330
375
100
AcDbEntity
  8
Default
  6
Continuous
 62
     7
100
AcDbText
 10
243.2357917511
 20
14.1955389783
 30
0.0
 40
3.5
  1
1:1
  7
SEACAD_Solid_Edge_ANSI
 11
243.2357917511
 21
17.6955389783
 31
0.0
100
AcDbText
 73
     3
  0
ENDBLK
  5
378
330
375
100
AcDbEntity
  8
0
100
AcDbBlockEnd
  0
BLOCK
  5
3C6
330
379
100
AcDbEntity
  8
0
100
AcDbBlockBegin
  2
RF-Massblatt_2016
 70
     0
 10
0.0
 20
0.0
 30
0.0
  3
RF-Massblatt_2016
  1

  0
MTEXT
  5
37A
102
{ACAD_XDICTIONARY
360
3D0
102
}
330
379
100
AcDbEntity
  8
Default
100
AcDbMText
 10
15.2206856049
 20
34.8070876502
 30
0.0
 40
2.5
 41
48.9706096033
 71
     1
 72
     1
  3
{\fVectora Com 45 Light|b1||i0||c0|p34;\C7;\H2.5;\W1.;REGO-FIX AG\P}{\fVectora Com 45 Light|b0||i0||c0|p34;\C7;\H2.5;\W1.;Obermattweg 60\P}{\fVectora Com 45 Light|b0||i0||c0|p34;\C7;\H2.5;\W1.;4456 Tenniken / Switzerland\P}{\fVectora Com 45 Light|b0
  3
||i0||c0|p34;\C7;\H2.5;\W1.;\P}{\fVectora Com 45 Light|b0||i0||c0|p34;\C7;\H2.5;\W1.;P +41 61 976 14 66\P}{\fVectora Com 45 Light|b0||i0||c0|p34;\C7;\H2.5;\W1.;F +41 61 976 14 14\P}{\fVectora Com 45 Light|b1||i0||c0|p34;\C7;\H2.5;\W1.;www.rego-fix.c
  1
om}
 73
     1
 44
1.0
1001
ACAD
1000
ACAD_MTEXT_DEFINED_HEIGHT_BEGIN
1070
    46
1040
31.3191355437
1000
ACAD_MTEXT_DEFINED_HEIGHT_END
  0
MTEXT
  5
37B
102
{ACAD_XDICTIONARY
360
3D2
102
}
330
379
100
AcDbEntity
  8
Default
100
AcDbMText
 10
90.3836341545
 20
34.4892285804
 30
0.0
 40
2.5
 41
104.0282149141
 71
     1
 72
     1
  3
{\fSolid Edge ISO|b0||i0||c0|p34;\C7;\H2.;\W1.;This is a non-controlled copy. All information given herein is subject to change without notice\P}{\fSolid Edge ISO|b0||i0||c0|p34;\C7;\H2.;\W1.;\P}{\fSolid Edge ISO|b0||i0||c0|p34;\C7;\H2.;\W1.;The inf
  3
ormation given herein has been carefully checked and is believed to be correct. REGO-FIX,\P}{\fSolid Edge ISO|b0||i0||c0|p34;\C7;\H2.;\W1.;however, assumes no responsibility or liability for any errors, inaccuracies or omissions that may appear\P}{\
  3
fSolid Edge ISO|b0||i0||c0|p34;\C7;\H2.;\W1.;in this drawing\P}{\fSolid Edge ISO|b0||i0||c0|p34;\C7;\H2.;\W1.;\P}{\fSolid Edge ISO|b0||i0||c0|p34;\C7;\H2.;\W1.;This document is subject to copyright laws. No part of this document may be reproduced or
  3
 transmitted\P}{\fSolid Edge ISO|b0||i0||c0|p34;\C7;\H2.;\W1.;in any form or any means, electronic or mechanic, for any purpose, without the express written permission\P}{\fSolid Edge ISO|b0||i0||c0|p34;\C7;\H2.;\W1.;of REGO-FIX\P}{\fSolid Edge ISO|
  1
b0||i0||c0|p34;\C7;\H1.5;\W1.;\P}
 73
     1
 44
1.0
1001
ACAD
1000
ACAD_MTEXT_DEFINED_HEIGHT_BEGIN
1070
    46
1040
38.4545554545
1000
ACAD_MTEXT_DEFINED_HEIGHT_END
  0
INSERT
  5
37C
330
379
100
AcDbEntity
  8
Default
100
AcDbBlockReference
  2
SEANNOT_GROUP
 10
0.0
 20
0.0
 30
0.0
  0
INSERT
  5
37D
330
379
100
AcDbEntity
  8
Default
100
AcDbBlockReference
  2
SEANNOT_GROUP1
 10
0.0
 20
0.0
 30
0.0
  0
MTEXT
  5
37E
102
{ACAD_XDICTIONARY
360
3D4
102
}
330
379
100
AcDbEntity
  8
Default
100
AcDbMText
 10
219.0323311835
 20
34.8066733186
 30
0.0
 40
2.5
 41
20.1335141444
 71
     1
 72
     1
  3
{\fVectora Com 45 Light|b0||i0||c0|p34;\C7;\H3.5;\W1.;Type :\P}{\fVectora Com 45 Light|b0||i0||c0|p34;\C7;\H3.5;\W1.;Part No. :\P}{\fVectora Com 45 Light|b0||i0||c0|p34;\C7;\H3.5;\W1.;Date : \P}{\fVectora Com 45 Light|b0||i0||c0|p34;\C7;\H3.5;\W1.;S
  1
cale :}
 73
     1
 44
1.0
1001
ACAD
1000
ACAD_MTEXT_DEFINED_HEIGHT_BEGIN
1070
    46
1040
23.6666666667
1000
ACAD_MTEXT_DEFINED_HEIGHT_END
  0
INSERT
  5
37F
330
379
100
AcDbEntity
  8
Default
100
AcDbBlockReference
  2
SEANNOT_GROUP2
 10
0.0
 20
0.0
 30
0.0
  0
INSERT
  5
380
330
379
100
AcDbEntity
  8
Default
100
AcDbBlockReference
  2
SEANNOT_GROUP3
 10
0.0
 20
0.0
 30
0.0
  0
LINE
  5
381
330
379
100
AcDbEntity
  8
Default
  6
Continuous
 62
     7
100
AcDbLine
 10
269.3420202893
 20
189.711288453
 30
0.0
 11
267.226096305
 21
186.6436606679
 31
0.0
  0
LINE
  5
382
330
379
100
AcDbEntity
  8
Default
  6
Continuous
 62
     7
100
AcDbLine
 10
267.226096305
 20
186.6436606679
 30
0.0
 11
268.2886782185
 21
185.1144666968
 31
0.0
  0
LINE
  5
383
330
379
100
AcDbEntity
  8
Default
  6
Continuous
 62
     7
100
AcDbLine
 10
268.2886782185
 20
185.1144666968
 30
0.0
 11
267.2561257939
 21
183.6453317033
 31
0.0
  0
LINE
  5
384
330
379
100
AcDbEntity
  8
Default
  6
Continuous
 62
     7
100
AcDbLine
 10
267.2561257939
 20
183.6453317033
 30
0.0
 11
266.2235733692
 21
185.2646141411
 31
0.0
  0
LINE
  5
385
330
379
100
AcDbEntity
  8
Default
  6
Continuous
 62
     7
100
AcDbLine
 10
266.2235733692
 20
185.2646141411
 30
0.0
 11
264.7036192408
 21
183.1186606679
 31
0.0
  0
LINE
  5
386
330
379
100
AcDbEntity
  8
Default
  6
Continuous
 62
     7
100
AcDbLine
 10
264.7036192408
 20
183.1186606679
 30
0.0
 11
262.6269645881
 21
183.1186606679
 31
0.0
  0
LINE
  5
387
330
379
100
AcDbEntity
  8
Default
  6
Continuous
 62
     7
100
AcDbLine
 10
262.6269645881
 20
183.1186606679
 30
0.0
 11
265.20950063
 21
186.6436606679
 31
0.0
  0
LINE
  5
388
330
379
100
AcDbEntity
  8
Default
  6
Continuous
 62
     7
100
AcDbLine
 10
265.20950063
 20
186.6436606679
 30
0.0
 11
263.1051264492
 21
189.711288453
 31
0.0
  0
LINE
  5
389
330
379
100
AcDbEntity
  8
Default
  6
Continuous
 62
     7
100
AcDbLine
 10
263.1051264492
 20
189.711288453
 30
0.0
 11
265.20950063
 21
189.711288453
 31
0.0
  0
LINE
  5
38A
330
379
100
AcDbEntity
  8
Default
  6
Continuous
 62
     7
100
AcDbLine
 10
265.20950063
 20
189.711288453
 30
0.0
 11
266.2235733692
 21
188.0042275094
 31
0.0
  0
LINE
  5
38B
330
379
100
AcDbEntity
  8
Default
  6
Continuous
 62
     7
100
AcDbLine
 10
266.2235733692
 20
188.0042275094
 30
0.0
 11
267.226096305
 21
189.711288453
 31
0.0
  0
LINE
  5
38C
330
379
100
AcDbEntity
  8
Default
  6
Continuous
 62
     7
100
AcDbLine
 10
267.226096305
 20
189.711288453
 30
0.0
 11
269.3420202893
 21
189.711288453
 31
0.0
  0
SPLINE
  5
38D
330
379
100
AcDbEntity
  8
Default
  6
Continuous
 62
     7
100
AcDbSpline
210
0.0
220
0.0
230
1.0
 70
     8
 71
     3
 72
    13
 73
     9
 74
     0
 42
0.0000000012369638
 43
0.0000000001
 12
1.0
 22
0.0
 32
0.0
 13
1.0
 23
0.0
 33
0.0
 40
0.0
 40
0.0
 40
0.0
 40
0.0
 40
0.9091644120227717
 40
0.9091644120227717
 40
0.9091644120227717
 40
0.9554905618911577
 40
0.9554905618911577
 40
1.0
 40
1.0
 40
1.0
 40
1.0
 10
267.8844350992403
 20
183.5460033940301
 30
0.0
 10
269.2912011542862
 20
185.5418094228636
 30
0.0
 10
270.697967209332
 20
187.5376154516972
 30
0.0
 10
272.1047332643779
 20
189.5334214805307
 30
0.0
 10
272.1870447473536
 20
189.6501983627819
 30
0.0
 10
272.2849101975365
 20
189.7112884530078
 30
0.0
 10
272.5159062656886
 20
189.7112884530078
 30
0.0
 10
272.6198544963569
 20
189.6512294752883
 30
0.0
 10
272.7122529236178
 20
189.5334214805307
 30
0.0
  0
SPLINE
  5
38E
330
379
100
AcDbEntity
  8
Default
  6
Continuous
 62
     7
100
AcDbSpline
210
0.0
220
0.0
230
1.0
 70
     8
 71
     3
 72
    16
 73
    12
 74
     0
 42
0.0000000006014133
 43
0.0000000001
 12
1.0
 22
0.0
 32
0.0
 13
1.0
 23
0.0
 33
0.0
 40
0.0
 40
0.0
 40
0.0
 40
0.0
 40
0.4418652593848311
 40
0.4418652593848311
 40
0.4418652593848311
 40
0.455090010411123
 40
0.455090010411123
 40
0.4811129075918901
 40
0.4811129075918901
 40
0.4811129075918901
 40
1.0
 40
1.0
 40
1.0
 40
1.0
 10
272.7122529236178
 20
189.5334214805307
 30
0.0
 10
274.1190189786636
 20
187.5376154516972
 30
0.0
 10
275.5257850337095
 20
185.5418094228636
 30
0.0
 10
276.9325510887554
 20
183.5460033940301
 30
0.0
 10
276.9849943017649
 20
183.4716012002038
 30
0.0
 10
277.0133997126086
 20
183.4004758710943
 30
0.0
 10
277.0133997126086
 20
183.1879594883945
 30
0.0
 10
276.9140714033032
 20
183.1186606679488
 30
0.0
 10
276.7154147846925
 20
183.1186606679488
 30
0.0
 10
273.8479835920319
 20
183.1186606679488
 30
0.0
 10
270.9805523993713
 20
183.1186606679488
 30
0.0
 10
268.1131212067108
 20
183.1186606679488
 30
0.0
  0
SPLINE
  5
38F
330
379
100
AcDbEntity
  8
Default
  6
Continuous
 62
     7
100
AcDbSpline
210
0.0
220
0.0
230
1.0
 70
     8
 71
     3
 72
    11
 73
     7
 74
     0
 42
0.0000000141737466
 43
0.0000000001
 12
1.0
 22
0.0
 32
0.0
 13
1.0
 23
0.0
 33
0.0
 40
0.0
 40
0.0
 40
0.0
 40
0.0
 40
0.6560933575639865
 40
0.6560933575639865
 40
0.6560933575639865
 40
1.0
 40
1.0
 40
1.0
 40
1.0
 10
268.1131212067108
 20
183.1186606679488
 30
0.0
 10
267.9075347060556
 20
183.1186606679488
 30
0.0
 10
267.8058964360686
 20
183.1925794097575
 30
0.0
 10
267.8035864753871
 20
183.3381069326933
 30
0.0
 10
267.8027439506852
 20
183.3911859889177
 30
0.0
 10
267.8313060035653
 20
183.4605348488138
 30
0.0
 10
267.8844350992403
 20
183.5460033940301
 30
0.0
  0
LINE
  5
390
330
379
100
AcDbEntity
  8
Default
  6
Continuous
 62
     7
100
AcDbLine
 10
262.1857620979
 20
189.7274581778
 30
0.0
 11
262.1857620979
 21
183.1186606679
 31
0.0
  0
SPLINE
  5
391
330
379
100
AcDbEntity
  8
Default
  6
Continuous
 62
     7
100
AcDbSpline
210
0.0
220
0.0
230
1.0
 70
     8
 71
     3
 72
    14
 73
    10
 74
     0
 42
0.0000000052950889
 43
0.0000000001
 12
1.0
 22
0.0
 32
0.0
 13
1.0
 23
0.0
 33
0.0
 40
0.0
 40
0.0
 40
0.0
 40
0.0
 40
0.1210177131110554
 40
0.1210177131110554
 40
0.1210177131110554
 40
0.2419901306838391
 40
0.2419901306838391
 40
0.2419901306838391
 40
1.0
 40
1.0
 40
1.0
 40
1.0
 10
260.4740812329231
 20
189.4387130925884
 30
0.0
 10
260.4740812329231
 20
189.5195617164416
 30
0.0
 10
260.5018007611014
 20
189.5865505762057
 30
0.0
 10
260.5595497781394
 20
189.6419896325622
 30
0.0
 10
260.6172507110666
 20
189.6973825281723
 30
0.0
 10
260.68197769426
 20
189.7274581777785
 30
0.0
 10
260.7628263181132
 20
189.7274581777785
 30
0.0
 10
261.2371382447187
 20
189.7274581777785
 30
0.0
 10
261.7114501713242
 20
189.7274581777785
 30
0.0
 10
262.1857620979297
 20
189.7274581777785
 30
0.0
  0
LINE
  5
392
330
379
100
AcDbEntity
  8
Default
  6
Continuous
 62
     7
100
AcDbLine
 10
260.4740812329
 20
183.1186606679
 30
0.0
 11
260.4740812329
 21
189.4387130926
 31
0.0
  0
LINE
  5
393
330
379
100
AcDbEntity
  8
Default
  6
Continuous
 62
     7
100
AcDbLine
 10
262.1857620979
 20
183.1186606679
 30
0.0
 11
260.4740812329
 21
183.1186606679
 31
0.0
  0
SPLINE
  5
394
330
379
100
AcDbEntity
  8
Default
  6
Continuous
 62
     7
100
AcDbSpline
210
0.0
220
0.0
230
1.0
 70
     8
 71
     3
 72
    16
 73
    12
 74
     0
 42
0.0000000009758823
 43
0.0000000001
 12
1.0
 22
0.0
 32
0.0
 13
1.0
 23
0.0
 33
0.0
 40
0.0
 40
0.0
 40
0.0
 40
0.0
 40
0.6159054655977501
 40
0.6159054655977501
 40
0.6159054655977501
 40
0.6376683166669079
 40
0.6376683166669079
 40
0.6603379531972834
 40
0.6603379531972834
 40
0.6603379531972834
 40
1.0
 40
1.0
 40
1.0
 40
1.0
 10
255.8218204203412
 20
183.1186606679488
 30
0.0
 10
255.8218204203412
 20
185.2199549012385
 30
0.0
 10
255.8218204203412
 20
187.3212491345281
 30
0.0
 10
255.8218204203412
 20
189.4225433678178
 30
0.0
 10
255.8218204203412
 20
189.503391991671
 30
0.0
 10
255.8495399485194
 20
189.5703808514351
 30
0.0
 10
255.962728021914
 20
189.6835689248296
 30
0.0
 10
256.0297168816781
 20
189.7112884530078
 30
0.0
 10
256.1105655055312
 20
189.7112884530078
 30
0.0
 10
257.2693957807606
 20
189.7112884530078
 30
0.0
 10
258.42822605599
 20
189.7112884530078
 30
0.0
 10
259.5870563312193
 20
189.7112884530078
 30
0.0
  0
LINE
  5
395
330
379
100
AcDbEntity
  8
Default
  6
Continuous
 62
     7
100
AcDbLine
 10
257.5404311674
 20
183.1186606679
 30
0.0
 11
255.8218204203
 21
183.1186606679
 31
0.0
  0
LINE
  5
396
330
379
100
AcDbEntity
  8
Default
  6
Continuous
 62
     7
100
AcDbLine
 10
257.5404311674
 20
185.7035066706
 30
0.0
 11
257.5404311674
 21
183.1186606679
 31
0.0
  0
LINE
  5
397
330
379
100
AcDbEntity
  8
Default
  6
Continuous
 62
     7
100
AcDbLine
 10
259.4877280219
 20
185.7035066706
 30
0.0
 11
257.5404311674
 21
185.7035066706
 31
0.0
  0
LINE
  5
398
330
379
100
AcDbEntity
  8
Default
  6
Continuous
 62
     7
100
AcDbLine
 10
259.4877280219
 20
187.1610918606
 30
0.0
 11
259.4877280219
 21
185.7035066706
 31
0.0
  0
LINE
  5
399
330
379
100
AcDbEntity
  8
Default
  6
Continuous
 62
     7
100
AcDbLine
 10
257.5404311674
 20
187.1610918606
 30
0.0
 11
259.4877280219
 21
187.1610918606
 31
0.0
  0
LINE
  5
39A
330
379
100
AcDbEntity
  8
Default
  6
Continuous
 62
     7
100
AcDbLine
 10
257.5404311674
 20
188.260633145
 30
0.0
 11
257.5404311674
 21
187.1610918606
 31
0.0
  0
LINE
  5
39B
330
379
100
AcDbEntity
  8
Default
  6
Continuous
 62
     7
100
AcDbLine
 10
259.5870563312
 20
188.260633145
 30
0.0
 11
257.5404311674
 21
188.260633145
 31
0.0
  0
LINE
  5
39C
330
379
100
AcDbEntity
  8
Default
  6
Continuous
 62
     7
100
AcDbLine
 10
259.5870563312
 20
189.711288453
 30
0.0
 11
259.5870563312
 21
188.260633145
 31
0.0
  0
LINE
  5
39D
330
379
100
AcDbEntity
  8
Default
  6
Continuous
 62
     7
100
AcDbLine
 10
255.0710831988
 20
187.1610918606
 30
0.0
 11
255.0710831988
 21
185.7035066706
 31
0.0
  0
LINE
  5
39E
330
379
100
AcDbEntity
  8
Default
  6
Continuous
 62
     7
100
AcDbLine
 10
252.9366795291
 20
187.1610918606
 30
0.0
 11
255.0710831988
 21
187.1610918606
 31
0.0
  0
LINE
  5
39F
330
379
100
AcDbEntity
  8
Default
  6
Continuous
 62
     7
100
AcDbLine
 10
252.9366795291
 20
185.7035066706
 30
0.0
 11
252.9366795291
 21
187.1610918606
 31
0.0
  0
LINE
  5
3A0
330
379
100
AcDbEntity
  8
Default
  6
Continuous
 62
     7
100
AcDbLine
 10
255.0710831988
 20
185.7035066706
 30
0.0
 11
252.9366795291
 21
185.7035066706
 31
0.0
  0
SPLINE
  5
3A1
330
379
100
AcDbEntity
  8
Default
  6
Continuous
 62
     7
100
AcDbSpline
210
0.0
220
0.0
230
1.0
 70
    11
 71
     3
 72
    47
 73
    43
 74
     0
 42
0.0000000008494054
 43
0.0000000001
 12
1.0
 22
0.0
 32
0.0
 13
1.0
 23
0.0
 33
0.0
 40
0.0
 40
0.0
 40
0.0
 40
0.0
 40
0.0637917384076936
 40
0.0637917384076936
 40
0.0637917384076936
 40
0.1265834997779105
 40
0.1265834997779105
 40
0.1893752611481286
 40
0.1893752611481286
 40
0.1893752611481286
 40
0.2604081010642026
 40
0.2604081010642026
 40
0.3159741129340349
 40
0.3159741129340349
 40
0.3159741129340349
 40
0.3751091105868484
 40
0.3751091105868484
 40
0.3751091105868484
 40
0.435995169879425
 40
0.435995169879425
 40
0.435995169879425
 40
0.4997689343159713
 40
0.4997689343159713
 40
0.5635426987525196
 40
0.5635426987525196
 40
0.5635426987525196
 40
0.624232315369434
 40
0.624232315369434
 40
0.624232315369434
 40
0.6835869381889372
 40
0.6835869381889372
 40
0.6835869381889372
 40
0.7357943705008892
 40
0.7357943705008892
 40
0.8025337685079206
 40
0.8025337685079206
 40
0.8692731665149518
 40
0.8692731665149518
 40
0.9360125645219831
 40
0.9360125645219831
 40
0.9360125645219831
 40
1.0
 40
1.0
 40
1.0
 40
1.0
 10
248.4438060035654
 20
184.5693159759436
 30
0.0
 10
248.7025215998956
 20
184.5693159759436
 30
0.0
 10
248.9450674714552
 20
184.620135110937
 30
0.0
 10
249.1691336575627
 20
184.7194634202424
 30
0.0
 10
249.3951304192655
 20
184.8196475517189
 30
0.0
 10
249.5941664229625
 20
184.9550794097575
 30
0.0
 10
249.9314206824644
 20
185.3061934333486
 30
0.0
 10
250.0653984019926
 20
185.5140898946854
 30
0.0
 10
250.160106789935
 20
185.752015844882
 30
0.0
 10
250.2551311293749
 20
185.9907355268896
 30
0.0
 10
250.3056343128707
 20
186.2509673520904
 30
0.0
 10
250.3056343128707
 20
186.7614686627064
 30
0.0
 10
250.2571251385588
 20
186.9809149274508
 30
0.0
 10
250.160106789935
 20
187.1934313101507
 30
0.0
 10
250.0643595068875
 20
187.4031634539689
 30
0.0
 10
249.9314206824644
 20
187.5907445473721
 30
0.0
 10
249.7627935527134
 20
187.7547517557601
 30
0.0
 10
249.5953209577949
 20
187.9176360604069
 30
0.0
 10
249.3955098043517
 20
188.0458068016317
 30
0.0
 10
249.1691336575627
 20
188.140515189574
 30
0.0
 10
248.9439009259591
 20
188.2347452099388
 30
0.0
 10
248.7025215998956
 20
188.2860427125098
 30
0.0
 10
248.1850904072351
 20
188.2860427125098
 30
0.0
 10
247.9425445356754
 20
188.2375335381978
 30
0.0
 10
247.7161683888864
 20
188.140515189574
 30
0.0
 10
247.4925801256786
 20
188.0446916481992
 30
0.0
 10
247.2934455841682
 20
187.9164490034665
 30
0.0
 10
247.1248184544172
 20
187.7547517557601
 30
0.0
 10
246.9550373605366
 20
187.5919479671074
 30
0.0
 10
246.8222136051381
 20
187.403637732169
 30
0.0
 10
246.7228852958327
 20
187.1934313101507
 30
0.0
 10
246.622664698655
 20
186.9813365579839
 30
0.0
 10
246.5727378515339
 20
186.7614686627064
 30
0.0
 10
246.5727378515339
 20
186.2509673520904
 30
0.0
 10
246.6235569865273
 20
185.9899417950786
 30
0.0
 10
246.8222136051381
 20
185.5140898946854
 30
0.0
 10
246.9561913246663
 20
185.3061934333486
 30
0.0
 10
247.2934455841682
 20
184.9550794097575
 30
0.0
 10
247.492102202779
 20
184.8187917295478
 30
0.0
 10
247.7161683888864
 20
184.7194634202424
 30
0.0
 10
247.9421651505893
 20
184.6192792887659
 30
0.0
 10
248.1850904072351
 20
184.5693159759436
 30
0.0
 10
248.4438060035654
 20
184.5693159759436
 30
0.0
  0
SPLINE
  5
3A2
330
379
100
AcDbEntity
  8
Default
  6
Continuous
 62
     7
100
AcDbSpline
210
0.0
220
0.0
230
1.0
 70
    11
 71
     3
 72
    49
 73
    45
 74
     0
 42
0.0000000004385322
 43
0.0000000001
 12
1.0
 22
0.0
 32
0.0
 13
1.0
 23
0.0
 33
0.0
 40
0.0
 40
0.0
 40
0.0
 40
0.0
 40
0.0617996483207596
 40
0.0617996483207596
 40
0.0617996483207596
 40
0.1220737652654132
 40
0.1220737652654132
 40
0.1220737652654132
 40
0.1820249318660078
 40
0.1820249318660078
 40
0.1820249318660078
 40
0.2438982680995642
 40
0.2438982680995642
 40
0.3109516975991858
 40
0.3109516975991858
 40
0.3109516975991858
 40
0.3722543214771952
 40
0.3722543214771952
 40
0.3722543214771952
 40
0.4335172266527087
 40
0.4335172266527087
 40
0.4335172266527087
 40
0.4994898970728853
 40
0.4994898970728853
 40
0.5657506577569065
 40
0.5657506577569065
 40
0.5657506577569065
 40
0.626961718898901
 40
0.626961718898901
 40
0.6886100019061948
 40
0.6886100019061948
 40
0.6886100019061948
 40
0.7556907268882871
 40
0.7556907268882871
 40
0.8175892499404324
 40
0.8175892499404324
 40
0.8175892499404324
 40
0.8774725210786118
 40
0.8774725210786118
 40
0.8774725210786118
 40
0.9379094648157675
 40
0.9379094648157675
 40
0.9379094648157675
 40
1.0
 40
1.0
 40
1.0
 40
1.0
 10
248.4438060035654
 20
189.9492144032044
 30
0.0
 10
248.9196356399268
 20
189.9515130970999
 30
0.0
 10
249.3770301188996
 20
189.8637458579882
 30
0.0
 10
249.8136126877069
 20
189.6997386496002
 30
0.0
 10
250.2509557040483
 20
189.5354457704455
 30
0.0
 10
250.6382686510096
 20
189.3001154516972
 30
0.0
 10
250.9755229105116
 20
188.997510602418
 30
0.0
 10
251.3129086463213
 20
188.694787784671
 30
0.0
 10
251.585352530433
 20
188.3368618475032
 30
0.0
 10
251.7863191097253
 20
187.918758964148
 30
0.0
 10
251.9868172819147
 20
187.5016305829262
 30
0.0
 10
252.0889239590044
 20
187.0455938265333
 30
0.0
 10
252.0889239590044
 20
186.0107314412123
 30
0.0
 10
251.9988354924251
 20
185.52101977673
 30
0.0
 10
251.816348598585
 20
185.0775073258781
 30
0.0
 10
251.6330488643873
 20
184.6320193642835
 30
0.0
 10
251.3820759904592
 20
184.2482314412123
 30
0.0
 10
251.0609914557278
 20
183.9225269851179
 30
0.0
 10
250.7410617834882
 20
183.5979940082417
 30
0.0
 10
250.3564534478642
 20
183.3473467754193
 30
0.0
 10
249.9083210756492
 20
183.1671698422608
 30
0.0
 10
249.4629767181928
 20
182.9881138634896
 30
0.0
 10
248.9727869996335
 20
182.8992144032044
 30
0.0
 10
247.9125150468157
 20
182.8992144032044
 30
0.0
 10
247.4251133430149
 20
182.9893028697837
 30
0.0
 10
246.9792909314815
 20
183.1671698422608
 30
0.0
 10
246.530680710158
 20
183.3461490497318
 30
0.0
 10
246.1453951254526
 20
183.5991324897051
 30
0.0
 10
245.4962961739454
 20
184.2482314412123
 30
0.0
 10
245.2445104596597
 20
184.6316849143446
 30
0.0
 10
245.0620235658196
 20
185.0775073258781
 30
0.0
 10
244.8803465126443
 20
185.521351265914
 30
0.0
 10
244.7871382447187
 20
186.0107314412123
 30
0.0
 10
244.7871382447187
 20
187.0455938265333
 30
0.0
 10
244.8887765147056
 20
187.5029660414744
 30
0.0
 10
245.0920530546794
 20
187.918758964148
 30
0.0
 10
245.2957954536029
 20
188.335504780128
 30
0.0
 10
245.5632850337095
 20
188.6972157138204
 30
0.0
 10
245.9005392932115
 20
188.997510602418
 30
0.0
 10
246.2389407961124
 20
189.2988270091107
 30
0.0
 10
246.6281769078904
 20
189.5334214805307
 30
0.0
 10
247.0670694373792
 20
189.6997386496002
 30
0.0
 10
247.5072164315149
 20
189.8665311947464
 30
0.0
 10
247.9656441424906
 20
189.9469044425229
 30
0.0
 10
248.4438060035654
 20
189.9492144032044
 30
0.0
  0
LINE
  5
3A3
330
379
100
AcDbEntity
  8
Default
  6
Continuous
 62
     7
100
AcDbLine
 10
242.3339600009
 20
185.4332412708
 30
0.0
 11
240.8347955186
 21
185.4332412708
 31
0.0
  0
SPLINE
  5
3A4
330
379
100
AcDbEntity
  8
Default
  6
Continuous
 62
     7
100
AcDbSpline
210
0.0
220
0.0
230
1.0
 70
     8
 71
     3
 72
    43
 73
    39
 74
     0
 42
0.0000000009932047
 43
0.0000000001
 12
1.0
 22
0.0
 32
0.0
 13
1.0
 23
0.0
 33
0.0
 40
0.0
 40
0.0
 40
0.0
 40
0.0
 40
0.0949373847537602
 40
0.0949373847537602
 40
0.0949373847537602
 40
0.1911787086491429
 40
0.1911787086491429
 40
0.2677918678027036
 40
0.2677918678027036
 40
0.2677918678027036
 40
0.3406026976746725
 40
0.3406026976746725
 40
0.3406026976746725
 40
0.4151543081273698
 40
0.4151543081273698
 40
0.4151543081273698
 40
0.4895478942304584
 40
0.4895478942304584
 40
0.5659890102262922
 40
0.5659890102262922
 40
0.6424301262221261
 40
0.6424301262221261
 40
0.6424301262221261
 40
0.714798401889747
 40
0.714798401889747
 40
0.714798401889747
 40
0.7953127750919691
 40
0.7953127750919691
 40
0.8472575319966263
 40
0.8472575319966263
 40
0.8472575319966263
 40
0.898191982468852
 40
0.898191982468852
 40
0.898191982468852
 40
0.9471592991231073
 40
0.9471592991231073
 40
0.9471592991231073
 40
1.0
 40
1.0
 40
1.0
 40
1.0
 10
242.2554213377724
 20
187.3782281646723
 30
0.0
 10
242.1353033823333
 20
187.6970027387221
 30
0.0
 10
241.9551264491748
 20
187.9510984136893
 30
0.0
 10
241.7148905382967
 20
188.1428251502555
 30
0.0
 10
241.4721172585773
 20
188.3365769023392
 30
0.0
 10
241.1766696995024
 20
188.4315702354455
 30
0.0
 10
240.5460504334474
 20
188.4315702354455
 30
0.0
 10
240.3011946012062
 20
188.371511257726
 30
0.0
 10
240.0840582971433
 20
188.2490833416055
 30
0.0
 10
239.8686747464151
 20
188.1276436800246
 30
0.0
 10
239.6913649812849
 20
187.9649581777784
 30
0.0
 10
239.5481474190306
 20
187.7663015591677
 30
0.0
 10
239.4057198468884
 20
187.5687407332931
 30
0.0
 10
239.2986716654264
 20
187.345888715131
 30
0.0
 10
239.2270628842993
 20
187.0987229222083
 30
0.0
 10
239.1546578089098
 20
186.848808629735
 30
0.0
 10
239.1161847715863
 20
186.5997714149999
 30
0.0
 10
239.1161847715863
 20
186.089270104384
 30
0.0
 10
239.1554541031722
 20
185.8397943507798
 30
0.0
 10
239.3079115081525
 20
185.3500826862975
 30
0.0
 10
239.4187896208655
 20
185.1283264608715
 30
0.0
 10
239.5643171438012
 20
184.9342897636238
 30
0.0
 10
239.7109534478642
 20
184.7387746915399
 30
0.0
 10
239.8900215998956
 20
184.5808657793512
 30
0.0
 10
240.104847943277
 20
184.4630577845936
 30
0.0
 10
240.3206481660817
 20
184.3447157269266
 30
0.0
 10
240.5691500402626
 20
184.2851908121166
 30
0.0
 10
241.0403820192927
 20
184.2851908121166
 30
0.0
 10
241.2182489917698
 20
184.3082904189318
 30
0.0
 10
241.3914960428838
 20
184.3591095539252
 30
0.0
 10
241.5619922405099
 20
184.4091217718955
 30
0.0
 10
241.7148905382967
 20
184.4815374700458
 30
0.0
 10
241.8488682578248
 20
184.5762458579881
 30
0.0
 10
241.9813056983178
 20
184.6698654279918
 30
0.0
 10
242.089104168703
 20
184.7910722013695
 30
0.0
 10
242.1768826746007
 20
184.9342897636238
 30
0.0
 10
242.2630012238817
 20
185.0747989756085
 30
0.0
 10
242.315480315492
 20
185.241514534266
 30
0.0
 10
242.3339600009441
 20
185.4332412708322
 30
0.0
  0
LINE
  5
3A5
330
379
100
AcDbEntity
  8
Default
  6
Continuous
 62
     7
100
AcDbLine
 10
243.8839436182
 20
188.0642864871
 30
0.0
 11
242.2554213378
 21
187.3782281647
 31
0.0
  0
SPLINE
  5
3A6
330
379
100
AcDbEntity
  8
Default
  6
Continuous
 62
     7
100
AcDbSpline
210
0.0
220
0.0
230
1.0
 70
     8
 71
     3
 72
    51
 73
    47
 74
     0
 42
0.0000000004766382
 43
0.0000000001
 12
1.0
 22
0.0
 32
0.0
 13
1.0
 23
0.0
 33
0.0
 40
0.0
 40
0.0
 40
0.0
 40
0.0
 40
0.0095402040290222
 40
0.0095402040290222
 40
0.0095402040290222
 40
0.0400756007423482
 40
0.0400756007423482
 40
0.0400756007423482
 40
0.0693620114069116
 40
0.0693620114069116
 40
0.0986484220714753
 40
0.0986484220714753
 40
0.0986484220714753
 40
0.1302632519246672
 40
0.1302632519246672
 40
0.1302632519246672
 40
0.2055179711079718
 40
0.2055179711079718
 40
0.2055179711079718
 40
0.281182745691462
 40
0.281182745691462
 40
0.3511962093102096
 40
0.3511962093102096
 40
0.3511962093102096
 40
0.4149417185613706
 40
0.4149417185613706
 40
0.4149417185613706
 40
0.4786592191897758
 40
0.4786592191897758
 40
0.4786592191897758
 40
0.5478830793697405
 40
0.5478830793697405
 40
0.6199007276287178
 40
0.6199007276287178
 40
0.6199007276287178
 40
0.6846819262147057
 40
0.6846819262147057
 40
0.6846819262147057
 40
0.7494892886116509
 40
0.7494892886116509
 40
0.7494892886116509
 40
0.8193637744922013
 40
0.8193637744922013
 40
0.9096818872461009
 40
0.9096818872461009
 40
1.0
 40
1.0
 40
1.0
 40
1.0
 10
244.1426592145745
 20
186.777638387477
 30
0.0
 10
244.1426592145745
 20
186.7114195146068
 30
0.0
 10
244.1426592145745
 20
186.6452006417365
 30
0.0
 10
244.1426592145745
 20
186.5789817688662
 30
0.0
 10
244.1426592145745
 20
186.3618454648034
 30
0.0
 10
244.1287994504854
 20
186.1493290821035
 30
0.0
 10
244.1172496470778
 20
185.9437425814482
 30
0.0
 10
244.1057071113542
 20
185.738285445568
 30
0.0
 10
244.0849101975365
 20
185.5371895015006
 30
0.0
 10
244.0109914557279
 20
185.1398762642791
 30
0.0
 10
243.9578623600529
 20
184.9435296063499
 30
0.0
 10
243.8839436182442
 20
184.7518028697837
 30
0.0
 10
243.8103238022207
 20
184.5608514719727
 30
0.0
 10
243.7060766457672
 20
184.3683493966513
 30
0.0
 10
243.567479004876
 20
184.1766226600851
 30
0.0
 10
243.2385391943749
 20
183.7215892555586
 30
0.0
 10
242.8467712722416
 20
183.3866161070052
 30
0.0
 10
242.3801592145745
 20
183.1833395670314
 30
0.0
 10
241.9127013576763
 20
182.9796945600658
 30
0.0
 10
241.4007358856099
 20
182.8761147963892
 30
0.0
 10
240.3289141293845
 20
182.8761147963892
 30
0.0
 10
239.8530622289913
 20
182.9592733809239
 30
0.0
 10
239.4187896208655
 20
183.1279005106749
 30
0.0
 10
238.9865243210358
 20
183.2957482068854
 30
0.0
 10
238.6149233036964
 20
183.5344535906225
 30
0.0
 10
238.3076985330542
 20
183.8370584399017
 30
0.0
 10
237.9993189146371
 20
184.1408007708237
 30
0.0
 10
237.7625478122154
 20
184.5092569982241
 30
0.0
 10
237.5893007611014
 20
184.9412196456684
 30
0.0
 10
237.4171718734448
 20
185.3703943388921
 30
0.0
 10
237.3328951254526
 20
185.8444142721428
 30
0.0
 10
237.3328951254526
 20
186.8954463822346
 30
0.0
 10
237.4183636706689
 20
187.3828480860353
 30
0.0
 10
237.5893007611014
 20
187.8194306548426
 30
0.0
 10
237.760544896821
 20
188.2567974339103
 30
0.0
 10
238.005093683775
 20
188.6302268540563
 30
0.0
 10
238.3192483364618
 20
188.9420715460616
 30
0.0
 10
238.6322480402607
 20
189.2527697814501
 30
0.0
 10
239.0099265802364
 20
189.4918421882634
 30
0.0
 10
239.4488191097252
 20
189.6627792786959
 30
0.0
 10
239.8889361806183
 20
189.8341932957806
 30
0.0
 10
240.3751133430149
 20
189.9145649929816
 30
0.0
 10
241.587842700813
 20
189.9145649929816
 30
0.0
 10
242.1815025959638
 20
189.7621075880012
 30
0.0
 10
243.2025052171957
 20
189.1522779680799
 30
0.0
 10
243.5998184544173
 20
188.6879758710943
 30
0.0
 10
243.8839436182442
 20
188.0642864870838
 30
0.0
  0
LINE
  5
3A7
330
379
100
AcDbEntity
  8
Default
  6
Continuous
 62
     7
100
AcDbLine
 10
240.8347955186
 20
186.7776383875
 30
0.0
 11
244.1426592146
 21
186.7776383875
 31
0.0
  0
LINE
  5
3A8
330
379
100
AcDbEntity
  8
Default
  6
Continuous
 62
     7
100
AcDbLine
 10
240.8347955186
 20
185.4332412708
 30
0.0
 11
240.8347955186
 21
186.7776383875
 31
0.0
  0
SPLINE
  5
3A9
330
379
100
AcDbEntity
  8
Default
  6
Continuous
 62
     7
100
AcDbSpline
210
0.0
220
0.0
230
1.0
 70
     8
 71
     3
 72
    16
 73
    12
 74
     0
 42
0.000000000976763
 43
0.0000000001
 12
1.0
 22
0.0
 32
0.0
 13
1.0
 23
0.0
 33
0.0
 40
0.0
 40
0.0
 40
0.0
 40
0.0
 40
0.6164577788718584
 40
0.6164577788718584
 40
0.6164577788718584
 40
0.6381328433885463
 40
0.6381328433885463
 40
0.6607110355934293
 40
0.6607110355934293
 40
0.6607110355934293
 40
1.0
 40
1.0
 40
1.0
 40
1.0
 10
233.0225084937357
 20
183.1186606679488
 30
0.0
 10
233.0225084937357
 20
185.2199549012385
 30
0.0
 10
233.0225084937357
 20
187.3212491345281
 30
0.0
 10
233.0225084937357
 20
189.4225433678178
 30
0.0
 10
233.0225084937357
 20
189.503391991671
 30
0.0
 10
233.050228021914
 20
189.5703808514351
 30
0.0
 10
233.1634160953085
 20
189.6835689248296
 30
0.0
 10
233.2304049550725
 20
189.7112884530078
 30
0.0
 10
233.3089436182443
 20
189.7112884530078
 30
0.0
 10
234.4654639327921
 20
189.7112884530078
 30
0.0
 10
235.6219842473399
 20
189.7112884530078
 30
0.0
 10
236.7785045618878
 20
189.7112884530078
 30
0.0
  0
LINE
  5
3AA
330
379
100
AcDbEntity
  8
Default
  6
Continuous
 62
     7
100
AcDbLine
 10
236.7785045619
 20
183.1186606679
 30
0.0
 11
233.0225084937
 21
183.1186606679
 31
0.0
  0
LINE
  5
3AB
330
379
100
AcDbEntity
  8
Default
  6
Continuous
 62
     7
100
AcDbLine
 10
236.7785045619
 20
184.5693159759
 30
0.0
 11
236.7785045619
 21
183.1186606679
 31
0.0
  0
LINE
  5
3AC
330
379
100
AcDbEntity
  8
Default
  6
Continuous
 62
     7
100
AcDbLine
 10
234.7318793981
 20
184.5693159759
 30
0.0
 11
236.7785045619
 21
184.5693159759
 31
0.0
  0
LINE
  5
3AD
330
379
100
AcDbEntity
  8
Default
  6
Continuous
 62
     7
100
AcDbLine
 10
234.7318793981
 20
185.7035066706
 30
0.0
 11
234.7318793981
 21
184.5693159759
 31
0.0
  0
LINE
  5
3AE
330
379
100
AcDbEntity
  8
Default
  6
Continuous
 62
     7
100
AcDbLine
 10
236.6791762526
 20
185.7035066706
 30
0.0
 11
234.7318793981
 21
185.7035066706
 31
0.0
  0
LINE
  5
3AF
330
379
100
AcDbEntity
  8
Default
  6
Continuous
 62
     7
100
AcDbLine
 10
236.6791762526
 20
187.1610918606
 30
0.0
 11
236.6791762526
 21
185.7035066706
 31
0.0
  0
LINE
  5
3B0
330
379
100
AcDbEntity
  8
Default
  6
Continuous
 62
     7
100
AcDbLine
 10
234.7318793981
 20
187.1610918606
 30
0.0
 11
236.6791762526
 21
187.1610918606
 31
0.0
  0
LINE
  5
3B1
330
379
100
AcDbEntity
  8
Default
  6
Continuous
 62
     7
100
AcDbLine
 10
234.7318793981
 20
188.260633145
 30
0.0
 11
234.7318793981
 21
187.1610918606
 31
0.0
  0
LINE
  5
3B2
330
379
100
AcDbEntity
  8
Default
  6
Continuous
 62
     7
100
AcDbLine
 10
236.7785045619
 20
188.260633145
 30
0.0
 11
234.7318793981
 21
188.260633145
 31
0.0
  0
LINE
  5
3B3
330
379
100
AcDbEntity
  8
Default
  6
Continuous
 62
     7
100
AcDbLine
 10
236.7785045619
 20
189.711288453
 30
0.0
 11
236.7785045619
 21
188.260633145
 31
0.0
  0
LINE
  5
3B4
330
379
100
AcDbEntity
  8
Default
  6
Continuous
 62
     7
100
AcDbLine
 10
228.7098119013
 20
188.3992307859
 30
0.0
 11
228.7098119013
 21
186.7499188593
 31
0.0
  0
LINE
  5
3B5
330
379
100
AcDbEntity
  8
Default
  6
Continuous
 62
     7
100
AcDbLine
 10
228.7098119013
 20
186.7499188593
 30
0.0
 11
228.8807489918
 21
186.7499188593
 31
0.0
  0
SPLINE
  5
3B6
330
379
100
AcDbEntity
  8
Default
  6
Continuous
 62
     7
100
AcDbSpline
210
0.0
220
0.0
230
1.0
 70
     8
 71
     3
 72
    29
 73
    25
 74
     0
 42
0.0000000028633018
 43
0.0000000001
 12
1.0
 22
0.0
 32
0.0
 13
1.0
 23
0.0
 33
0.0
 40
0.0
 40
0.0
 40
0.0
 40
0.0
 40
0.1203556671631279
 40
0.1203556671631279
 40
0.1203556671631279
 40
0.2363519504887718
 40
0.2363519504887718
 40
0.2363519504887718
 40
0.3551316836966588
 40
0.3551316836966588
 40
0.4739114169045465
 40
0.4739114169045465
 40
0.5942337440501996
 40
0.5942337440501996
 40
0.7145560711958533
 40
0.7145560711958533
 40
0.7145560711958533
 40
0.8303426976884648
 40
0.8303426976884648
 40
0.8303426976884648
 40
0.9506957818555967
 40
0.9506957818555967
 40
0.9506957818555967
 40
1.0
 40
1.0
 40
1.0
 40
1.0
 10
228.8807489917698
 20
186.7499188592988
 30
0.0
 10
229.019346632661
 20
186.7499188592988
 30
0.0
 10
229.1579442735522
 20
186.7591587020248
 30
0.0
 10
229.2965419144435
 20
186.7799483481585
 30
0.0
 10
229.4373986855855
 20
186.8010768638298
 30
0.0
 10
229.5644973534998
 20
186.8376973651965
 30
0.0
 10
229.6799953875758
 20
186.8954463822346
 30
0.0
 10
229.7964174059245
 20
186.9536573914089
 30
0.0
 10
229.8902018095942
 20
187.0340440231258
 30
0.0
 10
230.0287994504854
 20
187.2511803271887
 30
0.0
 10
230.0634488607082
 20
187.3967078501244
 30
0.0
 10
230.0634488607082
 20
187.7547517557601
 30
0.0
 10
230.0287994504854
 20
187.8979693180144
 30
0.0
 10
229.8902018095942
 20
188.1151056220773
 30
0.0
 10
229.7978033823333
 20
188.198264206612
 30
0.0
 10
229.6799953875758
 20
188.25601322365
 30
0.0
 10
229.5649627826514
 20
188.3124017554757
 30
0.0
 10
229.4374495160162
 20
188.3484116509108
 30
0.0
 10
229.2965419144435
 20
188.3692012970445
 30
0.0
 10
229.1578950608181
 20
188.3896573902023
 30
0.0
 10
229.019346632661
 20
188.3992307859043
 30
0.0
 10
228.8807489917698
 20
188.3992307859043
 30
0.0
 10
228.8237699616256
 20
188.3992307859043
 30
0.0
 10
228.7667909314815
 20
188.3992307859043
 30
0.0
 10
228.7098119013373
 20
188.3992307859043
 30
0.0
  0
LINE
  5
3B7
330
379
100
AcDbEntity
  8
Default
  6
Continuous
 62
     7
100
AcDbLine
 10
228.7098119013
 20
183.1186606679
 30
0.0
 11
227.000440997
 21
183.1186606679
 31
0.0
  0
LINE
  5
3B8
330
379
100
AcDbEntity
  8
Default
  6
Continuous
 62
     7
100
AcDbLine
 10
228.7098119013
 20
185.6526875356
 30
0.0
 11
228.7098119013
 21
183.1186606679
 31
0.0
  0
LINE
  5
3B9
330
379
100
AcDbEntity
  8
Default
  6
Continuous
 62
     7
100
AcDbLine
 10
230.3406441425
 20
183.1186606679
 30
0.0
 11
228.7098119013
 21
185.6526875356
 31
0.0
  0
LINE
  5
3BA
330
379
100
AcDbEntity
  8
Default
  6
Continuous
 62
     7
100
AcDbLine
 10
232.4773577729
 20
183.1186606679
 30
0.0
 11
230.3406441425
 21
183.1186606679
 31
0.0
  0
LINE
  5
3BB
330
379
100
AcDbEntity
  8
Default
  6
Continuous
 62
     7
100
AcDbLine
 10
230.4007031202
 20
185.8190047046
 30
0.0
 11
232.4773577729
 21
183.1186606679
 31
0.0
  0
SPLINE
  5
3BC
330
379
100
AcDbEntity
  8
Default
  6
Continuous
 62
     7
100
AcDbSpline
210
0.0
220
0.0
230
1.0
 70
     8
 71
     3
 72
    39
 73
    35
 74
     0
 42
0.0000000006617465
 43
0.0000000001
 12
1.0
 22
0.0
 32
0.0
 13
1.0
 23
0.0
 33
0.0
 40
0.0
 40
0.0
 40
0.0
 40
0.0
 40
0.4184837171182216
 40
0.4184837171182216
 40
0.4184837171182216
 40
0.4329116956232541
 40
0.4329116956232541
 40
0.447940839899329
 40
0.447940839899329
 40
0.447940839899329
 40
0.5989875461512338
 40
0.5989875461512338
 40
0.5989875461512338
 40
0.65983019696195
 40
0.65983019696195
 40
0.65983019696195
 40
0.7141636694202442
 40
0.7141636694202442
 40
0.7141636694202442
 40
0.7672492360561214
 40
0.7672492360561214
 40
0.7672492360561214
 40
0.8311842098663922
 40
0.8311842098663922
 40
0.8732466926363075
 40
0.8732466926363075
 40
0.8732466926363075
 40
0.9147241024096695
 40
0.9147241024096695
 40
0.9147241024096695
 40
0.9560702513872078
 40
0.9560702513872078
 40
0.9560702513872078
 40
1.0
 40
1.0
 40
1.0
 40
1.0
 10
227.0004409970123
 20
183.1186606679488
 30
0.0
 10
227.0004409970123
 20
185.2199549012385
 30
0.0
 10
227.0004409970123
 20
187.3212491345281
 30
0.0
 10
227.0004409970123
 20
189.4225433678178
 30
0.0
 10
227.0004409970123
 20
189.503391991671
 30
0.0
 10
227.0281605251905
 20
189.5703808514351
 30
0.0
 10
227.141348598585
 20
189.6835689248296
 30
0.0
 10
227.2060274976676
 20
189.7112884530078
 30
0.0
 10
227.2776362787947
 20
189.7112884530078
 30
0.0
 10
228.0360733692272
 20
189.7112884530078
 30
0.0
 10
228.7945104596597
 20
189.7112884530078
 30
0.0
 10
229.5529475500922
 20
189.7112884530078
 30
0.0
 10
229.8786520061866
 20
189.7112884530078
 30
0.0
 10
230.1812568554658
 20
189.672019121422
 30
0.0
 10
230.4584521372482
 20
189.5911704975687
 30
0.0
 10
230.7371553613635
 20
189.5098820572018
 30
0.0
 10
230.9781932905902
 20
189.3902039182765
 30
0.0
 10
231.1837797912455
 20
189.223886749207
 30
0.0
 10
231.3882367819392
 20
189.0584833410054
 30
0.0
 10
231.5510635396073
 20
188.8496731188007
 30
0.0
 10
231.6665615736833
 20
188.5955774438335
 30
0.0
 10
231.782929798427
 20
188.3395673493973
 30
0.0
 10
231.8398086247973
 20
188.0365669589056
 30
0.0
 10
231.8398086247973
 20
187.4544568671624
 30
0.0
 10
231.8097791359376
 20
187.235010602418
 30
0.0
 10
231.745100236855
 20
187.0317340624443
 30
0.0
 10
231.679966279852
 20
186.827027340435
 30
0.0
 10
231.5903328711931
 20
186.6390407465858
 30
0.0
 10
231.4679049550726
 20
186.4750335381978
 30
0.0
 10
231.3443697291374
 20
186.3095429525111
 30
0.0
 10
231.1953295946532
 20
186.1678087675556
 30
0.0
 10
231.0151526614946
 20
186.0523107334796
 30
0.0
 10
230.8366129371881
 20
185.9378621922575
 30
0.0
 10
230.6316991883622
 20
185.8582740362319
 30
0.0
 10
230.4007031202102
 20
185.8190047046461
 30
0.0
  0
HATCH
  5
3BD
330
379
100
AcDbEntity
  8
Default
  6
Continuous
 62
     7
100
AcDbHatch
 10
0.0
 20
0.0
 30
0.0
210
0.0
220
0.0
230
1.0
  2
SOLID
 70
     1
 71
     0
 91
        2
 92
        1
 93
        6
 72
     4
 94
        3
 73
     0
 74
     0
 95
       39
 96
       35
 40
0.0
 40
0.0
 40
0.0
 40
0.0
 40
0.0439297486127922
 40
0.0439297486127922
 40
0.0439297486127922
 40
0.0852758975903305
 40
0.0852758975903305
 40
0.0852758975903305
 40
0.1267533073636925
 40
0.1267533073636925
 40
0.1267533073636925
 40
0.1688157901336078
 40
0.1688157901336078
 40
0.2327507639438786
 40
0.2327507639438786
 40
0.2327507639438786
 40
0.2858363305797558
 40
0.2858363305797558
 40
0.2858363305797558
 40
0.34016980303805
 40
0.34016980303805
 40
0.34016980303805
 40
0.4010124538487662
 40
0.4010124538487662
 40
0.4010124538487662
 40
0.552059160100671
 40
0.552059160100671
 40
0.552059160100671
 40
0.5670883043767458
 40
0.5670883043767458
 40
0.5815162828817784
 40
0.5815162828817784
 40
0.5815162828817784
 40
1.0
 40
1.0
 40
1.0
 40
1.0
 10
230.4007031202102
 20
185.8190047046461
 10
230.6316991883622
 20
185.8582740362319
 10
230.8366129371881
 20
185.9378621922575
 10
231.0151526614946
 20
186.0523107334796
 10
231.1953295946532
 20
186.1678087675556
 10
231.3443697291374
 20
186.3095429525111
 10
231.4679049550726
 20
186.4750335381978
 10
231.5903328711931
 20
186.6390407465858
 10
231.679966279852
 20
186.827027340435
 10
231.745100236855
 20
187.0317340624443
 10
231.8097791359376
 20
187.235010602418
 10
231.8398086247973
 20
187.4544568671624
 10
231.8398086247973
 20
188.0365669589056
 10
231.782929798427
 20
188.3395673493973
 10
231.6665615736833
 20
188.5955774438335
 10
231.5510635396073
 20
188.8496731188007
 10
231.3882367819392
 20
189.0584833410054
 10
231.1837797912455
 20
189.223886749207
 10
230.9781932905902
 20
189.3902039182765
 10
230.7371553613635
 20
189.5098820572018
 10
230.4584521372482
 20
189.5911704975687
 10
230.1812568554658
 20
189.672019121422
 10
229.8786520061866
 20
189.7112884530078
 10
229.5529475500922
 20
189.7112884530078
 10
228.7945104596597
 20
189.7112884530078
 10
228.0360733692272
 20
189.7112884530078
 10
227.2776362787947
 20
189.7112884530078
 10
227.2060274976676
 20
189.7112884530078
 10
227.141348598585
 20
189.6835689248296
 10
227.0281605251905
 20
189.5703808514351
 10
227.0004409970123
 20
189.503391991671
 10
227.0004409970123
 20
189.4225433678178
 10
227.0004409970123
 20
187.3212491345281
 10
227.0004409970123
 20
185.2199549012385
 10
227.0004409970123
 20
183.1186606679488
 72
     1
 10
227.0004409970123
 20
183.1186606679488
 11
228.7098119013373
 21
183.1186606679488
 72
     1
 10
228.7098119013373
 20
183.1186606679488
 11
228.7098119013373
 21
185.6526875355766
 72
     1
 10
228.7098119013373
 20
185.6526875355766
 11
230.3406441424906
 21
183.1186606679488
 72
     1
 10
230.3406441424906
 20
183.1186606679488
 11
232.4773577728969
 21
183.1186606679488
 72
     1
 10
232.4773577728969
 20
183.1186606679488
 11
230.4007031202102
 21
185.8190047046461
 97
        0
 92
        1
 93
        3
 72
     1
 10
228.7098119013373
 20
188.3992307859043
 11
228.7098119013373
 21
186.7499188592988
 72
     1
 10
228.7098119013373
 20
186.7499188592988
 11
228.8807489917698
 21
186.7499188592988
 72
     4
 94
        3
 73
     0
 74
     0
 95
       29
 96
       25
 40
0.0
 40
0.0
 40
0.0
 40
0.0
 40
0.120355667163128
 40
0.120355667163128
 40
0.120355667163128
 40
0.2363519504887718
 40
0.2363519504887718
 40
0.2363519504887718
 40
0.3551316836966587
 40
0.3551316836966587
 40
0.4739114169045465
 40
0.4739114169045465
 40
0.5942337440501996
 40
0.5942337440501996
 40
0.7145560711958533
 40
0.7145560711958533
 40
0.7145560711958533
 40
0.8303426976884648
 40
0.8303426976884648
 40
0.8303426976884648
 40
0.9506957818555967
 40
0.9506957818555967
 40
0.9506957818555967
 40
1.0
 40
1.0
 40
1.0
 40
1.0
 10
228.8807489917698
 20
186.7499188592988
 10
229.019346632661
 20
186.7499188592988
 10
229.1579442735522
 20
186.7591587020248
 10
229.2965419144435
 20
186.7799483481585
 10
229.4373986855855
 20
186.8010768638298
 10
229.5644973534998
 20
186.8376973651965
 10
229.6799953875758
 20
186.8954463822346
 10
229.7964174059245
 20
186.9536573914089
 10
229.8902018095942
 20
187.0340440231258
 10
230.0287994504854
 20
187.2511803271887
 10
230.0634488607082
 20
187.3967078501244
 10
230.0634488607082
 20
187.7547517557601
 10
230.0287994504854
 20
187.8979693180144
 10
229.8902018095942
 20
188.1151056220773
 10
229.7978033823333
 20
188.198264206612
 10
229.6799953875758
 20
188.25601322365
 10
229.5649627826514
 20
188.3124017554757
 10
229.4374495160162
 20
188.3484116509108
 10
229.2965419144435
 20
188.3692012970445
 10
229.1578950608181
 20
188.3896573902023
 10
229.019346632661
 20
188.3992307859043
 10
228.8807489917698
 20
188.3992307859043
 10
228.8237699616256
 20
188.3992307859043
 10
228.7667909314815
 20
188.3992307859043
 10
228.7098119013373
 20
188.3992307859043
 97
        0
 75
     0
 76
     1
 98
        0
  0
HATCH
  5
3BE
330
379
100
AcDbEntity
  8
Default
  6
Continuous
 62
     7
100
AcDbHatch
 10
0.0
 20
0.0
 30
0.0
210
0.0
220
0.0
230
1.0
  2
SOLID
 70
     1
 71
     0
 91
        1
 92
        1
 93
       11
 72
     4
 94
        3
 73
     0
 74
     0
 95
       16
 96
       12
 40
0.0
 40
0.0
 40
0.0
 40
0.0
 40
0.3392889644065707
 40
0.3392889644065707
 40
0.3392889644065707
 40
0.3618671566114537
 40
0.3618671566114537
 40
0.3835422211281416
 40
0.3835422211281416
 40
0.3835422211281416
 40
1.0
 40
1.0
 40
1.0
 40
1.0
 10
236.7785045618878
 20
189.7112884530078
 10
235.6219842473399
 20
189.7112884530078
 10
234.4654639327921
 20
189.7112884530078
 10
233.3089436182443
 20
189.7112884530078
 10
233.2304049550725
 20
189.7112884530078
 10
233.1634160953085
 20
189.6835689248296
 10
233.050228021914
 20
189.5703808514351
 10
233.0225084937357
 20
189.503391991671
 10
233.0225084937357
 20
189.4225433678178
 10
233.0225084937357
 20
187.3212491345281
 10
233.0225084937357
 20
185.2199549012385
 10
233.0225084937357
 20
183.1186606679488
 72
     1
 10
233.0225084937357
 20
183.1186606679488
 11
236.7785045618878
 21
183.1186606679488
 72
     1
 10
236.7785045618878
 20
183.1186606679488
 11
236.7785045618878
 21
184.5693159759436
 72
     1
 10
236.7785045618878
 20
184.5693159759436
 11
234.7318793980608
 21
184.5693159759436
 72
     1
 10
234.7318793980608
 20
184.5693159759436
 11
234.7318793980608
 21
185.7035066705701
 72
     1
 10
234.7318793980608
 20
185.7035066705701
 11
236.6791762525824
 21
185.7035066705701
 72
     1
 10
236.6791762525824
 20
185.7035066705701
 11
236.6791762525824
 21
187.1610918606094
 72
     1
 10
236.6791762525824
 20
187.1610918606094
 11
234.7318793980608
 21
187.1610918606094
 72
     1
 10
234.7318793980608
 20
187.1610918606094
 11
234.7318793980608
 21
188.260633145013
 72
     1
 10
234.7318793980608
 20
188.260633145013
 11
236.7785045618878
 21
188.260633145013
 72
     1
 10
236.7785045618878
 20
188.260633145013
 11
236.7785045618878
 21
189.7112884530078
 97
        0
 75
     0
 76
     1
 98
        0
  0
HATCH
  5
3BF
330
379
100
AcDbEntity
  8
Default
  6
Continuous
 62
     7
100
AcDbHatch
 10
0.0
 20
0.0
 30
0.0
210
0.0
220
0.0
230
1.0
  2
SOLID
 70
     1
 71
     0
 91
        1
 92
        1
 93
        6
 72
     4
 94
        3
 73
     0
 74
     0
 95
       51
 96
       47
 40
0.0
 40
0.0
 40
0.0
 40
0.0
 40
0.0903181127538991
 40
0.0903181127538991
 40
0.1806362255077987
 40
0.1806362255077987
 40
0.2505107113883491
 40
0.2505107113883491
 40
0.2505107113883491
 40
0.3153180737852943
 40
0.3153180737852943
 40
0.3153180737852943
 40
0.3800992723712822
 40
0.3800992723712822
 40
0.3800992723712822
 40
0.4521169206302595
 40
0.4521169206302595
 40
0.5213407808102242
 40
0.5213407808102242
 40
0.5213407808102242
 40
0.5850582814386294
 40
0.5850582814386294
 40
0.5850582814386294
 40
0.6488037906897904
 40
0.6488037906897904
 40
0.6488037906897904
 40
0.718817254308538
 40
0.718817254308538
 40
0.7944820288920282
 40
0.7944820288920282
 40
0.7944820288920282
 40
0.8697367480753329
 40
0.8697367480753329
 40
0.8697367480753329
 40
0.9013515779285247
 40
0.9013515779285247
 40
0.9013515779285247
 40
0.9306379885930884
 40
0.9306379885930884
 40
0.9599243992576518
 40
0.9599243992576518
 40
0.9599243992576518
 40
0.9904597959709778
 40
0.9904597959709778
 40
0.9904597959709778
 40
1.0
 40
1.0
 40
1.0
 40
1.0
 10
243.8839436182442
 20
188.0642864870838
 10
243.5998184544173
 20
188.6879758710943
 10
243.2025052171957
 20
189.1522779680799
 10
242.1815025959638
 20
189.7621075880012
 10
241.587842700813
 20
189.9145649929816
 10
240.3751133430149
 20
189.9145649929816
 10
239.8889361806183
 20
189.8341932957806
 10
239.4488191097252
 20
189.6627792786959
 10
239.0099265802364
 20
189.4918421882634
 10
238.6322480402607
 20
189.2527697814501
 10
238.3192483364618
 20
188.9420715460616
 10
238.005093683775
 20
188.6302268540563
 10
237.760544896821
 20
188.2567974339103
 10
237.5893007611014
 20
187.8194306548426
 10
237.4183636706689
 20
187.3828480860353
 10
237.3328951254526
 20
186.8954463822346
 10
237.3328951254526
 20
185.8444142721428
 10
237.4171718734448
 20
185.3703943388921
 10
237.5893007611014
 20
184.9412196456684
 10
237.7625478122154
 20
184.5092569982241
 10
237.9993189146371
 20
184.1408007708237
 10
238.3076985330542
 20
183.8370584399017
 10
238.6149233036964
 20
183.5344535906225
 10
238.9865243210358
 20
183.2957482068854
 10
239.4187896208655
 20
183.1279005106749
 10
239.8530622289913
 20
182.9592733809239
 10
240.3289141293845
 20
182.8761147963892
 10
241.4007358856099
 20
182.8761147963892
 10
241.9127013576763
 20
182.9796945600658
 10
242.3801592145745
 20
183.1833395670314
 10
242.8467712722416
 20
183.3866161070052
 10
243.2385391943749
 20
183.7215892555586
 10
243.567479004876
 20
184.1766226600851
 10
243.7060766457672
 20
184.3683493966513
 10
243.8103238022207
 20
184.5608514719727
 10
243.8839436182442
 20
184.7518028697837
 10
243.9578623600529
 20
184.9435296063499
 10
244.0109914557279
 20
185.1398762642791
 10
244.0849101975365
 20
185.5371895015006
 10
244.1057071113542
 20
185.738285445568
 10
244.1172496470778
 20
185.9437425814482
 10
244.1287994504854
 20
186.1493290821035
 10
244.1426592145745
 20
186.3618454648034
 10
244.1426592145745
 20
186.5789817688662
 10
244.1426592145745
 20
186.6452006417365
 10
244.1426592145745
 20
186.7114195146068
 10
244.1426592145745
 20
186.777638387477
 72
     1
 10
244.1426592145745
 20
186.777638387477
 11
240.8347955186374
 21
186.777638387477
 72
     1
 10
240.8347955186374
 20
186.777638387477
 11
240.8347955186374
 21
185.4332412708322
 72
     1
 10
240.8347955186374
 20
185.4332412708322
 11
242.3339600009441
 21
185.4332412708322
 72
     4
 94
        3
 73
     0
 74
     0
 95
       43
 96
       39
 40
0.0
 40
0.0
 40
0.0
 40
0.0
 40
0.0528407008768927
 40
0.0528407008768927
 40
0.0528407008768927
 40
0.101808017531148
 40
0.101808017531148
 40
0.101808017531148
 40
0.1527424680033737
 40
0.1527424680033737
 40
0.1527424680033737
 40
0.2046872249080309
 40
0.2046872249080309
 40
0.285201598110253
 40
0.285201598110253
 40
0.285201598110253
 40
0.3575698737778739
 40
0.3575698737778739
 40
0.3575698737778739
 40
0.4340109897737078
 40
0.4340109897737078
 40
0.5104521057695417
 40
0.5104521057695417
 40
0.5848456918726302
 40
0.5848456918726302
 40
0.5848456918726302
 40
0.6593973023253275
 40
0.6593973023253275
 40
0.6593973023253275
 40
0.7322081321972964
 40
0.7322081321972964
 40
0.7322081321972964
 40
0.808821291350857
 40
0.808821291350857
 40
0.9050626152462398
 40
0.9050626152462398
 40
0.9050626152462398
 40
1.0
 40
1.0
 40
1.0
 40
1.0
 10
242.3339600009441
 20
185.4332412708322
 10
242.315480315492
 20
185.241514534266
 10
242.2630012238817
 20
185.0747989756085
 10
242.1768826746007
 20
184.9342897636238
 10
242.089104168703
 20
184.7910722013695
 10
241.9813056983178
 20
184.6698654279918
 10
241.8488682578248
 20
184.5762458579881
 10
241.7148905382967
 20
184.4815374700458
 10
241.5619922405099
 20
184.4091217718955
 10
241.3914960428838
 20
184.3591095539252
 10
241.2182489917698
 20
184.3082904189318
 10
241.0403820192927
 20
184.2851908121166
 10
240.5691500402626
 20
184.2851908121166
 10
240.3206481660817
 20
184.3447157269266
 10
240.104847943277
 20
184.4630577845936
 10
239.8900215998956
 20
184.5808657793512
 10
239.7109534478642
 20
184.7387746915399
 10
239.5643171438012
 20
184.9342897636238
 10
239.4187896208655
 20
185.1283264608715
 10
239.3079115081525
 20
185.3500826862975
 10
239.1554541031722
 20
185.8397943507798
 10
239.1161847715863
 20
186.089270104384
 10
239.1161847715863
 20
186.5997714149999
 10
239.1546578089098
 20
186.848808629735
 10
239.2270628842993
 20
187.0987229222083
 10
239.2986716654264
 20
187.345888715131
 10
239.4057198468884
 20
187.5687407332931
 10
239.5481474190306
 20
187.7663015591677
 10
239.6913649812849
 20
187.9649581777784
 10
239.8686747464151
 20
188.1276436800246
 10
240.0840582971433
 20
188.2490833416055
 10
240.3011946012062
 20
188.371511257726
 10
240.5460504334474
 20
188.4315702354455
 10
241.1766696995024
 20
188.4315702354455
 10
241.4721172585773
 20
188.3365769023392
 10
241.7148905382967
 20
188.1428251502555
 10
241.9551264491748
 20
187.9510984136893
 10
242.1353033823333
 20
187.6970027387221
 10
242.2554213377724
 20
187.3782281646723
 72
     1
 10
242.2554213377724
 20
187.3782281646723
 11
243.8839436182442
 21
188.0642864870838
 97
        0
 75
     0
 76
     1
 98
        0
  0
HATCH
  5
3C0
330
379
100
AcDbEntity
  8
Default
  6
Continuous
 62
     7
100
AcDbHatch
 10
0.0
 20
0.0
 30
0.0
210
0.0
220
0.0
230
1.0
  2
SOLID
 70
     1
 71
     0
 91
        2
 92
        1
 93
        1
 72
     4
 94
        3
 73
     0
 74
     0
 95
       49
 96
       45
 40
0.0
 40
0.0
 40
0.0
 40
0.0
 40
0.0620905351842325
 40
0.0620905351842325
 40
0.0620905351842325
 40
0.1225274789213882
 40
0.1225274789213882
 40
0.1225274789213882
 40
0.1824107500595676
 40
0.1824107500595676
 40
0.1824107500595676
 40
0.2443092731117129
 40
0.2443092731117129
 40
0.3113899980938052
 40
0.3113899980938052
 40
0.3113899980938052
 40
0.373038281101099
 40
0.373038281101099
 40
0.4342493422430935
 40
0.4342493422430935
 40
0.4342493422430935
 40
0.5005101029271146
 40
0.5005101029271146
 40
0.5664827733472912
 40
0.5664827733472912
 40
0.5664827733472912
 40
0.6277456785228048
 40
0.6277456785228048
 40
0.6277456785228048
 40
0.6890483024008142
 40
0.6890483024008142
 40
0.6890483024008142
 40
0.7561017319004357
 40
0.7561017319004357
 40
0.8179750681339922
 40
0.8179750681339922
 40
0.8179750681339922
 40
0.8779262347345869
 40
0.8779262347345869
 40
0.8779262347345869
 40
0.9382003516792404
 40
0.9382003516792404
 40
0.9382003516792404
 40
1.0
 40
1.0
 40
1.0
 40
1.0
 10
248.4438060035654
 20
189.9492144032044
 10
247.9656441424906
 20
189.9469044425229
 10
247.5072164315149
 20
189.8665311947464
 10
247.0670694373792
 20
189.6997386496002
 10
246.6281769078904
 20
189.5334214805307
 10
246.2389407961124
 20
189.2988270091107
 10
245.9005392932115
 20
188.997510602418
 10
245.5632850337095
 20
188.6972157138204
 10
245.2957954536029
 20
188.335504780128
 10
245.0920530546794
 20
187.918758964148
 10
244.8887765147056
 20
187.5029660414744
 10
244.7871382447187
 20
187.0455938265333
 10
244.7871382447187
 20
186.0107314412123
 10
244.8803465126443
 20
185.521351265914
 10
245.0620235658196
 20
185.0775073258781
 10
245.2445104596597
 20
184.6316849143446
 10
245.4962961739454
 20
184.2482314412123
 10
246.1453951254526
 20
183.5991324897051
 10
246.530680710158
 20
183.3461490497318
 10
246.9792909314815
 20
183.1671698422608
 10
247.4251133430149
 20
182.9893028697837
 10
247.9125150468157
 20
182.8992144032044
 10
248.9727869996335
 20
182.8992144032044
 10
249.4629767181928
 20
182.9881138634896
 10
249.9083210756492
 20
183.1671698422608
 10
250.3564534478642
 20
183.3473467754193
 10
250.7410617834882
 20
183.5979940082417
 10
251.0609914557278
 20
183.9225269851179
 10
251.3820759904592
 20
184.2482314412123
 10
251.6330488643873
 20
184.6320193642835
 10
251.816348598585
 20
185.0775073258781
 10
251.9988354924251
 20
185.52101977673
 10
252.0889239590044
 20
186.0107314412123
 10
252.0889239590044
 20
187.0455938265333
 10
251.9868172819147
 20
187.5016305829262
 10
251.7863191097253
 20
187.918758964148
 10
251.585352530433
 20
188.3368618475032
 10
251.3129086463213
 20
188.694787784671
 10
250.9755229105116
 20
188.997510602418
 10
250.6382686510096
 20
189.3001154516972
 10
250.2509557040483
 20
189.5354457704455
 10
249.8136126877069
 20
189.6997386496002
 10
249.3770301188996
 20
189.8637458579882
 10
248.9196356399268
 20
189.9515130970999
 10
248.4438060035654
 20
189.9492144032044
 97
        0
 92
        1
 93
        1
 72
     4
 94
        3
 73
     0
 74
     0
 95
       47
 96
       43
 40
0.0
 40
0.0
 40
0.0
 40
0.0
 40
0.0637917384076936
 40
0.0637917384076936
 40
0.0637917384076936
 40
0.1265834997779105
 40
0.1265834997779105
 40
0.1893752611481285
 40
0.1893752611481285
 40
0.1893752611481285
 40
0.2604081010642026
 40
0.2604081010642026
 40
0.3159741129340349
 40
0.3159741129340349
 40
0.3159741129340349
 40
0.3751091105868485
 40
0.3751091105868485
 40
0.3751091105868485
 40
0.435995169879425
 40
0.435995169879425
 40
0.435995169879425
 40
0.4997689343159712
 40
0.4997689343159712
 40
0.5635426987525196
 40
0.5635426987525196
 40
0.5635426987525196
 40
0.624232315369434
 40
0.624232315369434
 40
0.624232315369434
 40
0.6835869381889372
 40
0.6835869381889372
 40
0.6835869381889372
 40
0.7357943705008892
 40
0.7357943705008892
 40
0.8025337685079206
 40
0.8025337685079206
 40
0.8692731665149518
 40
0.8692731665149518
 40
0.9360125645219831
 40
0.9360125645219831
 40
0.9360125645219831
 40
1.0
 40
1.0
 40
1.0
 40
1.0
 10
248.4438060035654
 20
184.5693159759436
 10
248.7025215998956
 20
184.5693159759436
 10
248.9450674714552
 20
184.620135110937
 10
249.1691336575627
 20
184.7194634202424
 10
249.3951304192655
 20
184.8196475517189
 10
249.5941664229625
 20
184.9550794097575
 10
249.9314206824644
 20
185.3061934333486
 10
250.0653984019926
 20
185.5140898946854
 10
250.160106789935
 20
185.752015844882
 10
250.2551311293749
 20
185.9907355268896
 10
250.3056343128707
 20
186.2509673520904
 10
250.3056343128707
 20
186.7614686627064
 10
250.2571251385588
 20
186.9809149274508
 10
250.160106789935
 20
187.1934313101507
 10
250.0643595068875
 20
187.4031634539689
 10
249.9314206824644
 20
187.5907445473721
 10
249.7627935527134
 20
187.7547517557601
 10
249.5953209577949
 20
187.9176360604069
 10
249.3955098043517
 20
188.0458068016317
 10
249.1691336575627
 20
188.140515189574
 10
248.9439009259591
 20
188.2347452099388
 10
248.7025215998956
 20
188.2860427125098
 10
248.1850904072351
 20
188.2860427125098
 10
247.9425445356754
 20
188.2375335381978
 10
247.7161683888864
 20
188.140515189574
 10
247.4925801256786
 20
188.0446916481992
 10
247.2934455841682
 20
187.9164490034665
 10
247.1248184544172
 20
187.7547517557601
 10
246.9550373605366
 20
187.5919479671074
 10
246.8222136051381
 20
187.403637732169
 10
246.7228852958327
 20
187.1934313101507
 10
246.622664698655
 20
186.9813365579839
 10
246.5727378515339
 20
186.7614686627064
 10
246.5727378515339
 20
186.2509673520904
 10
246.6235569865273
 20
185.9899417950786
 10
246.8222136051381
 20
185.5140898946854
 10
246.9561913246663
 20
185.3061934333486
 10
247.2934455841682
 20
184.9550794097575
 10
247.492102202779
 20
184.8187917295478
 10
247.7161683888864
 20
184.7194634202424
 10
247.9421651505893
 20
184.6192792887659
 10
248.1850904072351
 20
184.5693159759436
 10
248.4438060035654
 20
184.5693159759436
 97
        0
 75
     0
 76
     1
 98
        0
  0
HATCH
  5
3C1
330
379
100
AcDbEntity
  8
Default
  6
Continuous
 62
     7
100
AcDbHatch
 10
0.0
 20
0.0
 30
0.0
210
0.0
220
0.0
230
1.0
  2
SOLID
 70
     1
 71
     0
 91
        1
 92
        1
 93
        4
 72
     1
 10
255.0710831988471
 20
185.7035066705701
 11
255.0710831988471
 21
187.1610918606094
 72
     1
 10
255.0710831988471
 20
187.1610918606094
 11
252.9366795291224
 21
187.1610918606094
 72
     1
 10
252.9366795291224
 20
187.1610918606094
 11
252.9366795291224
 21
185.70350667057
 72
     1
 10
252.9366795291224
 20
185.70350667057
 11
255.0710831988471
 21
185.7035066705701
 97
        0
 75
     0
 76
     1
 98
        0
  0
HATCH
  5
3C2
330
379
100
AcDbEntity
  8
Default
  6
Continuous
 62
     7
100
AcDbHatch
 10
0.0
 20
0.0
 30
0.0
210
0.0
220
0.0
230
1.0
  2
SOLID
 70
     1
 71
     0
 91
        1
 92
        1
 93
        9
 72
     4
 94
        3
 73
     0
 74
     0
 95
       16
 96
       12
 40
0.0
 40
0.0
 40
0.0
 40
0.0
 40
0.3396620468027166
 40
0.3396620468027166
 40
0.3396620468027166
 40
0.3623316833330921
 40
0.3623316833330921
 40
0.3840945344022499
 40
0.3840945344022499
 40
0.3840945344022499
 40
1.0
 40
1.0
 40
1.0
 40
1.0
 10
259.5870563312193
 20
189.7112884530078
 10
258.42822605599
 20
189.7112884530078
 10
257.2693957807606
 20
189.7112884530078
 10
256.1105655055312
 20
189.7112884530078
 10
256.0297168816781
 20
189.7112884530078
 10
255.962728021914
 20
189.6835689248296
 10
255.8495399485194
 20
189.5703808514351
 10
255.8218204203412
 20
189.503391991671
 10
255.8218204203412
 20
189.4225433678178
 10
255.8218204203412
 20
187.3212491345281
 10
255.8218204203412
 20
185.2199549012385
 10
255.8218204203412
 20
183.1186606679488
 72
     1
 10
255.8218204203412
 20
183.1186606679488
 11
257.5404311673923
 21
183.1186606679488
 72
     1
 10
257.5404311673923
 20
183.1186606679488
 11
257.5404311673923
 21
185.7035066705701
 72
     1
 10
257.5404311673923
 20
185.7035066705701
 11
259.4877280219139
 21
185.7035066705701
 72
     1
 10
259.4877280219139
 20
185.7035066705701
 11
259.4877280219139
 21
187.1610918606094
 72
     1
 10
259.4877280219139
 20
187.1610918606094
 11
257.5404311673923
 21
187.1610918606094
 72
     1
 10
257.5404311673923
 20
187.1610918606094
 11
257.5404311673923
 21
188.260633145013
 72
     1
 10
257.5404311673923
 20
188.260633145013
 11
259.5870563312194
 21
188.260633145013
 72
     1
 10
259.5870563312193
 20
188.260633145013
 11
259.5870563312193
 21
189.7112884530078
 97
        0
 75
     0
 76
     1
 98
        0
  0
HATCH
  5
3C3
330
379
100
AcDbEntity
  8
Default
  6
Continuous
 62
     7
100
AcDbHatch
 10
0.0
 20
0.0
 30
0.0
210
0.0
220
0.0
230
1.0
  2
SOLID
 70
     1
 71
     0
 91
        1
 92
        1
 93
        4
 72
     4
 94
        3
 73
     0
 74
     0
 95
       14
 96
       10
 40
0.0
 40
0.0
 40
0.0
 40
0.0
 40
0.7580098693161609
 40
0.7580098693161609
 40
0.7580098693161609
 40
0.8789822868889446
 40
0.8789822868889446
 40
0.8789822868889446
 40
1.0
 40
1.0
 40
1.0
 40
1.0
 10
262.1857620979297
 20
189.7274581777785
 10
261.7114501713242
 20
189.7274581777785
 10
261.2371382447187
 20
189.7274581777785
 10
260.7628263181132
 20
189.7274581777785
 10
260.68197769426
 20
189.7274581777785
 10
260.6172507110666
 20
189.6973825281723
 10
260.5595497781394
 20
189.6419896325622
 10
260.5018007611014
 20
189.5865505762057
 10
260.4740812329231
 20
189.5195617164416
 10
260.4740812329231
 20
189.4387130925884
 72
     1
 10
260.4740812329231
 20
189.4387130925884
 11
260.4740812329231
 21
183.1186606679488
 72
     1
 10
260.4740812329231
 20
183.1186606679488
 11
262.1857620979297
 21
183.1186606679488
 72
     1
 10
262.1857620979297
 20
183.1186606679488
 11
262.1857620979297
 21
189.7274581777785
 97
        0
 75
     0
 76
     1
 98
        0
  0
HATCH
  5
3C4
330
379
100
AcDbEntity
  8
Default
  6
Continuous
 62
     7
100
AcDbHatch
 10
0.0
 20
0.0
 30
0.0
210
0.0
220
0.0
230
1.0
  2
SOLID
 70
     1
 71
     0
 91
        1
 92
        1
 93
       12
 72
     1
 10
266.2235733692272
 20
188.0042275093643
 11
265.2095006300398
 21
189.7112884530078
 72
     1
 10
265.2095006300398
 20
189.7112884530078
 11
263.1051264491747
 21
189.7112884530078
 72
     1
 10
263.1051264491747
 20
189.7112884530078
 11
265.2095006300398
 21
186.6436606679488
 72
     1
 10
265.2095006300398
 20
186.6436606679488
 11
262.6269645881001
 21
183.1186606679488
 72
     1
 10
262.6269645881001
 20
183.1186606679488
 11
264.7036192407868
 21
183.1186606679488
 72
     1
 10
264.7036192407868
 20
183.1186606679488
 11
266.2235733692272
 21
185.2646141410812
 72
     1
 10
266.2235733692272
 20
185.2646141410812
 11
267.2561257938668
 21
183.6453317033355
 72
     1
 10
267.2561257938668
 20
183.6453317033355
 11
268.2886782185064
 21
185.1144666967824
 72
     1
 10
268.2886782185064
 20
185.1144666967824
 11
267.226096305007
 21
186.6436606679488
 72
     1
 10
267.226096305007
 20
186.6436606679488
 11
269.3420202892797
 21
189.7112884530078
 72
     1
 10
269.3420202892797
 20
189.7112884530078
 11
267.226096305007
 21
189.7112884530078
 72
     1
 10
267.226096305007
 20
189.7112884530078
 11
266.2235733692272
 21
188.0042275093643
 97
        0
 75
     0
 76
     1
 98
        0
  0
HATCH
  5
3C5
330
379
100
AcDbEntity
  8
Default
  6
Continuous
 62
     7
100
AcDbHatch
 10
0.0
 20
0.0
 30
0.0
210
0.0
220
0.0
230
1.0
  2
SOLID
 70
     1
 71
     0
 91
        1
 92
        1
 93
        3
 72
     4
 94
        3
 73
     0
 74
     0
 95
       13
 96
        9
 40
0.0
 40
0.0
 40
0.0
 40
0.0
 40
0.0445094381088423
 40
0.0445094381088423
 40
0.0908355879772283
 40
0.0908355879772283
 40
0.0908355879772283
 40
1.0
 40
1.0
 40
1.0
 40
1.0
 10
272.7122529236178
 20
189.5334214805307
 10
272.6198544963569
 20
189.6512294752883
 10
272.5159062656886
 20
189.7112884530078
 10
272.2849101975365
 20
189.7112884530078
 10
272.1870447473536
 20
189.6501983627819
 10
272.1047332643779
 20
189.5334214805307
 10
270.697967209332
 20
187.5376154516972
 10
269.2912011542862
 20
185.5418094228636
 10
267.8844350992403
 20
183.5460033940301
 72
     4
 94
        3
 73
     0
 74
     0
 95
       11
 96
        7
 40
0.0
 40
0.0
 40
0.0
 40
0.0
 40
0.3439066424360135
 40
0.3439066424360135
 40
0.3439066424360135
 40
1.0
 40
1.0
 40
1.0
 40
1.0
 10
267.8844350992403
 20
183.5460033940301
 10
267.8313060035653
 20
183.4605348488138
 10
267.8027439506852
 20
183.3911859889177
 10
267.8035864753871
 20
183.3381069326933
 10
267.8058964360686
 20
183.1925794097575
 10
267.9075347060556
 20
183.1186606679488
 10
268.1131212067108
 20
183.1186606679488
 72
     4
 94
        3
 73
     0
 74
     0
 95
       16
 96
       12
 40
0.0
 40
0.0
 40
0.0
 40
0.0
 40
0.5188870924081099
 40
0.5188870924081099
 40
0.5188870924081099
 40
0.544909989588877
 40
0.544909989588877
 40
0.5581347406151689
 40
0.5581347406151689
 40
0.5581347406151689
 40
1.0
 40
1.0
 40
1.0
 40
1.0
 10
268.1131212067108
 20
183.1186606679488
 10
270.9805523993713
 20
183.1186606679488
 10
273.8479835920319
 20
183.1186606679488
 10
276.7154147846925
 20
183.1186606679488
 10
276.9140714033032
 20
183.1186606679488
 10
277.0133997126086
 20
183.1879594883945
 10
277.0133997126086
 20
183.4004758710943
 10
276.9849943017649
 20
183.4716012002038
 10
276.9325510887554
 20
183.5460033940301
 10
275.5257850337095
 20
185.5418094228636
 10
274.1190189786636
 20
187.5376154516972
 10
272.7122529236178
 20
189.5334214805307
 97
        0
 75
     0
 76
     1
 98
        0
  0
ENDBLK
  5
3C7
330
379
100
AcDbEntity
  8
0
100
AcDbBlockEnd
  0
ENDSEC
  0
SECTION
  2
ENTITIES
  0
INSERT
  5
41
330
1F
100
AcDbEntity
  8
Default
100
AcDbBlockReference
  2
SE
 10
0.0
 20
0.0
 30
0.0
  0
DIMENSION
  5
33C
330
1F
100
AcDbEntity
  8
Default
  6
Continuous
 62
     7
100
AcDbDimension
  2
DMBLK375
 10
179.771196178
 20
72.2891799445
 30
0.0
 11
179.771196178
 21
122.2891806895
 31
0.0
 70
   161
  1
\A1;<>
 71
     5
 42
-1.0
  3
DIN
100
AcDbAlignedDimension
 13
163.0210486118
 23
72.2891799445
 33
0.0
 14
163.0210486118
 24
172.2891799445
 34
0.0
  0
DIMENSION
  5
346
330
1F
100
AcDbEntity
  8
Default
  6
Continuous
 62
     7
100
AcDbDimension
  2
DMBLK376
 10
179.7711966242
 20
172.2891799445
 30
0.0
 11
179.7711966242
 21
185.7591730291
 31
0.0
 70
   160
  1
\A1;<>
 71
     5
 42
-1.0
  3
DIN
100
AcDbAlignedDimension
 13
162.9981012698
 23
178.2891799445
 33
0.0
 14
149.0210486118
 24
172.2891799445
 34
0.0
 50
90.0
100
AcDbRotatedDimension
  0
DIMENSION
  5
350
330
1F
100
AcDbEntity
  8
Default
  6
Continuous
 62
     7
100
AcDbDimension
  2
DMBLK377
 10
133.0210486118
 20
42.5168458158
 30
0.0
 11
149.0210493717
 21
42.5168458158
 31
0.0
 70
   161
  1
\A1;%%C <>
 71
     5
 42
-1.0
  3
DIN
100
AcDbAlignedDimension
 13
133.0210486118
 23
74.2891799445
 33
0.0
 14
165.0210486118
 24
74.2891799445
 34
0.0
  0
DIMENSION
  5
35C
330
1F
100
AcDbEntity
  8
Default
  6
Continuous
 62
     7
100
AcDbDimension
  2
DMBLK378
 10
165.5210486118
 20
188.2426229717
 30
0.0
 11
149.0210485223
 21
188.2426229717
 31
0.0
 70
   160
  1
\A1;%%C <>
 71
     5
 42
-1.0
  3
DIN
100
AcDbAlignedDimension
 13
132.5210486118
 23
175.9057606982
 33
0.0
 14
165.5210486118
 24
176.2825556174
 34
0.0
100
AcDbRotatedDimension
  0
INSERT
  5
3C8
330
1F
100
AcDbEntity
  8
Default
 62
     7
100
AcDbBlockReference
  2
RF-Massblatt_2016
 10
0.0
 20
0.0
 30
0.0
  0
ENDSEC
  0
SECTION
  2
OBJECTS
  0
DICTIONARY
  5
C
330
0
100
AcDbDictionary
281
     1
  3
ACAD_GROUP
350
D
  3
ACAD_LAYOUT
350
1A
  3
ACAD_MATERIAL
350
3B
  3
ACAD_MLEADERSTYLE
350
3CB
  3
ACAD_MLINESTYLE
350
17
  3
ACAD_PLOTSETTINGS
350
19
  3
ACAD_PLOTSTYLENAME
350
E
  3
ACAD_VISUALSTYLE
350
2A
  3
AcDbVariableDictionary
350
3C9
  0
DICTIONARY
  5
3D0
330
37A
100
AcDbDictionary
280
     1
281
     1
  3
ACAD_MTEXT_RT
360
3D1
  0
DICTIONARY
  5
3D2
330
37B
100
AcDbDictionary
280
     1
281
     1
  3
ACAD_MTEXT_RT
360
3D3
  0
DICTIONARY
  5
3D4
330
37E
100
AcDbDictionary
280
     1
281
     1
  3
ACAD_MTEXT_RT
360
3D5
  0
DICTIONARY
  5
D
102
{ACAD_REACTORS
330
C
102
}
330
C
100
AcDbDictionary
281
     1
  0
DICTIONARY
  5
1A
102
{ACAD_REACTORS
330
C
102
}
330
C
100
AcDbDictionary
281
     1
  3
Layout1
350
1E
  3
Model
350
22
  0
DICTIONARY
  5
3B
102
{ACAD_REACTORS
330
C
102
}
330
C
100
AcDbDictionary
281
     1
  3
ByBlock
350
3D
  3
ByLayer
350
3C
  3
Global
350
3E
  0
DICTIONARY
  5
3CB
102
{ACAD_REACTORS
330
C
102
}
330
C
100
AcDbDictionary
281
     1
  0
DICTIONARY
  5
17
102
{ACAD_REACTORS
330
C
102
}
330
C
100
AcDbDictionary
281
     1
  3
Standard
350
18
  0
DICTIONARY
  5
19
102
{ACAD_REACTORS
330
C
102
}
330
C
100
AcDbDictionary
281
     1
  0
ACDBDICTIONARYWDFLT
  5
E
102
{ACAD_REACTORS
330
C
102
}
330
C
100
AcDbDictionary
281
     1
  3
Normal
350
F
100
AcDbDictionaryWithDefault
340
F
  0
DICTIONARY
  5
2A
102
{ACAD_REACTORS
330
C
102
}
330
C
100
AcDbDictionary
281
     1
  3
2dWireframe
350
2F
  3
3D Hidden
350
31
  3
3dWireframe
350
30
  3
Basic
350
32
  3
Brighten
350
36
  3
ColorChange
350
3A
  3
Conceptual
350
34
  3
Dim
350
35
  3
Facepattern
350
39
  3
Flat
350
2B
  3
FlatWithEdges
350
2C
  3
Gouraud
350
2D
  3
GouraudWithEdges
350
2E
  3
Linepattern
350
38
  3
Realistic
350
33
  3
Thicken
350
37
  0
DICTIONARY
  5
3C9
102
{ACAD_REACTORS
330
C
102
}
330
C
100
AcDbDictionary
281
     1
  3
DIMASSOC
350
3CE
  3
HIDETEXT
350
3CF
  3
PSOLHEIGHT
350
3CD
  3
PSOLWIDTH
350
3CC
  0
XRECORD
  5
3D1
102
{ACAD_REACTORS
330
3D0
102
}
330
3D0
100
AcDbXrecord
280
     1
 40
10118767.0
  1
\pxsm1.;{\fVectora Com 45 Light|b1||i0||c0|p34;\C7;\H2.5;\W1.;REGO-FIX AG\P}{\fVectora Com 45 Light|b0||i0||c0|p34;\C7;\H2.5;\W1.;Obermattweg 60\P}{\fVectora Com 45 Light|b0||i0||c0|p34;\C7;\H2.5;\W1.;4456 Tenniken / Switzerland\P}{\fVectora Com 45 L
  1
ight|b0||i0||c0|p34;\C7;\H2.5;\W1.;\P}{\fVectora Com 45 Light|b0||i0||c0|p34;\C7;\H2.5;\W1.;P +41 61 976 14 66\P}{\fVectora Com 45 Light|b0||i0||c0|p34;\C7;\H2.5;\W1.;F +41 61 976 14 14\P}{\fVectora Com 45 Light|b1||i0||c0|p34;\C7;\H2.5;\W1.;www.rego
  1
-fix.com}
  0
XRECORD
  5
3D3
102
{ACAD_REACTORS
330
3D2
102
}
330
3D2
100
AcDbXrecord
280
     1
 40
47111022.0
  1
\pxsm1.;{\fSolid Edge ISO|b0||i0||c0|p34;\C7;\H2.;\W1.;This is a non-controlled copy. All information given herein is subject to change without notice\P}{\fSolid Edge ISO|b0||i0||c0|p34;\C7;\H2.;\W1.;\P}{\fSolid Edge ISO|b0||i0||c0|p34;\C7;\H2.;\W1.;
  1
The information given herein has been carefully checked and is believed to be correct. REGO-FIX,\P}{\fSolid Edge ISO|b0||i0||c0|p34;\C7;\H2.;\W1.;however, assumes no responsibility or liability for any errors, inaccuracies or omissions that may appea
  1
r\P}{\fSolid Edge ISO|b0||i0||c0|p34;\C7;\H2.;\W1.;in this drawing\P}{\fSolid Edge ISO|b0||i0||c0|p34;\C7;\H2.;\W1.;\P}{\fSolid Edge ISO|b0||i0||c0|p34;\C7;\H2.;\W1.;This document is subject to copyright laws. No part of this document may be reproduc
  1
ed or transmitted\P}{\fSolid Edge ISO|b0||i0||c0|p34;\C7;\H2.;\W1.;in any form or any means, electronic or mechanic, for any purpose, without the express written permission\P}{\fSolid Edge ISO|b0||i0||c0|p34;\C7;\H2.;\W1.;of REGO-FIX\P}{\fSolid Edge 
  1
ISO|b0||i0||c0|p34;\C7;\H1.5;\W1.;\P}
  0
XRECORD
  5
3D5
102
{ACAD_REACTORS
330
3D4
102
}
330
3D4
100
AcDbXrecord
280
     1
 40
2697483.0
  1
\pxsm1.;{\fVectora Com 45 Light|b0||i0||c0|p34;\C7;\H3.5;\W1.;Type :\P}{\fVectora Com 45 Light|b0||i0||c0|p34;\C7;\H3.5;\W1.;Part No. :\P}{\fVectora Com 45 Light|b0||i0||c0|p34;\C7;\H3.5;\W1.;Date : \P}{\fVectora Com 45 Light|b0||i0||c0|p34;\C7;\H3.5
  1
;\W1.;Scale :}
  0
LAYOUT
  5
1E
102
{ACAD_REACTORS
330
1A
102
}
330
1A
100
AcDbPlotSettings
  1

  2
none_device
  4

  6

 40
0.0
 41
0.0
 42
0.0
 43
0.0
 44
0.0
 45
0.0
 46
0.0
 47
0.0
 48
0.0
 49
0.0
140
0.0
141
0.0
142
1.0
143
1.0
 70
   688
 72
     0
 73
     0
 74
     5
  7

 75
    16
147
1.0
148
0.0
149
0.0
100
AcDbLayout
  1
Layout1
 70
     1
 71
     1
 10
0.0
 20
0.0
 11
297.0
 21
210.0
 12
0.0
 22
0.0
 32
0.0
 14
0.0
 24
0.0
 34
0.0
 15
297.0
 25
210.0
 35
0.0
146
0.0
 13
0.0
 23
0.0
 33
0.0
 16
1.0
 26
0.0
 36
0.0
 17
0.0
 27
1.0
 37
0.0
 76
     0
330
1B
  0
LAYOUT
  5
22
102
{ACAD_REACTORS
330
1A
102
}
330
1A
100
AcDbPlotSettings
  1

  2
none_device
  4

  6

 40
0.0
 41
0.0
 42
0.0
 43
0.0
 44
0.0
 45
0.0
 46
0.0
 47
0.0
 48
0.0
 49
0.0
140
0.0
141
0.0
142
1.0
143
1.0
 70
  1712
 72
     0
 73
     0
 74
     0
  7

 75
     0
147
1.0
148
0.0
149
0.0
100
AcDbLayout
  1
Model
 70
     1
 71
     0
 10
0.0
 20
0.0
 11
297.0
 21
210.0
 12
0.0
 22
0.0
 32
0.0
 14
0.0
 24
0.0
 34
0.0
 15
297.0
 25
210.0
 35
0.0
146
0.0
 13
0.0
 23
0.0
 33
0.0
 16
1.0
 26
0.0
 36
0.0
 17
0.0
 27
1.0
 37
0.0
 76
     0
330
1F
331
29
  0
MATERIAL
  5
3D
102
{ACAD_REACTORS
330
3B
102
}
102
{ACAD_XDICTIONARY
360
3F8
102
}
330
3B
100
AcDbMaterial
  1
ByBlock
  0
MATERIAL
  5
3C
102
{ACAD_REACTORS
330
3B
102
}
102
{ACAD_XDICTIONARY
360
3F6
102
}
330
3B
100
AcDbMaterial
  1
ByLayer
  0
MATERIAL
  5
3E
102
{ACAD_REACTORS
330
3B
102
}
102
{ACAD_XDICTIONARY
360
3FA
102
}
330
3B
100
AcDbMaterial
  1
Global
  0
MLINESTYLE
  5
18
102
{ACAD_REACTORS
330
17
102
}
330
17
100
AcDbMlineStyle
  2
Standard
 70
     0
  3

 62
   256
 51
90.0
 52
90.0
 71
     2
 49
0.5
 62
   256
  6
BYLAYER
 49
-0.5
 62
   256
  6
BYLAYER
  0
ACDBPLACEHOLDER
  5
F
102
{ACAD_REACTORS
330
E
102
}
330
E
  0
VISUALSTYLE
  5
2F
102
{ACAD_REACTORS
330
2A
102
}
102
{ACAD_XDICTIONARY
360
3DE
102
}
330
2A
100
AcDbVisualStyle
  2
2dWireframe
 70
     4
 71
     0
 72
     2
 73
     0
 90
        0
 40
-0.6
 41
-30.0
 62
     5
 63
     7
 74
     1
 91
        4
 64
     7
 65
   257
 75
     1
175
     1
 42
1.0
 92
        0
 66
   257
 43
1.0
 76
     1
 77
     6
 78
     2
 67
     7
 79
     5
170
     0
171
     0
290
     0
174
     0
 93
        1
 44
0.0
173
     0
291
     0
 45
0.0
1001
ACAD
1000
AcDbSavedByObjectVersion
1070
     0
  0
VISUALSTYLE
  5
31
102
{ACAD_REACTORS
330
2A
102
}
102
{ACAD_XDICTIONARY
360
3E2
102
}
330
2A
100
AcDbVisualStyle
  2
3D Hidden
 70
     6
 71
     1
 72
     2
 73
     2
 90
        0
 40
-0.6
 41
-30.0
 62
     5
 63
     7
 74
     2
 91
        2
 64
     7
 65
   257
 75
     2
175
     1
 42
40.0
 92
        0
 66
   257
 43
1.0
 76
     1
 77
     6
 78
     2
 67
     7
 79
     3
170
     0
171
     0
290
     0
174
     0
 93
        1
 44
0.0
173
     0
291
     0
 45
0.0
1001
ACAD
1000
AcDbSavedByObjectVersion
1070
     0
  0
VISUALSTYLE
  5
30
102
{ACAD_REACTORS
330
2A
102
}
102
{ACAD_XDICTIONARY
360
3E0
102
}
330
2A
100
AcDbVisualStyle
  2
3dWireframe
 70
     5
 71
     0
 72
     2
 73
     0
 90
        0
 40
-0.6
 41
-30.0
 62
     5
 63
     7
 74
     1
 91
        4
 64
     7
 65
   257
 75
     1
175
     1
 42
1.0
 92
        0
 66
   257
 43
1.0
 76
     1
 77
     6
 78
     2
 67
     7
 79
     5
170
     0
171
     0
290
     0
174
     0
 93
        1
 44
0.0
173
     0
291
     0
 45
0.0
1001
ACAD
1000
AcDbSavedByObjectVersion
1070
     0
  0
VISUALSTYLE
  5
32
102
{ACAD_REACTORS
330
2A
102
}
102
{ACAD_XDICTIONARY
360
3E4
102
}
330
2A
100
AcDbVisualStyle
  2
Basic
 70
     7
 71
     1
 72
     0
 73
     1
 90
        0
 40
-0.6
 41
-30.0
 62
     5
 63
     7
 74
     0
 91
        4
 64
     7
 65
   257
 75
     1
175
     1
 42
1.0
 92
        8
 66
     7
 43
1.0
 76
     1
 77
     6
 78
     2
 67
     7
 79
     5
170
     0
171
     0
290
     0
174
     0
 93
        1
 44
0.0
173
     0
291
     1
 45
0.0
1001
ACAD
1000
AcDbSavedByObjectVersion
1070
     0
  0
VISUALSTYLE
  5
36
102
{ACAD_REACTORS
330
2A
102
}
102
{ACAD_XDICTIONARY
360
3EC
102
}
330
2A
100
AcDbVisualStyle
  2
Brighten
 70
    12
 71
     2
 72
     2
 73
     0
 90
        0
 40
-0.6
 41
-30.0
 62
     5
 63
     7
 74
     1
 91
        4
 64
     7
 65
   257
 75
     1
175
     1
 42
1.0
 92
        8
 66
     7
 43
1.0
 76
     1
 77
     6
 78
     2
 67
     7
 79
     5
170
     0
171
     0
290
     0
174
     0
 93
        1
 44
50.0
173
     0
291
     1
 45
0.0
1001
ACAD
1000
AcDbSavedByObjectVersion
1070
     0
  0
VISUALSTYLE
  5
3A
102
{ACAD_REACTORS
330
2A
102
}
102
{ACAD_XDICTIONARY
360
3F4
102
}
330
2A
100
AcDbVisualStyle
  2
ColorChange
 70
    16
 71
     2
 72
     2
 73
     3
 90
        0
 40
-0.6
 41
-30.0
 62
     5
 63
     8
 74
     1
 91
        4
 64
     7
 65
   257
 75
     1
175
     1
 42
1.0
 92
        8
 66
     8
 43
1.0
 76
     1
 77
     6
 78
     2
 67
     7
 79
     5
170
     0
171
     0
290
     0
174
     0
 93
        1
 44
0.0
173
     0
291
     1
 45
0.0
1001
ACAD
1000
AcDbSavedByObjectVersion
1070
     0
  0
VISUALSTYLE
  5
34
102
{ACAD_REACTORS
330
2A
102
}
102
{ACAD_XDICTIONARY
360
3E8
102
}
330
2A
100
AcDbVisualStyle
  2
Conceptual
 70
     9
 71
     3
 72
     2
 73
     0
 90
        0
 40
-0.6
 41
-30.0
 62
     5
 63
     7
 74
     2
 91
        2
 64
     7
 65
   257
 75
     1
175
     1
 42
40.0
 92
        8
 66
     7
 43
1.0
 76
     1
 77
     6
 78
     2
 67
     7
 79
     3
170
     0
171
     0
290
     0
174
     0
 93
        1
 44
0.0
173
     0
291
     0
 45
0.0
1001
ACAD
1000
AcDbSavedByObjectVersion
1070
     0
  0
VISUALSTYLE
  5
35
102
{ACAD_REACTORS
330
2A
102
}
102
{ACAD_XDICTIONARY
360
3EA
102
}
330
2A
100
AcDbVisualStyle
  2
Dim
 70
    11
 71
     2
 72
     2
 73
     0
 90
        0
 40
-0.6
 41
-30.0
 62
     5
 63
     7
 74
     1
 91
        4
 64
     7
 65
   257
 75
     1
175
     1
 42
1.0
 92
        8
 66
     7
 43
1.0
 76
     1
 77
     6
 78
     2
 67
     7
 79
     5
170
     0
171
     0
290
     0
174
     0
 93
        1
 44
-50.0
173
     0
291
     1
 45
0.0
1001
ACAD
1000
AcDbSavedByObjectVersion
1070
     0
  0
VISUALSTYLE
  5
39
102
{ACAD_REACTORS
330
2A
102
}
102
{ACAD_XDICTIONARY
360
3F2
102
}
330
2A
100
AcDbVisualStyle
  2
Facepattern
 70
    15
 71
     2
 72
     2
 73
     0
 90
        0
 40
-0.6
 41
-30.0
 62
     5
 63
     7
 74
     1
 91
        4
 64
     7
 65
   257
 75
     1
175
     1
 42
1.0
 92
        8
 66
     7
 43
1.0
 76
     1
 77
     6
 78
     2
 67
     7
 79
     5
170
     0
171
     0
290
     0
174
     0
 93
        1
 44
0.0
173
     0
291
     1
 45
0.0
1001
ACAD
1000
AcDbSavedByObjectVersion
1070
     0
  0
VISUALSTYLE
  5
2B
102
{ACAD_REACTORS
330
2A
102
}
102
{ACAD_XDICTIONARY
360
3D6
102
}
330
2A
100
AcDbVisualStyle
  2
Flat
 70
     0
 71
     2
 72
     1
 73
     1
 90
        2
 40
-0.6
 41
30.0
 62
     5
 63
     7
 74
     0
 91
        4
 64
     7
 65
   257
 75
     1
175
     1
 42
1.0
 92
        8
 66
     7
 43
1.0
 76
     1
 77
     6
 78
     2
 67
     7
 79
     5
170
     0
171
     0
290
     0
174
     0
 93
       13
 44
0.0
173
     0
291
     1
 45
0.0
1001
ACAD
1000
AcDbSavedByObjectVersion
1070
     0
  0
VISUALSTYLE
  5
2C
102
{ACAD_REACTORS
330
2A
102
}
102
{ACAD_XDICTIONARY
360
3D8
102
}
330
2A
100
AcDbVisualStyle
  2
FlatWithEdges
 70
     1
 71
     2
 72
     1
 73
     1
 90
        2
 40
-0.6
 41
30.0
 62
     5
 63
     7
 74
     1
 91
        4
 64
     7
 65
   257
 75
     1
175
     1
 42
1.0
 92
        0
 66
   257
 43
1.0
 76
     1
 77
     6
 78
     2
 67
     7
 79
     5
170
     0
171
     0
290
     0
174
     0
 93
       13
 44
0.0
173
     0
291
     1
 45
0.0
1001
ACAD
1000
AcDbSavedByObjectVersion
1070
     0
  0
VISUALSTYLE
  5
2D
102
{ACAD_REACTORS
330
2A
102
}
102
{ACAD_XDICTIONARY
360
3DA
102
}
330
2A
100
AcDbVisualStyle
  2
Gouraud
 70
     2
 71
     2
 72
     2
 73
     1
 90
        2
 40
-0.6
 41
30.0
 62
     5
 63
     7
 74
     0
 91
        4
 64
     7
 65
   257
 75
     1
175
     1
 42
1.0
 92
        0
 66
     7
 43
1.0
 76
     1
 77
     6
 78
     2
 67
     7
 79
     5
170
     0
171
     0
290
     0
174
     0
 93
       13
 44
0.0
173
     0
291
     1
 45
0.0
1001
ACAD
1000
AcDbSavedByObjectVersion
1070
     0
  0
VISUALSTYLE
  5
2E
102
{ACAD_REACTORS
330
2A
102
}
102
{ACAD_XDICTIONARY
360
3DC
102
}
330
2A
100
AcDbVisualStyle
  2
GouraudWithEdges
 70
     3
 71
     2
 72
     2
 73
     1
 90
        2
 40
-0.6
 41
30.0
 62
     5
 63
     7
 74
     1
 91
        4
 64
     7
 65
   257
 75
     1
175
     1
 42
1.0
 92
        0
 66
   257
 43
1.0
 76
     1
 77
     6
 78
     2
 67
     7
 79
     5
170
     0
171
     0
290
     0
174
     0
 93
       13
 44
0.0
173
     0
291
     1
 45
0.0
1001
ACAD
1000
AcDbSavedByObjectVersion
1070
     0
  0
VISUALSTYLE
  5
38
102
{ACAD_REACTORS
330
2A
102
}
102
{ACAD_XDICTIONARY
360
3F0
102
}
330
2A
100
AcDbVisualStyle
  2
Linepattern
 70
    14
 71
     2
 72
     2
 73
     0
 90
        0
 40
-0.6
 41
-30.0
 62
     5
 63
     7
 74
     1
 91
        4
 64
     7
 65
   257
 75
     7
175
     7
 42
1.0
 92
        8
 66
     7
 43
1.0
 76
     1
 77
     6
 78
     2
 67
     7
 79
     5
170
     0
171
     0
290
     0
174
     0
 93
        1
 44
0.0
173
     0
291
     1
 45
0.0
1001
ACAD
1000
AcDbSavedByObjectVersion
1070
     0
  0
VISUALSTYLE
  5
33
102
{ACAD_REACTORS
330
2A
102
}
102
{ACAD_XDICTIONARY
360
3E6
102
}
330
2A
100
AcDbVisualStyle
  2
Realistic
 70
     8
 71
     2
 72
     2
 73
     0
 90
        0
 40
-0.6
 41
-30.0
 62
     5
 63
     7
 74
     1
 91
        0
 64
     7
 65
   257
 75
     1
175
     1
 42
1.0
 92
        8
 66
     8
 43
1.0
 76
     1
 77
     6
 78
     2
 67
     7
 79
     5
170
     0
171
     0
290
     0
174
     0
 93
       13
 44
0.0
173
     0
291
     0
 45
0.0
1001
ACAD
1000
AcDbSavedByObjectVersion
1070
     0
  0
VISUALSTYLE
  5
37
102
{ACAD_REACTORS
330
2A
102
}
102
{ACAD_XDICTIONARY
360
3EE
102
}
330
2A
100
AcDbVisualStyle
  2
Thicken
 70
    13
 71
     2
 72
     2
 73
     0
 90
        0
 40
-0.6
 41
-30.0
 62
     5
 63
     7
 74
     1
 91
        4
 64
     7
 65
   257
 75
     1
175
     1
 42
1.0
 92
       12
 66
     7
 43
1.0
 76
     1
 77
     6
 78
     2
 67
     7
 79
     5
170
     0
171
     0
290
     0
174
     0
 93
        1
 44
0.0
173
     0
291
     1
 45
0.0
1001
ACAD
1000
AcDbSavedByObjectVersion
1070
     0
  0
DICTIONARYVAR
  5
3CE
102
{ACAD_REACTORS
330
3C9
102
}
330
3C9
100
DictionaryVariables
280
     0
  1
2
  0
DICTIONARYVAR
  5
3CF
102
{ACAD_REACTORS
330
3C9
102
}
330
3C9
100
DictionaryVariables
280
     0
  1
1
  0
DICTIONARYVAR
  5
3CD
102
{ACAD_REACTORS
330
3C9
102
}
330
3C9
100
DictionaryVariables
280
     0
  1
80.000000
  0
DICTIONARYVAR
  5
3CC
102
{ACAD_REACTORS
330
3C9
102
}
330
3C9
100
DictionaryVariables
280
     0
  1
5.000000
  0
DICTIONARY
  5
3F8
330
3D
100
AcDbDictionary
280
     1
281
     1
  3
ACAD_XREC_ROUNDTRIP
360
3F9
  0
DICTIONARY
  5
3F6
330
3C
100
AcDbDictionary
280
     1
281
     1
  3
ACAD_XREC_ROUNDTRIP
360
3F7
  0
DICTIONARY
  5
3FA
330
3E
100
AcDbDictionary
280
     1
281
     1
  3
ACAD_XREC_ROUNDTRIP
360
3FB
  0
DICTIONARY
  5
3DE
330
2F
100
AcDbDictionary
280
     1
281
     1
  3
ACAD_XREC_ROUNDTRIP
360
3DF
  0
DICTIONARY
  5
3E2
330
31
100
AcDbDictionary
280
     1
281
     1
  3
ACAD_XREC_ROUNDTRIP
360
3E3
  0
DICTIONARY
  5
3E0
330
30
100
AcDbDictionary
280
     1
281
     1
  3
ACAD_XREC_ROUNDTRIP
360
3E1
  0
DICTIONARY
  5
3E4
330
32
100
AcDbDictionary
280
     1
281
     1
  3
ACAD_XREC_ROUNDTRIP
360
3E5
  0
DICTIONARY
  5
3EC
330
36
100
AcDbDictionary
280
     1
281
     1
  3
ACAD_XREC_ROUNDTRIP
360
3ED
  0
DICTIONARY
  5
3F4
330
3A
100
AcDbDictionary
280
     1
281
     1
  3
ACAD_XREC_ROUNDTRIP
360
3F5
  0
DICTIONARY
  5
3E8
330
34
100
AcDbDictionary
280
     1
281
     1
  3
ACAD_XREC_ROUNDTRIP
360
3E9
  0
DICTIONARY
  5
3EA
330
35
100
AcDbDictionary
280
     1
281
     1
  3
ACAD_XREC_ROUNDTRIP
360
3EB
  0
DICTIONARY
  5
3F2
330
39
100
AcDbDictionary
280
     1
281
     1
  3
ACAD_XREC_ROUNDTRIP
360
3F3
  0
DICTIONARY
  5
3D6
330
2B
100
AcDbDictionary
280
     1
281
     1
  3
ACAD_XREC_ROUNDTRIP
360
3D7
  0
DICTIONARY
  5
3D8
330
2C
100
AcDbDictionary
280
     1
281
     1
  3
ACAD_XREC_ROUNDTRIP
360
3D9
  0
DICTIONARY
  5
3DA
330
2D
100
AcDbDictionary
280
     1
281
     1
  3
ACAD_XREC_ROUNDTRIP
360
3DB
  0
DICTIONARY
  5
3DC
330
2E
100
AcDbDictionary
280
     1
281
     1
  3
ACAD_XREC_ROUNDTRIP
360
3DD
  0
DICTIONARY
  5
3F0
330
38
100
AcDbDictionary
280
     1
281
     1
  3
ACAD_XREC_ROUNDTRIP
360
3F1
  0
DICTIONARY
  5
3E6
330
33
100
AcDbDictionary
280
     1
281
     1
  3
ACAD_XREC_ROUNDTRIP
360
3E7
  0
DICTIONARY
  5
3EE
330
37
100
AcDbDictionary
280
     1
281
     1
  3
ACAD_XREC_ROUNDTRIP
360
3EF
  0
XRECORD
  5
3F9
102
{ACAD_REACTORS
330
3F8
102
}
330
3F8
100
AcDbXrecord
280
     1
102
MATERIAL
148
0.0
149
0.0
149
0.0
 93
        0
 94
      127
282
     0
 72
     1
 77
     1
171
     1
175
     1
179
     1
273
     0
  0
XRECORD
  5
3F7
102
{ACAD_REACTORS
330
3F6
102
}
330
3F6
100
AcDbXrecord
280
     1
102
MATERIAL
148
0.0
149
0.0
149
0.0
 93
        0
 94
      127
282
     0
 72
     1
 77
     1
171
     1
175
     1
179
     1
273
     0
  0
XRECORD
  5
3FB
102
{ACAD_REACTORS
330
3FA
102
}
330
3FA
100
AcDbXrecord
280
     1
102
MATERIAL
148
0.0
149
0.0
149
0.0
 93
        0
 94
      127
282
     0
 72
     1
 77
     1
171
     1
175
     1
179
     1
273
     0
  0
XRECORD
  5
3DF
102
{ACAD_REACTORS
330
3DE
102
}
330
3DE
100
AcDbXrecord
280
     1
102
RTVSPropertyOp0
 70
     1
102
RTVSPropertyOp1
 70
     1
102
RTVSPropertyOp2
 70
     1
102
RTVSPropertyOp3
 70
     1
102
RTVSPropertyOp4
 70
     1
102
RTVSPropertyOp5
 70
     1
102
RTVSPropertyOp6
 70
     1
102
RTVSPropertyOp7
 70
     1
102
RTVSPropertyOp8
 70
     1
102
RTVSPropertyOp9
 70
     1
102
RTVSPropertyOp10
 70
     1
102
RTVSPropertyOp11
 70
     1
102
RTVSPropertyOp12
 70
     1
102
RTVSPropertyOp13
 70
     1
102
RTVSPropertyOp14
 70
     1
102
RTVSPropertyOp15
 70
     1
102
RTVSPropertyOp16
 70
     1
102
RTVSPropertyOp17
 70
     1
102
RTVSPropertyOp18
 70
     1
102
RTVSPropertyOp19
 70
     1
102
RTVSPropertyOp20
 70
     1
102
RTVSPropertyOp21
 70
     1
102
RTVSPropertyOp22
 70
     1
102
RTVSPropertyOp23
 70
     1
102
RTVSPropertyOp24
 70
     1
102
RTVSPropertyOp25
 70
     1
102
RTVSPropertyOp26
 70
     1
102
RTVSPropertyOp27
 70
     1
102
RTVSPropertyOp28
 70
     1
102
RTVSPropertyOp29
 70
     1
102
RTVSPropertyOp30
 70
     1
102
RTVSPropertyOp31
 70
     1
102
RTVSPropertyOp32
 70
     1
  0
XRECORD
  5
3E3
102
{ACAD_REACTORS
330
3E2
102
}
330
3E2
100
AcDbXrecord
280
     1
102
RTVSPropertyOp0
 70
     1
102
RTVSPropertyOp1
 70
     1
102
RTVSPropertyOp2
 70
     1
102
RTVSPropertyOp3
 70
     1
102
RTVSPropertyOp4
 70
     1
102
RTVSPropertyOp5
 70
     1
102
RTVSPropertyOp6
 70
     1
102
RTVSPropertyOp7
 70
     1
102
RTVSPropertyOp8
 70
     1
102
RTVSPropertyOp9
 70
     1
102
RTVSPropertyOp10
 70
     1
102
RTVSPropertyOp11
 70
     1
102
RTVSPropertyOp12
 70
     1
102
RTVSPropertyOp13
 70
     1
102
RTVSPropertyOp14
 70
     1
102
RTVSPropertyOp15
 70
     1
102
RTVSPropertyOp16
 70
     1
102
RTVSPropertyOp17
 70
     1
102
RTVSPropertyOp18
 70
     1
102
RTVSPropertyOp19
 70
     1
102
RTVSPropertyOp20
 70
     1
102
RTVSPropertyOp21
 70
     1
102
RTVSPropertyOp22
 70
     1
102
RTVSPropertyOp23
 70
     1
102
RTVSPropertyOp24
 70
     1
102
RTVSPropertyOp25
 70
     1
102
RTVSPropertyOp26
 70
     1
102
RTVSPropertyOp27
 70
     1
102
RTVSPropertyOp28
 70
     1
102
RTVSPropertyOp29
 70
     1
102
RTVSPropertyOp30
 70
     1
102
RTVSPropertyOp31
 70
     1
102
RTVSPropertyOp32
 70
     1
  0
XRECORD
  5
3E1
102
{ACAD_REACTORS
330
3E0
102
}
330
3E0
100
AcDbXrecord
280
     1
102
RTVSPropertyOp0
 70
     1
102
RTVSPropertyOp1
 70
     1
102
RTVSPropertyOp2
 70
     1
102
RTVSPropertyOp3
 70
     1
102
RTVSPropertyOp4
 70
     1
102
RTVSPropertyOp5
 70
     1
102
RTVSPropertyOp6
 70
     1
102
RTVSPropertyOp7
 70
     1
102
RTVSPropertyOp8
 70
     1
102
RTVSPropertyOp9
 70
     1
102
RTVSPropertyOp10
 70
     1
102
RTVSPropertyOp11
 70
     1
102
RTVSPropertyOp12
 70
     1
102
RTVSPropertyOp13
 70
     1
102
RTVSPropertyOp14
 70
     1
102
RTVSPropertyOp15
 70
     1
102
RTVSPropertyOp16
 70
     1
102
RTVSPropertyOp17
 70
     1
102
RTVSPropertyOp18
 70
     1
102
RTVSPropertyOp19
 70
     1
102
RTVSPropertyOp20
 70
     1
102
RTVSPropertyOp21
 70
     1
102
RTVSPropertyOp22
 70
     1
102
RTVSPropertyOp23
 70
     1
102
RTVSPropertyOp24
 70
     1
102
RTVSPropertyOp25
 70
     1
102
RTVSPropertyOp26
 70
     1
102
RTVSPropertyOp27
 70
     1
102
RTVSPropertyOp28
 70
     1
102
RTVSPropertyOp29
 70
     1
102
RTVSPropertyOp30
 70
     1
102
RTVSPropertyOp31
 70
     1
102
RTVSPropertyOp32
 70
     1
  0
XRECORD
  5
3E5
102
{ACAD_REACTORS
330
3E4
102
}
330
3E4
100
AcDbXrecord
280
     1
102
RTVSPropertyOp0
 70
     1
102
RTVSPropertyOp1
 70
     1
102
RTVSPropertyOp2
 70
     1
102
RTVSPropertyOp3
 70
     1
102
RTVSPropertyOp4
 70
     1
102
RTVSPropertyOp5
 70
     1
102
RTVSPropertyOp6
 70
     1
102
RTVSPropertyOp7
 70
     1
102
RTVSPropertyOp8
 70
     1
102
RTVSPropertyOp9
 70
     1
102
RTVSPropertyOp10
 70
     1
102
RTVSPropertyOp11
 70
     1
102
RTVSPropertyOp12
 70
     1
102
RTVSPropertyOp13
 70
     1
102
RTVSPropertyOp14
 70
     1
102
RTVSPropertyOp15
 70
     1
102
RTVSPropertyOp16
 70
     1
102
RTVSPropertyOp17
 70
     1
102
RTVSPropertyOp18
 70
     1
102
RTVSPropertyOp19
 70
     1
102
RTVSPropertyOp20
 70
     1
102
RTVSPropertyOp21
 70
     1
102
RTVSPropertyOp22
 70
     1
102
RTVSPropertyOp23
 70
     1
102
RTVSPropertyOp24
 70
     1
102
RTVSPropertyOp25
 70
     1
102
RTVSPropertyOp26
 70
     1
102
RTVSPropertyOp27
 70
     1
102
RTVSPropertyOp28
 70
     1
102
RTVSPropertyOp29
 70
     1
102
RTVSPropertyOp30
 70
     1
102
RTVSPropertyOp31
 70
     1
102
RTVSPropertyOp32
 70
     1
  0
XRECORD
  5
3ED
102
{ACAD_REACTORS
330
3EC
102
}
330
3EC
100
AcDbXrecord
280
     1
102
RTVSPropertyOp0
 70
     1
102
RTVSPropertyOp1
 70
     1
102
RTVSPropertyOp2
 70
     1
102
RTVSPropertyOp3
 70
     1
102
RTVSPropertyOp4
 70
     1
102
RTVSPropertyOp5
 70
     1
102
RTVSPropertyOp6
 70
     1
102
RTVSPropertyOp7
 70
     1
102
RTVSPropertyOp8
 70
     1
102
RTVSPropertyOp9
 70
     1
102
RTVSPropertyOp10
 70
     1
102
RTVSPropertyOp11
 70
     1
102
RTVSPropertyOp12
 70
     1
102
RTVSPropertyOp13
 70
     1
102
RTVSPropertyOp14
 70
     1
102
RTVSPropertyOp15
 70
     1
102
RTVSPropertyOp16
 70
     1
102
RTVSPropertyOp17
 70
     1
102
RTVSPropertyOp18
 70
     1
102
RTVSPropertyOp19
 70
     1
102
RTVSPropertyOp20
 70
     1
102
RTVSPropertyOp21
 70
     1
102
RTVSPropertyOp22
 70
     1
102
RTVSPropertyOp23
 70
     1
102
RTVSPropertyOp24
 70
     1
102
RTVSPropertyOp25
 70
     1
102
RTVSPropertyOp26
 70
     1
102
RTVSPropertyOp27
 70
     1
102
RTVSPropertyOp28
 70
     1
102
RTVSPropertyOp29
 70
     1
102
RTVSPropertyOp30
 70
     1
102
RTVSPropertyOp31
 70
     1
102
RTVSPropertyOp32
 70
     1
  0
XRECORD
  5
3F5
102
{ACAD_REACTORS
330
3F4
102
}
330
3F4
100
AcDbXrecord
280
     1
102
RTVSPropertyOp0
 70
     1
102
RTVSPropertyOp1
 70
     1
102
RTVSPropertyOp2
 70
     1
102
RTVSPropertyOp3
 70
     1
102
RTVSPropertyOp4
 70
     1
102
RTVSPropertyOp5
 70
     1
102
RTVSPropertyOp6
 70
     1
102
RTVSPropertyOp7
 70
     1
102
RTVSPropertyOp8
 70
     1
102
RTVSPropertyOp9
 70
     1
102
RTVSPropertyOp10
 70
     1
102
RTVSPropertyOp11
 70
     1
102
RTVSPropertyOp12
 70
     1
102
RTVSPropertyOp13
 70
     1
102
RTVSPropertyOp14
 70
     1
102
RTVSPropertyOp15
 70
     1
102
RTVSPropertyOp16
 70
     1
102
RTVSPropertyOp17
 70
     1
102
RTVSPropertyOp18
 70
     1
102
RTVSPropertyOp19
 70
     1
102
RTVSPropertyOp20
 70
     1
102
RTVSPropertyOp21
 70
     1
102
RTVSPropertyOp22
 70
     1
102
RTVSPropertyOp23
 70
     1
102
RTVSPropertyOp24
 70
     1
102
RTVSPropertyOp25
 70
     1
102
RTVSPropertyOp26
 70
     1
102
RTVSPropertyOp27
 70
     1
102
RTVSPropertyOp28
 70
     1
102
RTVSPropertyOp29
 70
     1
102
RTVSPropertyOp30
 70
     1
102
RTVSPropertyOp31
 70
     1
102
RTVSPropertyOp32
 70
     1
  0
XRECORD
  5
3E9
102
{ACAD_REACTORS
330
3E8
102
}
330
3E8
100
AcDbXrecord
280
     1
102
RTVSPropertyOp0
 70
     1
102
RTVSPropertyOp1
 70
     1
102
RTVSPropertyOp2
 70
     1
102
RTVSPropertyOp3
 70
     1
102
RTVSPropertyOp4
 70
     1
102
RTVSPropertyOp5
 70
     1
102
RTVSPropertyOp6
 70
     1
102
RTVSPropertyOp7
 70
     1
102
RTVSPropertyOp8
 70
     1
102
RTVSPropertyOp9
 70
     1
102
RTVSPropertyOp10
 70
     1
102
RTVSPropertyOp11
 70
     1
102
RTVSPropertyOp12
 70
     1
102
RTVSPropertyOp13
 70
     1
102
RTVSPropertyOp14
 70
     1
102
RTVSPropertyOp15
 70
     1
102
RTVSPropertyOp16
 70
     1
102
RTVSPropertyOp17
 70
     1
102
RTVSPropertyOp18
 70
     1
102
RTVSPropertyOp19
 70
     1
102
RTVSPropertyOp20
 70
     1
102
RTVSPropertyOp21
 70
     1
102
RTVSPropertyOp22
 70
     1
102
RTVSPropertyOp23
 70
     1
102
RTVSPropertyOp24
 70
     1
102
RTVSPropertyOp25
 70
     1
102
RTVSPropertyOp26
 70
     1
102
RTVSPropertyOp27
 70
     1
102
RTVSPropertyOp28
 70
     1
102
RTVSPropertyOp29
 70
     1
102
RTVSPropertyOp30
 70
     1
102
RTVSPropertyOp31
 70
     1
102
RTVSPropertyOp32
 70
     1
  0
XRECORD
  5
3EB
102
{ACAD_REACTORS
330
3EA
102
}
330
3EA
100
AcDbXrecord
280
     1
102
RTVSPropertyOp0
 70
     1
102
RTVSPropertyOp1
 70
     1
102
RTVSPropertyOp2
 70
     1
102
RTVSPropertyOp3
 70
     1
102
RTVSPropertyOp4
 70
     1
102
RTVSPropertyOp5
 70
     1
102
RTVSPropertyOp6
 70
     1
102
RTVSPropertyOp7
 70
     1
102
RTVSPropertyOp8
 70
     1
102
RTVSPropertyOp9
 70
     1
102
RTVSPropertyOp10
 70
     1
102
RTVSPropertyOp11
 70
     1
102
RTVSPropertyOp12
 70
     1
102
RTVSPropertyOp13
 70
     1
102
RTVSPropertyOp14
 70
     1
102
RTVSPropertyOp15
 70
     1
102
RTVSPropertyOp16
 70
     1
102
RTVSPropertyOp17
 70
     1
102
RTVSPropertyOp18
 70
     1
102
RTVSPropertyOp19
 70
     1
102
RTVSPropertyOp20
 70
     1
102
RTVSPropertyOp21
 70
     1
102
RTVSPropertyOp22
 70
     1
102
RTVSPropertyOp23
 70
     1
102
RTVSPropertyOp24
 70
     1
102
RTVSPropertyOp25
 70
     1
102
RTVSPropertyOp26
 70
     1
102
RTVSPropertyOp27
 70
     1
102
RTVSPropertyOp28
 70
     1
102
RTVSPropertyOp29
 70
     1
102
RTVSPropertyOp30
 70
     1
102
RTVSPropertyOp31
 70
     1
102
RTVSPropertyOp32
 70
     1
  0
XRECORD
  5
3F3
102
{ACAD_REACTORS
330
3F2
102
}
330
3F2
100
AcDbXrecord
280
     1
102
RTVSPropertyOp0
 70
     1
102
RTVSPropertyOp1
 70
     1
102
RTVSPropertyOp2
 70
     1
102
RTVSPropertyOp3
 70
     1
102
RTVSPropertyOp4
 70
     1
102
RTVSPropertyOp5
 70
     1
102
RTVSPropertyOp6
 70
     1
102
RTVSPropertyOp7
 70
     1
102
RTVSPropertyOp8
 70
     1
102
RTVSPropertyOp9
 70
     1
102
RTVSPropertyOp10
 70
     1
102
RTVSPropertyOp11
 70
     1
102
RTVSPropertyOp12
 70
     1
102
RTVSPropertyOp13
 70
     1
102
RTVSPropertyOp14
 70
     1
102
RTVSPropertyOp15
 70
     1
102
RTVSPropertyOp16
 70
     1
102
RTVSPropertyOp17
 70
     1
102
RTVSPropertyOp18
 70
     1
102
RTVSPropertyOp19
 70
     1
102
RTVSPropertyOp20
 70
     1
102
RTVSPropertyOp21
 70
     1
102
RTVSPropertyOp22
 70
     1
102
RTVSPropertyOp23
 70
     1
102
RTVSPropertyOp24
 70
     1
102
RTVSPropertyOp25
 70
     1
102
RTVSPropertyOp26
 70
     1
102
RTVSPropertyOp27
 70
     1
102
RTVSPropertyOp28
 70
     1
102
RTVSPropertyOp29
 70
     1
102
RTVSPropertyOp30
 70
     1
102
RTVSPropertyOp31
 70
     1
102
RTVSPropertyOp32
 70
     1
  0
XRECORD
  5
3D7
102
{ACAD_REACTORS
330
3D6
102
}
330
3D6
100
AcDbXrecord
280
     1
102
RTVSPropertyOp0
 70
     1
102
RTVSPropertyOp1
 70
     1
102
RTVSPropertyOp2
 70
     1
102
RTVSPropertyOp3
 70
     1
102
RTVSPropertyOp4
 70
     1
102
RTVSPropertyOp5
 70
     1
102
RTVSPropertyOp6
 70
     1
102
RTVSPropertyOp7
 70
     1
102
RTVSPropertyOp8
 70
     1
102
RTVSPropertyOp9
 70
     1
102
RTVSPropertyOp10
 70
     1
102
RTVSPropertyOp11
 70
     1
102
RTVSPropertyOp12
 70
     1
102
RTVSPropertyOp13
 70
     1
102
RTVSPropertyOp14
 70
     1
102
RTVSPropertyOp15
 70
     1
102
RTVSPropertyOp16
 70
     1
102
RTVSPropertyOp17
 70
     1
102
RTVSPropertyOp18
 70
     1
102
RTVSPropertyOp19
 70
     1
102
RTVSPropertyOp20
 70
     1
102
RTVSPropertyOp21
 70
     1
102
RTVSPropertyOp22
 70
     1
102
RTVSPropertyOp23
 70
     1
102
RTVSPropertyOp24
 70
     1
102
RTVSPropertyOp25
 70
     1
102
RTVSPropertyOp26
 70
     1
102
RTVSPropertyOp27
 70
     1
102
RTVSPropertyOp28
 70
     1
102
RTVSPropertyOp29
 70
     1
102
RTVSPropertyOp30
 70
     1
102
RTVSPropertyOp31
 70
     1
102
RTVSPropertyOp32
 70
     1
  0
XRECORD
  5
3D9
102
{ACAD_REACTORS
330
3D8
102
}
330
3D8
100
AcDbXrecord
280
     1
102
RTVSPropertyOp0
 70
     1
102
RTVSPropertyOp1
 70
     1
102
RTVSPropertyOp2
 70
     1
102
RTVSPropertyOp3
 70
     1
102
RTVSPropertyOp4
 70
     1
102
RTVSPropertyOp5
 70
     1
102
RTVSPropertyOp6
 70
     1
102
RTVSPropertyOp7
 70
     1
102
RTVSPropertyOp8
 70
     1
102
RTVSPropertyOp9
 70
     1
102
RTVSPropertyOp10
 70
     1
102
RTVSPropertyOp11
 70
     1
102
RTVSPropertyOp12
 70
     1
102
RTVSPropertyOp13
 70
     1
102
RTVSPropertyOp14
 70
     1
102
RTVSPropertyOp15
 70
     1
102
RTVSPropertyOp16
 70
     1
102
RTVSPropertyOp17
 70
     1
102
RTVSPropertyOp18
 70
     1
102
RTVSPropertyOp19
 70
     1
102
RTVSPropertyOp20
 70
     1
102
RTVSPropertyOp21
 70
     1
102
RTVSPropertyOp22
 70
     1
102
RTVSPropertyOp23
 70
     1
102
RTVSPropertyOp24
 70
     1
102
RTVSPropertyOp25
 70
     1
102
RTVSPropertyOp26
 70
     1
102
RTVSPropertyOp27
 70
     1
102
RTVSPropertyOp28
 70
     1
102
RTVSPropertyOp29
 70
     1
102
RTVSPropertyOp30
 70
     1
102
RTVSPropertyOp31
 70
     1
102
RTVSPropertyOp32
 70
     1
  0
XRECORD
  5
3DB
102
{ACAD_REACTORS
330
3DA
102
}
330
3DA
100
AcDbXrecord
280
     1
102
RTVSPropertyOp0
 70
     1
102
RTVSPropertyOp1
 70
     1
102
RTVSPropertyOp2
 70
     1
102
RTVSPropertyOp3
 70
     1
102
RTVSPropertyOp4
 70
     1
102
RTVSPropertyOp5
 70
     1
102
RTVSPropertyOp6
 70
     1
102
RTVSPropertyOp7
 70
     1
102
RTVSPropertyOp8
 70
     1
102
RTVSPropertyOp9
 70
     1
102
RTVSPropertyOp10
 70
     1
102
RTVSPropertyOp11
 70
     1
102
RTVSPropertyOp12
 70
     1
102
RTVSPropertyOp13
 70
     1
102
RTVSPropertyOp14
 70
     1
102
RTVSPropertyOp15
 70
     1
102
RTVSPropertyOp16
 70
     1
102
RTVSPropertyOp17
 70
     1
102
RTVSPropertyOp18
 70
     1
102
RTVSPropertyOp19
 70
     1
102
RTVSPropertyOp20
 70
     1
102
RTVSPropertyOp21
 70
     1
102
RTVSPropertyOp22
 70
     1
102
RTVSPropertyOp23
 70
     1
102
RTVSPropertyOp24
 70
     1
102
RTVSPropertyOp25
 70
     1
102
RTVSPropertyOp26
 70
     1
102
RTVSPropertyOp27
 70
     1
102
RTVSPropertyOp28
 70
     1
102
RTVSPropertyOp29
 70
     1
102
RTVSPropertyOp30
 70
     1
102
RTVSPropertyOp31
 70
     1
102
RTVSPropertyOp32
 70
     1
  0
XRECORD
  5
3DD
102
{ACAD_REACTORS
330
3DC
102
}
330
3DC
100
AcDbXrecord
280
     1
102
RTVSPropertyOp0
 70
     1
102
RTVSPropertyOp1
 70
     1
102
RTVSPropertyOp2
 70
     1
102
RTVSPropertyOp3
 70
     1
102
RTVSPropertyOp4
 70
     1
102
RTVSPropertyOp5
 70
     1
102
RTVSPropertyOp6
 70
     1
102
RTVSPropertyOp7
 70
     1
102
RTVSPropertyOp8
 70
     1
102
RTVSPropertyOp9
 70
     1
102
RTVSPropertyOp10
 70
     1
102
RTVSPropertyOp11
 70
     1
102
RTVSPropertyOp12
 70
     1
102
RTVSPropertyOp13
 70
     1
102
RTVSPropertyOp14
 70
     1
102
RTVSPropertyOp15
 70
     1
102
RTVSPropertyOp16
 70
     1
102
RTVSPropertyOp17
 70
     1
102
RTVSPropertyOp18
 70
     1
102
RTVSPropertyOp19
 70
     1
102
RTVSPropertyOp20
 70
     1
102
RTVSPropertyOp21
 70
     1
102
RTVSPropertyOp22
 70
     1
102
RTVSPropertyOp23
 70
     1
102
RTVSPropertyOp24
 70
     1
102
RTVSPropertyOp25
 70
     1
102
RTVSPropertyOp26
 70
     1
102
RTVSPropertyOp27
 70
     1
102
RTVSPropertyOp28
 70
     1
102
RTVSPropertyOp29
 70
     1
102
RTVSPropertyOp30
 70
     1
102
RTVSPropertyOp31
 70
     1
102
RTVSPropertyOp32
 70
     1
  0
XRECORD
  5
3F1
102
{ACAD_REACTORS
330
3F0
102
}
330
3F0
100
AcDbXrecord
280
     1
102
RTVSPropertyOp0
 70
     1
102
RTVSPropertyOp1
 70
     1
102
RTVSPropertyOp2
 70
     1
102
RTVSPropertyOp3
 70
     1
102
RTVSPropertyOp4
 70
     1
102
RTVSPropertyOp5
 70
     1
102
RTVSPropertyOp6
 70
     1
102
RTVSPropertyOp7
 70
     1
102
RTVSPropertyOp8
 70
     1
102
RTVSPropertyOp9
 70
     1
102
RTVSPropertyOp10
 70
     1
102
RTVSPropertyOp11
 70
     1
102
RTVSPropertyOp12
 70
     1
102
RTVSPropertyOp13
 70
     1
102
RTVSPropertyOp14
 70
     1
102
RTVSPropertyOp15
 70
     1
102
RTVSPropertyOp16
 70
     1
102
RTVSPropertyOp17
 70
     1
102
RTVSPropertyOp18
 70
     1
102
RTVSPropertyOp19
 70
     1
102
RTVSPropertyOp20
 70
     1
102
RTVSPropertyOp21
 70
     1
102
RTVSPropertyOp22
 70
     1
102
RTVSPropertyOp23
 70
     1
102
RTVSPropertyOp24
 70
     1
102
RTVSPropertyOp25
 70
     1
102
RTVSPropertyOp26
 70
     1
102
RTVSPropertyOp27
 70
     1
102
RTVSPropertyOp28
 70
     1
102
RTVSPropertyOp29
 70
     1
102
RTVSPropertyOp30
 70
     1
102
RTVSPropertyOp31
 70
     1
102
RTVSPropertyOp32
 70
     1
  0
XRECORD
  5
3E7
102
{ACAD_REACTORS
330
3E6
102
}
330
3E6
100
AcDbXrecord
280
     1
102
RTVSPropertyOp0
 70
     1
102
RTVSPropertyOp1
 70
     1
102
RTVSPropertyOp2
 70
     1
102
RTVSPropertyOp3
 70
     1
102
RTVSPropertyOp4
 70
     1
102
RTVSPropertyOp5
 70
     1
102
RTVSPropertyOp6
 70
     1
102
RTVSPropertyOp7
 70
     1
102
RTVSPropertyOp8
 70
     1
102
RTVSPropertyOp9
 70
     1
102
RTVSPropertyOp10
 70
     1
102
RTVSPropertyOp11
 70
     1
102
RTVSPropertyOp12
 70
     1
102
RTVSPropertyOp13
 70
     1
102
RTVSPropertyOp14
 70
     1
102
RTVSPropertyOp15
 70
     1
102
RTVSPropertyOp16
 70
     1
102
RTVSPropertyOp17
 70
     1
102
RTVSPropertyOp18
 70
     1
102
RTVSPropertyOp19
 70
     1
102
RTVSPropertyOp20
 70
     1
102
RTVSPropertyOp21
 70
     1
102
RTVSPropertyOp22
 70
     1
102
RTVSPropertyOp23
 70
     1
102
RTVSPropertyOp24
 70
     1
102
RTVSPropertyOp25
 70
     1
102
RTVSPropertyOp26
 70
     1
102
RTVSPropertyOp27
 70
     1
102
RTVSPropertyOp28
 70
     1
102
RTVSPropertyOp29
 70
     1
102
RTVSPropertyOp30
 70
     1
102
RTVSPropertyOp31
 70
     1
102
RTVSPropertyOp32
 70
     1
  0
XRECORD
  5
3EF
102
{ACAD_REACTORS
330
3EE
102
}
330
3EE
100
AcDbXrecord
280
     1
102
RTVSPropertyOp0
 70
     1
102
RTVSPropertyOp1
 70
     1
102
RTVSPropertyOp2
 70
     1
102
RTVSPropertyOp3
 70
     1
102
RTVSPropertyOp4
 70
     1
102
RTVSPropertyOp5
 70
     1
102
RTVSPropertyOp6
 70
     1
102
RTVSPropertyOp7
 70
     1
102
RTVSPropertyOp8
 70
     1
102
RTVSPropertyOp9
 70
     1
102
RTVSPropertyOp10
 70
     1
102
RTVSPropertyOp11
 70
     1
102
RTVSPropertyOp12
 70
     1
102
RTVSPropertyOp13
 70
     1
102
RTVSPropertyOp14
 70
     1
102
RTVSPropertyOp15
 70
     1
102
RTVSPropertyOp16
 70
     1
102
RTVSPropertyOp17
 70
     1
102
RTVSPropertyOp18
 70
     1
102
RTVSPropertyOp19
 70
     1
102
RTVSPropertyOp20
 70
     1
102
RTVSPropertyOp21
 70
     1
102
RTVSPropertyOp22
 70
     1
102
RTVSPropertyOp23
 70
     1
102
RTVSPropertyOp24
 70
     1
102
RTVSPropertyOp25
 70
     1
102
RTVSPropertyOp26
 70
     1
102
RTVSPropertyOp27
 70
     1
102
RTVSPropertyOp28
 70
     1
102
RTVSPropertyOp29
 70
     1
102
RTVSPropertyOp30
 70
     1
102
RTVSPropertyOp31
 70
     1
102
RTVSPropertyOp32
 70
     1
  0
ENDSEC
  0
EOF
